<?xml version="1.0" standalone="no"?>
<!DOCTYPE svg PUBLIC "-//W3C//DTD SVG 1.1//EN" "http://www.w3.org/Graphics/SVG/1.1/DTD/svg11.dtd" >
<svg xmlns="http://www.w3.org/2000/svg" xmlns:xlink="http://www.w3.org/1999/xlink" version="1.1">
<metadata>
Created by FontForge 20170731 at Thu Aug 17 12:58:23 2017
 By Aleksey,,,
Copyright 2014-2017 Indian Type Foundry (info@indiantypefoundry.com)
</metadata>
<defs>
<font id="Poppins-ExtraLight" horiz-adv-x="279" >
  <font-face 
    font-family="Poppins ExtraLight"
    font-weight="275"
    font-stretch="normal"
    units-per-em="1000"
    panose-1="0 0 3 0 0 0 0 0 0 0"
    ascent="800"
    descent="-200"
    x-height="543"
    cap-height="705"
    bbox="-520 -554 2620 1040"
    underline-thickness="50"
    underline-position="-150"
    unicode-range="U+000D-FB02"
  />
<missing-glyph horiz-adv-x="500" 
d="M500 700v-700h-500v700h500zM80 650l170 -255l170 255h-340zM220 350l-170 255v-510zM450 605l-170 -255l170 -255v510zM250 305l-170 -255h340z" />
    <glyph glyph-name=".notdef" horiz-adv-x="500" 
d="M500 700v-700h-500v700h500zM80 650l170 -255l170 255h-340zM220 350l-170 255v-510zM450 605l-170 -255l170 -255v510zM250 305l-170 -255h340z" />
    <glyph glyph-name=".null" horiz-adv-x="0" 
 />
    <glyph glyph-name="nonmarkingreturn" horiz-adv-x="333" 
 />
    <glyph glyph-name="NULL" horiz-adv-x="0" 
 />
    <glyph glyph-name="NULL" horiz-adv-x="0" 
 />
    <glyph glyph-name="CR" unicode="&#xd;" horiz-adv-x="275" 
 />
    <glyph glyph-name="space" unicode=" " horiz-adv-x="275" 
 />
    <glyph glyph-name="exclam" unicode="!" horiz-adv-x="250" 
d="M151 710l-9 -529h-34l-9 529h52zM162 69v-69h-71v69h71z" />
    <glyph glyph-name="quotedbl" unicode="&#x22;" horiz-adv-x="233" 
d="M90 794l-8 -186h-33l-8 186h49zM192 794l-8 -186h-32l-9 186h49z" />
    <glyph glyph-name="numbersign" unicode="#" horiz-adv-x="767" 
d="M568 460l-39 -186h149v-41h-158l-50 -233h-43l50 233h-237l-50 -233h-43l50 233h-161v41h170l39 186h-156v41h165l51 239h43l-51 -239h237l51 239h43l-51 -239h154v-41h-163zM525 460h-237l-39 -186h237z" />
    <glyph glyph-name="dollar" unicode="$" horiz-adv-x="552" 
d="M398 336.5q41 -19.5 69.5 -58.5t28.5 -104q0 -46 -21.5 -87.5t-67 -67.5t-114.5 -26h-5v-80h-24v81q-58 6 -103 32t-71 65.5t-31 84.5h47q4 -29 22 -60t52.5 -54.5t83.5 -29.5v310q-69 20 -110 38.5t-69.5 56.5t-28.5 101q0 50 24 89.5t69.5 62t109.5 22.5h5v88h24v-89
q83 -8 131.5 -53.5t60.5 -106.5h-48q-9 42 -45 78.5t-99 43.5v-296q69 -21 110 -40.5zM125 462.5q21 -29.5 54 -46t85 -32.5v291h-5q-71 0 -113 -35.5t-42 -100.5q0 -47 21 -76.5zM408.5 70.5q40.5 40.5 40.5 102.5q0 48 -21.5 79t-55 48.5t-84.5 33.5v-304h5
q75 0 115.5 40.5z" />
    <glyph glyph-name="percent" unicode="%" horiz-adv-x="575" 
d="M267 674.5q38 -37.5 38 -97.5t-38 -98t-96 -38q-57 0 -95 38t-38 98t38 97.5t95 37.5q58 0 96 -37.5zM519 705l-417 -705h-47l417 705h47zM100.5 502.5q27.5 -29.5 70.5 -29.5t70.5 29.5t27.5 74.5t-27.5 74t-70.5 29t-70.5 -29t-27.5 -74t27.5 -74.5zM499.5 225
q37.5 -38 37.5 -98t-37.5 -97.5t-95.5 -37.5t-96 37.5t-38 97.5t38 98t96 38t95.5 -38zM333.5 53q27.5 -29 70.5 -29t70.5 29t27.5 74q0 46 -27.5 75t-70.5 29t-70.5 -29t-27.5 -75q0 -45 27.5 -74z" />
    <glyph glyph-name="ampersand" unicode="&#x26;" horiz-adv-x="676" 
d="M618 0l-202 218q8 -19 8 -40q0 -52 -23.5 -94.5t-65.5 -66.5t-95 -24q-56 0 -102 24.5t-73 71t-27 108.5t24 106t63.5 66.5t87.5 22.5q36 0 62 -12l-27 30q-36 38 -54 71.5t-18 80.5q0 39 18.5 73.5t55.5 55.5t90 21q84 0 126.5 -46t45.5 -113q2 -16 2 -24q0 -10 -1 -15
h-43q1 10 1 27q-1 62 -35.5 97t-94.5 35q-58 0 -90 -33t-32 -81q0 -39 14.5 -66.5t44.5 -59.5l389 -433h-49zM349.5 76q42.5 43 42.5 110q0 47 -24.5 85.5t-64 60.5t-80.5 22q-63 0 -103.5 -40t-40.5 -116q0 -51 22 -88.5t59 -57t81 -19.5q66 0 108.5 43z" />
    <glyph glyph-name="quotesingle" unicode="'" horiz-adv-x="137" 
d="M97 794l-12 -186h-32l-12 186h56z" />
    <glyph glyph-name="parenleft" unicode="(" horiz-adv-x="366" 
d="M125 747q71 150 189 241h44v-5q-131 -105 -195.5 -252.5t-64.5 -327.5t64.5 -327.5t195.5 -252.5v-5h-44q-118 91 -189 241t-71 344t71 344z" />
    <glyph glyph-name="parenright" unicode=")" horiz-adv-x="366" 
d="M241 59q-71 -150 -188 -241h-45v5q132 105 196 252.5t64 327.5t-64 327.5t-196 252.5v5h45q117 -91 188 -241t71 -344t-71 -344z" />
    <glyph glyph-name="asterisk" unicode="*" horiz-adv-x="446" 
d="M371 660l30 -54l-154 -61l154 -60l-29 -54l-131 93l18 -164h-62l14 164l-134 -95l-31 55l153 61l-153 61l32 57l132 -96l-13 163h61l-17 -163z" />
    <glyph glyph-name="plus" unicode="+" horiz-adv-x="584" 
d="M547 354h-233v-234h-44v234h-232v42h232v234h44v-234h233v-42z" />
    <glyph glyph-name="comma" unicode="," horiz-adv-x="140" 
d="M107 -7q0 -46 -20 -70.5t-58 -24.5v26q24 0 34.5 13.5t10.5 41.5v7h-38v58h66q5 -24 5 -51z" />
    <glyph glyph-name="hyphen" unicode="-" horiz-adv-x="461" 
d="M348 395v-39h-376v39h376z" />
    <glyph glyph-name="period" unicode="." horiz-adv-x="134" 
d="M102 69v-69h-71v69h71z" />
    <glyph glyph-name="slash" unicode="/" horiz-adv-x="364" 
d="M343 938l-277 -1099h-44l275 1099h46z" />
    <glyph glyph-name="zero" unicode="0" horiz-adv-x="597" 
d="M115.5 88q50.5 -94 183.5 -94q132 0 182.5 94t50.5 267q0 171 -50 264t-183 93t-183.5 -93t-50.5 -264q0 -173 50.5 -267zM472.5 185.5q-14.5 -68.5 -56 -109t-117.5 -40.5q-77 0 -118.5 40.5t-56 109t-14.5 169.5q0 100 14.5 168t56 107.5t118.5 39.5q76 0 117.5 -39.5
t56 -107.5t14.5 -168q0 -101 -14.5 -169.5z" />
    <glyph glyph-name="one" unicode="1" horiz-adv-x="248" 
d="M14 663v42h153v-705h-47v663h-106z" />
    <glyph glyph-name="two" unicode="2" horiz-adv-x="567" 
d="M343 277.5q110 123.5 110 234.5q0 72 -38 117t-124 45q-87 0 -133.5 -53.5t-52.5 -143.5h-44q7 112 69 174t163 62q90 0 148 -49t58 -149q0 -86 -59 -176.5t-146.5 -168.5t-176.5 -131h404v-38h-474v31q186 122 296 245.5z" />
    <glyph glyph-name="three" unicode="3" horiz-adv-x="580" 
d="M448.5 666q53.5 -50 53.5 -128q0 -65 -40 -112t-126 -55v-5q84 -21 131.5 -64t47.5 -119q0 -84 -54.5 -137t-161.5 -53q-103 0 -168 55t-80 156h45q13 -77 64.5 -124t136.5 -47t129.5 42.5t44.5 109.5q0 80 -63 121.5t-177 41.5h-19v39h20q115 0 170.5 38t55.5 109
q0 64 -42.5 103.5t-118.5 39.5q-74 0 -126.5 -40t-62.5 -123h-45q9 94 70 148t165 54q97 0 150.5 -50z" />
    <glyph glyph-name="four" unicode="4" horiz-adv-x="590" 
d="M24 180v37l385 489h47v-486h116v-40h-116v-180h-45v180h-387zM413 646l-339 -426h339v426z" />
    <glyph glyph-name="five" unicode="5" horiz-adv-x="601" 
d="M513 667h-388v-290q28 40 81 64t115 24q114 0 170 -65t56 -162q0 -67 -25 -122.5t-77.5 -88.5t-132.5 -33q-98 0 -162.5 54.5t-76.5 148.5h44q16 -78 67 -120t126 -42q96 0 144.5 56t48.5 148q0 88 -49 138t-140 50q-63 0 -112.5 -27t-76.5 -73h-42v380h430v-40z" />
    <glyph glyph-name="six" unicode="6" horiz-adv-x="616" 
d="M434.5 636.5q-42.5 41.5 -115.5 41.5q-102 0 -156 -76t-54 -244q0 -31 1 -47q13 72 74 114.5t145 42.5q109 0 169 -64.5t60 -177.5q0 -64 -24 -116.5t-75.5 -84.5t-130.5 -32q-150 0 -205 94t-55 255q0 182 59 278t194 96q94 0 147 -53t63 -143h-43q-11 75 -53.5 116.5z
M139 141.5q22 -48.5 69 -78.5t119 -30q85 0 136.5 51.5t51.5 141.5q0 99 -51.5 152t-141.5 53q-51 0 -98 -20.5t-77 -62.5t-30 -103q0 -55 22 -103.5z" />
    <glyph glyph-name="seven" unicode="7" horiz-adv-x="503" 
d="M467 670l-275 -670h-49l279 666h-411v40h456v-36z" />
    <glyph glyph-name="eight" unicode="8" horiz-adv-x="614" 
d="M101.5 629q27.5 41 80 64.5t125.5 23.5t125.5 -23.5t80 -64.5t27.5 -94q0 -63 -35 -107t-109 -61q77 -16 120.5 -63.5t43.5 -120.5q0 -96 -67.5 -151t-185.5 -55t-185.5 55t-67.5 151q0 73 43.5 120.5t120.5 63.5q-73 17 -108.5 61.5t-35.5 106.5q0 53 27.5 94zM169 421
q51 -39 138 -39t138 39t51 109q0 71 -51.5 109.5t-137.5 38.5t-137.5 -38.5t-51.5 -109.5q0 -70 51 -109zM155 59.5q56 -44.5 152 -44.5t152.5 44.5t56.5 125.5q0 83 -58.5 122.5t-150.5 39.5q-91 0 -149.5 -39.5t-58.5 -122.5q0 -81 56 -125.5z" />
    <glyph glyph-name="nine" unicode="9" horiz-adv-x="612" 
d="M179.5 71.5q42.5 -41.5 116.5 -41.5q102 0 156 76t54 244q0 31 -1 47q-13 -72 -74.5 -114.5t-144.5 -42.5q-109 0 -169.5 64.5t-60.5 177.5q0 63 24 116t76 85t131 32q150 0 205 -93.5t55 -253.5q0 -181 -58.5 -278.5t-192.5 -97.5q-94 0 -148 53.5t-64 142.5h43
q10 -75 52.5 -116.5zM476 567.5q-22 48.5 -69 78.5t-119 30q-85 0 -136.5 -52t-51.5 -142q0 -100 51.5 -152.5t141.5 -52.5q51 0 98 21t77 63t30 103q0 55 -22 103.5z" />
    <glyph glyph-name="colon" unicode=":" horiz-adv-x="140" 
d="M106 516v-70h-71v70h71zM106 69v-69h-71v69h71z" />
    <glyph glyph-name="semicolon" unicode=";" horiz-adv-x="177" 
d="M138 515v-69h-71v69h71zM137 -7q0 -46 -20 -70.5t-58 -24.5v26q24 0 34.5 13.5t10.5 41.5v7h-38v58h66q5 -24 5 -51z" />
    <glyph glyph-name="less" unicode="&#x3c;" horiz-adv-x="396" 
d="M302 141l-264 234l264 235h56l-264 -235l264 -234h-56z" />
    <glyph glyph-name="equal" unicode="=" horiz-adv-x="572" 
d="M534 491v-41h-496v41h496zM534 301v-41h-496v41h496z" />
    <glyph glyph-name="greater" unicode="&#x3e;" horiz-adv-x="396" 
d="M38 610h56l264 -235l-264 -234h-56l264 234z" />
    <glyph glyph-name="question" unicode="?" horiz-adv-x="489" 
d="M395.5 665.5q56.5 -53.5 56.5 -143.5q0 -113 -67.5 -164.5t-188.5 -52.5v-136h-43v169h24q103 0 166.5 38.5t63.5 145.5q0 74 -43.5 116.5t-118.5 42.5q-77 0 -125 -43t-48 -113h-43q0 59 28 103t77.5 67.5t111.5 23.5q93 0 149.5 -53.5zM211 69v-69h-71v69h71z" />
    <glyph glyph-name="at" unicode="@" horiz-adv-x="1065" 
d="M817 713.5q101 -56.5 151.5 -156t50.5 -230.5q0 -96 -28.5 -173t-77 -121t-105.5 -44q-99 0 -99 94q0 23 6 51q-37 -69 -94 -107t-134 -38q-63 0 -112 30.5t-76.5 86t-27.5 127.5q0 92 37 165.5t101 115t141 41.5q74 0 125.5 -30.5t77.5 -83t26 -116.5q0 -23 -5 -55
l-26 -156q-2 -10 -2 -26q0 -33 16.5 -46t47.5 -13q44 0 81.5 36t59.5 103.5t22 157.5q0 121 -46.5 212t-138 141.5t-221.5 50.5q-146 0 -253 -65.5t-163 -178.5t-56 -254q0 -217 118 -325.5t325 -112.5l-8 -39q-225 4 -353 124.5t-128 352.5q0 146 62 269t180.5 196
t279.5 73q145 0 246 -56.5zM687 458q-47 55 -142 55q-67 0 -119.5 -35.5t-81.5 -98.5t-29 -141q0 -59 21.5 -106.5t63 -75t97.5 -27.5q65 0 119.5 36t86 101t31.5 148q0 89 -47 144z" />
    <glyph glyph-name="A" unicode="A" horiz-adv-x="623" 
d="M479 183h-334l-69 -183h-50l261 686h50l259 -686h-49zM465 220l-153 411l-154 -411h307z" />
    <glyph glyph-name="B" unicode="B" horiz-adv-x="576" 
d="M486.5 305q42.5 -49 42.5 -116q0 -84 -57.5 -136.5t-167.5 -52.5h-223v705h222q105 0 157.5 -48t52.5 -126q0 -70 -38.5 -112t-97.5 -53q67 -12 109.5 -61zM126 383h175q81 0 123.5 38t42.5 105q0 64 -42.5 101.5t-128.5 37.5h-170v-282zM434 80.5q49 40.5 49 112.5
q0 70 -50 111.5t-137 41.5h-170v-306h172q87 0 136 40.5z" />
    <glyph glyph-name="C" unicode="C" horiz-adv-x="767" 
d="M593 652.5q82 -59.5 118 -163.5h-47q-30 82 -101 131.5t-176 49.5q-80 0 -144.5 -38.5t-102 -110.5t-37.5 -169q0 -96 37.5 -168t102 -110.5t144.5 -38.5q105 0 176 49.5t101 130.5h47q-36 -104 -118 -163t-206 -59q-96 0 -171.5 45.5t-117.5 127.5t-42 186t42 186
t117.5 128t171.5 46q124 0 206 -59.5z" />
    <glyph glyph-name="D" unicode="D" horiz-adv-x="707" 
d="M555 93q-96 -93 -276 -93h-198v705h198q180 0 276 -93t96 -259q0 -167 -96 -260zM522 123q83 82 83 230t-83.5 230t-244.5 82h-151v-624h151q162 0 245 82z" />
    <glyph glyph-name="E" unicode="E" horiz-adv-x="489" 
d="M126 667v-296h285v-36h-285v-297h315v-38h-360v705h360v-38h-315z" />
    <glyph glyph-name="F" unicode="F" horiz-adv-x="482" 
d="M444 705v-38h-318v-297h282v-36h-282v-334h-45v705h363z" />
    <glyph glyph-name="G" unicode="G" horiz-adv-x="787" 
d="M594 651.5q82 -59.5 116 -160.5h-47q-30 80 -100 129t-168 49q-82 0 -148.5 -38.5t-105 -110.5t-38.5 -168q0 -98 38.5 -170t106 -110.5t150.5 -38.5q79 0 144.5 36t105 103t43.5 158h-312v35h352v-34q-3 -97 -46 -174.5t-118.5 -121t-171.5 -43.5q-98 0 -175.5 46
t-120.5 128t-43 186t43 186t120.5 127.5t175.5 45.5q117 0 199 -59.5z" />
    <glyph glyph-name="H" unicode="H" horiz-adv-x="662" 
d="M582 705v-705h-46v343h-410v-343h-45v705h45v-324h410v324h46z" />
    <glyph glyph-name="I" unicode="I" horiz-adv-x="207" 
d="M126 705v-705h-45v705h45z" />
    <glyph glyph-name="J" unicode="J" horiz-adv-x="447" 
d="M371 705v-548q0 -73 -44 -118.5t-122 -45.5q-84 0 -130.5 51t-46.5 141h44q0 -67 32 -109t100 -42q65 0 93.5 36t28.5 87v548h45z" />
    <glyph glyph-name="K" unicode="K" horiz-adv-x="527" 
d="M163 353l345 -353h-57l-325 334v-334h-45v705h45v-334l325 334h57z" />
    <glyph glyph-name="L" unicode="L" horiz-adv-x="409" 
d="M126 37h263v-37h-308v705h45v-668z" />
    <glyph glyph-name="M" unicode="M" horiz-adv-x="816" 
d="M736 687v-687h-45v608l-262 -608h-41l-262 604v-604h-45v687h51l277 -630l275 630h52z" />
    <glyph glyph-name="N" unicode="N" horiz-adv-x="664" 
d="M583 0h-45l-412 628v-628h-45v704h45l412 -628v628h45v-704z" />
    <glyph glyph-name="O" unicode="O" horiz-adv-x="792" 
d="M570.5 665.5q77.5 -45.5 121 -127.5t43.5 -186t-43.5 -186t-121 -128t-174.5 -46t-174.5 46t-121.5 128t-44 186t44 186t121.5 127.5t174.5 45.5t174.5 -45.5zM246.5 631q-66.5 -39 -105 -111t-38.5 -168t38.5 -168t105 -111t149.5 -39q82 0 149 39t105.5 111t38.5 168
t-38.5 168t-105.5 111t-149 39q-83 0 -149.5 -39z" />
    <glyph glyph-name="P" unicode="P" horiz-adv-x="543" 
d="M126 306v-306h-45v705h194q117 0 174 -53t57 -148q0 -97 -59 -147.5t-172 -50.5h-149zM460 504q0 79 -44 120t-144 41h-146v-319h146q188 0 188 158z" />
    <glyph glyph-name="Q" unicode="Q" horiz-adv-x="792" 
d="M684 -145l-179 154q-53 -17 -109 -17q-97 0 -174.5 46t-121.5 128t-44 186t44 186t121.5 127.5t174.5 45.5t174.5 -45.5t121 -127.5t43.5 -186q0 -113 -51 -199t-139 -128l202 -170h-63zM141.5 184q38.5 -72 105 -111t149.5 -39q82 0 149 39t105.5 111t38.5 168
t-38.5 168t-105.5 111t-149 39q-83 0 -149.5 -39t-105 -111t-38.5 -168t38.5 -168z" />
    <glyph glyph-name="R" unicode="R" horiz-adv-x="552" 
d="M462 0l-204 300h-132v-300h-45v705h197q117 0 173.5 -55t56.5 -149q0 -90 -51.5 -141.5t-149.5 -58.5l207 -301h-52zM126 337h149q188 0 188 163q0 79 -44.5 121.5t-143.5 42.5h-149v-327z" />
    <glyph glyph-name="S" unicode="S" horiz-adv-x="547" 
d="M470 86.5q-21 -41.5 -66 -67.5t-113 -26q-65 0 -116 25t-81 67t-35 91h47q5 -32 25.5 -66t60.5 -57t98 -23q74 0 114 41t40 102q0 53 -25 85t-61.5 49t-99.5 36q-67 20 -107 38.5t-67.5 56.5t-27.5 100q0 76 53 125t147 49q95 0 150.5 -47.5t68.5 -113.5h-48
q-10 47 -53 85.5t-118 38.5q-69 0 -110.5 -35.5t-41.5 -100.5q0 -50 24 -80.5t59.5 -47t96.5 -34.5q68 -20 109 -39.5t69.5 -58.5t28.5 -105q0 -46 -21 -87.5z" />
    <glyph glyph-name="T" unicode="T" horiz-adv-x="488" 
d="M470 705v-38h-203v-667h-46v667h-202v38h451z" />
    <glyph glyph-name="U" unicode="U" horiz-adv-x="640" 
d="M121 705v-433q0 -123 54 -180t147 -57q92 0 144.5 57t52.5 180v433h46v-433q0 -141 -65.5 -210t-177.5 -69q-113 0 -179.5 69t-66.5 210v433h45z" />
    <glyph glyph-name="V" unicode="V" horiz-adv-x="637" 
d="M77 705l240 -647l243 647h51l-266 -705h-54l-265 705h51z" />
    <glyph glyph-name="W" unicode="W" horiz-adv-x="929" 
d="M894 705l-185 -705h-52l-193 636l-192 -636h-52l-186 705h51l161 -640l193 640h51l192 -640l161 640h51z" />
    <glyph glyph-name="X" unicode="X" horiz-adv-x="533" 
d="M454 0l-193 317l-182 -317h-51l209 358l-211 347h53l190 -312l184 312h51l-211 -353l214 -352h-53z" />
    <glyph glyph-name="Y" unicode="Y" horiz-adv-x="545" 
d="M518 705l-222 -420v-285h-45v285l-225 420h53l194 -372l193 372h52z" />
    <glyph glyph-name="Z" unicode="Z" horiz-adv-x="505" 
d="M87 39h381v-39h-431v38l373 627h-362v40h411v-39z" />
    <glyph glyph-name="bracketleft" unicode="[" horiz-adv-x="258" 
d="M216 938v-38h-86v-1023h86v-38h-130v1099h130z" />
    <glyph glyph-name="backslash" unicode="\" horiz-adv-x="525" 
d="M391 -161l-340 1099h47l338 -1099h-45z" />
    <glyph glyph-name="bracketright" unicode="]" horiz-adv-x="258" 
d="M42 -161v38h86v1023h-86v38h130v-1099h-130z" />
    <glyph glyph-name="asciicircum" unicode="^" horiz-adv-x="578" 
d="M83 173h-45l232 514h38l232 -514h-45l-205 456z" />
    <glyph glyph-name="underscore" unicode="_" horiz-adv-x="562" 
d="M522 -32v-42h-481v42h481z" />
    <glyph glyph-name="grave" unicode="`" horiz-adv-x="274" 
d="M232 624v-36l-196 126v41z" />
    <glyph glyph-name="a" unicode="a" horiz-adv-x="672" 
d="M464 503.5q61 -46.5 83 -122.5v162h45v-543h-45v162q-22 -76 -83 -122.5t-150 -46.5q-76 0 -134.5 33.5t-91.5 97t-33 148.5t33 148t91.5 96.5t134.5 33.5q89 0 150 -46.5zM161.5 446q-60.5 -64 -60.5 -174q0 -111 60 -175t163 -64q64 0 115 29.5t79.5 84t28.5 125.5
t-28.5 125t-79.5 83.5t-115 29.5q-102 0 -162.5 -64z" />
    <glyph glyph-name="b" unicode="b" horiz-adv-x="672" 
d="M492.5 516.5q58.5 -33.5 91.5 -96.5t33 -148t-33 -148.5t-91.5 -97t-134.5 -33.5q-88 0 -149.5 46.5t-83.5 122.5v-162h-44v740h44v-359q22 76 83.5 122.5t149.5 46.5q76 0 134.5 -33.5zM234 480.5q-51 -29.5 -80 -83.5t-29 -125t29 -125.5t80 -84t115 -29.5
q102 0 162.5 64t60.5 175q0 110 -60.5 174t-162.5 64q-64 0 -115 -29.5z" />
    <glyph glyph-name="c" unicode="c" horiz-adv-x="626" 
d="M489 496.5q67 -53.5 82 -141.5h-47q-12 72 -68 114t-138 42q-59 0 -108 -26t-79 -80t-30 -133t30 -133t79 -80t108 -26q82 0 138 42t68 114h47q-15 -89 -82 -142.5t-170 -53.5q-77 0 -136.5 33.5t-93.5 96.5t-34 149q0 85 34 148t93.5 96.5t136.5 33.5q103 0 170 -53.5z
" />
    <glyph glyph-name="d" unicode="d" horiz-adv-x="672" 
d="M464 503.5q61 -46.5 83 -122.5v359h45v-740h-45v162q-22 -76 -83 -122.5t-150 -46.5q-76 0 -134.5 33.5t-91.5 97t-33 148.5t33 148t91.5 96.5t134.5 33.5q89 0 150 -46.5zM161.5 446q-60.5 -64 -60.5 -174q0 -111 60 -175t163 -64q64 0 115 29.5t79.5 84t28.5 125.5
t-28.5 125t-79.5 83.5t-115 29.5q-102 0 -162.5 -64z" />
    <glyph glyph-name="e" unicode="e" horiz-adv-x="627" 
d="M455 72.5q56 41.5 68 113.5h47q-15 -87 -81.5 -140t-169.5 -53q-77 0 -136.5 33.5t-93.5 96.5t-34 149q0 85 34 148t93.5 96.5t136.5 33.5q79 0 136.5 -33.5t87 -88t29.5 -116.5q0 -25 -5 -53h-467q1 -76 31.5 -127.5t79 -76t106.5 -24.5q82 0 138 41.5zM211 488
q-49 -25 -79.5 -76t-31.5 -126h428q4 75 -25 126.5t-78 76t-106 24.5q-59 0 -108 -25z" />
    <glyph glyph-name="f" unicode="f" horiz-adv-x="326" 
d="M181 675q-32 -31 -32 -102v-30h146v-41h-146v-502h-46v502h-84v41h84v33q0 87 45.5 129.5t146.5 41.5v-41q-82 0 -114 -31z" />
    <glyph glyph-name="g" unicode="g" horiz-adv-x="672" 
d="M464 503.5q61 -46.5 83 -122.5v162h45v-559q0 -75 -32.5 -132t-89 -87.5t-124.5 -30.5q-102 0 -168.5 49.5t-88.5 134.5h44q20 -66 74 -105t137 -39q57 0 103.5 25.5t73 73t26.5 111.5v178q-22 -76 -83 -122.5t-150 -46.5q-76 0 -134.5 33.5t-91.5 97t-33 148.5t33 148
t91.5 96.5t134.5 33.5q89 0 150 -46.5zM161.5 446q-60.5 -64 -60.5 -174q0 -111 60 -175t163 -64q64 0 115 29.5t79.5 84t28.5 125.5t-28.5 125t-79.5 83.5t-115 29.5q-102 0 -162.5 -64z" />
    <glyph glyph-name="h" unicode="h" horiz-adv-x="624" 
d="M489 494q60 -60 60 -177v-317h-45v315q0 98 -49 149.5t-134 51.5q-88 0 -141.5 -57.5t-53.5 -169.5v-289h-45v740h45v-340q20 76 76.5 115t130.5 39q96 0 156 -60z" />
    <glyph glyph-name="i" unicode="i" horiz-adv-x="207" 
d="M75.5 733.5q10.5 10.5 27.5 10.5t28 -10.5t11 -26.5q0 -17 -11 -27.5t-28 -10.5t-27.5 10.5t-10.5 27.5q0 16 10.5 26.5zM126 543v-543h-45v543h45z" />
    <glyph glyph-name="j" unicode="j" horiz-adv-x="215" 
d="M84 679.5q-11 10.5 -11 27.5q0 16 11 26.5t28 10.5t28 -10.5t11 -26.5q0 -17 -11 -27.5t-28 -10.5t-28 10.5zM-26 -215h37q41 0 59.5 18t18.5 64v676h46v-681q0 -118 -120 -118h-41v41z" />
    <glyph glyph-name="k" unicode="k" horiz-adv-x="430" 
d="M361 0l-235 250v-250h-45v740h45v-441l230 244h59l-258 -269l264 -274h-60z" />
    <glyph glyph-name="l" unicode="l" horiz-adv-x="207" 
d="M126 740v-740h-45v740h45z" />
    <glyph glyph-name="m" unicode="m" horiz-adv-x="1012" 
d="M878.5 494q57.5 -60 57.5 -177v-317h-44v315q0 97 -46 148t-126 51q-86 0 -137.5 -57t-51.5 -168v-289h-44v315q0 97 -46.5 148t-126.5 51q-85 0 -136.5 -57t-51.5 -168v-289h-45v543h45v-141q19 75 73.5 113.5t125.5 38.5q74 0 127.5 -40.5t70.5 -120.5
q19 80 75.5 120.5t130.5 40.5q92 0 149.5 -60z" />
    <glyph glyph-name="n" unicode="n" horiz-adv-x="624" 
d="M489 494q60 -60 60 -177v-317h-45v315q0 98 -49 149.5t-134 51.5q-88 0 -141.5 -57.5t-53.5 -169.5v-289h-45v543h45v-143q20 76 76.5 115t130.5 39q96 0 156 -60z" />
    <glyph glyph-name="o" unicode="o" horiz-adv-x="646" 
d="M461 516.5q61 -33.5 95.5 -96.5t34.5 -148q0 -86 -34.5 -149t-95.5 -96.5t-138 -33.5q-76 0 -137 33.5t-96 97t-35 148.5t35 148t96 96.5t137 33.5q77 0 138 -33.5zM213.5 484q-50.5 -26 -81.5 -79.5t-31 -132.5t31 -133t81.5 -80t109.5 -26t109.5 26t81.5 80t31 133
t-30.5 132.5t-81 79.5t-110.5 26q-59 0 -109.5 -26z" />
    <glyph glyph-name="p" unicode="p" horiz-adv-x="672" 
d="M492.5 516.5q58.5 -33.5 91.5 -96.5t33 -148t-33 -148.5t-91.5 -97t-134.5 -33.5q-88 0 -149.5 46.5t-83.5 122.5v-418h-44v799h44v-162q22 76 83.5 122.5t149.5 46.5q76 0 134.5 -33.5zM234 480.5q-51 -29.5 -80 -83.5t-29 -125t29 -125.5t80 -84t115 -29.5
q102 0 162.5 64t60.5 175q0 110 -60.5 174t-162.5 64q-64 0 -115 -29.5z" />
    <glyph glyph-name="q" unicode="q" horiz-adv-x="672" 
d="M463.5 504.5q60.5 -45.5 83.5 -119.5v158h45v-799h-45v416q-22 -76 -82.5 -121.5t-148.5 -45.5q-76 0 -135 34t-92.5 97t-33.5 147t33.5 147.5t92.5 97.5t135 34q87 0 147.5 -45.5zM161.5 446q-60.5 -64 -60.5 -175t60.5 -174.5t162.5 -63.5q63 0 114 29.5t80 84
t29 125.5t-29 125t-80 83.5t-114 29.5q-102 0 -162.5 -64z" />
    <glyph glyph-name="r" unicode="r" horiz-adv-x="354" 
d="M200 520.5q53 33.5 135 33.5v-49h-15q-82 0 -138 -46t-56 -149v-310h-45v543h45v-120q21 64 74 97.5z" />
    <glyph glyph-name="s" unicode="s" horiz-adv-x="495" 
d="M372 504.5q52 -45.5 62 -124.5h-43q-6 58 -46.5 96.5t-109.5 38.5q-61 0 -95.5 -30t-34.5 -80q0 -37 20.5 -59t50 -32.5t82.5 -23.5q59 -13 95 -27t61 -44t25 -82q0 -64 -46 -104t-121 -40q-90 0 -147.5 45.5t-68.5 124.5h45q6 -58 50.5 -96.5t121.5 -38.5
q58 0 90.5 30.5t32.5 79.5q0 39 -21 62.5t-52.5 34.5t-83.5 23q-59 14 -93.5 27.5t-59 42t-24.5 77.5q0 66 47 105.5t126 39.5q85 0 137 -45.5z" />
    <glyph glyph-name="t" unicode="t" horiz-adv-x="350" 
d="M150 502v-349q0 -65 23 -88.5t81 -23.5h57v-41h-62q-75 0 -109.5 35t-34.5 118v349h-86v41h86v138h45v-138h161v-41h-161z" />
    <glyph glyph-name="u" unicode="u" horiz-adv-x="611" 
d="M531 543v-543h-46v142q-20 -75 -76.5 -114t-130.5 -39q-95 0 -155 60t-60 178v316h44v-315q0 -97 49 -148.5t134 -51.5q89 0 142 57.5t53 169.5v288h46z" />
    <glyph glyph-name="v" unicode="v" horiz-adv-x="535" 
d="M268 57l199 486h49l-225 -543h-48l-224 543h48z" />
    <glyph glyph-name="w" unicode="w" horiz-adv-x="816" 
d="M798 543l-165 -543h-44l-181 483l-181 -483h-44l-166 543h47l143 -487l179 487h45l180 -487l143 487h44z" />
    <glyph glyph-name="x" unicode="x" horiz-adv-x="448" 
d="M378 0l-158 240l-151 -240h-50l176 278l-174 265h52l153 -232l149 232h50l-174 -270l179 -273h-52z" />
    <glyph glyph-name="y" unicode="y" horiz-adv-x="525" 
d="M66 543l204 -483l189 483h50l-315 -799h-52l104 259l-230 540h50z" />
    <glyph glyph-name="z" unicode="z" horiz-adv-x="421" 
d="M78 39h314v-39h-363v38l302 466h-293v39h344v-37z" />
    <glyph glyph-name="braceleft" unicode="{" horiz-adv-x="321" 
d="M166 314.5q30 -43.5 30 -102.5q0 -34 -11 -84q-7 -35 -11 -61t-4 -60q0 -76 36.5 -133.5t83.5 -85.5v-5h-43q-40 24 -80 82t-40 148q0 47 14 115q12 58 12 85q0 47 -21.5 85.5t-89.5 58.5v30q69 20 90 58t21 86q0 27 -12 85q-14 68 -14 115q0 90 40 148t80 82h43v-5
q-47 -28 -83.5 -85.5t-36.5 -133.5q0 -34 4 -59.5t11 -60.5q11 -51 11 -85q0 -59 -30 -102.5t-90 -56.5v-2q60 -13 90 -56.5z" />
    <glyph glyph-name="bar" unicode="|" horiz-adv-x="199" 
d="M122 -93h-45v877h45v-877z" />
    <glyph glyph-name="braceright" unicode="}" horiz-adv-x="326" 
d="M163.5 429q-29.5 43 -29.5 100q0 27 5 53t6 32q7 35 11 60.5t4 59.5q0 76 -37 135t-83 87v5h43q40 -24 79.5 -82t39.5 -148q0 -47 -14 -115q-11 -53 -11 -85q0 -48 21 -86.5t89 -57.5v-30q-68 -19 -89 -57.5t-21 -86.5q0 -32 11 -85q14 -68 14 -115q0 -90 -39.5 -148
t-79.5 -82h-43v5q46 28 83 87t37 135q0 34 -4 59.5t-11 60.5q-1 6 -6 32t-5 53q0 57 29.5 100t89.5 56v2q-60 13 -89.5 56z" />
    <glyph glyph-name="asciitilde" unicode="~" horiz-adv-x="449" 
d="M189.5 368q19.5 -9 45.5 -27q24 -16 39.5 -23.5t34.5 -7.5q25 0 42 19t23 48h38q-9 -52 -36.5 -81t-70.5 -29q-24 0 -44 9t-45 27q-23 16 -39.5 23.5t-35.5 7.5q-25 0 -42 -19t-23 -48h-38q9 52 36.5 81t70.5 29q25 0 44.5 -9z" />
    <glyph glyph-name="uni00A0" unicode="&#xa0;" horiz-adv-x="275" 
 />
    <glyph glyph-name="exclamdown" unicode="&#xa1;" horiz-adv-x="254" 
d="M151 -156l-9 529h-34l-9 -529h52zM162 485v69h-71v-69h71z" />
    <glyph glyph-name="cent" unicode="&#xa2;" horiz-adv-x="587" 
d="M425.5 98.5q51.5 41.5 63.5 113.5h43q-13 -86 -72.5 -138.5t-152.5 -54.5v-111h-29v112q-100 7 -161.5 72.5t-61.5 175.5t61.5 175.5t161.5 72.5v103h29v-102q93 -2 152.5 -54.5t72.5 -138.5h-43q-12 72 -63.5 113.5t-125.5 41.5q-55 0 -100.5 -23t-73 -71t-27.5 -117
t27.5 -117t73 -71t100.5 -23q74 0 125.5 41.5z" />
    <glyph glyph-name="sterling" unicode="&#xa3;" horiz-adv-x="557" 
d="M209 126q-20 -43 -62 -88h371v-39h-413l-7 30q46 52 67.5 91.5t21.5 94.5q0 45 -21 106h-118v34h105q-20 56 -30 92t-10 80q0 55 24.5 99t69 68.5t102.5 24.5q92 0 148 -55.5t66 -141.5h-43q-7 69 -53 113.5t-117 44.5q-64 0 -108.5 -40t-44.5 -116q0 -37 8.5 -69
t25.5 -81l7 -19h190v-34h-178q19 -57 19 -101q0 -51 -20 -94z" />
    <glyph glyph-name="currency" unicode="&#xa4;" horiz-adv-x="514" 
d="M381 264l61 -59l-23 -21l-58 58q-46 -38 -104 -38q-62 0 -105 38l-59 -58l-22 21l60 59q-34 47 -34 113q0 69 36 114l-62 61l22 21l60 -60q44 38 104 38q58 0 102 -38l60 60l23 -21l-62 -61q37 -47 37 -114q0 -66 -36 -113zM317 252q28 17 45 49.5t17 75.5t-17 75.5
t-45 49.5t-60 17q-53 0 -87 -38.5t-34 -103.5q0 -66 34 -104t87 -38q32 0 60 17z" />
    <glyph glyph-name="yen" unicode="&#xa5;" horiz-adv-x="584" 
d="M357 359h161v-33h-178l-22 -41v-51h200v-35h-200v-199h-46v199h-200v35h200v51l-22 41h-178v33h161l-185 346h53l194 -375l193 375h52z" />
    <glyph glyph-name="brokenbar" unicode="&#xa6;" horiz-adv-x="220" 
d="M88 784h45v-360h-45v360zM133 -93h-45v361h45v-361z" />
    <glyph glyph-name="section" unicode="&#xa7;" horiz-adv-x="570" 
d="M445 74q45 -35 45 -94q0 -61 -48 -99.5t-133 -38.5q-91 0 -150 45.5t-69 126.5h45q8 -58 50 -97.5t125 -39.5q61 0 97.5 25.5t36.5 75.5q0 46 -38 75.5t-130 54.5q-70 18 -117 39t-75.5 56.5t-28.5 89.5q0 41 22 77.5t66 60t105 25.5q-168 46 -168 153q0 60 49 97.5
t136 37.5q90 0 147.5 -45.5t67.5 -125.5h-45q-3 33 -21.5 64t-56.5 51.5t-93 20.5q-63 0 -100.5 -25t-37.5 -74q0 -47 38 -77t130 -54q71 -19 117.5 -40t75 -56.5t28.5 -89.5q0 -41 -21.5 -76.5t-64.5 -59.5t-103 -28q74 -20 119 -55zM151.5 195q49.5 -37 135.5 -37
q57 0 98 18.5t62 49.5t21 67q0 61 -49 98.5t-136 37.5q-57 0 -98 -18.5t-62 -50t-21 -67.5q0 -61 49.5 -98z" />
    <glyph glyph-name="dieresis" unicode="&#xa8;" horiz-adv-x="331" 
d="M66.5 689q10.5 11 26.5 11t26.5 -11t10.5 -26t-10.5 -26t-26.5 -11t-26.5 11t-10.5 26t10.5 26zM212.5 689q10.5 11 26.5 11q15 0 25.5 -11t10.5 -26t-10.5 -26t-25.5 -11q-16 0 -26.5 11t-10.5 26t10.5 26z" />
    <glyph glyph-name="copyright" unicode="&#xa9;" horiz-adv-x="799" 
d="M221 659.5q-78 -44.5 -121.5 -124.5t-43.5 -182t43.5 -182t121.5 -125t179 -45t179 45t121 125t43 182t-43 182t-121 124.5t-179 44.5t-179 -44.5zM567 638q72 -42 111 -116.5t39 -168.5t-39 -168.5t-111 -117t-167 -42.5q-96 0 -167.5 42t-110.5 117t-39 169t39 168.5
t110.5 116.5t167.5 42q95 0 167 -42zM531.5 547.5q56.5 -41.5 75.5 -117.5h-41q-18 59 -63 91t-101 32q-47 0 -87 -23t-64 -68.5t-24 -109.5t24 -109t64 -68t87 -23q56 0 101 32t63 91h41q-19 -75 -75.5 -116.5t-128.5 -41.5q-59 0 -108 27.5t-78 81t-29 128.5q0 74 29 127
t78 80.5t108 27.5q72 0 128.5 -41.5z" />
    <glyph glyph-name="ordfeminine" unicode="&#xaa;" horiz-adv-x="439" 
d="M292.5 682q36.5 -27 51.5 -75v97h38v-350h-38v96q-15 -48 -51.5 -75.5t-92.5 -27.5q-73 0 -117.5 50t-44.5 131q0 82 44.5 131.5t117.5 49.5q56 0 92.5 -27zM113 636.5q-37 -40.5 -37 -108.5t37 -108t94 -40q61 0 99 40.5t38 108.5q0 67 -38 107.5t-99 40.5
q-57 0 -94 -40.5z" />
    <glyph glyph-name="guillemotleft" unicode="&#xab;" horiz-adv-x="405" 
d="M148 120l-103 175l103 175h49l-105 -175l105 -175h-49zM307 120l-103 175l103 175h49l-105 -175l105 -175h-49z" />
    <glyph glyph-name="logicalnot" unicode="&#xac;" horiz-adv-x="719" 
d="M671 427v-184h-43v146h-574v38h617z" />
    <glyph glyph-name="uni00AD" unicode="&#xad;" horiz-adv-x="461" 
d="M348 395v-39h-376v39h376z" />
    <glyph glyph-name="registered" unicode="&#xae;" horiz-adv-x="791" 
d="M573 661.5q77 -43.5 119.5 -123t42.5 -184.5q0 -102 -42.5 -182.5t-119.5 -126t-177 -45.5q-99 0 -176.5 45.5t-120.5 126t-43 182.5q0 105 43 184.5t120 123t177 43.5t177 -43.5zM561.5 72q70.5 40 109 113t38.5 169q0 98 -38.5 172t-109 114.5t-165.5 40.5t-166 -40.5
t-109 -114.5t-38 -172q0 -96 38 -169t109 -113t166 -40t165.5 40zM530 380.5q-36 -32.5 -103 -35.5l139 -203h-40l-136 203h-89v-203h-34v453h146q77 0 115 -33.5t38 -90.5q0 -58 -36 -90.5zM532 468q0 48 -28 72t-92 24h-111v-192h111q120 0 120 96z" />
    <glyph glyph-name="macron" unicode="&#xaf;" horiz-adv-x="397" 
d="M361 689v-35h-325v35h325z" />
    <glyph glyph-name="degree" unicode="&#xb0;" horiz-adv-x="374" 
d="M301 646.5q43 -47.5 43 -125.5q0 -79 -43 -126.5t-114 -47.5t-114.5 48t-43.5 126t43.5 125.5t114.5 47.5t114 -47.5zM100.5 626q-32.5 -38 -32.5 -105t32.5 -105.5t86.5 -38.5q55 0 87 38t32 106q0 67 -32.5 105t-86.5 38t-86.5 -38z" />
    <glyph glyph-name="plusminus" unicode="&#xb1;" horiz-adv-x="584" 
d="M547 426v-41h-233v-222h-44v222h-232v41h232v208h44v-208h233zM38 133h509v-41h-509v41z" />
    <glyph glyph-name="twosuperior" unicode="&#xb2;" horiz-adv-x="316" 
d="M278 383v-31h-237v24l117 108q34 32 52.5 60t18.5 64q0 35 -19.5 52.5t-49.5 17.5q-36 0 -57 -21.5t-25 -62.5h-38q3 49 34.5 81.5t88.5 32.5q48 0 76.5 -27t28.5 -71q0 -43 -23.5 -77t-71.5 -74l-87 -76h192z" />
    <glyph glyph-name="threesuperior" unicode="&#xb3;" horiz-adv-x="315" 
d="M243.5 681.5q31.5 -26.5 31.5 -70.5q0 -31 -17 -52.5t-51 -30.5v-2q33 -8 51.5 -30t18.5 -55q0 -39 -31 -66.5t-86 -27.5q-57 0 -87 25.5t-36 76.5h39q8 -72 82 -72q39 0 59.5 18t20.5 50q0 33 -23.5 51.5t-60.5 18.5h-58v23h59q37 0 59 18.5t22 51.5q0 31 -21 50t-56 19
q-36 0 -57 -16.5t-27 -46.5h-37q6 41 37.5 67.5t86.5 26.5q50 0 81.5 -26.5z" />
    <glyph glyph-name="acute" unicode="&#xb4;" horiz-adv-x="269" 
d="M232 714l-196 -126v36l196 131v-41z" />
    <glyph glyph-name="uni00B5" unicode="&#xb5;" horiz-adv-x="636" 
d="M552 543v-543h-45v143q-19 -76 -72.5 -115t-123.5 -39q-62 0 -111 29.5t-72 96.5v-371h-44v799h44v-280q0 -116 53 -175t141 -59q84 0 134.5 57.5t50.5 168.5v288h45z" />
    <glyph glyph-name="paragraph" unicode="&#xb6;" horiz-adv-x="525" 
d="M441 0h-39v651h-102v-651h-39v293h-5q-116 0 -176 53.5t-60 143.5t60.5 143.5t175.5 53.5h185v-687z" />
    <glyph glyph-name="periodcentered" unicode="&#xb7;" horiz-adv-x="137" 
d="M104 387v-69h-71v69h71z" />
    <glyph glyph-name="cedilla" unicode="&#xb8;" horiz-adv-x="261" 
d="M191.5 -100q33.5 -22 33.5 -66q0 -41 -30 -65.5t-82 -24.5h-77v31h72q81 0 81 60q0 25 -19.5 40t-61.5 15h-43v117h33v-88q60 3 93.5 -19z" />
    <glyph glyph-name="onesuperior" unicode="&#xb9;" horiz-adv-x="170" 
d="M38 672v32h93v-352h-38v320h-55z" />
    <glyph glyph-name="ordmasculine" unicode="&#xba;" horiz-adv-x="419" 
d="M300 686q39 -23 61.5 -64.5t22.5 -95.5q0 -53 -22.5 -94.5t-61.5 -64.5t-89 -23t-89.5 23t-61.5 64.5t-22 94.5q0 54 22 95.5t61.5 64.5t89.5 23t89 -23zM114 636.5q-38 -39.5 -38 -110.5q0 -70 38 -109.5t97 -39.5q58 0 96 39.5t38 109.5t-38 110t-96 40
q-59 0 -97 -39.5z" />
    <glyph glyph-name="guillemotright" unicode="&#xbb;" horiz-adv-x="405" 
d="M156 295l-106 175h50l102 -175l-102 -175h-50zM315 295l-106 175h50l102 -175l-102 -175h-50z" />
    <glyph glyph-name="onequarter" unicode="&#xbc;" horiz-adv-x="558" 
d="M461 705l-353 -705h-44l353 705h44zM59 672v32h93v-352h-38v320h-55zM520 74h-52v-74h-38v74h-176v26l172 255h42v-253h52v-28zM431 302l-137 -199h137v199z" />
    <glyph glyph-name="onehalf" unicode="&#xbd;" horiz-adv-x="635" 
d="M448 705l-355 -705h-44l354 705h45zM116 672h-55v32h93v-352h-38v320zM590 30v-31h-237v24l117 108q34 32 52.5 60t18.5 64q0 35 -19.5 52.5t-49.5 17.5q-36 0 -57 -21.5t-25 -62.5h-38q3 49 34.5 81.5t88.5 32.5q48 0 76.5 -27t28.5 -71q0 -43 -23.5 -77t-71.5 -74
l-87 -76h192z" />
    <glyph glyph-name="threequarters" unicode="&#xbe;" horiz-adv-x="594" 
d="M265.5 681.5q31.5 -26.5 31.5 -70.5q0 -31 -17 -52.5t-51 -30.5v-2q33 -8 51.5 -30t18.5 -55q0 -39 -31 -66.5t-86 -27.5q-57 0 -87 25.5t-36 76.5h39q8 -72 82 -72q39 0 59.5 18t20.5 50q0 33 -23.5 51.5t-60.5 18.5h-58v23h59q37 0 59 18.5t22 51.5q0 31 -21 50t-56 19
q-36 0 -57 -16.5t-27 -46.5h-37q6 41 37.5 67.5t86.5 26.5q50 0 81.5 -26.5zM522 705l-351 -705h-45l351 705h45zM557 74h-53v-74h-38v74h-176v26l170 255h44v-253h53v-28zM467 304l-137 -202h137v202z" />
    <glyph glyph-name="questiondown" unicode="&#xbf;" horiz-adv-x="472" 
d="M92.5 -123.5q-56.5 53.5 -56.5 143.5q0 113 67.5 164.5t188.5 52.5v136h43v-169h-24q-103 0 -166.5 -38.5t-63.5 -145.5q0 -74 43.5 -116.5t118.5 -42.5q77 0 125 43t48 113h43q0 -59 -28 -103t-77.5 -67.5t-111.5 -23.5q-93 0 -149.5 53.5zM277 473v69h71v-69h-71z" />
    <glyph glyph-name="Agrave" unicode="&#xc0;" horiz-adv-x="623" 
d="M479 183h-334l-69 -183h-50l261 686h50l259 -686h-49zM465 220l-153 411l-154 -411h307zM322 786v-36l-196 126v41z" />
    <glyph glyph-name="Aacute" unicode="&#xc1;" horiz-adv-x="623" 
d="M479 183h-334l-69 -183h-50l261 686h50l259 -686h-49zM465 220l-153 411l-154 -411h307zM488 876l-196 -126v36l196 131v-41z" />
    <glyph glyph-name="Acircumflex" unicode="&#xc2;" horiz-adv-x="623" 
d="M479 183h-334l-69 -183h-50l261 686h50l259 -686h-49zM465 220l-153 411l-154 -411h307zM312 860l-130 -81v35l130 82l128 -82v-35z" />
    <glyph glyph-name="Atilde" unicode="&#xc3;" horiz-adv-x="623" 
d="M479 183h-334l-69 -183h-50l261 686h50l259 -686h-49zM465 220l-153 411l-154 -411h307zM286 840.5q13 -6.5 29 -19.5q15 -12 26 -18t26 -6q17 0 29 12t15 35h30q-4 -35 -24.5 -56.5t-50.5 -21.5q-18 0 -31.5 6.5t-32.5 20.5q-16 11 -25.5 16.5t-22.5 5.5q-36 0 -43 -48
h-29q5 38 24 59t49 21q18 0 31 -6.5z" />
    <glyph glyph-name="Adieresis" unicode="&#xc4;" horiz-adv-x="623" 
d="M479 183h-334l-69 -183h-50l261 686h50l259 -686h-49zM465 220l-153 411l-154 -411h307zM212.5 851q10.5 11 26.5 11t26.5 -11t10.5 -26t-10.5 -26t-26.5 -11t-26.5 11t-10.5 26t10.5 26zM358.5 851q10.5 11 26.5 11q15 0 25.5 -11t10.5 -26t-10.5 -26t-25.5 -11
q-16 0 -26.5 11t-10.5 26t10.5 26z" />
    <glyph glyph-name="Aring" unicode="&#xc5;" horiz-adv-x="623" 
d="M479 183h-334l-69 -183h-50l261 686h50l259 -686h-49zM465 220l-153 411l-154 -411h307zM378.5 939q27.5 -26 27.5 -69q0 -44 -27.5 -70t-67.5 -26t-68 26t-28 70q0 43 28 69t68 26t67.5 -26zM262.5 920q-18.5 -18 -18.5 -50t18.5 -50.5t48.5 -18.5q29 0 48 18.5t19 50.5
q0 31 -19 49.5t-48 18.5q-30 0 -48.5 -18z" />
    <glyph glyph-name="AE" unicode="&#xc6;" horiz-adv-x="856" 
d="M494 667v-295h284v-37h-284v-297h314v-38h-359v182h-281l-109 -182h-50l421 705h378v-38h-314zM449 219v432l-259 -432h259z" />
    <glyph glyph-name="Ccedilla" unicode="&#xc7;" horiz-adv-x="767" 
d="M593 652.5q82 -59.5 118 -163.5h-47q-30 82 -101 131.5t-176 49.5q-80 0 -144.5 -38.5t-102 -110.5t-37.5 -169q0 -96 37.5 -168t102 -110.5t144.5 -38.5q105 0 176 49.5t101 130.5h47q-36 -104 -118 -163t-206 -59q-96 0 -171.5 45.5t-117.5 127.5t-42 186t42 186
t117.5 128t171.5 46q124 0 206 -59.5zM493.5 -100q33.5 -22 33.5 -66q0 -41 -30 -65.5t-82 -24.5h-77v31h72q81 0 81 60q0 25 -19.5 40t-61.5 15h-43v117h33v-88q60 3 93.5 -19z" />
    <glyph glyph-name="Egrave" unicode="&#xc8;" horiz-adv-x="489" 
d="M126 667v-296h285v-36h-285v-297h315v-38h-360v705h360v-38h-315zM271 786v-36l-196 126v41z" />
    <glyph glyph-name="Eacute" unicode="&#xc9;" horiz-adv-x="489" 
d="M126 667v-296h285v-36h-285v-297h315v-38h-360v705h360v-38h-315zM438 876l-196 -126v36l196 131v-41z" />
    <glyph glyph-name="Ecircumflex" unicode="&#xca;" horiz-adv-x="489" 
d="M126 667v-296h285v-36h-285v-297h315v-38h-360v705h360v-38h-315zM262 860l-130 -81v35l130 82l128 -82v-35z" />
    <glyph glyph-name="Edieresis" unicode="&#xcb;" horiz-adv-x="489" 
d="M126 667v-296h285v-36h-285v-297h315v-38h-360v705h360v-38h-315zM162.5 851q10.5 11 26.5 11t26.5 -11t10.5 -26t-10.5 -26t-26.5 -11t-26.5 11t-10.5 26t10.5 26zM308.5 851q10.5 11 26.5 11q15 0 25.5 -11t10.5 -26t-10.5 -26t-25.5 -11q-16 0 -26.5 11t-10.5 26
t10.5 26z" />
    <glyph glyph-name="Igrave" unicode="&#xcc;" horiz-adv-x="207" 
d="M126 705v-705h-45v705h45zM114 786v-36l-196 126v41z" />
    <glyph glyph-name="Iacute" unicode="&#xcd;" horiz-adv-x="207" 
d="M126 705v-705h-45v705h45zM280 876l-196 -126v36l196 131v-41z" />
    <glyph glyph-name="Icircumflex" unicode="&#xce;" horiz-adv-x="207" 
d="M126 705v-705h-45v705h45zM105 860l-130 -81v35l130 82l128 -82v-35z" />
    <glyph glyph-name="Idieresis" unicode="&#xcf;" horiz-adv-x="207" 
d="M126 705v-705h-45v705h45zM4.5 851q10.5 11 26.5 11t26.5 -11t10.5 -26t-10.5 -26t-26.5 -11t-26.5 11t-10.5 26t10.5 26zM150.5 851q10.5 11 26.5 11q15 0 25.5 -11t10.5 -26t-10.5 -26t-25.5 -11q-16 0 -26.5 11t-10.5 26t10.5 26z" />
    <glyph glyph-name="Eth" unicode="&#xd0;" horiz-adv-x="742" 
d="M590 612q96 -93 96 -259q0 -167 -96 -260t-276 -93h-198v334h-107v37h107v334h198q180 0 276 -93zM557 123q83 82 83 230t-83.5 230t-244.5 82h-151v-294h220v-37h-220v-293h151q162 0 245 82z" />
    <glyph glyph-name="Ntilde" unicode="&#xd1;" horiz-adv-x="664" 
d="M583 0h-45l-412 628v-628h-45v704h45l412 -628v628h45v-704zM306 840.5q13 -6.5 29 -19.5q15 -12 26 -18t26 -6q17 0 29 12t15 35h30q-4 -35 -24.5 -56.5t-50.5 -21.5q-18 0 -31.5 6.5t-32.5 20.5q-16 11 -25.5 16.5t-22.5 5.5q-36 0 -43 -48h-29q5 38 24 59t49 21
q18 0 31 -6.5z" />
    <glyph glyph-name="Ograve" unicode="&#xd2;" horiz-adv-x="792" 
d="M570.5 665.5q77.5 -45.5 121 -127.5t43.5 -186t-43.5 -186t-121 -128t-174.5 -46t-174.5 46t-121.5 128t-44 186t44 186t121.5 127.5t174.5 45.5t174.5 -45.5zM246.5 631q-66.5 -39 -105 -111t-38.5 -168t38.5 -168t105 -111t149.5 -39q82 0 149 39t105.5 111t38.5 168
t-38.5 168t-105.5 111t-149 39q-83 0 -149.5 -39zM407 786v-36l-196 126v41z" />
    <glyph glyph-name="Oacute" unicode="&#xd3;" horiz-adv-x="792" 
d="M570.5 665.5q77.5 -45.5 121 -127.5t43.5 -186t-43.5 -186t-121 -128t-174.5 -46t-174.5 46t-121.5 128t-44 186t44 186t121.5 127.5t174.5 45.5t174.5 -45.5zM246.5 631q-66.5 -39 -105 -111t-38.5 -168t38.5 -168t105 -111t149.5 -39q82 0 149 39t105.5 111t38.5 168
t-38.5 168t-105.5 111t-149 39q-83 0 -149.5 -39zM573 876l-196 -126v36l196 131v-41z" />
    <glyph glyph-name="Ocircumflex" unicode="&#xd4;" horiz-adv-x="792" 
d="M570.5 665.5q77.5 -45.5 121 -127.5t43.5 -186t-43.5 -186t-121 -128t-174.5 -46t-174.5 46t-121.5 128t-44 186t44 186t121.5 127.5t174.5 45.5t174.5 -45.5zM246.5 631q-66.5 -39 -105 -111t-38.5 -168t38.5 -168t105 -111t149.5 -39q82 0 149 39t105.5 111t38.5 168
t-38.5 168t-105.5 111t-149 39q-83 0 -149.5 -39zM397 860l-130 -81v35l130 82l128 -82v-35z" />
    <glyph glyph-name="Otilde" unicode="&#xd5;" horiz-adv-x="792" 
d="M570.5 665.5q77.5 -45.5 121 -127.5t43.5 -186t-43.5 -186t-121 -128t-174.5 -46t-174.5 46t-121.5 128t-44 186t44 186t121.5 127.5t174.5 45.5t174.5 -45.5zM246.5 631q-66.5 -39 -105 -111t-38.5 -168t38.5 -168t105 -111t149.5 -39q82 0 149 39t105.5 111t38.5 168
t-38.5 168t-105.5 111t-149 39q-83 0 -149.5 -39zM371 840.5q13 -6.5 29 -19.5q15 -12 26 -18t26 -6q17 0 29 12t15 35h30q-4 -35 -24.5 -56.5t-50.5 -21.5q-18 0 -31.5 6.5t-32.5 20.5q-16 11 -25.5 16.5t-22.5 5.5q-36 0 -43 -48h-29q5 38 24 59t49 21q18 0 31 -6.5z" />
    <glyph glyph-name="Odieresis" unicode="&#xd6;" horiz-adv-x="792" 
d="M570.5 665.5q77.5 -45.5 121 -127.5t43.5 -186t-43.5 -186t-121 -128t-174.5 -46t-174.5 46t-121.5 128t-44 186t44 186t121.5 127.5t174.5 45.5t174.5 -45.5zM246.5 631q-66.5 -39 -105 -111t-38.5 -168t38.5 -168t105 -111t149.5 -39q82 0 149 39t105.5 111t38.5 168
t-38.5 168t-105.5 111t-149 39q-83 0 -149.5 -39zM297.5 851q10.5 11 26.5 11t26.5 -11t10.5 -26t-10.5 -26t-26.5 -11t-26.5 11t-10.5 26t10.5 26zM443.5 851q10.5 11 26.5 11q15 0 25.5 -11t10.5 -26t-10.5 -26t-25.5 -11q-16 0 -26.5 11t-10.5 26t10.5 26z" />
    <glyph glyph-name="multiply" unicode="&#xd7;" horiz-adv-x="483" 
d="M415 172l-174 174l-173 -173l-30 29l173 173l-173 173l31 31l173 -173l172 172l29 -29l-172 -172l175 -175z" />
    <glyph glyph-name="Oslash" unicode="&#xd8;" horiz-adv-x="792" 
d="M645 605q43 -48 66.5 -112.5t23.5 -140.5q0 -104 -43.5 -186t-121 -128t-174.5 -46q-68 0 -127 23t-104 65l-73 -80h-36l90 99q-43 48 -66.5 113t-23.5 140q0 104 44 186t121.5 127.5t174.5 45.5q67 0 126 -22.5t104 -64.5l74 81h36zM122 229q19 -56 54 -97l421 460
q-39 38 -91 58t-110 20q-83 0 -149.5 -39t-105 -111t-38.5 -168q0 -67 19 -123zM669.5 475q-19.5 56 -54.5 98l-420 -461q39 -38 90.5 -58t110.5 -20q82 0 149 39t105.5 111t38.5 168q0 67 -19.5 123z" />
    <glyph glyph-name="Ugrave" unicode="&#xd9;" horiz-adv-x="640" 
d="M121 705v-433q0 -123 54 -180t147 -57q92 0 144.5 57t52.5 180v433h46v-433q0 -141 -65.5 -210t-177.5 -69q-113 0 -179.5 69t-66.5 210v433h45zM330 786v-36l-196 126v41z" />
    <glyph glyph-name="Uacute" unicode="&#xda;" horiz-adv-x="640" 
d="M121 705v-433q0 -123 54 -180t147 -57q92 0 144.5 57t52.5 180v433h46v-433q0 -141 -65.5 -210t-177.5 -69q-113 0 -179.5 69t-66.5 210v433h45zM497 876l-196 -126v36l196 131v-41z" />
    <glyph glyph-name="Ucircumflex" unicode="&#xdb;" horiz-adv-x="640" 
d="M121 705v-433q0 -123 54 -180t147 -57q92 0 144.5 57t52.5 180v433h46v-433q0 -141 -65.5 -210t-177.5 -69q-113 0 -179.5 69t-66.5 210v433h45zM321 860l-130 -81v35l130 82l128 -82v-35z" />
    <glyph glyph-name="Udieresis" unicode="&#xdc;" horiz-adv-x="640" 
d="M121 705v-433q0 -123 54 -180t147 -57q92 0 144.5 57t52.5 180v433h46v-433q0 -141 -65.5 -210t-177.5 -69q-113 0 -179.5 69t-66.5 210v433h45zM221.5 851q10.5 11 26.5 11t26.5 -11t10.5 -26t-10.5 -26t-26.5 -11t-26.5 11t-10.5 26t10.5 26zM367.5 851
q10.5 11 26.5 11q15 0 25.5 -11t10.5 -26t-10.5 -26t-25.5 -11q-16 0 -26.5 11t-10.5 26t10.5 26z" />
    <glyph glyph-name="Yacute" unicode="&#xdd;" horiz-adv-x="545" 
d="M518 705l-222 -420v-285h-45v285l-225 420h53l194 -372l193 372h52zM449 876l-196 -126v36l196 131v-41z" />
    <glyph glyph-name="Thorn" unicode="&#xde;" horiz-adv-x="543" 
d="M126 155v-155h-45v705h45v-154h149q117 0 174 -52.5t57 -146.5q0 -97 -59 -147t-172 -50h-149zM460 352q0 79 -44 120t-144 41h-146v-319h146q188 0 188 158z" />
    <glyph glyph-name="germandbls" unicode="&#xdf;" horiz-adv-x="611" 
d="M545 261q30 -47 30 -109q0 -46 -23 -83.5t-63.5 -58.5t-91.5 -21q-84 0 -133 47.5t-49 131.5h40q1 -62 35.5 -100.5t103.5 -38.5q66 0 101.5 37.5t35.5 87.5q0 48 -22.5 85.5t-81.5 76.5l-161 106v26l41 20q39 19 57 46.5t18 67.5q0 56 -33.5 91.5t-88.5 35.5
q-63 0 -98.5 -36t-35.5 -99v-574h-45v568q0 86 49 134t133 48q72 0 118.5 -42.5t46.5 -115.5q0 -94 -98 -139l-22 -11l137 -89q70 -45 100 -92z" />
    <glyph glyph-name="agrave" unicode="&#xe0;" horiz-adv-x="672" 
d="M464 503.5q61 -46.5 83 -122.5v162h45v-543h-45v162q-22 -76 -83 -122.5t-150 -46.5q-76 0 -134.5 33.5t-91.5 97t-33 148.5t33 148t91.5 96.5t134.5 33.5q89 0 150 -46.5zM161.5 446q-60.5 -64 -60.5 -174q0 -111 60 -175t163 -64q64 0 115 29.5t79.5 84t28.5 125.5
t-28.5 125t-79.5 83.5t-115 29.5q-102 0 -162.5 -64zM334 624v-36l-196 126v41z" />
    <glyph glyph-name="aacute" unicode="&#xe1;" horiz-adv-x="672" 
d="M464 503.5q61 -46.5 83 -122.5v162h45v-543h-45v162q-22 -76 -83 -122.5t-150 -46.5q-76 0 -134.5 33.5t-91.5 97t-33 148.5t33 148t91.5 96.5t134.5 33.5q89 0 150 -46.5zM161.5 446q-60.5 -64 -60.5 -174q0 -111 60 -175t163 -64q64 0 115 29.5t79.5 84t28.5 125.5
t-28.5 125t-79.5 83.5t-115 29.5q-102 0 -162.5 -64zM500 714l-196 -126v36l196 131v-41z" />
    <glyph glyph-name="acircumflex" unicode="&#xe2;" horiz-adv-x="672" 
d="M464 503.5q61 -46.5 83 -122.5v162h45v-543h-45v162q-22 -76 -83 -122.5t-150 -46.5q-76 0 -134.5 33.5t-91.5 97t-33 148.5t33 148t91.5 96.5t134.5 33.5q89 0 150 -46.5zM161.5 446q-60.5 -64 -60.5 -174q0 -111 60 -175t163 -64q64 0 115 29.5t79.5 84t28.5 125.5
t-28.5 125t-79.5 83.5t-115 29.5q-102 0 -162.5 -64zM325 698l-130 -81v35l130 82l128 -82v-35z" />
    <glyph glyph-name="atilde" unicode="&#xe3;" horiz-adv-x="672" 
d="M464 503.5q61 -46.5 83 -122.5v162h45v-543h-45v162q-22 -76 -83 -122.5t-150 -46.5q-76 0 -134.5 33.5t-91.5 97t-33 148.5t33 148t91.5 96.5t134.5 33.5q89 0 150 -46.5zM161.5 446q-60.5 -64 -60.5 -174q0 -111 60 -175t163 -64q64 0 115 29.5t79.5 84t28.5 125.5
t-28.5 125t-79.5 83.5t-115 29.5q-102 0 -162.5 -64zM298 678.5q13 -6.5 29 -19.5q15 -12 26 -18t26 -6q17 0 29 12t15 35h30q-4 -35 -24.5 -56.5t-50.5 -21.5q-18 0 -31.5 6.5t-32.5 20.5q-16 11 -25.5 16.5t-22.5 5.5q-36 0 -43 -48h-29q5 38 24 59t49 21q18 0 31 -6.5z
" />
    <glyph glyph-name="adieresis" unicode="&#xe4;" horiz-adv-x="672" 
d="M464 503.5q61 -46.5 83 -122.5v162h45v-543h-45v162q-22 -76 -83 -122.5t-150 -46.5q-76 0 -134.5 33.5t-91.5 97t-33 148.5t33 148t91.5 96.5t134.5 33.5q89 0 150 -46.5zM161.5 446q-60.5 -64 -60.5 -174q0 -111 60 -175t163 -64q64 0 115 29.5t79.5 84t28.5 125.5
t-28.5 125t-79.5 83.5t-115 29.5q-102 0 -162.5 -64zM224.5 689q10.5 11 26.5 11t26.5 -11t10.5 -26t-10.5 -26t-26.5 -11t-26.5 11t-10.5 26t10.5 26zM370.5 689q10.5 11 26.5 11q15 0 25.5 -11t10.5 -26t-10.5 -26t-25.5 -11q-16 0 -26.5 11t-10.5 26t10.5 26z" />
    <glyph glyph-name="aring" unicode="&#xe5;" horiz-adv-x="672" 
d="M464 503.5q61 -46.5 83 -122.5v162h45v-543h-45v162q-22 -76 -83 -122.5t-150 -46.5q-76 0 -134.5 33.5t-91.5 97t-33 148.5t33 148t91.5 96.5t134.5 33.5q89 0 150 -46.5zM161.5 446q-60.5 -64 -60.5 -174q0 -111 60 -175t163 -64q64 0 115 29.5t79.5 84t28.5 125.5
t-28.5 125t-79.5 83.5t-115 29.5q-102 0 -162.5 -64zM391.5 777q27.5 -26 27.5 -69q0 -44 -27.5 -70t-67.5 -26t-68 26t-28 70q0 43 28 69t68 26t67.5 -26zM275.5 758q-18.5 -18 -18.5 -50t18.5 -50.5t48.5 -18.5q29 0 48 18.5t19 50.5q0 31 -19 49.5t-48 18.5
q-30 0 -48.5 -18z" />
    <glyph glyph-name="ae" unicode="&#xe6;" horiz-adv-x="1125" 
d="M952.5 72.5q56.5 41.5 69.5 113.5h46q-14 -87 -79 -140t-166 -53q-85 0 -148 44t-83 126v-163h-45v162q-22 -76 -83 -122.5t-150 -46.5q-76 0 -134.5 33.5t-91.5 97t-33 148.5t33 148t91.5 96.5t134.5 33.5q89 0 150 -46.5t83 -122.5v162h45v-163q20 81 83 125.5
t148 44.5q78 0 134 -33.5t84.5 -88t28.5 -116.5q0 -30 -4 -53h-473q2 -76 32.5 -127t80 -76t107.5 -25q83 0 139.5 41.5zM706 488.5q-50 -24.5 -81 -76t-32 -126.5h433q4 75 -25 126t-79 76t-108 25t-108 -24.5zM439 62.5q51 29.5 79.5 84t28.5 125.5t-28.5 125t-79.5 83.5
t-115 29.5q-102 0 -162.5 -64t-60.5 -174q0 -111 60 -175t163 -64q64 0 115 29.5z" />
    <glyph glyph-name="ccedilla" unicode="&#xe7;" horiz-adv-x="626" 
d="M489 496.5q67 -53.5 82 -141.5h-47q-12 72 -68 114t-138 42q-59 0 -108 -26t-79 -80t-30 -133t30 -133t79 -80t108 -26q82 0 138 42t68 114h47q-15 -89 -82 -142.5t-170 -53.5q-77 0 -136.5 33.5t-93.5 96.5t-34 149q0 85 34 148t93.5 96.5t136.5 33.5q103 0 170 -53.5z
M418.5 -100q33.5 -22 33.5 -66q0 -41 -30 -65.5t-82 -24.5h-77v31h72q81 0 81 60q0 25 -19.5 40t-61.5 15h-43v117h33v-88q60 3 93.5 -19z" />
    <glyph glyph-name="egrave" unicode="&#xe8;" horiz-adv-x="627" 
d="M455 72.5q56 41.5 68 113.5h47q-15 -87 -81.5 -140t-169.5 -53q-77 0 -136.5 33.5t-93.5 96.5t-34 149q0 85 34 148t93.5 96.5t136.5 33.5q79 0 136.5 -33.5t87 -88t29.5 -116.5q0 -25 -5 -53h-467q1 -76 31.5 -127.5t79 -76t106.5 -24.5q82 0 138 41.5zM211 488
q-49 -25 -79.5 -76t-31.5 -126h428q4 75 -25 126.5t-78 76t-106 24.5q-59 0 -108 -25zM324 624v-36l-196 126v41z" />
    <glyph glyph-name="eacute" unicode="&#xe9;" horiz-adv-x="627" 
d="M455 72.5q56 41.5 68 113.5h47q-15 -87 -81.5 -140t-169.5 -53q-77 0 -136.5 33.5t-93.5 96.5t-34 149q0 85 34 148t93.5 96.5t136.5 33.5q79 0 136.5 -33.5t87 -88t29.5 -116.5q0 -25 -5 -53h-467q1 -76 31.5 -127.5t79 -76t106.5 -24.5q82 0 138 41.5zM211 488
q-49 -25 -79.5 -76t-31.5 -126h428q4 75 -25 126.5t-78 76t-106 24.5q-59 0 -108 -25zM490 714l-196 -126v36l196 131v-41z" />
    <glyph glyph-name="ecircumflex" unicode="&#xea;" horiz-adv-x="627" 
d="M455 72.5q56 41.5 68 113.5h47q-15 -87 -81.5 -140t-169.5 -53q-77 0 -136.5 33.5t-93.5 96.5t-34 149q0 85 34 148t93.5 96.5t136.5 33.5q79 0 136.5 -33.5t87 -88t29.5 -116.5q0 -25 -5 -53h-467q1 -76 31.5 -127.5t79 -76t106.5 -24.5q82 0 138 41.5zM211 488
q-49 -25 -79.5 -76t-31.5 -126h428q4 75 -25 126.5t-78 76t-106 24.5q-59 0 -108 -25zM315 698l-130 -81v35l130 82l128 -82v-35z" />
    <glyph glyph-name="edieresis" unicode="&#xeb;" horiz-adv-x="627" 
d="M455 72.5q56 41.5 68 113.5h47q-15 -87 -81.5 -140t-169.5 -53q-77 0 -136.5 33.5t-93.5 96.5t-34 149q0 85 34 148t93.5 96.5t136.5 33.5q79 0 136.5 -33.5t87 -88t29.5 -116.5q0 -25 -5 -53h-467q1 -76 31.5 -127.5t79 -76t106.5 -24.5q82 0 138 41.5zM211 488
q-49 -25 -79.5 -76t-31.5 -126h428q4 75 -25 126.5t-78 76t-106 24.5q-59 0 -108 -25zM214.5 689q10.5 11 26.5 11t26.5 -11t10.5 -26t-10.5 -26t-26.5 -11t-26.5 11t-10.5 26t10.5 26zM360.5 689q10.5 11 26.5 11q15 0 25.5 -11t10.5 -26t-10.5 -26t-25.5 -11
q-16 0 -26.5 11t-10.5 26t10.5 26z" />
    <glyph glyph-name="igrave" unicode="&#xec;" horiz-adv-x="213" 
d="M129 543v-543h-45v543h45zM117 624v-36l-196 126v41z" />
    <glyph glyph-name="iacute" unicode="&#xed;" horiz-adv-x="213" 
d="M129 543v-543h-45v543h45zM283 714l-196 -126v36l196 131v-41z" />
    <glyph glyph-name="icircumflex" unicode="&#xee;" horiz-adv-x="213" 
d="M129 543v-543h-45v543h45zM108 698l-130 -81v35l130 82l128 -82v-35z" />
    <glyph glyph-name="idieresis" unicode="&#xef;" horiz-adv-x="213" 
d="M129 543v-543h-45v543h45zM7.5 689q10.5 11 26.5 11t26.5 -11t10.5 -26t-10.5 -26t-26.5 -11t-26.5 11t-10.5 26t10.5 26zM153.5 689q10.5 11 26.5 11q15 0 25.5 -11t10.5 -26t-10.5 -26t-25.5 -11q-16 0 -26.5 11t-10.5 26t10.5 26z" />
    <glyph glyph-name="eth" unicode="&#xf0;" horiz-adv-x="645" 
d="M551.5 503.5q38.5 -89.5 38.5 -195.5q0 -103 -33.5 -173.5t-93.5 -106t-139 -35.5q-81 0 -142 37t-94 103t-33 153q0 80 33 140.5t93 94t139 33.5q80 0 141.5 -44.5t85.5 -132.5q-13 85 -46.5 152t-98.5 133l-148 -53v25l129 46q-36 32 -70 60h43q20 -15 58 -49l140 49
v-24l-121 -43q80 -80 118.5 -169.5zM436 61q50 28 79 82.5t29 128.5q0 76 -29.5 130.5t-80 83t-111.5 28.5q-64 0 -114 -26.5t-79 -78t-29 -123.5q0 -79 28.5 -136t79 -87t115.5 -30q62 0 112 28z" />
    <glyph glyph-name="ntilde" unicode="&#xf1;" horiz-adv-x="624" 
d="M489 494q60 -60 60 -177v-317h-45v315q0 98 -49 149.5t-134 51.5q-88 0 -141.5 -57.5t-53.5 -169.5v-289h-45v543h45v-143q20 76 76.5 115t130.5 39q96 0 156 -60zM289 678.5q13 -6.5 29 -19.5q15 -12 26 -18t26 -6q17 0 29 12t15 35h30q-4 -35 -24.5 -56.5t-50.5 -21.5
q-18 0 -31.5 6.5t-32.5 20.5q-16 11 -25.5 16.5t-22.5 5.5q-36 0 -43 -48h-29q5 38 24 59t49 21q18 0 31 -6.5z" />
    <glyph glyph-name="ograve" unicode="&#xf2;" horiz-adv-x="646" 
d="M461 516.5q61 -33.5 95.5 -96.5t34.5 -148q0 -86 -34.5 -149t-95.5 -96.5t-138 -33.5q-76 0 -137 33.5t-96 97t-35 148.5t35 148t96 96.5t137 33.5q77 0 138 -33.5zM213.5 484q-50.5 -26 -81.5 -79.5t-31 -132.5t31 -133t81.5 -80t109.5 -26t109.5 26t81.5 80t31 133
t-30.5 132.5t-81 79.5t-110.5 26q-59 0 -109.5 -26zM333 624v-36l-196 126v41z" />
    <glyph glyph-name="oacute" unicode="&#xf3;" horiz-adv-x="646" 
d="M461 516.5q61 -33.5 95.5 -96.5t34.5 -148q0 -86 -34.5 -149t-95.5 -96.5t-138 -33.5q-76 0 -137 33.5t-96 97t-35 148.5t35 148t96 96.5t137 33.5q77 0 138 -33.5zM213.5 484q-50.5 -26 -81.5 -79.5t-31 -132.5t31 -133t81.5 -80t109.5 -26t109.5 26t81.5 80t31 133
t-30.5 132.5t-81 79.5t-110.5 26q-59 0 -109.5 -26zM499 714l-196 -126v36l196 131v-41z" />
    <glyph glyph-name="ocircumflex" unicode="&#xf4;" horiz-adv-x="646" 
d="M461 516.5q61 -33.5 95.5 -96.5t34.5 -148q0 -86 -34.5 -149t-95.5 -96.5t-138 -33.5q-76 0 -137 33.5t-96 97t-35 148.5t35 148t96 96.5t137 33.5q77 0 138 -33.5zM213.5 484q-50.5 -26 -81.5 -79.5t-31 -132.5t31 -133t81.5 -80t109.5 -26t109.5 26t81.5 80t31 133
t-30.5 132.5t-81 79.5t-110.5 26q-59 0 -109.5 -26zM324 698l-130 -81v35l130 82l128 -82v-35z" />
    <glyph glyph-name="otilde" unicode="&#xf5;" horiz-adv-x="646" 
d="M461 516.5q61 -33.5 95.5 -96.5t34.5 -148q0 -86 -34.5 -149t-95.5 -96.5t-138 -33.5q-76 0 -137 33.5t-96 97t-35 148.5t35 148t96 96.5t137 33.5q77 0 138 -33.5zM213.5 484q-50.5 -26 -81.5 -79.5t-31 -132.5t31 -133t81.5 -80t109.5 -26t109.5 26t81.5 80t31 133
t-30.5 132.5t-81 79.5t-110.5 26q-59 0 -109.5 -26zM297 678.5q13 -6.5 29 -19.5q15 -12 26 -18t26 -6q17 0 29 12t15 35h30q-4 -35 -24.5 -56.5t-50.5 -21.5q-18 0 -31.5 6.5t-32.5 20.5q-16 11 -25.5 16.5t-22.5 5.5q-36 0 -43 -48h-29q5 38 24 59t49 21q18 0 31 -6.5z
" />
    <glyph glyph-name="odieresis" unicode="&#xf6;" horiz-adv-x="646" 
d="M461 516.5q61 -33.5 95.5 -96.5t34.5 -148q0 -86 -34.5 -149t-95.5 -96.5t-138 -33.5q-76 0 -137 33.5t-96 97t-35 148.5t35 148t96 96.5t137 33.5q77 0 138 -33.5zM213.5 484q-50.5 -26 -81.5 -79.5t-31 -132.5t31 -133t81.5 -80t109.5 -26t109.5 26t81.5 80t31 133
t-30.5 132.5t-81 79.5t-110.5 26q-59 0 -109.5 -26zM223.5 689q10.5 11 26.5 11t26.5 -11t10.5 -26t-10.5 -26t-26.5 -11t-26.5 11t-10.5 26t10.5 26zM369.5 689q10.5 11 26.5 11q15 0 25.5 -11t10.5 -26t-10.5 -26t-25.5 -11q-16 0 -26.5 11t-10.5 26t10.5 26z" />
    <glyph glyph-name="divide" unicode="&#xf7;" horiz-adv-x="584" 
d="M328 626v-69h-71v69h71zM547 396v-41h-509v41h509zM328 196v-69h-71v69h71z" />
    <glyph glyph-name="oslash" unicode="&#xf8;" horiz-adv-x="644" 
d="M590 272q0 -86 -34.5 -149t-95.5 -96.5t-138 -33.5q-52 0 -98 16t-81 46l-50 -55h-33l66 72q-35 37 -53.5 87.5t-18.5 112.5q0 85 35 148t96 96.5t137 33.5q53 0 99.5 -16.5t81.5 -47.5l51 57h32l-66 -73q70 -76 70 -198zM155 105l319 350q-30 27 -69.5 41t-82.5 14
q-59 0 -109.5 -26t-81.5 -79.5t-31 -132.5q0 -104 55 -167zM431.5 59q50.5 26 81.5 80t31 133q0 102 -54 166l-318 -351q30 -27 68.5 -40.5t81.5 -13.5q59 0 109.5 26z" />
    <glyph glyph-name="ugrave" unicode="&#xf9;" horiz-adv-x="611" 
d="M531 543v-543h-46v142q-20 -75 -76.5 -114t-130.5 -39q-95 0 -155 60t-60 178v316h44v-315q0 -97 49 -148.5t134 -51.5q89 0 142 57.5t53 169.5v288h46zM307 624v-36l-196 126v41z" />
    <glyph glyph-name="uacute" unicode="&#xfa;" horiz-adv-x="611" 
d="M531 543v-543h-46v142q-20 -75 -76.5 -114t-130.5 -39q-95 0 -155 60t-60 178v316h44v-315q0 -97 49 -148.5t134 -51.5q89 0 142 57.5t53 169.5v288h46zM473 714l-196 -126v36l196 131v-41z" />
    <glyph glyph-name="ucircumflex" unicode="&#xfb;" horiz-adv-x="611" 
d="M531 543v-543h-46v142q-20 -75 -76.5 -114t-130.5 -39q-95 0 -155 60t-60 178v316h44v-315q0 -97 49 -148.5t134 -51.5q89 0 142 57.5t53 169.5v288h46zM298 698l-130 -81v35l130 82l128 -82v-35z" />
    <glyph glyph-name="udieresis" unicode="&#xfc;" horiz-adv-x="611" 
d="M531 543v-543h-46v142q-20 -75 -76.5 -114t-130.5 -39q-95 0 -155 60t-60 178v316h44v-315q0 -97 49 -148.5t134 -51.5q89 0 142 57.5t53 169.5v288h46zM197.5 689q10.5 11 26.5 11t26.5 -11t10.5 -26t-10.5 -26t-26.5 -11t-26.5 11t-10.5 26t10.5 26zM343.5 689
q10.5 11 26.5 11q15 0 25.5 -11t10.5 -26t-10.5 -26t-25.5 -11q-16 0 -26.5 11t-10.5 26t10.5 26z" />
    <glyph glyph-name="yacute" unicode="&#xfd;" horiz-adv-x="525" 
d="M66 543l204 -483l189 483h50l-315 -799h-52l104 259l-230 540h50zM439 714l-196 -126v36l196 131v-41z" />
    <glyph glyph-name="thorn" unicode="&#xfe;" horiz-adv-x="672" 
d="M491 516q59 -34 92.5 -97.5t33.5 -147.5t-33.5 -147t-92.5 -97t-135 -34q-87 0 -148 45.5t-83 121.5v-416h-44v996h44v-355q22 74 83 119.5t148 45.5q76 0 135 -34zM234 480.5q-51 -29.5 -80 -83.5t-29 -125q0 -72 29 -126t80 -83.5t115 -29.5q101 0 162 63.5t61 174.5
q0 74 -28 128t-78.5 82.5t-116.5 28.5q-64 0 -115 -29.5z" />
    <glyph glyph-name="ydieresis" unicode="&#xff;" horiz-adv-x="525" 
d="M66 543l204 -483l189 483h50l-315 -799h-52l104 259l-230 540h50zM163.5 689q10.5 11 26.5 11t26.5 -11t10.5 -26t-10.5 -26t-26.5 -11t-26.5 11t-10.5 26t10.5 26zM309.5 689q10.5 11 26.5 11q15 0 25.5 -11t10.5 -26t-10.5 -26t-25.5 -11q-16 0 -26.5 11t-10.5 26
t10.5 26z" />
    <glyph glyph-name="Amacron" unicode="&#x100;" horiz-adv-x="623" 
d="M479 183h-334l-69 -183h-50l261 686h50l259 -686h-49zM465 220l-153 411l-154 -411h307zM474 851v-35h-325v35h325z" />
    <glyph glyph-name="amacron" unicode="&#x101;" horiz-adv-x="672" 
d="M464 503.5q61 -46.5 83 -122.5v162h45v-543h-45v162q-22 -76 -83 -122.5t-150 -46.5q-76 0 -134.5 33.5t-91.5 97t-33 148.5t33 148t91.5 96.5t134.5 33.5q89 0 150 -46.5zM161.5 446q-60.5 -64 -60.5 -174q0 -111 60 -175t163 -64q64 0 115 29.5t79.5 84t28.5 125.5
t-28.5 125t-79.5 83.5t-115 29.5q-102 0 -162.5 -64zM486 689v-35h-325v35h325z" />
    <glyph glyph-name="Abreve" unicode="&#x102;" horiz-adv-x="623" 
d="M479 183h-334l-69 -183h-50l261 686h50l259 -686h-49zM465 220l-153 411l-154 -411h307zM217 810q-33 34 -33 82v6h31q0 -41 25 -63.5t71 -22.5t71 22.5t25 63.5h31v-6q0 -48 -32.5 -82t-94.5 -34q-61 0 -94 34z" />
    <glyph glyph-name="abreve" unicode="&#x103;" horiz-adv-x="672" 
d="M464 503.5q61 -46.5 83 -122.5v162h45v-543h-45v162q-22 -76 -83 -122.5t-150 -46.5q-76 0 -134.5 33.5t-91.5 97t-33 148.5t33 148t91.5 96.5t134.5 33.5q89 0 150 -46.5zM161.5 446q-60.5 -64 -60.5 -174q0 -111 60 -175t163 -64q64 0 115 29.5t79.5 84t28.5 125.5
t-28.5 125t-79.5 83.5t-115 29.5q-102 0 -162.5 -64zM229 648q-33 34 -33 82v6h31q0 -41 25 -63.5t71 -22.5t71 22.5t25 63.5h31v-6q0 -48 -32.5 -82t-94.5 -34q-61 0 -94 34z" />
    <glyph glyph-name="Aogonek" unicode="&#x104;" horiz-adv-x="623" 
d="M636 -162v-32h-80q-56 0 -88 27t-32 72q0 40 27.5 65.5t83.5 30.5l-68 182h-334l-69 -183h-50l261 686h50l259 -684v-29h-37q-41 0 -64 -18t-23 -49q0 -32 23 -50t64 -18h77zM465 220l-153 408l-153 -408h306z" />
    <glyph glyph-name="aogonek" unicode="&#x105;" horiz-adv-x="672" 
d="M464 503.5q61 -46.5 83 -122.5v162h45v-543h-45v162q-22 -76 -83 -122.5t-150 -46.5q-76 0 -134.5 33.5t-91.5 97t-33 148.5t33 148t91.5 96.5t134.5 33.5q89 0 150 -46.5zM161.5 446q-60.5 -64 -60.5 -174q0 -111 60 -175t163 -64q64 0 115 29.5t79.5 84t28.5 125.5
t-28.5 125t-79.5 83.5t-115 29.5q-102 0 -162.5 -64zM591 5v-30h-37q-40 0 -63 -18.5t-23 -49.5t23 -49.5t63 -18.5h78v-31h-81q-55 0 -87 27t-32 71t31.5 71.5t85.5 27.5h42z" />
    <glyph glyph-name="Cacute" unicode="&#x106;" horiz-adv-x="767" 
d="M593 652.5q82 -59.5 118 -163.5h-47q-30 82 -101 131.5t-176 49.5q-80 0 -144.5 -38.5t-102 -110.5t-37.5 -169q0 -96 37.5 -168t102 -110.5t144.5 -38.5q105 0 176 49.5t101 130.5h47q-36 -104 -118 -163t-206 -59q-96 0 -171.5 45.5t-117.5 127.5t-42 186t42 186
t117.5 128t171.5 46q124 0 206 -59.5zM560 876l-196 -126v36l196 131v-41z" />
    <glyph glyph-name="cacute" unicode="&#x107;" horiz-adv-x="626" 
d="M489 496.5q67 -53.5 82 -141.5h-47q-12 72 -68 114t-138 42q-59 0 -108 -26t-79 -80t-30 -133t30 -133t79 -80t108 -26q82 0 138 42t68 114h47q-15 -89 -82 -142.5t-170 -53.5q-77 0 -136.5 33.5t-93.5 96.5t-34 149q0 85 34 148t93.5 96.5t136.5 33.5q103 0 170 -53.5z
M490 714l-196 -126v36l196 131v-41z" />
    <glyph glyph-name="Cdotaccent" unicode="&#x10a;" horiz-adv-x="767" 
d="M593 652.5q82 -59.5 118 -163.5h-47q-30 82 -101 131.5t-176 49.5q-80 0 -144.5 -38.5t-102 -110.5t-37.5 -169q0 -96 37.5 -168t102 -110.5t144.5 -38.5q105 0 176 49.5t101 130.5h47q-36 -104 -118 -163t-206 -59q-96 0 -171.5 45.5t-117.5 127.5t-42 186t42 186
t117.5 128t171.5 46q124 0 206 -59.5zM357 851q11 11 26 11q16 0 26.5 -11t10.5 -26t-10.5 -26t-26.5 -11q-15 0 -26 11t-11 26t11 26z" />
    <glyph glyph-name="cdotaccent" unicode="&#x10b;" horiz-adv-x="626" 
d="M489 496.5q67 -53.5 82 -141.5h-47q-12 72 -68 114t-138 42q-59 0 -108 -26t-79 -80t-30 -133t30 -133t79 -80t108 -26q82 0 138 42t68 114h47q-15 -89 -82 -142.5t-170 -53.5q-77 0 -136.5 33.5t-93.5 96.5t-34 149q0 85 34 148t93.5 96.5t136.5 33.5q103 0 170 -53.5z
M286 689q11 11 26 11q16 0 26.5 -11t10.5 -26t-10.5 -26t-26.5 -11q-15 0 -26 11t-11 26t11 26z" />
    <glyph glyph-name="Ccaron" unicode="&#x10c;" horiz-adv-x="767" 
d="M593 652.5q82 -59.5 118 -163.5h-47q-30 82 -101 131.5t-176 49.5q-80 0 -144.5 -38.5t-102 -110.5t-37.5 -169q0 -96 37.5 -168t102 -110.5t144.5 -38.5q105 0 176 49.5t101 130.5h47q-36 -104 -118 -163t-206 -59q-96 0 -171.5 45.5t-117.5 127.5t-42 186t42 186
t117.5 128t171.5 46q124 0 206 -59.5zM513 857l-128 -81l-130 81v36l130 -82l128 82v-36z" />
    <glyph glyph-name="ccaron" unicode="&#x10d;" horiz-adv-x="626" 
d="M489 496.5q67 -53.5 82 -141.5h-47q-12 72 -68 114t-138 42q-59 0 -108 -26t-79 -80t-30 -133t30 -133t79 -80t108 -26q82 0 138 42t68 114h47q-15 -89 -82 -142.5t-170 -53.5q-77 0 -136.5 33.5t-93.5 96.5t-34 149q0 85 34 148t93.5 96.5t136.5 33.5q103 0 170 -53.5z
M442 695l-128 -81l-130 81v36l130 -82l128 82v-36z" />
    <glyph glyph-name="Dcaron" unicode="&#x10e;" horiz-adv-x="707" 
d="M555 93q-96 -93 -276 -93h-198v705h198q180 0 276 -93t96 -259q0 -167 -96 -260zM522 123q83 82 83 230t-83.5 230t-244.5 82h-151v-624h151q162 0 245 82zM495 857l-128 -81l-130 81v36l130 -82l128 82v-36z" />
    <glyph glyph-name="dcaron" unicode="&#x10f;" horiz-adv-x="697" 
d="M464 503.5q61 -46.5 83 -122.5v359h45v-740h-45v162q-22 -76 -83 -122.5t-150 -46.5q-76 0 -134.5 33.5t-91.5 97t-33 148.5t33 148t91.5 96.5t134.5 33.5q89 0 150 -46.5zM723 663q0 -48 -20 -69t-59 -21v27q25 0 35.5 12t10.5 37v26h-42v65h69q6 -46 6 -77zM161.5 446
q-60.5 -64 -60.5 -174q0 -111 60 -175t163 -64q64 0 115 29.5t79.5 84t28.5 125.5t-28.5 125t-79.5 83.5t-115 29.5q-102 0 -162.5 -64z" />
    <glyph glyph-name="Dcroat" unicode="&#x110;" horiz-adv-x="742" 
d="M590 612q96 -93 96 -259q0 -167 -96 -260t-276 -93h-198v334h-107v37h107v334h198q180 0 276 -93zM557 123q83 82 83 230t-83.5 230t-244.5 82h-151v-294h220v-37h-220v-293h151q162 0 245 82z" />
    <glyph glyph-name="dcroat" unicode="&#x111;" horiz-adv-x="669" 
d="M659 643h-67v-643h-45v162q-22 -76 -83 -122.5t-150 -46.5q-76 0 -134.5 33.5t-91.5 97t-33 148.5t33 148t91.5 96.5t134.5 33.5q89 0 150 -46.5t83 -122.5v262h-187v28h187v69h45v-69h67v-28zM439 62.5q51 29.5 79.5 84t28.5 125.5t-28.5 125t-79.5 83.5t-115 29.5
q-102 0 -162.5 -64t-60.5 -174q0 -111 60 -175t163 -64q64 0 115 29.5z" />
    <glyph glyph-name="Emacron" unicode="&#x112;" horiz-adv-x="489" 
d="M126 667v-296h285v-36h-285v-297h315v-38h-360v705h360v-38h-315zM424 851v-35h-325v35h325z" />
    <glyph glyph-name="emacron" unicode="&#x113;" horiz-adv-x="627" 
d="M455 72.5q56 41.5 68 113.5h47q-15 -87 -81.5 -140t-169.5 -53q-77 0 -136.5 33.5t-93.5 96.5t-34 149q0 85 34 148t93.5 96.5t136.5 33.5q79 0 136.5 -33.5t87 -88t29.5 -116.5q0 -25 -5 -53h-467q1 -76 31.5 -127.5t79 -76t106.5 -24.5q82 0 138 41.5zM211 488
q-49 -25 -79.5 -76t-31.5 -126h428q4 75 -25 126.5t-78 76t-106 24.5q-59 0 -108 -25zM476 689v-35h-325v35h325z" />
    <glyph glyph-name="Ebreve" unicode="&#x114;" horiz-adv-x="489" 
d="M126 667v-296h285v-36h-285v-297h315v-38h-360v705h360v-38h-315zM167 810q-33 34 -33 82v6h31q0 -41 25 -63.5t71 -22.5t71 22.5t25 63.5h31v-6q0 -48 -32.5 -82t-94.5 -34q-61 0 -94 34z" />
    <glyph glyph-name="ebreve" unicode="&#x115;" horiz-adv-x="627" 
d="M455 72.5q56 41.5 68 113.5h47q-15 -87 -81.5 -140t-169.5 -53q-77 0 -136.5 33.5t-93.5 96.5t-34 149q0 85 34 148t93.5 96.5t136.5 33.5q79 0 136.5 -33.5t87 -88t29.5 -116.5q0 -25 -5 -53h-467q1 -76 31.5 -127.5t79 -76t106.5 -24.5q82 0 138 41.5zM211 488
q-49 -25 -79.5 -76t-31.5 -126h428q4 75 -25 126.5t-78 76t-106 24.5q-59 0 -108 -25zM219 648q-33 34 -33 82v6h31q0 -41 25 -63.5t71 -22.5t71 22.5t25 63.5h31v-6q0 -48 -32.5 -82t-94.5 -34q-61 0 -94 34z" />
    <glyph glyph-name="Edotaccent" unicode="&#x116;" horiz-adv-x="489" 
d="M126 667v-296h285v-36h-285v-297h315v-38h-360v705h360v-38h-315zM234 851q11 11 26 11q16 0 26.5 -11t10.5 -26t-10.5 -26t-26.5 -11q-15 0 -26 11t-11 26t11 26z" />
    <glyph glyph-name="edotaccent" unicode="&#x117;" horiz-adv-x="627" 
d="M455 72.5q56 41.5 68 113.5h47q-15 -87 -81.5 -140t-169.5 -53q-77 0 -136.5 33.5t-93.5 96.5t-34 149q0 85 34 148t93.5 96.5t136.5 33.5q79 0 136.5 -33.5t87 -88t29.5 -116.5q0 -25 -5 -53h-467q1 -76 31.5 -127.5t79 -76t106.5 -24.5q82 0 138 41.5zM211 488
q-49 -25 -79.5 -76t-31.5 -126h428q4 75 -25 126.5t-78 76t-106 24.5q-59 0 -108 -25zM287 689q11 11 26 11q16 0 26.5 -11t10.5 -26t-10.5 -26t-26.5 -11q-15 0 -26 11t-11 26t11 26z" />
    <glyph glyph-name="Eogonek" unicode="&#x118;" horiz-adv-x="489" 
d="M126 667v-296h285v-36h-285v-297h315v-38h-360v705h360v-38h-315zM435 15v-30h-37q-40 0 -63 -18.5t-23 -49.5t23 -49.5t63 -18.5h78v-31h-81q-55 0 -87 27t-32 71t31.5 71.5t85.5 27.5h42z" />
    <glyph glyph-name="eogonek" unicode="&#x119;" horiz-adv-x="627" 
d="M455 72.5q56 41.5 68 113.5h47q-12 -77 -68 -128.5t-142 -61.5q-24 -3 -24 -26q0 -26 24 -42.5t64 -16.5h75v-32h-79q-56 0 -87.5 27t-31.5 71v17q-72 4 -127.5 38.5t-87 96t-31.5 143.5q0 85 34 148t93.5 96.5t136.5 33.5q79 0 136.5 -33.5t87 -88t29.5 -116.5
q0 -25 -5 -53h-467q1 -76 31.5 -127.5t79.5 -76t106 -24.5q82 0 138 41.5zM211 488q-49 -25 -79.5 -76t-31.5 -126h428q4 75 -25 126.5t-78 76t-106 24.5q-59 0 -108 -25z" />
    <glyph glyph-name="Ecaron" unicode="&#x11a;" horiz-adv-x="489" 
d="M126 667v-296h285v-36h-285v-297h315v-38h-360v705h360v-38h-315zM390 857l-128 -81l-130 81v36l130 -82l128 82v-36z" />
    <glyph glyph-name="ecaron" unicode="&#x11b;" horiz-adv-x="627" 
d="M455 72.5q56 41.5 68 113.5h47q-15 -87 -81.5 -140t-169.5 -53q-77 0 -136.5 33.5t-93.5 96.5t-34 149q0 85 34 148t93.5 96.5t136.5 33.5q79 0 136.5 -33.5t87 -88t29.5 -116.5q0 -25 -5 -53h-467q1 -76 31.5 -127.5t79 -76t106.5 -24.5q82 0 138 41.5zM211 488
q-49 -25 -79.5 -76t-31.5 -126h428q4 75 -25 126.5t-78 76t-106 24.5q-59 0 -108 -25zM443 695l-128 -81l-130 81v36l130 -82l128 82v-36z" />
    <glyph glyph-name="Gbreve" unicode="&#x11e;" horiz-adv-x="787" 
d="M594 651.5q82 -59.5 116 -160.5h-47q-30 80 -100 129t-168 49q-82 0 -148.5 -38.5t-105 -110.5t-38.5 -168q0 -98 38.5 -170t106 -110.5t150.5 -38.5q79 0 144.5 36t105 103t43.5 158h-312v35h352v-34q-3 -97 -46 -174.5t-118.5 -121t-171.5 -43.5q-98 0 -175.5 46
t-120.5 128t-43 186t43 186t120.5 127.5t175.5 45.5q117 0 199 -59.5zM300 810q-33 34 -33 82v6h31q0 -41 25 -63.5t71 -22.5t71 22.5t25 63.5h31v-6q0 -48 -32.5 -82t-94.5 -34q-61 0 -94 34z" />
    <glyph glyph-name="gbreve" unicode="&#x11f;" horiz-adv-x="672" 
d="M464 503.5q61 -46.5 83 -122.5v162h45v-559q0 -75 -32.5 -132t-89 -87.5t-124.5 -30.5q-102 0 -168.5 49.5t-88.5 134.5h44q20 -66 74 -105t137 -39q57 0 103.5 25.5t73 73t26.5 111.5v178q-22 -76 -83 -122.5t-150 -46.5q-76 0 -134.5 33.5t-91.5 97t-33 148.5t33 148
t91.5 96.5t134.5 33.5q89 0 150 -46.5zM161.5 446q-60.5 -64 -60.5 -174q0 -111 60 -175t163 -64q64 0 115 29.5t79.5 84t28.5 125.5t-28.5 125t-79.5 83.5t-115 29.5q-102 0 -162.5 -64zM229 648q-33 34 -33 82v6h31q0 -41 25 -63.5t71 -22.5t71 22.5t25 63.5h31v-6
q0 -48 -32.5 -82t-94.5 -34q-61 0 -94 34z" />
    <glyph glyph-name="Gdotaccent" unicode="&#x120;" horiz-adv-x="787" 
d="M594 651.5q82 -59.5 116 -160.5h-47q-30 80 -100 129t-168 49q-82 0 -148.5 -38.5t-105 -110.5t-38.5 -168q0 -98 38.5 -170t106 -110.5t150.5 -38.5q79 0 144.5 36t105 103t43.5 158h-312v35h352v-34q-3 -97 -46 -174.5t-118.5 -121t-171.5 -43.5q-98 0 -175.5 46
t-120.5 128t-43 186t43 186t120.5 127.5t175.5 45.5q117 0 199 -59.5zM367 851q11 11 26 11q16 0 26.5 -11t10.5 -26t-10.5 -26t-26.5 -11q-15 0 -26 11t-11 26t11 26z" />
    <glyph glyph-name="gdotaccent" unicode="&#x121;" horiz-adv-x="672" 
d="M464 503.5q61 -46.5 83 -122.5v162h45v-559q0 -75 -32.5 -132t-89 -87.5t-124.5 -30.5q-102 0 -168.5 49.5t-88.5 134.5h44q20 -66 74 -105t137 -39q57 0 103.5 25.5t73 73t26.5 111.5v178q-22 -76 -83 -122.5t-150 -46.5q-76 0 -134.5 33.5t-91.5 97t-33 148.5t33 148
t91.5 96.5t134.5 33.5q89 0 150 -46.5zM161.5 446q-60.5 -64 -60.5 -174q0 -111 60 -175t163 -64q64 0 115 29.5t79.5 84t28.5 125.5t-28.5 125t-79.5 83.5t-115 29.5q-102 0 -162.5 -64zM297 689q11 11 26 11q16 0 26.5 -11t10.5 -26t-10.5 -26t-26.5 -11q-15 0 -26 11
t-11 26t11 26z" />
    <glyph glyph-name="uni0122" unicode="&#x122;" horiz-adv-x="788" 
d="M594 651.5q82 -59.5 116 -160.5h-47q-30 80 -100 129t-168 49q-82 0 -148.5 -38.5t-105 -110.5t-38.5 -168q0 -98 38.5 -170t106 -110.5t150.5 -38.5q79 0 144.5 36t105 103t43.5 158h-312v35h352v-34q-3 -97 -46 -174.5t-118.5 -121t-171.5 -43.5q-98 0 -175.5 46
t-120.5 128t-43 186t43 186t120.5 127.5t175.5 45.5q117 0 199 -59.5zM436 -100q0 -53 -20 -75t-57 -22v25q44 0 44 57v7h-36v52h64q5 -23 5 -44z" />
    <glyph glyph-name="uni0123" unicode="&#x123;" horiz-adv-x="672" 
d="M286 671q0 48 20 69t59 21v-27q-25 0 -35.5 -12t-10.5 -37v-26h42v-65h-68q-7 43 -7 77zM464 503.5q61 -46.5 83 -122.5v162h45v-559q0 -75 -32.5 -132t-89 -87.5t-124.5 -30.5q-102 0 -168.5 49.5t-88.5 134.5h44q20 -66 74 -105t137 -39q57 0 103.5 25.5t73 73
t26.5 111.5v178q-22 -76 -83 -122.5t-150 -46.5q-76 0 -134.5 33.5t-91.5 97t-33 148.5t33 148t91.5 96.5t134.5 33.5q89 0 150 -46.5zM161.5 446q-60.5 -64 -60.5 -174q0 -111 60 -175t163 -64q64 0 115 29.5t79.5 84t28.5 125.5t-28.5 125t-79.5 83.5t-115 29.5
q-102 0 -162.5 -64z" />
    <glyph glyph-name="Itilde" unicode="&#x128;" horiz-adv-x="207" 
d="M126 705v-705h-45v705h45zM78 840.5q13 -6.5 29 -19.5q15 -12 26 -18t26 -6q17 0 29 12t15 35h30q-4 -35 -24.5 -56.5t-50.5 -21.5q-18 0 -31.5 6.5t-32.5 20.5q-16 11 -25.5 16.5t-22.5 5.5q-36 0 -43 -48h-29q5 38 24 59t49 21q18 0 31 -6.5z" />
    <glyph glyph-name="itilde" unicode="&#x129;" horiz-adv-x="213" 
d="M129 543v-543h-45v543h45zM81 678.5q13 -6.5 29 -19.5q15 -12 26 -18t26 -6q17 0 29 12t15 35h30q-4 -35 -24.5 -56.5t-50.5 -21.5q-18 0 -31.5 6.5t-32.5 20.5q-16 11 -25.5 16.5t-22.5 5.5q-36 0 -43 -48h-29q5 38 24 59t49 21q18 0 31 -6.5z" />
    <glyph glyph-name="Imacron" unicode="&#x12a;" horiz-adv-x="207" 
d="M126 705v-705h-45v705h45zM266 851v-35h-325v35h325z" />
    <glyph glyph-name="imacron" unicode="&#x12b;" horiz-adv-x="213" 
d="M129 543v-543h-45v543h45zM269 689v-35h-325v35h325z" />
    <glyph glyph-name="uni012C" unicode="&#x12c;" horiz-adv-x="207" 
d="M126 705v-705h-45v705h45zM9 810q-33 34 -33 82v6h31q0 -41 25 -63.5t71 -22.5t71 22.5t25 63.5h31v-6q0 -48 -32.5 -82t-94.5 -34q-61 0 -94 34z" />
    <glyph glyph-name="uni012D" unicode="&#x12d;" horiz-adv-x="213" 
d="M129 543v-543h-45v543h45zM12 648q-33 34 -33 82v6h31q0 -41 25 -63.5t71 -22.5t71 22.5t25 63.5h31v-6q0 -48 -32.5 -82t-94.5 -34q-61 0 -94 34z" />
    <glyph glyph-name="Iogonek" unicode="&#x12e;" horiz-adv-x="207" 
d="M126 705v-705h-45v705h45zM126 5v-30h-37q-40 0 -63 -18.5t-23 -49.5t23 -49.5t63 -18.5h78v-31h-81q-55 0 -87 27t-32 71t31.5 71.5t85.5 27.5h42z" />
    <glyph glyph-name="iogonek" unicode="&#x12f;" horiz-adv-x="207" 
d="M75.5 733.5q10.5 10.5 27.5 10.5t28 -10.5t11 -26.5q0 -17 -11 -27.5t-28 -10.5t-27.5 10.5t-10.5 27.5q0 16 10.5 26.5zM126 543v-543h-45v543h45zM126 5v-30h-37q-40 0 -63 -18.5t-23 -49.5t23 -49.5t63 -18.5h78v-31h-81q-55 0 -87 27t-32 71t31.5 71.5t85.5 27.5h42z
" />
    <glyph glyph-name="Idotaccent" unicode="&#x130;" horiz-adv-x="207" 
d="M126 705v-705h-45v705h45zM77 851q11 11 26 11q16 0 26.5 -11t10.5 -26t-10.5 -26t-26.5 -11q-15 0 -26 11t-11 26t11 26z" />
    <glyph glyph-name="dotlessi" unicode="&#x131;" horiz-adv-x="213" 
d="M129 543v-543h-45v543h45z" />
    <glyph glyph-name="uni0136" unicode="&#x136;" horiz-adv-x="532" 
d="M163 353l345 -353h-57l-325 334v-334h-45v705h45v-334l325 334h57zM294 -56q5 -23 5 -44q0 -53 -20.5 -75t-57.5 -22v25q24 0 34.5 14.5t10.5 42.5v7h-36v52h64z" />
    <glyph glyph-name="uni0137" unicode="&#x137;" horiz-adv-x="430" 
d="M421 0h-60l-235 250v-250h-45v740h45v-441l230 244h59l-258 -269zM252 -56q5 -23 5 -44q0 -53 -20.5 -75t-57.5 -22v25q24 0 34.5 14.5t10.5 42.5v7h-36v52h64z" />
    <glyph glyph-name="Lacute" unicode="&#x139;" horiz-adv-x="409" 
d="M126 37h263v-37h-308v705h45v-668zM288 876l-196 -126v36l196 131v-41z" />
    <glyph glyph-name="lacute" unicode="&#x13a;" horiz-adv-x="207" 
d="M126 740v-740h-45v740h45zM276 908l-196 -126v36l196 131v-41z" />
    <glyph glyph-name="uni013B" unicode="&#x13b;" horiz-adv-x="410" 
d="M126 37h263v-37h-308v705h45v-668zM277 -100q0 -53 -20.5 -75t-57.5 -22v25q45 0 45 57v7h-37v52h65q5 -23 5 -44z" />
    <glyph glyph-name="uni013C" unicode="&#x13c;" horiz-adv-x="207" 
d="M126 740v-740h-45v740h45zM139 -100q0 -53 -20.5 -75t-57.5 -22v25q45 0 45 57v7h-36v52h64q5 -23 5 -44z" />
    <glyph glyph-name="Lcaron" unicode="&#x13d;" horiz-adv-x="418" 
d="M126 37h263v-37h-308v705h45v-668zM324 627q0 -48 -20 -69t-59 -21v27q25 0 35.5 12t10.5 37v27h-42v65h69q6 -38 6 -78z" />
    <glyph glyph-name="lcaron" unicode="&#x13e;" horiz-adv-x="231" 
d="M126 740v-740h-45v740h45zM258 663q0 -48 -20.5 -69t-59.5 -21v27q25 0 36 12t11 37v26h-43v65h69q7 -43 7 -77z" />
    <glyph glyph-name="Ldot" unicode="&#x13f;" horiz-adv-x="409" 
d="M126 37h263v-37h-308v705h45v-668zM326 378q11 11 26 11q16 0 26.5 -11t10.5 -26t-10.5 -26t-26.5 -11q-15 0 -26 11t-11 26t11 26z" />
    <glyph glyph-name="ldot" unicode="&#x140;" horiz-adv-x="216" 
d="M126 740v-740h-45v740h45zM185 396q11 11 26 11q16 0 26.5 -11t10.5 -26t-10.5 -26t-26.5 -11q-15 0 -26 11t-11 26t11 26z" />
    <glyph glyph-name="Lslash" unicode="&#x141;" horiz-adv-x="428" 
d="M408 37v-37h-308v341l-90 -40v46l90 40v318h45v-299l151 67v-46l-151 -67v-323h263z" />
    <glyph glyph-name="lslash" unicode="&#x142;" horiz-adv-x="230" 
d="M220 504l-82 -42v-462h-45v439l-83 -42v44l83 42v257h45v-234l82 42v-44z" />
    <glyph glyph-name="Nacute" unicode="&#x143;" horiz-adv-x="664" 
d="M583 0h-45l-412 628v-628h-45v704h45l412 -628v628h45v-704zM508 876l-196 -126v36l196 131v-41z" />
    <glyph glyph-name="nacute" unicode="&#x144;" horiz-adv-x="624" 
d="M489 494q60 -60 60 -177v-317h-45v315q0 98 -49 149.5t-134 51.5q-88 0 -141.5 -57.5t-53.5 -169.5v-289h-45v543h45v-143q20 76 76.5 115t130.5 39q96 0 156 -60zM491 714l-196 -126v36l196 131v-41z" />
    <glyph glyph-name="uni0145" unicode="&#x145;" horiz-adv-x="670" 
d="M583 0h-45l-412 628v-628h-45v704h45l412 -628v628h45v-704zM371 -100q0 -53 -20.5 -75t-57.5 -22v25q24 0 34.5 14.5t10.5 42.5v7h-36v52h64q5 -23 5 -44z" />
    <glyph glyph-name="uni0146" unicode="&#x146;" horiz-adv-x="624" 
d="M489 494q60 -60 60 -177v-317h-45v315q0 98 -49 149.5t-134 51.5q-88 0 -141.5 -57.5t-53.5 -169.5v-289h-45v543h45v-143q20 76 76.5 115t130.5 39q96 0 156 -60zM352 -56q5 -23 5 -44q0 -53 -20.5 -75t-57.5 -22v25q24 0 34.5 14.5t10.5 42.5v7h-36v52h64z" />
    <glyph glyph-name="Ncaron" unicode="&#x147;" horiz-adv-x="664" 
d="M583 0h-45l-412 628v-628h-45v704h45l412 -628v628h45v-704zM461 857l-128 -81l-130 81v36l130 -82l128 82v-36z" />
    <glyph glyph-name="ncaron" unicode="&#x148;" horiz-adv-x="624" 
d="M489 494q60 -60 60 -177v-317h-45v315q0 98 -49 149.5t-134 51.5q-88 0 -141.5 -57.5t-53.5 -169.5v-289h-45v543h45v-143q20 76 76.5 115t130.5 39q96 0 156 -60zM444 695l-128 -81l-130 81v36l130 -82l128 82v-36z" />
    <glyph glyph-name="Omacron" unicode="&#x14c;" horiz-adv-x="792" 
d="M570.5 665.5q77.5 -45.5 121 -127.5t43.5 -186t-43.5 -186t-121 -128t-174.5 -46t-174.5 46t-121.5 128t-44 186t44 186t121.5 127.5t174.5 45.5t174.5 -45.5zM246.5 631q-66.5 -39 -105 -111t-38.5 -168t38.5 -168t105 -111t149.5 -39q82 0 149 39t105.5 111t38.5 168
t-38.5 168t-105.5 111t-149 39q-83 0 -149.5 -39zM559 851v-35h-325v35h325z" />
    <glyph glyph-name="omacron" unicode="&#x14d;" horiz-adv-x="646" 
d="M461 516.5q61 -33.5 95.5 -96.5t34.5 -148q0 -86 -34.5 -149t-95.5 -96.5t-138 -33.5q-76 0 -137 33.5t-96 97t-35 148.5t35 148t96 96.5t137 33.5q77 0 138 -33.5zM213.5 484q-50.5 -26 -81.5 -79.5t-31 -132.5t31 -133t81.5 -80t109.5 -26t109.5 26t81.5 80t31 133
t-30.5 132.5t-81 79.5t-110.5 26q-59 0 -109.5 -26zM486 689v-35h-325v35h325z" />
    <glyph glyph-name="uni014E" unicode="&#x14e;" horiz-adv-x="792" 
d="M570.5 665.5q77.5 -45.5 121 -127.5t43.5 -186t-43.5 -186t-121 -128t-174.5 -46t-174.5 46t-121.5 128t-44 186t44 186t121.5 127.5t174.5 45.5t174.5 -45.5zM246.5 631q-66.5 -39 -105 -111t-38.5 -168t38.5 -168t105 -111t149.5 -39q82 0 149 39t105.5 111t38.5 168
t-38.5 168t-105.5 111t-149 39q-83 0 -149.5 -39zM302 810q-33 34 -33 82v6h31q0 -41 25 -63.5t71 -22.5t71 22.5t25 63.5h31v-6q0 -48 -32.5 -82t-94.5 -34q-61 0 -94 34z" />
    <glyph glyph-name="uni014F" unicode="&#x14f;" horiz-adv-x="646" 
d="M461 516.5q61 -33.5 95.5 -96.5t34.5 -148q0 -86 -34.5 -149t-95.5 -96.5t-138 -33.5q-76 0 -137 33.5t-96 97t-35 148.5t35 148t96 96.5t137 33.5q77 0 138 -33.5zM213.5 484q-50.5 -26 -81.5 -79.5t-31 -132.5t31 -133t81.5 -80t109.5 -26t109.5 26t81.5 80t31 133
t-30.5 132.5t-81 79.5t-110.5 26q-59 0 -109.5 -26zM228 648q-33 34 -33 82v6h31q0 -41 25 -63.5t71 -22.5t71 22.5t25 63.5h31v-6q0 -48 -32.5 -82t-94.5 -34q-61 0 -94 34z" />
    <glyph glyph-name="Ohungarumlaut" unicode="&#x150;" horiz-adv-x="792" 
d="M570.5 665.5q77.5 -45.5 121 -127.5t43.5 -186t-43.5 -186t-121 -128t-174.5 -46t-174.5 46t-121.5 128t-44 186t44 186t121.5 127.5t174.5 45.5t174.5 -45.5zM246.5 631q-66.5 -39 -105 -111t-38.5 -168t38.5 -168t105 -111t149.5 -39q82 0 149 39t105.5 111t38.5 168
t-38.5 168t-105.5 111t-149 39q-83 0 -149.5 -39zM345 763h-34l63 122h41zM471 763h-34l70 122h41z" />
    <glyph glyph-name="ohungarumlaut" unicode="&#x151;" horiz-adv-x="646" 
d="M461 516.5q61 -33.5 95.5 -96.5t34.5 -148q0 -86 -34.5 -149t-95.5 -96.5t-138 -33.5q-76 0 -137 33.5t-96 97t-35 148.5t35 148t96 96.5t137 33.5q77 0 138 -33.5zM213.5 484q-50.5 -26 -81.5 -79.5t-31 -132.5t31 -133t81.5 -80t109.5 -26t109.5 26t81.5 80t31 133
t-30.5 132.5t-81 79.5t-110.5 26q-59 0 -109.5 -26zM273 601h-34l63 122h41zM399 601h-34l70 122h41z" />
    <glyph glyph-name="OE" unicode="&#x152;" horiz-adv-x="1099" 
d="M736 371h285v-36h-285v-297h315v-38h-360v215q-17 -67 -60 -117.5t-104.5 -78.5t-132.5 -28q-97 0 -174 46t-120.5 128t-43.5 186q0 105 43.5 186.5t120.5 127.5t174 46q71 0 132.5 -27.5t104.5 -78t60 -117.5v217h360v-38h-315v-296zM545 72q67 39 105.5 111t38.5 168
q0 97 -38.5 169t-105.5 111t-149 39q-83 0 -149.5 -39t-105 -111t-38.5 -169q0 -96 38.5 -168t105 -111t149.5 -39q82 0 149 39z" />
    <glyph glyph-name="oe" unicode="&#x153;" horiz-adv-x="1121" 
d="M946 72.5q56 41.5 68 113.5h47q-15 -87 -81.5 -140t-169.5 -53q-89 0 -153.5 46t-88.5 129q-25 -83 -90.5 -129t-154.5 -46q-76 0 -137 33.5t-96 97t-35 148.5t35 148t96 96.5t137 33.5q89 0 154.5 -46t90.5 -129q24 83 88.5 129t153.5 46q79 0 136.5 -33.5t87 -88
t29.5 -116.5q0 -30 -4 -53h-468q1 -76 31.5 -127.5t79.5 -76t106 -24.5q82 0 138 41.5zM702 488q-49 -25 -79.5 -76t-31.5 -126h428q4 75 -24.5 126t-78 76t-106.5 25q-59 0 -108 -25zM432.5 59q50.5 26 81.5 80t31 133t-30.5 132.5t-81 79.5t-110.5 26q-59 0 -109.5 -26
t-81.5 -79.5t-31 -132.5t31 -133t81.5 -80t109.5 -26t109.5 26z" />
    <glyph glyph-name="Racute" unicode="&#x154;" horiz-adv-x="552" 
d="M462 0l-204 300h-132v-300h-45v705h197q117 0 173.5 -55t56.5 -149q0 -90 -51.5 -141.5t-149.5 -58.5l207 -301h-52zM126 337h149q188 0 188 163q0 79 -44.5 121.5t-143.5 42.5h-149v-327zM475 876l-196 -126v36l196 131v-41z" />
    <glyph glyph-name="racute" unicode="&#x155;" horiz-adv-x="354" 
d="M200 520.5q53 33.5 135 33.5v-49h-15q-82 0 -138 -46t-56 -149v-310h-45v543h45v-120q21 64 74 97.5zM385 714l-196 -126v36l196 131v-41z" />
    <glyph glyph-name="uni0156" unicode="&#x156;" horiz-adv-x="556" 
d="M514 0h-52l-204 300h-132v-300h-45v705h197q117 0 173.5 -55t56.5 -149q0 -90 -51.5 -141.5t-149.5 -58.5zM126 337h149q188 0 188 163q0 79 -44.5 121.5t-143.5 42.5h-149v-327zM305 -56q5 -23 5 -44q0 -53 -20 -75t-57 -22v25q44 0 44 57v7h-36v52h64z" />
    <glyph glyph-name="uni0157" unicode="&#x157;" horiz-adv-x="354" 
d="M200 520.5q53 33.5 135 33.5v-49h-15q-82 0 -138 -46t-56 -149v-310h-45v543h45v-120q21 64 74 97.5zM133 -56q5 -23 5 -44q0 -53 -20.5 -75t-57.5 -22v25q24 0 34.5 14.5t10.5 42.5v7h-36v52h64z" />
    <glyph glyph-name="Rcaron" unicode="&#x158;" horiz-adv-x="552" 
d="M462 0l-204 300h-132v-300h-45v705h197q117 0 173.5 -55t56.5 -149q0 -90 -51.5 -141.5t-149.5 -58.5l207 -301h-52zM126 337h149q188 0 188 163q0 79 -44.5 121.5t-143.5 42.5h-149v-327zM427 857l-128 -81l-130 81v36l130 -82l128 82v-36z" />
    <glyph glyph-name="rcaron" unicode="&#x159;" horiz-adv-x="354" 
d="M200 520.5q53 33.5 135 33.5v-49h-15q-82 0 -138 -46t-56 -149v-310h-45v543h45v-120q21 64 74 97.5zM337 695l-128 -81l-130 81v36l130 -82l128 82v-36z" />
    <glyph glyph-name="Sacute" unicode="&#x15a;" horiz-adv-x="547" 
d="M470 86.5q-21 -41.5 -66 -67.5t-113 -26q-65 0 -116 25t-81 67t-35 91h47q5 -32 25.5 -66t60.5 -57t98 -23q74 0 114 41t40 102q0 53 -25 85t-61.5 49t-99.5 36q-67 20 -107 38.5t-67.5 56.5t-27.5 100q0 76 53 125t147 49q95 0 150.5 -47.5t68.5 -113.5h-48
q-10 47 -53 85.5t-118 38.5q-69 0 -110.5 -35.5t-41.5 -100.5q0 -50 24 -80.5t59.5 -47t96.5 -34.5q68 -20 109 -39.5t69.5 -58.5t28.5 -105q0 -46 -21 -87.5zM451 876l-196 -126v36l196 131v-41z" />
    <glyph glyph-name="sacute" unicode="&#x15b;" horiz-adv-x="495" 
d="M372 504.5q52 -45.5 62 -124.5h-43q-6 58 -46.5 96.5t-109.5 38.5q-61 0 -95.5 -30t-34.5 -80q0 -37 20.5 -59t50 -32.5t82.5 -23.5q59 -13 95 -27t61 -44t25 -82q0 -64 -46 -104t-121 -40q-90 0 -147.5 45.5t-68.5 124.5h45q6 -58 50.5 -96.5t121.5 -38.5
q58 0 90.5 30.5t32.5 79.5q0 39 -21 62.5t-52.5 34.5t-83.5 23q-59 14 -93.5 27.5t-59 42t-24.5 77.5q0 66 47 105.5t126 39.5q85 0 137 -45.5zM424 714l-196 -126v36l196 131v-41z" />
    <glyph glyph-name="uni015E" unicode="&#x15e;" horiz-adv-x="547" 
d="M470 86.5q-21 -41.5 -66 -67.5t-113 -26q-65 0 -116 25t-81 67t-35 91h47q5 -32 25.5 -66t60.5 -57t98 -23q74 0 114 41t40 102q0 53 -25 85t-61.5 49t-99.5 36q-67 20 -107 38.5t-67.5 56.5t-27.5 100q0 76 53 125t147 49q95 0 150.5 -47.5t68.5 -113.5h-48
q-10 47 -53 85.5t-118 38.5q-69 0 -110.5 -35.5t-41.5 -100.5q0 -50 24 -80.5t59.5 -47t96.5 -34.5q68 -20 109 -39.5t69.5 -58.5t28.5 -105q0 -46 -21 -87.5zM385.5 -100q33.5 -22 33.5 -66q0 -41 -30 -65.5t-82 -24.5h-77v31h72q81 0 81 60q0 25 -19.5 40t-61.5 15h-43
v117h33v-88q60 3 93.5 -19z" />
    <glyph glyph-name="uni015F" unicode="&#x15f;" horiz-adv-x="495" 
d="M372 504.5q52 -45.5 62 -124.5h-43q-6 58 -46.5 96.5t-109.5 38.5q-61 0 -95.5 -30t-34.5 -80q0 -37 20.5 -59t50 -32.5t82.5 -23.5q59 -13 95 -27t61 -44t25 -82q0 -64 -46 -104t-121 -40q-90 0 -147.5 45.5t-68.5 124.5h45q6 -58 50.5 -96.5t121.5 -38.5
q58 0 90.5 30.5t32.5 79.5q0 39 -21 62.5t-52.5 34.5t-83.5 23q-59 14 -93.5 27.5t-59 42t-24.5 77.5q0 66 47 105.5t126 39.5q85 0 137 -45.5zM357.5 -100q33.5 -22 33.5 -66q0 -41 -30 -65.5t-82 -24.5h-77v31h72q81 0 81 60q0 25 -19.5 40t-61.5 15h-43v117h33v-88
q60 3 93.5 -19z" />
    <glyph glyph-name="Scaron" unicode="&#x160;" horiz-adv-x="547" 
d="M470 86.5q-21 -41.5 -66 -67.5t-113 -26q-65 0 -116 25t-81 67t-35 91h47q5 -32 25.5 -66t60.5 -57t98 -23q74 0 114 41t40 102q0 53 -25 85t-61.5 49t-99.5 36q-67 20 -107 38.5t-67.5 56.5t-27.5 100q0 76 53 125t147 49q95 0 150.5 -47.5t68.5 -113.5h-48
q-10 47 -53 85.5t-118 38.5q-69 0 -110.5 -35.5t-41.5 -100.5q0 -50 24 -80.5t59.5 -47t96.5 -34.5q68 -20 109 -39.5t69.5 -58.5t28.5 -105q0 -46 -21 -87.5zM403 857l-128 -81l-130 81v36l130 -82l128 82v-36z" />
    <glyph glyph-name="scaron" unicode="&#x161;" horiz-adv-x="495" 
d="M372 504.5q52 -45.5 62 -124.5h-43q-6 58 -46.5 96.5t-109.5 38.5q-61 0 -95.5 -30t-34.5 -80q0 -37 20.5 -59t50 -32.5t82.5 -23.5q59 -13 95 -27t61 -44t25 -82q0 -64 -46 -104t-121 -40q-90 0 -147.5 45.5t-68.5 124.5h45q6 -58 50.5 -96.5t121.5 -38.5
q58 0 90.5 30.5t32.5 79.5q0 39 -21 62.5t-52.5 34.5t-83.5 23q-59 14 -93.5 27.5t-59 42t-24.5 77.5q0 66 47 105.5t126 39.5q85 0 137 -45.5zM377 695l-128 -81l-130 81v36l130 -82l128 82v-36z" />
    <glyph glyph-name="uni0162" unicode="&#x162;" horiz-adv-x="488" 
d="M267 667v-666q116 -3 116 -82q0 -42 -29.5 -66.5t-81.5 -24.5h-76v32h71q43 0 61.5 15.5t18.5 44.5q0 55 -80 55h-46v692h-202v38h451v-38h-203z" />
    <glyph glyph-name="uni0163" unicode="&#x163;" horiz-adv-x="350" 
d="M327.5 -100q33.5 -22 33.5 -66q0 -41 -30 -65.5t-82 -24.5h-77v31h72q81 0 81 60q0 25 -19.5 40t-61.5 15h-43v114q-49 10 -72.5 45t-23.5 104v349h-86v41h86v138h45v-138h161v-41h-161v-349q0 -65 23 -88.5t81 -23.5h57v-41h-62h-15v-81q60 3 93.5 -19z" />
    <glyph glyph-name="Tcaron" unicode="&#x164;" horiz-adv-x="488" 
d="M470 705v-38h-203v-667h-46v667h-202v38h451zM374 857l-128 -81l-130 81v36l130 -82l128 82v-36z" />
    <glyph glyph-name="tcaron" unicode="&#x165;" horiz-adv-x="350" 
d="M274 615.5q-20 -20.5 -59 -20.5v27q25 0 35.5 11t10.5 34v27h-42v65h69q6 -46 6 -76q0 -47 -20 -67.5zM150 502v-349q0 -65 23 -88.5t81 -23.5h57v-41h-62q-75 0 -109.5 35t-34.5 118v349h-86v41h86v138h45v-138h161v-41h-161z" />
    <glyph glyph-name="Utilde" unicode="&#x168;" horiz-adv-x="640" 
d="M121 705v-433q0 -123 54 -180t147 -57q92 0 144.5 57t52.5 180v433h46v-433q0 -141 -65.5 -210t-177.5 -69q-113 0 -179.5 69t-66.5 210v433h45zM294 840.5q13 -6.5 29 -19.5q15 -12 26 -18t26 -6q17 0 29 12t15 35h30q-4 -35 -24.5 -56.5t-50.5 -21.5q-18 0 -31.5 6.5
t-32.5 20.5q-16 11 -25.5 16.5t-22.5 5.5q-36 0 -43 -48h-29q5 38 24 59t49 21q18 0 31 -6.5z" />
    <glyph glyph-name="utilde" unicode="&#x169;" horiz-adv-x="611" 
d="M531 543v-543h-46v142q-20 -75 -76.5 -114t-130.5 -39q-95 0 -155 60t-60 178v316h44v-315q0 -97 49 -148.5t134 -51.5q89 0 142 57.5t53 169.5v288h46zM271 678.5q13 -6.5 29 -19.5q15 -12 26 -18t26 -6q17 0 29 12t15 35h30q-4 -35 -24.5 -56.5t-50.5 -21.5
q-18 0 -31.5 6.5t-32.5 20.5q-16 11 -25.5 16.5t-22.5 5.5q-36 0 -43 -48h-29q5 38 24 59t49 21q18 0 31 -6.5z" />
    <glyph glyph-name="Umacron" unicode="&#x16a;" horiz-adv-x="640" 
d="M121 705v-433q0 -123 54 -180t147 -57q92 0 144.5 57t52.5 180v433h46v-433q0 -141 -65.5 -210t-177.5 -69q-113 0 -179.5 69t-66.5 210v433h45zM483 851v-35h-325v35h325z" />
    <glyph glyph-name="umacron" unicode="&#x16b;" horiz-adv-x="611" 
d="M531 543v-543h-46v142q-20 -75 -76.5 -114t-130.5 -39q-95 0 -155 60t-60 178v316h44v-315q0 -97 49 -148.5t134 -51.5q89 0 142 57.5t53 169.5v288h46zM459 689v-35h-325v35h325z" />
    <glyph glyph-name="Ubreve" unicode="&#x16c;" horiz-adv-x="640" 
d="M121 705v-433q0 -123 54 -180t147 -57q92 0 144.5 57t52.5 180v433h46v-433q0 -141 -65.5 -210t-177.5 -69q-113 0 -179.5 69t-66.5 210v433h45zM226 810q-33 34 -33 82v6h31q0 -41 25 -63.5t71 -22.5t71 22.5t25 63.5h31v-6q0 -48 -32.5 -82t-94.5 -34q-61 0 -94 34z
" />
    <glyph glyph-name="ubreve" unicode="&#x16d;" horiz-adv-x="611" 
d="M531 543v-543h-46v142q-20 -75 -76.5 -114t-130.5 -39q-95 0 -155 60t-60 178v316h44v-315q0 -97 49 -148.5t134 -51.5q89 0 142 57.5t53 169.5v288h46zM202 648q-33 34 -33 82v6h31q0 -41 25 -63.5t71 -22.5t71 22.5t25 63.5h31v-6q0 -48 -32.5 -82t-94.5 -34
q-61 0 -94 34z" />
    <glyph glyph-name="Uring" unicode="&#x16e;" horiz-adv-x="640" 
d="M121 705v-433q0 -123 54 -180t147 -57q92 0 144.5 57t52.5 180v433h46v-433q0 -141 -65.5 -210t-177.5 -69q-113 0 -179.5 69t-66.5 210v433h45zM387.5 939q27.5 -26 27.5 -69q0 -44 -27.5 -70t-67.5 -26t-68 26t-28 70q0 43 28 69t68 26t67.5 -26zM271.5 920
q-18.5 -18 -18.5 -50t18.5 -50.5t48.5 -18.5q29 0 48 18.5t19 50.5q0 31 -19 49.5t-48 18.5q-30 0 -48.5 -18z" />
    <glyph glyph-name="uring" unicode="&#x16f;" horiz-adv-x="611" 
d="M531 543v-543h-46v142q-20 -75 -76.5 -114t-130.5 -39q-95 0 -155 60t-60 178v316h44v-315q0 -97 49 -148.5t134 -51.5q89 0 142 57.5t53 169.5v288h46zM364.5 777q27.5 -26 27.5 -69q0 -44 -27.5 -70t-67.5 -26t-68 26t-28 70q0 43 28 69t68 26t67.5 -26zM248.5 758
q-18.5 -18 -18.5 -50t18.5 -50.5t48.5 -18.5q29 0 48 18.5t19 50.5q0 31 -19 49.5t-48 18.5q-30 0 -48.5 -18z" />
    <glyph glyph-name="Uhungarumlaut" unicode="&#x170;" horiz-adv-x="640" 
d="M121 705v-433q0 -123 54 -180t147 -57q92 0 144.5 57t52.5 180v433h46v-433q0 -141 -65.5 -210t-177.5 -69q-113 0 -179.5 69t-66.5 210v433h45zM261 763h-34l63 122h41zM387 763h-34l70 122h41z" />
    <glyph glyph-name="uhungarumlaut" unicode="&#x171;" horiz-adv-x="611" 
d="M531 543v-543h-46v142q-20 -75 -76.5 -114t-130.5 -39q-95 0 -155 60t-60 178v316h44v-315q0 -97 49 -148.5t134 -51.5q89 0 142 57.5t53 169.5v288h46zM238 601h-34l63 122h41zM364 601h-34l70 122h41z" />
    <glyph glyph-name="Uogonek" unicode="&#x172;" horiz-adv-x="646" 
d="M273 -145.5q-31 27.5 -31 72.5q0 23 12.5 42.5t33.5 26.5q-94 14 -151.5 83t-57.5 193v433h45v-433q0 -123 54 -180t147 -57q198 0 198 237v433h45v-433q0 -132 -58 -199.5t-158 -77.5q-35 -3 -54.5 -21.5t-19.5 -47.5q0 -32 23 -49.5t63 -17.5h76v-32h-81
q-55 0 -86 27.5z" />
    <glyph glyph-name="uogonek" unicode="&#x173;" horiz-adv-x="611" 
d="M531 543v-543h-46v142q-20 -75 -76.5 -114t-130.5 -39q-95 0 -155 60t-60 178v316h44v-315q0 -97 49 -148.5t134 -51.5q89 0 142 57.5t53 169.5v288h46zM530 5v-30h-37q-40 0 -63 -18.5t-23 -49.5t23 -49.5t63 -18.5h78v-31h-81q-55 0 -87 27t-32 71t31.5 71.5t85.5 27.5
h42z" />
    <glyph glyph-name="Wcircumflex" unicode="&#x174;" horiz-adv-x="929" 
d="M894 705l-185 -705h-52l-193 636l-192 -636h-52l-186 705h51l161 -640l193 640h51l192 -640l161 640h51zM466 860l-130 -81v35l130 82l128 -82v-35z" />
    <glyph glyph-name="wcircumflex" unicode="&#x175;" horiz-adv-x="816" 
d="M798 543l-165 -543h-44l-181 483l-181 -483h-44l-166 543h47l143 -487l179 487h45l180 -487l143 487h44zM409 698l-130 -81v35l130 82l128 -82v-35z" />
    <glyph glyph-name="Ycircumflex" unicode="&#x176;" horiz-adv-x="545" 
d="M518 705l-222 -420v-285h-45v285l-225 420h53l194 -372l193 372h52zM274 860l-130 -81v35l130 82l128 -82v-35z" />
    <glyph glyph-name="ycircumflex" unicode="&#x177;" horiz-adv-x="525" 
d="M66 543l204 -483l189 483h50l-315 -799h-52l104 259l-230 540h50zM263 698l-130 -81v35l130 82l128 -82v-35z" />
    <glyph glyph-name="Ydieresis" unicode="&#x178;" horiz-adv-x="545" 
d="M518 705l-222 -420v-285h-45v285l-225 420h53l194 -372l193 372h52zM173.5 851q10.5 11 26.5 11t26.5 -11t10.5 -26t-10.5 -26t-26.5 -11t-26.5 11t-10.5 26t10.5 26zM319.5 851q10.5 11 26.5 11q15 0 25.5 -11t10.5 -26t-10.5 -26t-25.5 -11q-16 0 -26.5 11t-10.5 26
t10.5 26z" />
    <glyph glyph-name="Zacute" unicode="&#x179;" horiz-adv-x="505" 
d="M87 39h381v-39h-431v38l373 627h-362v40h411v-39zM429 876l-196 -126v36l196 131v-41z" />
    <glyph glyph-name="zacute" unicode="&#x17a;" horiz-adv-x="421" 
d="M78 39h314v-39h-363v38l302 466h-293v39h344v-37zM387 714l-196 -126v36l196 131v-41z" />
    <glyph glyph-name="Zdotaccent" unicode="&#x17b;" horiz-adv-x="505" 
d="M87 39h381v-39h-431v38l373 627h-362v40h411v-39zM226 851q11 11 26 11q16 0 26.5 -11t10.5 -26t-10.5 -26t-26.5 -11q-15 0 -26 11t-11 26t11 26z" />
    <glyph glyph-name="zdotaccent" unicode="&#x17c;" horiz-adv-x="421" 
d="M78 39h314v-39h-363v38l302 466h-293v39h344v-37zM184 689q11 11 26 11q16 0 26.5 -11t10.5 -26t-10.5 -26t-26.5 -11q-15 0 -26 11t-11 26t11 26z" />
    <glyph glyph-name="Zcaron" unicode="&#x17d;" horiz-adv-x="505" 
d="M87 39h381v-39h-431v38l373 627h-362v40h411v-39zM382 857l-128 -81l-130 81v36l130 -82l128 82v-36z" />
    <glyph glyph-name="zcaron" unicode="&#x17e;" horiz-adv-x="421" 
d="M78 39h314v-39h-363v38l302 466h-293v39h344v-37zM340 695l-128 -81l-130 81v36l130 -82l128 82v-36z" />
    <glyph glyph-name="florin" unicode="&#x192;" horiz-adv-x="332" 
d="M237 691q-37 -28 -43 -87l-6 -61h143l-3 -39h-145l-57 -546q-6 -59 -35 -87.5t-91 -28.5h-31l3 40h29q39 0 56.5 15.5t23.5 60.5l58 546h-81l3 39h82l7 61q8 80 57.5 117t138.5 37l-4 -39q-68 0 -105 -28z" />
    <glyph glyph-name="uni01FC" unicode="&#x1fc;" horiz-adv-x="856" 
d="M494 667v-295h284v-37h-284v-297h314v-38h-359v182h-281l-109 -182h-50l421 705h378v-38h-314zM449 219v432l-259 -432h259zM638 876l-196 -126v36l196 131v-41z" />
    <glyph glyph-name="uni01FD" unicode="&#x1fd;" horiz-adv-x="1125" 
d="M952.5 72.5q56.5 41.5 69.5 113.5h46q-14 -87 -79 -140t-166 -53q-85 0 -148 44t-83 126v-163h-45v162q-22 -76 -83 -122.5t-150 -46.5q-76 0 -134.5 33.5t-91.5 97t-33 148.5t33 148t91.5 96.5t134.5 33.5q89 0 150 -46.5t83 -122.5v162h45v-163q20 81 83 125.5
t148 44.5q78 0 134 -33.5t84.5 -88t28.5 -116.5q0 -30 -4 -53h-473q2 -76 32.5 -127t80 -76t107.5 -25q83 0 139.5 41.5zM706 488.5q-50 -24.5 -81 -76t-32 -126.5h433q4 75 -25 126t-79 76t-108 25t-108 -24.5zM439 62.5q51 29.5 79.5 84t28.5 125.5t-28.5 125t-79.5 83.5
t-115 29.5q-102 0 -162.5 -64t-60.5 -174q0 -111 60 -175t163 -64q64 0 115 29.5zM739 714l-196 -126v36l196 131v-41z" />
    <glyph glyph-name="uni0218" unicode="&#x218;" horiz-adv-x="555" 
d="M470 86.5q-21 -41.5 -66 -67.5t-113 -26q-65 0 -116 25t-81 67t-35 91h47q5 -32 25.5 -66t60.5 -57t98 -23q74 0 114 41t40 102q0 53 -25 85t-61.5 49t-99.5 36q-67 20 -107 38.5t-67.5 56.5t-27.5 100q0 76 53 125t147 49q95 0 150.5 -47.5t68.5 -113.5h-48
q-10 47 -53 85.5t-118 38.5q-69 0 -110.5 -35.5t-41.5 -100.5q0 -50 24 -80.5t59.5 -47t96.5 -34.5q68 -20 109 -39.5t69.5 -58.5t28.5 -105q0 -46 -21 -87.5zM336 -100q0 -53 -20.5 -75t-57.5 -22v25q24 0 34.5 14.5t10.5 42.5v7h-36v52h64q5 -23 5 -44z" />
    <glyph glyph-name="uni0219" unicode="&#x219;" horiz-adv-x="495" 
d="M372 504.5q52 -45.5 62 -124.5h-43q-6 58 -46.5 96.5t-109.5 38.5q-61 0 -95.5 -30t-34.5 -80q0 -37 20.5 -59t50 -32.5t82.5 -23.5q59 -13 95 -27t61 -44t25 -82q0 -64 -46 -104t-121 -40q-90 0 -147.5 45.5t-68.5 124.5h45q6 -58 50.5 -96.5t121.5 -38.5
q58 0 90.5 30.5t32.5 79.5q0 39 -21 62.5t-52.5 34.5t-83.5 23q-59 14 -93.5 27.5t-59 42t-24.5 77.5q0 66 47 105.5t126 39.5q85 0 137 -45.5zM302 -100q0 -53 -20 -75t-57 -22v25q45 0 45 57v7h-37v52h65q4 -19 4 -44z" />
    <glyph glyph-name="uni021A" unicode="&#x21a;" horiz-adv-x="488" 
d="M470 705v-38h-203v-667h-46v667h-202v38h451zM279 -100q0 -53 -20.5 -75t-57.5 -22v25q24 0 34.5 14.5t10.5 42.5v7h-36v52h64q5 -23 5 -44z" />
    <glyph glyph-name="uni021B" unicode="&#x21b;" horiz-adv-x="350" 
d="M150 502v-349q0 -65 23 -88.5t81 -23.5h57v-41h-62q-75 0 -109.5 35t-34.5 118v349h-86v41h86v138h45v-138h161v-41h-161zM237 -56q5 -18 5 -44q0 -53 -20 -75t-57 -22v25q44 0 44 57v7h-36v52h64z" />
    <glyph glyph-name="uni02BC" unicode="&#x2bc;" horiz-adv-x="142" 
d="M109 680q0 -48 -20 -69t-59 -21v27q25 0 36 12t11 37v26h-43v65h69q6 -37 6 -77z" />
    <glyph glyph-name="circumflex" unicode="&#x2c6;" horiz-adv-x="330" 
d="M166 698l-130 -81v35l130 82l128 -82v-35z" />
    <glyph glyph-name="caron" unicode="&#x2c7;" horiz-adv-x="330" 
d="M294 695l-128 -81l-130 81v36l130 -82l128 82v-36z" />
    <glyph glyph-name="uni02C9" unicode="&#x2c9;" horiz-adv-x="397" 
d="M361 689v-35h-325v35h325z" />
    <glyph glyph-name="breve" unicode="&#x2d8;" horiz-adv-x="326" 
d="M69 648q-33 34 -33 82v6h31q0 -41 25 -63.5t71 -22.5t71 22.5t25 63.5h31v-6q0 -48 -32.5 -82t-94.5 -34q-61 0 -94 34z" />
    <glyph glyph-name="dotaccent" unicode="&#x2d9;" horiz-adv-x="159" 
d="M53 689q11 11 26 11q16 0 26.5 -11t10.5 -26t-10.5 -26t-26.5 -11q-15 0 -26 11t-11 26t11 26z" />
    <glyph glyph-name="ring" unicode="&#x2da;" horiz-adv-x="263" 
d="M199.5 777q27.5 -26 27.5 -69q0 -44 -27.5 -70t-67.5 -26t-68 26t-28 70q0 43 28 69t68 26t67.5 -26zM83.5 758q-18.5 -18 -18.5 -50t18.5 -50.5t48.5 -18.5q29 0 48 18.5t19 50.5q0 31 -19 49.5t-48 18.5q-30 0 -48.5 -18z" />
    <glyph glyph-name="ogonek" unicode="&#x2db;" horiz-adv-x="270" 
d="M194 -28v-30h-37q-40 0 -63 -18.5t-23 -49.5t23 -49.5t63 -18.5h78v-31h-81q-55 0 -87 27t-32 71t31.5 71.5t85.5 27.5h42z" />
    <glyph glyph-name="tilde" unicode="&#x2dc;" horiz-adv-x="329" 
d="M139 678.5q13 -6.5 29 -19.5q15 -12 26 -18t26 -6q17 0 29 12t15 35h30q-4 -35 -24.5 -56.5t-50.5 -21.5q-18 0 -31.5 6.5t-32.5 20.5q-16 11 -25.5 16.5t-22.5 5.5q-36 0 -43 -48h-29q5 38 24 59t49 21q18 0 31 -6.5z" />
    <glyph glyph-name="hungarumlaut" unicode="&#x2dd;" horiz-adv-x="309" 
d="M70 601h-34l63 122h41zM196 601h-34l70 122h41z" />
    <glyph glyph-name="pi" unicode="&#x3c0;" horiz-adv-x="719" 
d="M662 543v-36h-84v-507h-46v507h-344v-507h-46v507h-84v36h604z" />
    <glyph glyph-name="dvCandrabindu" unicode="&#x901;" horiz-adv-x="0" 
d="M-163.5 988q-8.5 9 -8.5 22t9 21.5t22 8.5t22 -8.5t9 -21.5t-9 -22t-22 -9q-14 0 -22.5 9zM-242 844.5q-41 22.5 -61.5 58t-20.5 75.5h34q0 -30 16.5 -58.5t50 -47t82.5 -18.5q48 0 81.5 18.5t50 47t16.5 58.5h34q0 -39 -20 -75t-61.5 -58.5t-100.5 -22.5
q-60 0 -101 22.5z" />
    <glyph glyph-name="dvAnusvara" unicode="&#x902;" horiz-adv-x="0" 
d="M-165 858q-10 10 -10 25t10 25t26 10q15 0 25 -10t10 -25t-10 -25t-25 -10q-16 0 -26 10z" />
    <glyph glyph-name="dvVisarga" unicode="&#x903;" horiz-adv-x="204" 
d="M76.5 480.5q-10.5 10.5 -10.5 25.5t10.5 25t26.5 10q15 0 25 -10t10 -25t-10 -25.5t-25 -10.5q-16 0 -26.5 10.5zM76.5 169q-10.5 10 -10.5 25t10.5 25t26.5 10q15 0 25 -10t10 -25t-10 -25t-25 -10q-16 0 -26.5 10z" />
    <glyph glyph-name="dvA" unicode="&#x905;" horiz-adv-x="821" 
d="M853 740v-35h-152v-705h-40v365l-212 1q23 -24 35 -56.5t12 -68.5q0 -86 -54.5 -138.5t-145.5 -52.5q-61 0 -110 25t-76.5 70t-27.5 103h38q0 -47 22.5 -84t62 -57.5t88.5 -20.5q75 0 120 43.5t45 113.5q0 39 -17.5 74.5t-55 58t-95.5 22.5h-36v35h36q51 0 86 19.5
t52 50.5t17 65q0 67 -44 106.5t-110 39.5q-70 0 -116.5 -38.5t-45.5 -103.5h-39q0 81 56.5 129t144.5 48q54 0 97.5 -21.5t68.5 -61t25 -91.5q0 -61 -33 -103.5t-98 -54.5v-1q31 -5 52 -16h258v340h192z" />
    <glyph glyph-name="dvAA" unicode="&#x906;" horiz-adv-x="1091" 
d="M853 740v-35h-152v-705h-40v365l-212 1q23 -24 35 -56.5t12 -68.5q0 -86 -54.5 -138.5t-145.5 -52.5q-61 0 -110 25t-76.5 70t-27.5 103h38q0 -47 22.5 -84t62 -57.5t88.5 -20.5q75 0 120 43.5t45 113.5q0 39 -17.5 74.5t-55 58t-95.5 22.5h-36v35h36q51 0 86 19.5
t52 50.5t17 65q0 67 -44 106.5t-110 39.5q-70 0 -116.5 -38.5t-45.5 -103.5h-39q0 81 56.5 129t144.5 48q54 0 97.5 -21.5t68.5 -61t25 -91.5q0 -61 -33 -103.5t-98 -54.5v-1q31 -5 52 -16h258v340h192zM940 705h-151v35h343v-35h-151v-705h-41v705z" />
    <glyph glyph-name="dvI" unicode="&#x907;" horiz-adv-x="581" 
d="M181 503q-45 -23 -45 -82q0 -54 38.5 -79t97.5 -25h45q87 0 146 -39t59 -127q0 -70 -48 -116t-136 -46q-60 0 -102 20t-64.5 47t-29.5 50v-178h-38v254h36q7 -71 57 -115.5t135 -44.5q73 0 112 37t39 92q0 73 -49 103.5t-123 30.5q-34 0 -48 1q-73 0 -120.5 34t-47.5 101
q0 73 53 105t129 32h146v147h-468v35h672v-35h-165v-179h-171q-65 0 -110 -23z" />
    <glyph glyph-name="dvII" unicode="&#x908;" horiz-adv-x="581" 
d="M181 503q-45 -23 -45 -82q0 -54 38.5 -79t97.5 -25h45q87 0 146 -39t59 -127q0 -70 -48 -116t-136 -46q-60 0 -102 20t-64.5 47t-29.5 50v-178h-38v254h36q7 -71 57 -115.5t135 -44.5q73 0 112 37t39 92q0 73 -49 103.5t-123 30.5q-34 0 -48 1q-73 0 -120.5 34t-47.5 101
q0 73 53 105t129 32h146v147h-468v35h672v-35h-165v-179h-171q-65 0 -110 -23zM423 820q0 86 37.5 132.5t110.5 46.5q66 0 104.5 -41t37.5 -107h-36q0 50 -28.5 81.5t-76.5 31.5q-110 0 -110 -145v-89h-39v90z" />
    <glyph glyph-name="dvU" unicode="&#x909;" horiz-adv-x="581" 
d="M437.5 472q-34.5 -43 -87.5 -51v-1q71 -13 113 -70t42 -133q0 -62 -26 -111t-74.5 -76.5t-114.5 -27.5t-119 28.5t-83 78.5t-30 112h39q0 -51 25.5 -92.5t69.5 -65.5t97 -24q80 0 128.5 50t48.5 130q0 45 -19 86.5t-60 68t-104 26.5h-39v37h35q75 0 114 41t39 102v125
h-464v35h645v-35h-141v-128q0 -62 -34.5 -105z" />
    <glyph glyph-name="dvUU" unicode="&#x90a;" horiz-adv-x="872" 
d="M437.5 472q-34.5 -43 -87.5 -51v-1h224q101 0 165.5 -48t64.5 -149q0 -98 -55 -144.5t-141 -46.5q-13 0 -23 1t-17 2v32q26 -2 36 -2q71 0 116 38t45 121q0 85 -53.5 123.5t-137.5 38.5h-149q38 -28 59 -73t21 -98q0 -61 -26 -109.5t-74.5 -76t-114.5 -27.5t-119 28.5
t-83 78.5t-30 112h39q0 -51 25.5 -92.5t69.5 -65.5t97 -24q80 0 128.5 50t48.5 130q0 45 -19 86.5t-60 68t-104 26.5h-39v37h35q75 0 114 41t39 102v125h-464v35h936v-35h-432v-128q0 -62 -34.5 -105z" />
    <glyph glyph-name="dvvR" unicode="&#x90b;" horiz-adv-x="1004" 
d="M549 705v-275h199q96 0 96 88v71h37v-356h-15q-63 0 -99 -36t-36 -90q0 -63 37.5 -93t94.5 -30q35 0 58 9v-34q-10 -4 -27.5 -6.5t-33.5 -2.5q-72 0 -120 39.5t-48 115.5q0 64 40.5 107t111.5 49v169q-34 -34 -101 -34h-194v-396h-38v341l-323 -341h-49v5l371 381
q-8 72 -58.5 118t-127.5 46q-60 0 -106.5 -26t-73 -74.5t-26.5 -113.5h-41q0 75 30.5 131.5t84.5 87t122 30.5q71 0 121 -32t76 -87v239h-543v35h1068v-35h-487z" />
    <glyph glyph-name="dvvL" unicode="&#x90c;" horiz-adv-x="897" 
d="M650 705v-151q79 -7 123 -68t44 -154q0 -56 -16 -100h-7q-66 0 -102.5 -35.5t-36.5 -90.5q0 -62 37.5 -92.5t95.5 -30.5q30 0 58 10v-34q-30 -10 -62 -10q-73 0 -121 39.5t-48 116.5q0 63 41.5 107t111.5 48q9 33 9 72q0 81 -39.5 134t-112.5 53q-77 0 -117.5 -59
t-40.5 -162v-11h-36v11q0 101 -39 161t-111 60q-78 0 -119.5 -52t-41.5 -135q0 -91 49 -147t140 -56q10 0 30 2v-37q-11 -1 -33 -1q-109 0 -167.5 66.5t-58.5 172.5q0 101 52.5 162t144.5 61q76 0 118 -48.5t53 -114.5h2q12 63 50.5 109.5t109.5 52.5v151h-642v35h961v-35
h-279z" />
    <glyph glyph-name="dvEcandra" unicode="&#x90d;" horiz-adv-x="651" 
d="M391 407q68 0 97.5 38.5t29.5 123.5v136h-364v-429q0 -104 48.5 -162.5t144.5 -58.5q88 0 136 51t48 143h40q0 -108 -58.5 -169t-164.5 -61q-118 0 -176 69t-58 189v428h-146v35h715v-35h-126v-137q0 -102 -37 -149.5t-122 -47.5q-19 0 -29 1v36q8 -1 22 -1zM228 870.5
q-41 22.5 -61 58.5t-20 75h36q0 -30 16 -58.5t49 -46.5t82 -18q48 0 81 18t49 46.5t16 58.5h36q0 -39 -20 -75t-61 -58.5t-101 -22.5q-61 0 -102 22.5z" />
    <glyph glyph-name="dvE" unicode="&#x90f;" horiz-adv-x="651" 
d="M391 407q68 0 97.5 38.5t29.5 123.5v136h-364v-429q0 -104 48.5 -162.5t144.5 -58.5q88 0 136 51t48 143h40q0 -108 -58.5 -169t-164.5 -61q-118 0 -176 69t-58 189v428h-146v35h715v-35h-126v-137q0 -102 -37 -149.5t-122 -47.5q-19 0 -29 1v36q8 -1 22 -1z" />
    <glyph glyph-name="dvAI" unicode="&#x910;" horiz-adv-x="651" 
d="M391 407q68 0 97.5 38.5t29.5 123.5v136h-364v-429q0 -104 48.5 -162.5t144.5 -58.5q88 0 136 51t48 143h40q0 -108 -58.5 -169t-164.5 -61q-118 0 -176 69t-58 189v428h-146v35h715v-35h-126v-137q0 -102 -37 -149.5t-122 -47.5q-19 0 -29 1v36q8 -1 22 -1zM420.5 871.5
q-38.5 41.5 -72 53t-91.5 11.5h-36v34h35q67 0 106.5 -13t84 -62t110.5 -158h-39q-59 93 -97.5 134.5z" />
    <glyph glyph-name="dvOcandra" unicode="&#x911;" horiz-adv-x="1100" 
d="M853 740v-35h-152v-705h-40v365l-212 1q23 -24 35 -56.5t12 -68.5q0 -86 -54.5 -138.5t-145.5 -52.5q-61 0 -110 25t-76.5 70t-27.5 103h38q0 -47 22.5 -84t62 -57.5t88.5 -20.5q75 0 120 43.5t45 113.5q0 39 -17.5 74.5t-55 58t-95.5 22.5h-36v35h36q51 0 86 19.5
t52 50.5t17 65q0 67 -44 106.5t-110 39.5q-70 0 -116.5 -38.5t-45.5 -103.5h-39q0 81 56.5 129t144.5 48q54 0 97.5 -21.5t68.5 -61t25 -91.5q0 -61 -33 -103.5t-98 -54.5v-1q31 -5 52 -16h258v340h192zM940 705h-151v35h343v-35h-151v-705h-41v705zM720 870.5
q-41 22.5 -61 58.5t-20 75h36q0 -30 16 -58.5t49 -46.5t82 -18q48 0 81 18t49 46.5t16 58.5h36q0 -39 -20 -75t-61 -58.5t-101 -22.5q-61 0 -102 22.5z" />
    <glyph glyph-name="dvO" unicode="&#x913;" horiz-adv-x="1100" 
d="M843.5 871.5q-38.5 41.5 -72 53t-91.5 11.5h-36v34h35q67 0 106.5 -13t84 -62t110.5 -158h-39q-59 93 -97.5 134.5zM853 740v-35h-152v-705h-40v365l-212 1q23 -24 35 -56.5t12 -68.5q0 -86 -54.5 -138.5t-145.5 -52.5q-61 0 -110 25t-76.5 70t-27.5 103h38
q0 -47 22.5 -84t62 -57.5t88.5 -20.5q75 0 120 43.5t45 113.5q0 39 -17.5 74.5t-55 58t-95.5 22.5h-36v35h36q51 0 86 19.5t52 50.5t17 65q0 67 -44 106.5t-110 39.5q-70 0 -116.5 -38.5t-45.5 -103.5h-39q0 81 56.5 129t144.5 48q54 0 97.5 -21.5t68.5 -61t25 -91.5
q0 -61 -33 -103.5t-98 -54.5v-1q31 -5 52 -16h258v340h192zM940 705h-151v35h343v-35h-151v-705h-41v705z" />
    <glyph glyph-name="dvAU" unicode="&#x914;" horiz-adv-x="1100" 
d="M783.5 1008.5q38.5 -15.5 83 -75.5t113.5 -196h-36q-61 53 -99.5 76.5t-72.5 30t-94 6.5h-36v29h35q59 0 92 -5t69.5 -25.5t89.5 -67.5q-53 99 -90.5 144t-71 57t-88.5 12h-36v30h36q67 0 105.5 -15.5zM853 740v-35h-152v-705h-40v365l-212 1q23 -24 35 -56.5t12 -68.5
q0 -86 -54.5 -138.5t-145.5 -52.5q-61 0 -110 25t-76.5 70t-27.5 103h38q0 -47 22.5 -84t62 -57.5t88.5 -20.5q75 0 120 43.5t45 113.5q0 39 -17.5 74.5t-55 58t-95.5 22.5h-36v35h36q51 0 86 19.5t52 50.5t17 65q0 67 -44 106.5t-110 39.5q-70 0 -116.5 -38.5t-45.5 -103.5
h-39q0 81 56.5 129t144.5 48q54 0 97.5 -21.5t68.5 -61t25 -91.5q0 -61 -33 -103.5t-98 -54.5v-1q31 -5 52 -16h258v340h192zM940 705h-151v35h343v-35h-151v-705h-41v705z" />
    <glyph glyph-name="dvKA" unicode="&#x915;" horiz-adv-x="1012" 
d="M530 705v-259q21 57 69 93t121 36q59 0 107.5 -28t76.5 -79t28 -118q0 -72 -27.5 -124.5t-75 -80t-107.5 -27.5q-33 0 -59 7v33q25 -5 52 -5q50 0 90 23t63 67.5t23 105.5q0 57 -24 100.5t-65 67t-90 23.5q-62 0 -103 -29.5t-60 -75t-19 -94.5v-341h-38v245
q-22 -57 -71.5 -92.5t-123.5 -35.5q-62 0 -111.5 28t-77.5 80.5t-28 123.5q0 68 28.5 119.5t78 79t111.5 27.5q75 0 124 -35.5t70 -91.5v257h-524v35h1076v-35h-514zM410 181q42 29 62 73.5t20 90.5q0 49 -20 93.5t-62 73t-104 28.5q-51 0 -93.5 -23t-67.5 -66.5t-25 -101.5
q0 -61 24.5 -105.5t66.5 -68t95 -23.5q62 0 104 29z" />
    <glyph glyph-name="dvKHA" unicode="&#x916;" horiz-adv-x="918" 
d="M950 740v-35h-152v-705h-40v259q-20 -48 -63 -78t-107 -30q-24 0 -43 4q-26 -68 -82.5 -112t-137.5 -44q-105 0 -168 60.5t-63 164.5v172h41q65 0 106 35t41 127v147h-314v35h982zM441 71.5q47 36.5 69 93.5q-56 21 -89 71t-33 122q0 60 26.5 105.5t72 70t101.5 24.5
q65 0 108 -29.5t62 -77.5v254h-436v-151q0 -190 -175 -190h-13v-143q0 -84 52 -135t140 -51q68 0 115 36.5zM686 209.5q37 25.5 54.5 64.5t17.5 80v1q0 42 -17.5 81t-54.5 64t-92 25q-46 0 -84 -20t-61 -58t-23 -89q0 -54 22 -93.5t60.5 -60t85.5 -20.5q55 0 92 25.5z" />
    <glyph glyph-name="dvGA" unicode="&#x917;" horiz-adv-x="705" 
d="M737 740v-35h-151v-705h-41v705h-208v-296q0 -67 -34.5 -110t-106.5 -43q-70 0 -105.5 42.5t-35.5 107.5v30h40v-31q0 -47 24 -80.5t76 -33.5q55 0 78 33.5t23 83.5v297h-328v35h769z" />
    <glyph glyph-name="dvGHA" unicode="&#x918;" horiz-adv-x="717" 
d="M749 705h-151v-705h-40v256q-29 -67 -91.5 -105.5t-145.5 -38.5q-104 0 -166 47.5t-62 135.5q0 67 42.5 108.5t105.5 48.5v2q-58 7 -93.5 45.5t-35.5 112.5v93h-144v35h781v-35zM558 705h-405v-92q0 -71 39 -107t124 -36h51v-34h-53q-92 0 -136.5 -38.5t-44.5 -99.5
q0 -74 54 -112.5t141 -38.5q63 0 116 27.5t83.5 76.5t30.5 112v342z" />
    <glyph glyph-name="dvNGA" unicode="&#x919;" horiz-adv-x="635" 
d="M667 740v-35h-204v-179h-172q-64 0 -108 -23t-44 -82q0 -54 37.5 -79t96.5 -25h45q86 0 145 -39t59 -127q0 -71 -52 -116.5t-150 -45.5q-75 0 -128.5 24.5t-81 68.5t-28.5 100h40q0 -70 50.5 -115t146.5 -45q80 0 122 36.5t42 93.5q0 72 -49 102.5t-122 30.5h-43
q-74 0 -122.5 33.5t-48.5 103.5q0 72 52.5 104t127.5 32h146v147h-456v35h699zM599.5 431.5q9.5 -9.5 9.5 -24.5q0 -14 -9.5 -23.5t-23.5 -9.5q-15 0 -25 9.5t-10 23.5q0 15 10 24.5t25 9.5q14 0 23.5 -9.5z" />
    <glyph glyph-name="dvCA" unicode="&#x91a;" horiz-adv-x="724" 
d="M756 705h-151v-705h-41v235q-26 -56 -80 -90.5t-122 -34.5q-60 0 -109.5 24.5t-78.5 71t-29 109.5q0 65 32 114t89 73h-217v34h359v-34h-31q-59 0 -102.5 -23.5t-67 -65t-23.5 -93.5q0 -55 25 -94.5t67.5 -60t92.5 -20.5q55 0 99.5 26.5t70 71t25.5 96.5v366h-596v35h788
v-35z" />
    <glyph glyph-name="dvCHA" unicode="&#x91b;" horiz-adv-x="813" 
d="M609 705v-149q67 -7 111 -59t44 -146q0 -98 -47 -170.5t-131 -111t-191 -38.5q-143 0 -229 57t-86 162q0 74 44.5 118t111.5 52v3q-57 7 -92.5 45.5t-35.5 112.5v124h-140v35h877v-35h-236zM571 705h-423v-123q0 -71 39 -107t123 -36h23v-34h-23q-95 0 -142 -43t-47 -110
q0 -90 75 -137.5t200 -47.5q94 0 169.5 34.5t118.5 99t43 150.5q0 57 -20 96.5t-51.5 58.5t-66.5 19q-51 0 -90 -33.5t-39 -103.5q0 -46 18 -102h-35q-19 54 -19 105q0 79 42 119.5t105 45.5v149z" />
    <glyph glyph-name="dvJA" unicode="&#x91c;" horiz-adv-x="829" 
d="M861 705h-151v-705h-40v470h-234v-133q0 -84 -48 -136t-129 -52q-79 0 -124.5 52t-45.5 136v169h40v-169q0 -68 35.5 -110t95.5 -42q63 0 99.5 42t36.5 110v169h274v199h-702v35h893v-35z" />
    <glyph glyph-name="dvJHA" unicode="&#x91d;" horiz-adv-x="837" 
d="M869 705h-151v-705h-40v285l-241 1q39 -18 61.5 -52t22.5 -86q0 -65 -45 -108t-132 -43q-60 0 -101.5 19t-63 43t-29.5 44v-176h-39v245h36q10 -61 58 -101.5t132 -40.5q73 0 109.5 34.5t36.5 86.5q0 63 -44.5 98.5t-127.5 35.5q-34 0 -48 1q-73 0 -120.5 34t-47.5 101
q0 73 53 105t129 32h146v147h-455v35h901v-35zM678 317v388h-216v-179h-171q-65 0 -110 -23t-45 -82q0 -54 38.5 -79t97.5 -25h45h361z" />
    <glyph glyph-name="dvNYA" unicode="&#x91e;" horiz-adv-x="795" 
d="M827 705h-151v-705h-41v328h-120q-4 -60 -30 -109.5t-74.5 -79t-117.5 -29.5q-93 0 -146 47.5t-67 114.5h39q14 -52 57.5 -89t116.5 -37q60 0 101.5 26.5t62 71.5t20.5 100q0 53 -20.5 97.5t-62 71t-101.5 26.5q-76 0 -119 -37.5t-55 -88.5h-39q12 67 65.5 114.5
t147.5 47.5q68 0 116.5 -29t74.5 -76.5t30 -105.5h121v341h-667v35h859v-35z" />
    <glyph glyph-name="dvTTA" unicode="&#x91f;" horiz-adv-x="653" 
d="M189.5 473.5q-69.5 -57.5 -69.5 -167.5q0 -62 28.5 -110.5t78.5 -76t113 -27.5q64 0 113.5 28.5t77.5 79t28 114.5h39q0 -75 -32.5 -134t-91 -91.5t-134.5 -32.5q-74 0 -133.5 32t-93 88.5t-33.5 128.5q0 128 79.5 194.5t208.5 66.5h41v139h-441v35h717v-35h-236v-174
h-79q-111 0 -180.5 -57.5z" />
    <glyph glyph-name="dvTTHA" unicode="&#x920;" horiz-adv-x="679" 
d="M359 705v-150q68 -4 122.5 -36t86 -87t31.5 -125q0 -73 -33.5 -129.5t-93 -88t-133.5 -31.5q-73 0 -132.5 31.5t-93 88t-33.5 129.5q0 70 31 125t85.5 87t122.5 36v150h-351v35h743v-35h-352zM530.5 417.5q-28.5 48.5 -78.5 76t-113 27.5q-62 0 -112 -27.5t-78.5 -76
t-28.5 -110.5t28.5 -110.5t78.5 -76t112 -27.5q63 0 113 27.5t78.5 76t28.5 110.5t-28.5 110.5z" />
    <glyph glyph-name="dvDDA" unicode="&#x921;" horiz-adv-x="579" 
d="M183 503q-44 -23 -44 -82q0 -54 37.5 -79t96.5 -25h45q86 0 145 -39t59 -127q0 -71 -52 -116.5t-150 -45.5q-75 0 -128.5 24.5t-81 68.5t-28.5 100h40q0 -70 50.5 -115t146.5 -45q80 0 122 36.5t42 93.5q0 72 -49 102.5t-122 30.5h-43q-74 0 -122.5 33.5t-48.5 103.5
q0 72 52.5 104t127.5 32h139v147h-449v35h643v-35h-155v-179h-165q-64 0 -108 -23z" />
    <glyph glyph-name="dvDDHA" unicode="&#x922;" horiz-adv-x="633" 
d="M192.5 473.5q-73.5 -62.5 -73.5 -183.5q0 -70 32 -124.5t89 -85t129 -30.5q54 0 97.5 20.5t68 56.5t24.5 81q0 56 -35.5 93t-90.5 37q-47 0 -80.5 -30.5t-33.5 -80.5q0 -9 2 -21h-33q-2 14 -2 26q0 63 42.5 100.5t105.5 37.5q72 0 116.5 -45.5t44.5 -116.5q0 -56 -28 -99
t-79.5 -67t-119.5 -24q-82 0 -147.5 34t-103 96t-37.5 142q0 92 38.5 154.5t105.5 93t152 30.5h53v137h-461v35h697v-35h-197v-169h-83q-119 0 -192.5 -62.5z" />
    <glyph glyph-name="dvNNA" unicode="&#x923;" horiz-adv-x="833" 
d="M865 705h-152v-705h-40v705h-231v-312q0 -84 -46 -135.5t-127 -51.5q-80 0 -126 52t-46 135v312h-129v35h897v-35zM402 705h-265v-315q0 -66 36 -107.5t97 -41.5q62 0 97 41t35 108v315z" />
    <glyph glyph-name="dvTA" unicode="&#x924;" horiz-adv-x="686" 
d="M718 705h-152v-705h-40v465h-159q-116 0 -181.5 -53.5t-65.5 -160.5q0 -103 58.5 -159t165.5 -56h23v-34h-27q-122 0 -191 65t-69 185q0 125 76 187t209 62h161v204h-558v35h750v-35z" />
    <glyph glyph-name="dvTHA" unicode="&#x925;" horiz-adv-x="750" 
d="M782 740v-35h-151v-705h-41v252q-20 -58 -80.5 -100.5t-152.5 -42.5q-124 0 -194 71.5t-70 194.5q0 13 2 41h105q92 0 155 35t63 125q0 59 -36.5 98t-98.5 39q-66 0 -103.5 -39t-37.5 -104q0 -20 5 -47h-38q-4 28 -4 50q0 80 48.5 128t129.5 48q52 0 91.5 -23t61 -62.5
t21.5 -88.5q0 -101 -69 -146t-178 -45h-78q-3 -111 56.5 -175.5t173.5 -64.5q62 0 114 26t83 74.5t31 111.5v384h192z" />
    <glyph glyph-name="dvDA" unicode="&#x926;" horiz-adv-x="608" 
d="M233.5 520.5q-51.5 -22.5 -82 -67t-30.5 -109.5q0 -87 52 -139.5t140 -52.5q41 0 80.5 17t65.5 54t26 91h36v-320h-39v223q-20 -44 -68.5 -71.5t-109.5 -27.5q-103 0 -163.5 61.5t-60.5 165.5q0 77 35.5 129t95.5 78t134 26h93v127h-470v35h672v-35h-162v-162h-130
q-63 0 -114.5 -22.5z" />
    <glyph glyph-name="dvDHA" unicode="&#x927;" horiz-adv-x="700" 
d="M734 705h-151v-705h-41v253q-28 -66 -89.5 -104.5t-142.5 -38.5q-93 0 -152.5 44t-59.5 126q0 62 37.5 101t88.5 45v2q-56 11 -94 52.5t-38 110.5q0 68 44.5 113t116.5 45q73 0 115.5 -42t42.5 -110q0 -18 -1 -30h-34l1 27q0 51 -32.5 85.5t-90.5 34.5t-91.5 -36
t-33.5 -91q0 -65 43.5 -103.5t123.5 -38.5h55v-34h-53q-79 0 -119 -35.5t-40 -92.5q0 -68 50 -103.5t127 -35.5q63 0 114.5 28.5t81.5 79t30 115.5v373h192v-35z" />
    <glyph glyph-name="dvNA" unicode="&#x928;" horiz-adv-x="771" 
d="M803 705h-152v-705h-40v474h-247q37 -21 60 -60t23 -90q0 -53 -24 -93.5t-66 -63t-95 -22.5q-56 0 -99.5 23t-67.5 63.5t-24 93.5q0 84 54 134t140 50h346v196h-643v35h835v-35zM369.5 432q-42.5 41 -107.5 41q-68 0 -110.5 -40.5t-42.5 -106.5q0 -65 42 -105.5
t111 -40.5q65 0 107.5 41.5t42.5 105.5t-42.5 105z" />
    <glyph glyph-name="dvPA" unicode="&#x92a;" horiz-adv-x="642" 
d="M674 705h-151v-705h-41v325q-23 -50 -68.5 -78t-109.5 -28q-103 0 -156 64t-53 178v244h-127v35h706v-35zM482 705h-347v-244q0 -99 43.5 -152.5t132.5 -53.5q53 0 92 23.5t59 63.5t20 89v274z" />
    <glyph glyph-name="dvPHA" unicode="&#x92b;" horiz-adv-x="986" 
d="M503 705v-260q20 57 68.5 93.5t122.5 36.5q59 0 107.5 -27.5t76.5 -79t28 -118.5q0 -72 -27.5 -124.5t-75 -80t-107.5 -27.5q-34 0 -60 7v33q27 -5 53 -5q50 0 90.5 23t63.5 67.5t23 105.5q0 57 -24 100.5t-65.5 67t-90.5 23.5q-62 0 -103 -30t-60.5 -76t-19.5 -96v-338
h-40v325q-22 -49 -65 -77.5t-104 -28.5q-98 0 -148.5 63.5t-50.5 176.5v246h-127v35h1050v-35h-515zM463 705h-328v-246q0 -98 41 -151t125 -53q76 0 119 50t43 124v276z" />
    <glyph glyph-name="dvBA" unicode="&#x92c;" horiz-adv-x="690" 
d="M722 740v-35h-152v-705h-39v240q-23 -57 -77 -93.5t-132 -36.5q-66 0 -121.5 28.5t-88 82t-32.5 124.5q0 72 31.5 126.5t86 83.5t121.5 29q79 0 133.5 -37.5t78.5 -95.5v254h-563v35h754zM246 540.5q-37 -13.5 -66 -39.5l307 -286q23 28 34.5 62.5t11.5 69.5
q0 52 -23.5 99.5t-70.5 77.5t-114 30q-42 0 -79 -13.5zM145 236.5q28 -46.5 76 -70.5t106 -24q89 0 144 55l-307 287q-47 -57 -47 -139q0 -62 28 -108.5z" />
    <glyph glyph-name="dvBHA" unicode="&#x92d;" horiz-adv-x="761" 
d="M793 740v-35h-151v-705h-40v414h-188v-95q0 -96 -42 -145.5t-119 -49.5q-74 0 -119.5 44.5t-45.5 117.5q0 75 49 118.5t127 43.5h112v105q0 76 -28 118t-86 42q-51 0 -82 -34t-31 -94q0 -22 4 -42h-40q-4 30 -4 43q0 75 41.5 119t110.5 44q77 0 115 -52.5t38 -147.5v-101
h188v292h191zM376 414h-112q-61 0 -99 -35t-38 -93q0 -57 35.5 -92t90.5 -35q57 0 90 41.5t33 116.5v97z" />
    <glyph glyph-name="dvMA" unicode="&#x92e;" horiz-adv-x="753" 
d="M785 705h-151v-705h-41v414h-215v-95q0 -96 -42 -145.5t-119 -49.5q-74 0 -119 44.5t-45 117.5q0 75 48.5 118.5t126.5 43.5h112v257h-372v35h817v-35zM593 705h-215v-257h215v257zM340 414h-112q-61 0 -99 -35t-38 -93q0 -57 35.5 -92t90.5 -35q57 0 90 41.5t33 116.5
v97z" />
    <glyph glyph-name="dvYA" unicode="&#x92f;" horiz-adv-x="726" 
d="M758 705h-151v-705h-41v260q-25 -56 -84 -93.5t-144 -37.5q-124 0 -192.5 76t-68.5 206q0 15 2 39h17q93 0 145 38t52 135v82h-325v35h790v-35zM566 705h-233v-87q0 -105 -56 -149.5t-161 -45.5v-15q0 -114 60.5 -179t167.5 -65q61 0 111.5 25.5t80.5 72.5t30 107v336z
" />
    <glyph glyph-name="dvRA" unicode="&#x930;" horiz-adv-x="538" 
d="M134 362v-159q0 -81 36.5 -128.5t108.5 -47.5q67 0 106 44.5t39 117.5v14h39v-13q0 -91 -49.5 -145t-133.5 -54q-91 0 -138.5 58t-47.5 157v190h108q90 0 139 47t49 142v120h-422v35h602v-35h-139v-120q0 -111 -56.5 -167t-162.5 -56h-78z" />
    <glyph glyph-name="dvRxA" unicode="&#x931;" horiz-adv-x="538" 
d="M134 362v-159q0 -81 36.5 -128.5t108.5 -47.5q67 0 106 44.5t39 117.5v14h39v-13q0 -91 -49.5 -145t-133.5 -54q-91 0 -138.5 58t-47.5 157v190h108q90 0 139 47t49 142v120h-422v35h602v-35h-139v-120q0 -111 -56.5 -167t-162.5 -56h-78zM94 -119q-10 10 -10 25t10 25
t26 10q15 0 25 -10t10 -25t-10 -25t-25 -10q-16 0 -26 10z" />
    <glyph glyph-name="dvLA" unicode="&#x932;" horiz-adv-x="898" 
d="M653 705v-152q78 -9 122 -69.5t44 -152.5q0 -69 -25.5 -123t-77 -85t-124.5 -31q-11 0 -33 2v37q22 -2 30 -2q91 0 140 56t49 146q0 82 -39.5 134.5t-113.5 52.5q-77 0 -117.5 -59t-40.5 -162v-10h-36v10q0 101 -39 161t-111 60q-78 0 -119.5 -52t-41.5 -135
q0 -90 49 -146t140 -56q10 0 30 2v-37q-22 -2 -33 -2q-73 0 -124 31t-76.5 85t-25.5 123q0 101 52.5 162t144.5 61q76 0 118 -48.5t53 -114.5h3q11 63 50 110t112 52v152h-645v35h962v-35h-277z" />
    <glyph glyph-name="dvLLA" unicode="&#x933;" horiz-adv-x="1019" 
d="M745 705v-140q56 -6 100 -35.5t69 -78.5t25 -111q0 -64 -28.5 -114t-79.5 -78t-114 -28q-80 0 -135.5 44t-70.5 109h-3q-15 -65 -70.5 -109t-136.5 -44q-63 0 -113.5 28t-79 78t-28.5 114q0 67 28.5 118.5t79 79.5t112.5 28q84 0 136.5 -43t71.5 -108h2q19 62 68 104.5
t127 46.5v139h-737v35h1083v-35h-306zM400.5 179q41.5 24 64.5 66t23 95q0 85 -50.5 138t-133.5 53q-53 0 -95 -23.5t-66 -67t-24 -100.5q0 -54 24 -96t66.5 -65.5t95.5 -23.5q54 0 95.5 24zM875 440.5q-24 43.5 -66 67t-95 23.5q-55 0 -96.5 -24.5t-64.5 -67.5t-23 -99
q0 -53 23 -95t64.5 -66t95.5 -24q53 0 95.5 23.5t66.5 65.5t24 96q0 57 -24 100.5z" />
    <glyph glyph-name="dvVA" unicode="&#x935;" horiz-adv-x="679" 
d="M711 740v-35h-152v-705h-39v246q-23 -58 -76.5 -94.5t-132.5 -36.5q-66 0 -118.5 28.5t-82.5 81.5t-30 125q0 68 30.5 120t83 80.5t117.5 28.5q79 0 132.5 -36.5t76.5 -94.5v257h-552v35h743zM431.5 178.5q45.5 29.5 67 74.5t21.5 92v1q0 50 -21.5 95.5t-67 74.5
t-113.5 29q-55 0 -100 -23.5t-71.5 -68t-26.5 -104.5q0 -62 26 -107t71 -69t101 -24q68 0 113.5 29.5z" />
    <glyph glyph-name="dvSHA" unicode="&#x936;" horiz-adv-x="790" 
d="M143 339v-133q0 -81 40 -130t117 -49q68 0 107.5 45t39.5 120v11h39v-12q0 -92 -50 -146t-136 -54q-96 0 -146.5 59t-50.5 159v165h151q90 0 146.5 45.5t56.5 128.5q0 77 -42 121t-113 44q-70 0 -112.5 -44t-42.5 -119q0 -22 5 -50h-41q-4 34 -4 51q0 90 53 144t142 54
t142.5 -54t53.5 -149q0 -99 -65 -153t-170 -54h-120zM822 740v-35h-151v-705h-41v740h192z" />
    <glyph glyph-name="dvSSA" unicode="&#x937;" horiz-adv-x="644" 
d="M676 705h-151v-705h-40v324q-22 -50 -68.5 -78.5t-111.5 -28.5q-103 0 -156.5 64.5t-53.5 179.5v244h-127v35h708v-35zM485 705h-351l349 -305q2 18 2 30v275zM416.5 284.5q42.5 31.5 59.5 83.5l-342 299v-207q0 -99 44 -153t134 -54q62 0 104.5 31.5z" />
    <glyph glyph-name="dvSA" unicode="&#x938;" horiz-adv-x="814" 
d="M846 705h-151v-705h-41v378h-520v-174q0 -80 37 -128.5t109 -48.5q67 0 106 44.5t39 117.5v12h40v-13q0 -90 -50 -143.5t-135 -53.5q-90 0 -138 58.5t-48 156.5v204h104q88 0 138 51t50 139v105h-418v35h878v-35zM654 705h-229v-105q0 -68 -26.5 -116t-71.5 -72h327v293z
" />
    <glyph glyph-name="dvHA" unicode="&#x939;" horiz-adv-x="587" 
d="M185.5 505.5q-37.5 -23.5 -37.5 -75.5q0 -41 27 -68t72 -38q29 6 61 6q92 0 145.5 -45t66.5 -107h-39q-11 46 -56 82t-117 36q-59 0 -100.5 -24.5t-62.5 -66t-21 -90.5q0 -77 48 -128t136 -51q70 0 115 35t58 82h39q-9 -39 -35 -74t-71 -57t-106 -22q-72 0 -122.5 29.5
t-76 78.5t-25.5 108q0 66 32 117.5t89 76.5q-41 14 -69 45.5t-28 79.5q0 63 45.5 94.5t118.5 31.5h159v144h-463v35h651v-35h-149v-176h-189q-58 0 -95.5 -23.5z" />
    <glyph glyph-name="dvNukta" unicode="&#x93c;" horiz-adv-x="0" 
d="M-429 -71q-10 10 -10 25t10 25t26 10q15 0 25 -10t10 -25t-10 -25t-25 -10q-16 0 -26 10z" />
    <glyph glyph-name="dvAvagraha" unicode="&#x93d;" horiz-adv-x="565" 
d="M87 106h232q48 0 74 22t26 56q0 41 -31.5 78t-95.5 91q-48 41 -78 71t-50.5 65.5t-20.5 74.5q0 58 38.5 83t100.5 25h190v-35h-181q-50 0 -79 -17t-29 -60t32.5 -81.5t98.5 -94.5q72 -61 109 -106t37 -98q0 -46 -33.5 -78t-100.5 -32h-239v36z" />
    <glyph glyph-name="dvmAA" unicode="&#x93e;" 
d="M119 705h-151v35h343v-35h-151v-705h-41v705z" />
    <glyph glyph-name="dvmI" unicode="&#x93f;" 
d="M660.5 953.5q82.5 -22.5 135.5 -74t53 -133.5v-18h-40v17q0 73 -50 117t-123 61.5t-151 17.5q-135 0 -230 -42t-95 -157v-2h151v-35h-151v-705h-41v705h-151v35h151v2q0 130 105.5 182t260.5 52q93 0 175.5 -22.5z" />
    <glyph glyph-name="dvmII" unicode="&#x940;" 
d="M311 740v-35h-151v-705h-41v705h-151v35h152v45q0 68 -27.5 112t-91.5 44q-65 0 -93 -44t-28 -112v-56h-40v54q0 86 39 139.5t122 53.5t121 -53t38 -140v-43h151z" />
    <glyph glyph-name="dvmU" unicode="&#x941;" horiz-adv-x="0" 
d="M-345.5 -227q-60.5 50 -56.5 147h37q-4 -81 45.5 -122t129.5 -41q68 0 109 32.5t41 91.5q0 42 -28 74t-74 32h-18v34h18q64 0 101 -41t37 -100q0 -73 -49.5 -115t-135.5 -42q-96 0 -156.5 50z" />
    <glyph glyph-name="dvmUU" unicode="&#x942;" horiz-adv-x="0" 
d="M-275 -234.5q-42 38.5 -42 103.5q0 69 48.5 110t127.5 41q69 0 121 -31.5t81 -91.5t29 -142l-1 -20h-35v28q0 69 -25 120t-69 77.5t-99 26.5q-66 0 -104.5 -32.5t-38.5 -85.5q0 -49 32.5 -79t83.5 -30q18 0 37 3v-33q-19 -3 -39 -3q-65 0 -107 38.5z" />
    <glyph glyph-name="dvmvR" unicode="&#x943;" horiz-adv-x="0" 
d="M-261 -255.5q-50 39.5 -50 116.5q0 69 45.5 114t126.5 45h20v-31h-18q-63 0 -99 -36t-36 -91q0 -63 39 -93t99 -30q38 0 68 10v-33q-12 -5 -32.5 -8t-39.5 -3q-73 0 -123 39.5z" />
    <glyph glyph-name="dvmvRR" unicode="&#x944;" horiz-adv-x="0" 
d="M-263.5 -397.5q-42.5 29.5 -42.5 88.5q0 44 24.5 72t60.5 35v3q-39 9 -62 35t-23 69q0 58 39.5 86.5t96.5 28.5h51v-28h-40q-46 0 -76.5 -21t-30.5 -68q0 -44 31 -65.5t82 -21.5h40v-32h-45q-46 0 -77 -21.5t-31 -68.5q0 -45 31.5 -66t82.5 -21q26 0 52.5 4.5t43.5 10.5
v-32q-17 -7 -44.5 -12t-55.5 -5q-65 0 -107.5 29.5z" />
    <glyph glyph-name="dvmEcandra" unicode="&#x945;" horiz-adv-x="0" 
d="M-243 844.5q-41 22.5 -61 58.5t-20 75h36q0 -30 16 -58.5t49 -46.5t82 -18q48 0 81 18t49 46.5t16 58.5h36q0 -39 -20 -75t-61 -58.5t-101 -22.5q-61 0 -102 22.5z" />
    <glyph glyph-name="dvmE" unicode="&#x947;" horiz-adv-x="0" 
d="M-255.5 871.5q-38.5 41.5 -72 53t-91.5 11.5h-36v34h35q67 0 106.5 -13t84 -62t110.5 -158h-39q-59 93 -97.5 134.5z" />
    <glyph glyph-name="dvmAI" unicode="&#x948;" horiz-adv-x="0" 
d="M-315.5 1008.5q38.5 -15.5 83 -75.5t113.5 -196h-36q-61 53 -99.5 76.5t-72.5 30t-94 6.5h-36v29h35q59 0 92 -5t69.5 -25.5t89.5 -67.5q-53 99 -90.5 144t-71 57t-88.5 12h-36v30h36q67 0 105.5 -15.5z" />
    <glyph glyph-name="dvmOcandra" unicode="&#x949;" 
d="M119 705h-151v35h343v-35h-151v-705h-41v705zM38 844.5q-41 22.5 -61 58.5t-20 75h36q0 -30 16 -58.5t49 -46.5t82 -18q48 0 81 18t49 46.5t16 58.5h36q0 -39 -20 -75t-61 -58.5t-101 -22.5q-61 0 -102 22.5z" />
    <glyph glyph-name="dvmO" unicode="&#x94b;" 
d="M119 705h-151v35h343v-35h-151v-705h-41v705zM23.5 871.5q-38.5 41.5 -72 53t-91.5 11.5h-36v34h35q67 0 106.5 -13t84 -62t110.5 -158h-39q-59 93 -97.5 134.5z" />
    <glyph glyph-name="dvmAU" unicode="&#x94c;" 
d="M119 705h-151v35h343v-35h-151v-705h-41v705zM-37.5 1008.5q38.5 -15.5 83 -75.5t113.5 -196h-36q-61 53 -99.5 76.5t-72.5 30t-94 6.5h-36v29h35q59 0 92 -5t69.5 -25.5t89.5 -67.5q-53 99 -90.5 144t-71 57t-88.5 12h-36v30h36q67 0 105.5 -15.5z" />
    <glyph glyph-name="dvVirama" unicode="&#x94d;" horiz-adv-x="0" 
d="M-157 -64h41l119 -186h-42z" />
    <glyph glyph-name="dvOm" unicode="&#x950;" horiz-adv-x="1047" 
d="M562.5 921.5q-8.5 8.5 -8.5 21.5t8.5 21.5t21.5 8.5t22 -8.5t9 -21.5t-8.5 -21.5t-22.5 -8.5q-13 0 -21.5 8.5zM483 777.5q-41 22.5 -61.5 58t-20.5 75.5h34q0 -30 16.5 -58.5t50 -47t82.5 -18.5q48 0 81.5 18.5t50 47t16.5 58.5h34q0 -39 -20 -75t-61.5 -58.5
t-100.5 -22.5q-60 0 -101 22.5zM910.5 626.5q41.5 -62.5 41.5 -185.5v-145q0 -134 -56.5 -200t-188.5 -66q-38 0 -96 10v35q61 -9 91 -9q117 0 163.5 56.5t46.5 174.5v147q0 103 -32.5 156t-109.5 53q-71 0 -103 -41.5t-32 -109.5q0 -86 -40.5 -123.5t-118.5 -37.5h-22
q23 -24 35 -57.5t12 -70.5q0 -90 -55 -145t-146 -55q-61 0 -110 25t-76.5 70.5t-27.5 103.5h39q0 -47 22.5 -84.5t61.5 -58t89 -20.5q75 0 119.5 46t44.5 121q0 40 -17 76t-55 59t-96 23h-35v36h35q51 0 86.5 21t52.5 54t17 68q0 72 -45.5 113.5t-112.5 41.5
q-68 0 -113.5 -38t-45.5 -103h-38q0 81 55.5 129t141.5 48q56 0 100.5 -23t69.5 -64.5t25 -96.5q0 -64 -33.5 -109t-97.5 -57v-2q29 -4 54 -17h62q60 0 92 29t32 99q0 86 41 136t133 50q99 0 140.5 -62.5z" />
    <glyph glyph-name="dvKxA" unicode="&#x958;" horiz-adv-x="1012" 
d="M530 705v-259q21 57 69 93t121 36q59 0 107.5 -28t76.5 -79t28 -118q0 -72 -27.5 -124.5t-75 -80t-107.5 -27.5q-33 0 -59 7v33q25 -5 52 -5q50 0 90 23t63 67.5t23 105.5q0 57 -24 100.5t-65 67t-90 23.5q-62 0 -103 -29.5t-60 -75t-19 -94.5v-341h-38v245
q-22 -57 -71.5 -92.5t-123.5 -35.5q-62 0 -111.5 28t-77.5 80.5t-28 123.5q0 68 28.5 119.5t78 79t111.5 27.5q75 0 124 -35.5t70 -91.5v257h-524v35h1076v-35h-514zM410 181q42 29 62 73.5t20 90.5q0 49 -20 93.5t-62 73t-104 28.5q-51 0 -93.5 -23t-67.5 -66.5t-25 -101.5
q0 -61 24.5 -105.5t66.5 -68t95 -23.5q62 0 104 29zM262 -36q-10 10 -10 25t10 25t26 10q15 0 25 -10t10 -25t-10 -25t-25 -10q-16 0 -26 10z" />
    <glyph glyph-name="dvKHxA" unicode="&#x959;" horiz-adv-x="918" 
d="M950 740v-35h-152v-705h-40v259q-20 -48 -63 -78t-107 -30q-24 0 -43 4q-26 -68 -82.5 -112t-137.5 -44q-105 0 -168 60.5t-63 164.5v172h41q65 0 106 35t41 127v147h-314v35h982zM441 71.5q47 36.5 69 93.5q-56 21 -89 71t-33 122q0 60 26.5 105.5t72 70t101.5 24.5
q65 0 108 -29.5t62 -77.5v254h-436v-151q0 -190 -175 -190h-13v-143q0 -84 52 -135t140 -51q68 0 115 36.5zM686 209.5q37 25.5 54.5 64.5t17.5 80v1q0 42 -17.5 81t-54.5 64t-92 25q-46 0 -84 -20t-61 -58t-23 -89q0 -54 22 -93.5t60.5 -60t85.5 -20.5q55 0 92 25.5z
M285 -154q-10 10 -10 25t10 25t26 10q15 0 25 -10t10 -25t-10 -25t-25 -10q-16 0 -26 10z" />
    <glyph glyph-name="dvGxA" unicode="&#x95a;" horiz-adv-x="705" 
d="M737 740v-35h-151v-705h-41v705h-208v-296q0 -67 -34.5 -110t-106.5 -43q-70 0 -105.5 42.5t-35.5 107.5v30h40v-31q0 -47 24 -80.5t76 -33.5q55 0 78 33.5t23 83.5v297h-328v35h769zM177 97q-10 10 -10 25t10 25t26 10q15 0 25 -10t10 -25t-10 -25t-25 -10q-16 0 -26 10
z" />
    <glyph glyph-name="dvJxA" unicode="&#x95b;" horiz-adv-x="829" 
d="M861 705h-151v-705h-40v470h-234v-133q0 -84 -48 -136t-129 -52q-79 0 -124.5 52t-45.5 136v169h40v-169q0 -68 35.5 -110t95.5 -42q63 0 99.5 42t36.5 110v169h274v199h-702v35h893v-35zM239 -4q-10 10 -10 25t10 25t26 10q15 0 25 -10t10 -25t-10 -25t-25 -10
q-16 0 -26 10z" />
    <glyph glyph-name="dvDDxA" unicode="&#x95c;" horiz-adv-x="579" 
d="M183 503q-44 -23 -44 -82q0 -54 37.5 -79t96.5 -25h45q86 0 145 -39t59 -127q0 -71 -52 -116.5t-150 -45.5q-75 0 -128.5 24.5t-81 68.5t-28.5 100h40q0 -70 50.5 -115t146.5 -45q80 0 122 36.5t42 93.5q0 72 -49 102.5t-122 30.5h-43q-74 0 -122.5 33.5t-48.5 103.5
q0 72 52.5 104t127.5 32h139v147h-449v35h643v-35h-155v-179h-165q-64 0 -108 -23zM288 -164q-10 10 -10 25t10 25t26 10q15 0 25 -10t10 -25t-10 -25t-25 -10q-16 0 -26 10z" />
    <glyph glyph-name="dvDDHxA" unicode="&#x95d;" horiz-adv-x="633" 
d="M192.5 473.5q-73.5 -62.5 -73.5 -183.5q0 -70 32 -124.5t89 -85t129 -30.5q54 0 97.5 20.5t68 56.5t24.5 81q0 56 -35.5 93t-90.5 37q-47 0 -80.5 -30.5t-33.5 -80.5q0 -9 2 -21h-33q-2 14 -2 26q0 63 42.5 100.5t105.5 37.5q72 0 116.5 -45.5t44.5 -116.5q0 -56 -28 -99
t-79.5 -67t-119.5 -24q-82 0 -147.5 34t-103 96t-37.5 142q0 92 38.5 154.5t105.5 93t152 30.5h53v137h-461v35h697v-35h-197v-169h-83q-119 0 -192.5 -62.5zM316 -135q-10 10 -10 25t10 25t26 10q15 0 25 -10t10 -25t-10 -25t-25 -10q-16 0 -26 10z" />
    <glyph glyph-name="dvPHxA" unicode="&#x95e;" horiz-adv-x="986" 
d="M503 705v-260q20 57 68.5 93.5t122.5 36.5q59 0 107.5 -27.5t76.5 -79t28 -118.5q0 -72 -27.5 -124.5t-75 -80t-107.5 -27.5q-34 0 -60 7v33q27 -5 53 -5q50 0 90.5 23t63.5 67.5t23 105.5q0 57 -24 100.5t-65.5 67t-90.5 23.5q-62 0 -103 -30t-60.5 -76t-19.5 -96v-338
h-40v325q-22 -49 -65 -77.5t-104 -28.5q-98 0 -148.5 63.5t-50.5 176.5v246h-127v35h1050v-35h-515zM463 705h-328v-246q0 -98 41 -151t125 -53q76 0 119 50t43 124v276zM253 67q-10 10 -10 25t10 25t26 10q15 0 25 -10t10 -25t-10 -25t-25 -10q-16 0 -26 10z" />
    <glyph glyph-name="dvvRR" unicode="&#x960;" horiz-adv-x="947" 
d="M549 705v-275h199q96 0 96 88v71h37v-357h-43q-46 0 -76.5 -21t-30.5 -68q0 -44 31.5 -65.5t81.5 -21.5h41v-33h-45q-47 0 -78 -21t-31 -68q0 -45 32 -66.5t83 -21.5q25 0 51.5 5t43.5 11v-32q-17 -7 -44 -12t-55 -5q-65 0 -107.5 29.5t-42.5 88.5q0 44 24 72t61 35v3
q-39 9 -62 35t-23 69q0 58 39.5 86.5t96.5 28.5h16v170q-34 -34 -101 -34h-194v-396h-38v341l-323 -341h-49v5l371 381q-8 72 -58.5 118t-127.5 46q-60 0 -106.5 -26t-73 -74.5t-26.5 -113.5h-41q0 75 30.5 131.5t84.5 87t122 30.5q71 0 121 -32t76 -87v239h-543v35h1068
v-35h-487z" />
    <glyph glyph-name="dvvLL" unicode="&#x961;" horiz-adv-x="905" 
d="M650 705v-151q79 -7 123 -68t44 -154q0 -56 -16 -100h-41q-46 0 -76.5 -21t-30.5 -68q0 -44 31.5 -65.5t81.5 -21.5h40v-33h-45q-46 0 -77 -21t-31 -68q0 -45 31.5 -66.5t82.5 -21.5q26 0 52 5t44 11v-32q-17 -7 -44.5 -12t-55.5 -5q-65 0 -107.5 29.5t-42.5 89.5
q0 43 24.5 71t60.5 35v3q-39 9 -61.5 35.5t-22.5 68.5q0 59 39.5 87t95.5 28h19q9 35 9 72q0 81 -39.5 134t-112.5 53q-77 0 -117.5 -59t-40.5 -162v-11h-36v11q0 101 -39 161t-111 60q-78 0 -119.5 -52t-41.5 -135q0 -91 49 -147t140 -56q10 0 30 2v-37q-11 -1 -33 -1
q-109 0 -167.5 66.5t-58.5 172.5q0 101 52.5 162t144.5 61q76 0 118 -48.5t53 -114.5h2q12 63 50.5 109.5t109.5 52.5v151h-642v35h962v-35h-280z" />
    <glyph glyph-name="dvmvL" unicode="&#x962;" horiz-adv-x="0" 
d="M148 -420v-30q-18 -5 -44 -5q-55 0 -90.5 28.5t-35.5 83.5q0 47 29.5 78.5t80.5 35.5q6 22 6 47q0 59 -27 95t-79 36q-54 0 -82 -41.5t-28 -112.5v-8h-30v8q0 71 -27.5 112.5t-78.5 41.5q-54 0 -82.5 -36t-28.5 -95q0 -62 34 -101t97 -39q17 0 22 2v-31q-6 -1 -24 -1
q-78 0 -120.5 47.5t-42.5 122.5q0 73 38.5 117.5t103.5 44.5q54 0 84.5 -35t38.5 -82h2q9 48 40 82.5t89 34.5q63 0 99 -45t36 -117q0 -37 -12 -70h-6q-46 0 -72.5 -25t-26.5 -63q0 -43 27.5 -65t67.5 -22q24 0 42 7z" />
    <glyph glyph-name="dvmvLL" unicode="&#x963;" horiz-adv-x="0" 
d="M160 -515v-27q-12 -5 -31.5 -8.5t-39.5 -3.5q-47 0 -77.5 21.5t-30.5 64.5q0 31 17.5 51t43.5 26v1q-29 7 -45 26.5t-16 50.5q0 42 28 63t68 21h11q6 22 6 47q0 59 -27 95t-79 36q-54 0 -82 -41.5t-28 -112.5v-8h-30v8q0 71 -27.5 112.5t-78.5 41.5q-54 0 -82.5 -36
t-28.5 -95q0 -62 34 -101t97 -39q17 0 22 2v-31q-6 -1 -24 -1q-78 0 -120.5 47.5t-42.5 122.5q0 73 38.5 117.5t103.5 44.5q54 0 84.5 -35t38.5 -82h2q9 48 40 82.5t89 34.5q63 0 99 -45t36 -117q0 -37 -12 -70h-30q-31 0 -52 -15t-21 -47t21.5 -47.5t56.5 -15.5h28v-27h-29
q-34 0 -56 -14t-22 -48q0 -30 22.5 -45t57.5 -15q37 0 68 11z" />
    <glyph glyph-name="danda" unicode="&#x964;" horiz-adv-x="247" 
d="M202 0h-40v742h40v-742z" />
    <glyph glyph-name="doubledanda" unicode="&#x965;" horiz-adv-x="421" 
d="M202 0h-40v742h40v-742zM377 0h-40v742h40v-742z" />
    <glyph glyph-name="dvZero" unicode="&#x966;" horiz-adv-x="597" 
d="M115.5 88q50.5 -94 183.5 -94q132 0 182.5 94t50.5 267q0 171 -50 264t-183 93t-183.5 -93t-50.5 -264q0 -173 50.5 -267zM472.5 185.5q-14.5 -68.5 -56 -109t-117.5 -40.5q-77 0 -118.5 40.5t-56 109t-14.5 169.5q0 100 14.5 168t56 107.5t118.5 39.5q76 0 117.5 -39.5
t56 -107.5t14.5 -168q0 -101 -14.5 -169.5z" />
    <glyph glyph-name="dvOne" unicode="&#x967;" horiz-adv-x="248" 
d="M14 663v42h153v-705h-47v663h-106z" />
    <glyph glyph-name="dvTwo" unicode="&#x968;" horiz-adv-x="567" 
d="M343 277.5q110 123.5 110 234.5q0 72 -38 117t-124 45q-87 0 -133.5 -53.5t-52.5 -143.5h-44q7 112 69 174t163 62q90 0 148 -49t58 -149q0 -86 -59 -176.5t-146.5 -168.5t-176.5 -131h404v-38h-474v31q186 122 296 245.5z" />
    <glyph glyph-name="dvThree" unicode="&#x969;" horiz-adv-x="580" 
d="M448.5 666q53.5 -50 53.5 -128q0 -65 -40 -112t-126 -55v-5q84 -21 131.5 -64t47.5 -119q0 -84 -54.5 -137t-161.5 -53q-103 0 -168 55t-80 156h45q13 -77 64.5 -124t136.5 -47t129.5 42.5t44.5 109.5q0 80 -63 121.5t-177 41.5h-19v39h20q115 0 170.5 38t55.5 109
q0 64 -42.5 103.5t-118.5 39.5q-74 0 -126.5 -40t-62.5 -123h-45q9 94 70 148t165 54q97 0 150.5 -50z" />
    <glyph glyph-name="dvFour" unicode="&#x96a;" horiz-adv-x="590" 
d="M24 180v37l385 489h47v-486h116v-40h-116v-180h-45v180h-387zM413 646l-339 -426h339v426z" />
    <glyph glyph-name="dvFive" unicode="&#x96b;" horiz-adv-x="601" 
d="M513 667h-388v-290q28 40 81 64t115 24q114 0 170 -65t56 -162q0 -67 -25 -122.5t-77.5 -88.5t-132.5 -33q-98 0 -162.5 54.5t-76.5 148.5h44q16 -78 67 -120t126 -42q96 0 144.5 56t48.5 148q0 88 -49 138t-140 50q-63 0 -112.5 -27t-76.5 -73h-42v380h430v-40z" />
    <glyph glyph-name="dvSix" unicode="&#x96c;" horiz-adv-x="616" 
d="M434.5 636.5q-42.5 41.5 -115.5 41.5q-102 0 -156 -76t-54 -244q0 -31 1 -47q13 72 74 114.5t145 42.5q109 0 169 -64.5t60 -177.5q0 -64 -24 -116.5t-75.5 -84.5t-130.5 -32q-150 0 -205 94t-55 255q0 182 59 278t194 96q94 0 147 -53t63 -143h-43q-11 75 -53.5 116.5z
M139 141.5q22 -48.5 69 -78.5t119 -30q85 0 136.5 51.5t51.5 141.5q0 99 -51.5 152t-141.5 53q-51 0 -98 -20.5t-77 -62.5t-30 -103q0 -55 22 -103.5z" />
    <glyph glyph-name="dvSeven" unicode="&#x96d;" horiz-adv-x="503" 
d="M467 670l-275 -670h-49l279 666h-411v40h456v-36z" />
    <glyph glyph-name="dvEight" unicode="&#x96e;" horiz-adv-x="614" 
d="M101.5 629q27.5 41 80 64.5t125.5 23.5t125.5 -23.5t80 -64.5t27.5 -94q0 -63 -35 -107t-109 -61q77 -16 120.5 -63.5t43.5 -120.5q0 -96 -67.5 -151t-185.5 -55t-185.5 55t-67.5 151q0 73 43.5 120.5t120.5 63.5q-73 17 -108.5 61.5t-35.5 106.5q0 53 27.5 94zM169 421
q51 -39 138 -39t138 39t51 109q0 71 -51.5 109.5t-137.5 38.5t-137.5 -38.5t-51.5 -109.5q0 -70 51 -109zM155 59.5q56 -44.5 152 -44.5t152.5 44.5t56.5 125.5q0 83 -58.5 122.5t-150.5 39.5q-91 0 -149.5 -39.5t-58.5 -122.5q0 -81 56 -125.5z" />
    <glyph glyph-name="dvNine" unicode="&#x96f;" horiz-adv-x="612" 
d="M179.5 71.5q42.5 -41.5 116.5 -41.5q102 0 156 76t54 244q0 31 -1 47q-13 -72 -74.5 -114.5t-144.5 -42.5q-109 0 -169.5 64.5t-60.5 177.5q0 63 24 116t76 85t131 32q150 0 205 -93.5t55 -253.5q0 -181 -58.5 -278.5t-192.5 -97.5q-94 0 -148 53.5t-64 142.5h43
q10 -75 52.5 -116.5zM476 567.5q-22 48.5 -69 78.5t-119 30q-85 0 -136.5 -52t-51.5 -142q0 -100 51.5 -152.5t141.5 -52.5q51 0 98 21t77 63t30 103q0 55 -22 103.5z" />
    <glyph glyph-name="dvAbbreviationsign" unicode="&#x970;" horiz-adv-x="504" 
d="M369 242q-45 -44 -115 -44q-47 0 -85 20.5t-59 56.5t-21 81t21 81t59 56.5t85 20.5q71 0 115.5 -44.5t44.5 -115.5q0 -68 -45 -112zM157 263q38 -36 97 -36q58 0 94 35.5t36 91.5q0 58 -36 94.5t-94 36.5q-59 0 -97 -36t-38 -93t38 -93z" />
    <glyph glyph-name="dvAcandra" unicode="&#x972;" horiz-adv-x="821" 
d="M853 740v-35h-152v-705h-40v365l-212 1q23 -24 35 -56.5t12 -68.5q0 -86 -54.5 -138.5t-145.5 -52.5q-61 0 -110 25t-76.5 70t-27.5 103h38q0 -47 22.5 -84t62 -57.5t88.5 -20.5q75 0 120 43.5t45 113.5q0 39 -17.5 74.5t-55 58t-95.5 22.5h-36v35h36q51 0 86 19.5
t52 50.5t17 65q0 67 -44 106.5t-110 39.5q-70 0 -116.5 -38.5t-45.5 -103.5h-39q0 81 56.5 129t144.5 48q54 0 97.5 -21.5t68.5 -61t25 -91.5q0 -61 -33 -103.5t-98 -54.5v-1q31 -5 52 -16h258v340h192zM588 871.5q-41 22.5 -61 58.5t-20 75h36q0 -30 16 -58.5t49 -46.5
t82 -18q48 0 81 18t49 46.5t16 58.5h36q0 -39 -20 -75t-61 -58.5t-101 -22.5q-61 0 -102 22.5z" />
    <glyph glyph-name="Wgrave" unicode="&#x1e80;" horiz-adv-x="929" 
d="M894 705l-185 -705h-52l-193 636l-192 -636h-52l-186 705h51l161 -640l193 640h51l192 -640l161 640h51zM475 786v-36l-196 126v41z" />
    <glyph glyph-name="wgrave" unicode="&#x1e81;" horiz-adv-x="816" 
d="M798 543l-165 -543h-44l-181 483l-181 -483h-44l-166 543h47l143 -487l179 487h45l180 -487l143 487h44zM418 624v-36l-196 126v41z" />
    <glyph glyph-name="Wacute" unicode="&#x1e82;" horiz-adv-x="929" 
d="M894 705l-185 -705h-52l-193 636l-192 -636h-52l-186 705h51l161 -640l193 640h51l192 -640l161 640h51zM641 876l-196 -126v36l196 131v-41z" />
    <glyph glyph-name="wacute" unicode="&#x1e83;" horiz-adv-x="816" 
d="M798 543l-165 -543h-44l-181 483l-181 -483h-44l-166 543h47l143 -487l179 487h45l180 -487l143 487h44zM584 714l-196 -126v36l196 131v-41z" />
    <glyph glyph-name="Wdieresis" unicode="&#x1e84;" horiz-adv-x="929" 
d="M894 705l-185 -705h-52l-193 636l-192 -636h-52l-186 705h51l161 -640l193 640h51l192 -640l161 640h51zM365.5 851q10.5 11 26.5 11t26.5 -11t10.5 -26t-10.5 -26t-26.5 -11t-26.5 11t-10.5 26t10.5 26zM511.5 851q10.5 11 26.5 11q15 0 25.5 -11t10.5 -26t-10.5 -26
t-25.5 -11q-16 0 -26.5 11t-10.5 26t10.5 26z" />
    <glyph glyph-name="wdieresis" unicode="&#x1e85;" horiz-adv-x="816" 
d="M798 543l-165 -543h-44l-181 483l-181 -483h-44l-166 543h47l143 -487l179 487h45l180 -487l143 487h44zM308.5 689q10.5 11 26.5 11t26.5 -11t10.5 -26t-10.5 -26t-26.5 -11t-26.5 11t-10.5 26t10.5 26zM454.5 689q10.5 11 26.5 11q15 0 25.5 -11t10.5 -26t-10.5 -26
t-25.5 -11q-16 0 -26.5 11t-10.5 26t10.5 26z" />
    <glyph glyph-name="uni1EBC" unicode="&#x1ebc;" horiz-adv-x="489" 
d="M126 667v-296h285v-36h-285v-297h315v-38h-360v705h360v-38h-315zM235 840.5q13 -6.5 29 -19.5q15 -12 26 -18t26 -6q17 0 29 12t15 35h30q-4 -35 -24.5 -56.5t-50.5 -21.5q-18 0 -31.5 6.5t-32.5 20.5q-16 11 -25.5 16.5t-22.5 5.5q-36 0 -43 -48h-29q5 38 24 59t49 21
q18 0 31 -6.5z" />
    <glyph glyph-name="uni1EBD" unicode="&#x1ebd;" horiz-adv-x="627" 
d="M455 72.5q56 41.5 68 113.5h47q-15 -87 -81.5 -140t-169.5 -53q-77 0 -136.5 33.5t-93.5 96.5t-34 149q0 85 34 148t93.5 96.5t136.5 33.5q79 0 136.5 -33.5t87 -88t29.5 -116.5q0 -25 -5 -53h-467q1 -76 31.5 -127.5t79 -76t106.5 -24.5q82 0 138 41.5zM211 488
q-49 -25 -79.5 -76t-31.5 -126h428q4 75 -25 126.5t-78 76t-106 24.5q-59 0 -108 -25zM288 678.5q13 -6.5 29 -19.5q15 -12 26 -18t26 -6q17 0 29 12t15 35h30q-4 -35 -24.5 -56.5t-50.5 -21.5q-18 0 -31.5 6.5t-32.5 20.5q-16 11 -25.5 16.5t-22.5 5.5q-36 0 -43 -48h-29
q5 38 24 59t49 21q18 0 31 -6.5z" />
    <glyph glyph-name="Ygrave" unicode="&#x1ef2;" horiz-adv-x="545" 
d="M518 705l-222 -420v-285h-45v285l-225 420h53l194 -372l193 372h52zM283 786v-36l-196 126v41z" />
    <glyph glyph-name="ygrave" unicode="&#x1ef3;" horiz-adv-x="525" 
d="M66 543l204 -483l189 483h50l-315 -799h-52l104 259l-230 540h50zM273 624v-36l-196 126v41z" />
    <glyph glyph-name="uni1EF8" unicode="&#x1ef8;" horiz-adv-x="545" 
d="M518 705l-222 -420v-285h-45v285l-225 420h53l194 -372l193 372h52zM247 840.5q13 -6.5 29 -19.5q15 -12 26 -18t26 -6q17 0 29 12t15 35h30q-4 -35 -24.5 -56.5t-50.5 -21.5q-18 0 -31.5 6.5t-32.5 20.5q-16 11 -25.5 16.5t-22.5 5.5q-36 0 -43 -48h-29q5 38 24 59
t49 21q18 0 31 -6.5z" />
    <glyph glyph-name="uni1EF9" unicode="&#x1ef9;" horiz-adv-x="525" 
d="M66 543l204 -483l189 483h50l-315 -799h-52l104 259l-230 540h50zM237 678.5q13 -6.5 29 -19.5q15 -12 26 -18t26 -6q17 0 29 12t15 35h30q-4 -35 -24.5 -56.5t-50.5 -21.5q-18 0 -31.5 6.5t-32.5 20.5q-16 11 -25.5 16.5t-22.5 5.5q-36 0 -43 -48h-29q5 38 24 59t49 21
q18 0 31 -6.5z" />
    <glyph glyph-name="zerowidthnonjoiner" unicode="&#x200c;" horiz-adv-x="0" 
d="M-23 811h47v-1041h-47v1041z" />
    <glyph glyph-name="zerowidthjoiner" unicode="&#x200d;" horiz-adv-x="0" 
d="M23 635v-865h-47v865l-69 -73l-33 33l93 93l-95 95l33 33l95 -95l96 95l32 -32l-96 -96l96 -95l-33 -33z" />
    <glyph glyph-name="endash" unicode="&#x2013;" horiz-adv-x="594" 
d="M552 395v-39h-510v39h510z" />
    <glyph glyph-name="emdash" unicode="&#x2014;" horiz-adv-x="786" 
d="M744 395v-39h-702v39h702z" />
    <glyph glyph-name="quoteleft" unicode="&#x2018;" horiz-adv-x="142" 
d="M33 667q0 48 20 69t59 21v-27q-25 0 -35.5 -12t-10.5 -37v-27h42v-64h-69q-6 37 -6 77z" />
    <glyph glyph-name="quoteright" unicode="&#x2019;" horiz-adv-x="142" 
d="M109 680q0 -48 -20 -69t-59 -21v27q25 0 36 12t11 37v26h-43v65h69q6 -37 6 -77z" />
    <glyph glyph-name="quotesinglbase" unicode="&#x201a;" horiz-adv-x="155" 
d="M107 -7q0 -46 -20 -70.5t-58 -24.5v26q24 0 34.5 13.5t10.5 41.5v7h-38v58h66q5 -24 5 -51z" />
    <glyph glyph-name="quotedblleft" unicode="&#x201c;" horiz-adv-x="245" 
d="M33 667q0 48 20 69t59 21v-27q-25 0 -35.5 -12t-10.5 -37v-27h42v-64h-69q-6 37 -6 77zM136 667q0 48 20 69t59 21v-27q-25 0 -35.5 -12t-10.5 -37v-27h42v-64h-68q-7 43 -7 77z" />
    <glyph glyph-name="quotedblright" unicode="&#x201d;" horiz-adv-x="245" 
d="M109 680q0 -48 -20 -69t-59 -21v27q25 0 36 12t11 37v26h-43v65h69q6 -37 6 -77zM213 680q0 -48 -20 -69t-59 -21v27q25 0 35.5 12t10.5 37v26h-42v65h68q7 -43 7 -77z" />
    <glyph glyph-name="quotedblbase" unicode="&#x201e;" horiz-adv-x="245" 
d="M109 -12q0 -48 -20 -69t-59 -21v27q25 0 36 12t11 37v26h-43v65h69q6 -37 6 -77zM213 -12q0 -48 -20 -69t-59 -21v27q25 0 35.5 12t10.5 37v26h-42v65h68q7 -43 7 -77z" />
    <glyph glyph-name="dagger" unicode="&#x2020;" horiz-adv-x="465" 
d="M432 505l-182 4l5 -765h-44l4 765l-182 -4v38l182 -4l-4 238h44l-5 -238l182 4v-38z" />
    <glyph glyph-name="daggerdbl" unicode="&#x2021;" horiz-adv-x="466" 
d="M251 509v-498l182 6v-40l-182 5l4 -238h-44l5 238l-183 -5v40l183 -6v498l-183 -4v38l183 -4l-5 238h44l-4 -238l182 4v-38z" />
    <glyph glyph-name="bullet" unicode="&#x2022;" horiz-adv-x="291" 
d="M70.5 409.5q31.5 31.5 75.5 31.5q45 0 75.5 -31.5t30.5 -76.5q0 -44 -30.5 -75t-75.5 -31q-44 0 -75.5 31t-31.5 75q0 45 31.5 76.5z" />
    <glyph glyph-name="ellipsis" unicode="&#x2026;" horiz-adv-x="456" 
d="M263 69v-69h-71v69h71zM425 69v-69h-71v69h71zM102 69v-69h-71v69h71z" />
    <glyph glyph-name="perthousand" unicode="&#x2030;" horiz-adv-x="886" 
d="M267 674.5q38 -37.5 38 -97.5t-38 -98t-96 -38q-57 0 -95 38t-38 98t38 97.5t95 37.5q58 0 96 -37.5zM519 705l-417 -705h-47l417 705h47zM100.5 502.5q27.5 -29.5 70.5 -29.5t70.5 29.5t27.5 74.5t-27.5 74t-70.5 29t-70.5 -29t-27.5 -74t27.5 -74.5zM499.5 225
q37.5 -38 37.5 -98t-37.5 -97.5t-95.5 -37.5t-96 37.5t-38 97.5t38 98t96 38t95.5 -38zM810.5 225q37.5 -38 37.5 -98t-37.5 -97.5t-95.5 -37.5t-96 37.5t-38 97.5t38 98t96 38t95.5 -38zM333.5 53q27.5 -29 70.5 -29t70.5 29t27.5 74q0 46 -27.5 75t-70.5 29t-70.5 -29
t-27.5 -75q0 -45 27.5 -74zM644.5 53q27.5 -29 70.5 -29t70.5 29t27.5 74q0 46 -27.5 75t-70.5 29t-70.5 -29t-27.5 -75q0 -45 27.5 -74z" />
    <glyph glyph-name="guilsinglleft" unicode="&#x2039;" horiz-adv-x="247" 
d="M148 120l-103 175l103 175h49l-105 -175l105 -175h-49z" />
    <glyph glyph-name="guilsinglright" unicode="&#x203a;" horiz-adv-x="247" 
d="M156 295l-106 175h50l102 -175l-102 -175h-50z" />
    <glyph glyph-name="fraction" unicode="&#x2044;" horiz-adv-x="251" 
d="M356 705l-417 -705h-47l416 705h48z" />
    <glyph glyph-name="rupee" unicode="&#x20a8;" horiz-adv-x="1020" 
d="M456.5 359.5q-51.5 -51.5 -149.5 -58.5l207 -301h-52l-204 300h-132v-300h-45v705h197q117 0 173.5 -55t56.5 -149q0 -90 -51.5 -141.5zM126 337h149q188 0 188 163q0 79 -44.5 121.5t-143.5 42.5h-149v-327zM648.5 346q20.5 -22 51.5 -33t82 -23q59 -13 95.5 -27t62 -44
t25.5 -81q0 -64 -46 -104.5t-121 -40.5q-90 0 -148.5 45.5t-68.5 124.5h45q6 -57 50.5 -95.5t121.5 -38.5q59 0 91.5 31t32.5 79q0 39 -21.5 62t-52 34t-84.5 24q-58 13 -93.5 26.5t-60 42t-24.5 77.5q0 66 47.5 105.5t126.5 39.5q86 0 138 -45.5t63 -124.5h-45
q-6 58 -46.5 96t-110.5 38q-61 0 -96 -30t-35 -80q0 -36 20.5 -58z" />
    <glyph glyph-name="Euro" unicode="&#x20ac;" horiz-adv-x="831" 
d="M627 84.5q71 49.5 101 130.5h47q-36 -104 -118 -163t-206 -59q-80 0 -146 32t-111 90.5t-63 136.5h-112v28h107q-6 35 -6 72q0 29 3 56h-104v28h109q15 82 60 144.5t113 97t150 34.5q124 0 206 -59.5t118 -163.5h-47q-30 82 -101 131.5t-176 49.5q-102 0 -177.5 -62.5
t-98.5 -171.5h282v-28h-286q-4 -24 -4 -56q0 -37 6 -72h284v-28h-278q26 -101 100 -159t172 -58q105 0 176 49.5z" />
    <glyph glyph-name="indianrupee" unicode="&#x20b9;" horiz-adv-x="662" 
d="M447 537v-15h154v-31h-156q-6 -72 -34 -110.5t-89 -54t-171 -15.5v-116q0 -82 37 -125.5t112 -43.5q70 0 105.5 41.5t35.5 119.5h44q-1 -96 -49 -146.5t-135 -50.5q-95 0 -143.5 54t-48.5 151v149q121 0 181 11.5t84.5 42t29.5 93.5h-343v31h344v16v133h-344v34h540v-34
h-154v-134z" />
    <glyph glyph-name="uni20BA" unicode="&#x20ba;" horiz-adv-x="775" 
d="M717 394q0 -205 -86.5 -311t-267.5 -106q-59 0 -122 15v262l-183 -50v34l183 50v133l-183 -51v33l183 51v251h46v-238l206 58v-34l-206 -57v-134l206 56v-34l-206 -56v-239q40 -8 76 -8q309 0 309 375h45z" />
    <glyph glyph-name="uni20BD" unicode="&#x20bd;" horiz-adv-x="603" 
d="M186 310v-125h254v-37h-254v-148h-45v148h-83v37h83v125h-83v40h83v355h194q117 0 174 -52.5t57 -145.5q0 -97 -59 -147t-172 -50h-149zM186 350h147q187 0 187 157q0 78 -44 118.5t-143 40.5h-147v-316z" />
    <glyph glyph-name="uni2113" unicode="&#x2113;" horiz-adv-x="195" 
d="M126 740v-740h-45v740h45z" />
    <glyph glyph-name="trademark" unicode="&#x2122;" horiz-adv-x="721" 
d="M30 705h242v-34h-102v-318h-36v318h-104v34zM683 705v-352h-36v287l-130 -287h-30l-130 287v-287h-35v352h44l136 -307l139 307h42z" />
    <glyph glyph-name="uni2126" unicode="&#x2126;" horiz-adv-x="794" 
d="M691.5 154q-54.5 -87 -151.5 -117h188v-37h-277v41q73 10 129.5 51t88 108t31.5 152q0 94 -40 166.5t-109.5 112.5t-153.5 40q-86 0 -155.5 -41t-109 -113.5t-39.5 -164.5q0 -85 32 -152t88 -108t129 -51v-41h-277v37h188q-96 30 -150.5 117t-54.5 202q0 105 46.5 186
t126 125.5t176.5 44.5q96 0 176 -44.5t126.5 -126t46.5 -185.5q0 -115 -54.5 -202z" />
    <glyph glyph-name="estimated" unicode="&#x212e;" horiz-adv-x="768" 
d="M218 32q-77 39 -120.5 115t-43.5 181q0 103 38.5 186t113.5 131t178 48q102 0 177.5 -44.5t114.5 -118.5t39 -158v-60h-558v-161q43 -61 98.5 -90.5t137.5 -29.5q73 0 132 33.5t132 104.5l30 -31q-137 -145 -294 -145q-98 0 -175 39zM599 544q-34 52 -89.5 81t-125.5 29
q-73 0 -131.5 -30.5t-95.5 -92.5v-169h442v182z" />
    <glyph glyph-name="partialdiff" unicode="&#x2202;" horiz-adv-x="544" 
d="M462 370q3 160 -38 249.5t-149 89.5q-34 0 -80 -12v31q43 12 90 12q218 0 218 -323q0 -130 -34.5 -226.5t-98 -149t-147.5 -52.5q-79 0 -130.5 55.5t-51.5 162.5q0 90 30 169t88.5 128t139.5 49q152 0 163 -183zM190 473.5q-49 -40.5 -76 -110t-27 -155.5
q0 -89 39 -133.5t99 -44.5q67 0 117 41.5t76.5 110.5t26.5 150q0 182 -143 182q-63 0 -112 -40.5z" />
    <glyph glyph-name="uni2206" unicode="&#x2206;" horiz-adv-x="649" 
d="M344 687l285 -650v-37h-609v37l285 650h39zM65 37h519l-261 598z" />
    <glyph glyph-name="product" unicode="&#x220f;" horiz-adv-x="734" 
d="M676 705v-37h-85v-668h-45v668h-358v-668h-46v668h-84v37h618z" />
    <glyph glyph-name="summation" unicode="&#x2211;" horiz-adv-x="411" 
d="M415 650h-337l273 -325v-38l-273 -329h337v-37h-375v50l271 333l-271 333v50h375v-37z" />
    <glyph glyph-name="minus" unicode="&#x2212;" horiz-adv-x="452" 
d="M414 395v-39h-376v39h376z" />
    <glyph glyph-name="uni2215" unicode="&#x2215;" horiz-adv-x="364" 
d="M343 938l-277 -1099h-44l275 1099h46z" />
    <glyph glyph-name="uni2219" unicode="&#x2219;" horiz-adv-x="137" 
d="M104 387v-69h-71v69h71z" />
    <glyph glyph-name="radical" unicode="&#x221a;" horiz-adv-x="705" 
d="M683 848l-467 -893h-18l-111 193l-56 -31l-16 27l95 53l104 -184l436 835h33z" />
    <glyph glyph-name="infinity" unicode="&#x221e;" horiz-adv-x="610" 
d="M583 446.5q37 -35.5 37 -98.5t-39 -99t-101 -36q-54 0 -91.5 28.5t-74.5 79.5q-26 -47 -65 -77.5t-92 -30.5q-64 0 -102 35.5t-38 98.5t39.5 99.5t101.5 36.5q53 0 89 -29.5t75 -84.5q25 49 65 81.5t96 32.5q63 -1 100 -36.5zM294 348q-35 50 -64.5 75.5t-69.5 25.5
q-49 0 -76.5 -28t-27.5 -74q0 -45 26.5 -72t74.5 -27q79 0 137 100zM554 274q28 28 28 74q0 45 -26.5 72t-74.5 27q-83 0 -140 -105q33 -47 63.5 -71.5t72.5 -24.5q49 0 77 28z" />
    <glyph glyph-name="integral" unicode="&#x222b;" horiz-adv-x="244" 
d="M187.5 877.5q27.5 26.5 78.5 26.5h23l-4 -40h-22q-28 0 -44.5 -14.5t-20.5 -52.5l-95 -839q-6 -60 -30 -88t-79 -28h-27l4 40h27q22 0 34 6.5t17.5 22t9.5 47.5l94 839q7 54 34.5 80.5z" />
    <glyph glyph-name="approxequal" unicode="&#x2248;" horiz-adv-x="449" 
d="M189.5 344q19.5 -9 45.5 -27q24 -16 39.5 -23.5t34.5 -7.5q25 0 42 19t23 48h38q-9 -52 -36.5 -81t-70.5 -29q-24 0 -44 9t-45 27q-23 16 -39.5 23.5t-35.5 7.5q-25 0 -42 -19t-23 -48h-38q9 52 36.5 81t70.5 29q25 0 44.5 -9zM189.5 532q19.5 -9 45.5 -27
q24 -16 39.5 -23.5t34.5 -7.5q25 0 42 19t23 48h38q-9 -52 -36.5 -81t-70.5 -29q-24 0 -44 9t-45 27q-23 16 -39.5 23.5t-35.5 7.5q-25 0 -42 -19t-23 -48h-38q9 52 36.5 81t70.5 29q25 0 44.5 -9z" />
    <glyph glyph-name="notequal" unicode="&#x2260;" horiz-adv-x="572" 
d="M360 450l-114 -149h288v-41h-319l-83 -109h-33l83 109h-144v41h175l113 149h-288v41h319l83 109h34l-83 -109h143v-41h-174z" />
    <glyph glyph-name="lessequal" unicode="&#x2264;" horiz-adv-x="405" 
d="M303 220l-265 194l265 196h59l-262 -196l262 -194h-59zM367 181v-37h-324v37h324z" />
    <glyph glyph-name="greaterequal" unicode="&#x2265;" horiz-adv-x="405" 
d="M43 220l262 194l-262 196h58l266 -196l-266 -194h-58zM38 181h324v-37h-324v37z" />
    <glyph glyph-name="lozenge" unicode="&#x25ca;" horiz-adv-x="548" 
d="M503 348l-230 -229l-228 229l230 230zM104 348l169 -170l171 170l-169 171z" />
    <glyph glyph-name="dottedcircle" unicode="&#x25cc;" horiz-adv-x="651" 
d="M270 467.5q-12 11.5 -12 30.5t12 30.5t31 11.5t31 -11.5t12 -30.5t-12 -30.5t-31 -11.5t-31 11.5zM391 452.5q-12 11.5 -12 30.5t12 30.5t31 11.5t31 -11.5t12 -30.5t-12 -30.5t-31 -11.5t-31 11.5zM153 425.5q-12 11.5 -12 30.5t12 30.5t31 11.5t31 -11.5t12 -30.5
t-12 -30.5t-31 -11.5t-31 11.5zM483 378.5q-12 11.5 -12 30.5t12 30.5t31 11.5t31 -11.5t12 -30.5t-12 -30.5t-31 -11.5t-31 11.5zM77 326.5q-12 11.5 -12 30.5t12 30.5t31 11.5t31 -11.5t12 -30.5t-12 -30.5t-31 -11.5t-31 11.5zM527 264.5q-12 11.5 -12 30.5t12 30.5
t31 11.5t31 -11.5t12 -30.5t-12 -30.5t-31 -11.5t-31 11.5zM62 205.5q-12 11.5 -12 30.5t12 30.5t31 11.5t31 -11.5t12 -30.5t-12 -30.5t-31 -11.5t-31 11.5zM517 144.5q-12 11.5 -12 30.5t12 30.5t31 11.5t31 -11.5t12 -30.5t-12 -30.5t-31 -11.5t-31 11.5zM107 92.5
q-12 11.5 -12 30.5t12 30.5t31 11.5t31 -11.5t12 -30.5t-12 -30.5t-31 -11.5t-31 11.5zM444 48.5q-12 11.5 -12 30.5t12 30.5t31 11.5t31 -11.5t12 -30.5t-12 -30.5t-31 -11.5t-31 11.5zM205 16.5q-12 11.5 -12 30.5t12 30.5t31 11.5t31 -11.5t12 -30.5t-12 -30.5t-31 -11.5
t-31 11.5zM329 2.5q-12 11.5 -12 30.5t12 30.5t31 11.5t31 -11.5t12 -30.5t-12 -30.5t-31 -11.5t-31 11.5z" />
    <glyph glyph-name="fi" unicode="&#xfb01;" horiz-adv-x="521" 
d="M149 543h297v-543h-45v502h-252v-502h-46v502h-82v41h82v33q0 87 44.5 129.5t145.5 41.5v-41q-81 0 -112.5 -31t-31.5 -102v-30zM452.5 730q10.5 -10 10.5 -26q0 -17 -10.5 -27t-27.5 -10t-28 10t-11 27q0 16 11 26t28 10t27.5 -10z" />
    <glyph glyph-name="fl" unicode="&#xfb02;" horiz-adv-x="518" 
d="M181 675q-32 -31 -32 -102v-30h146v-41h-146v-502h-46v502h-84v41h84v33q0 87 45.5 129.5t146.5 41.5v-41q-82 0 -114 -31zM455 740v-740h-45v740h45z" />
    <glyph glyph-name="dvK_SSA" horiz-adv-x="766" 
d="M798 740v-35h-151v-705h-40v397h-282l-40 -21q-56 -29 -87.5 -50t-53.5 -53t-22 -77q0 -57 36 -94t99 -37q64 0 101.5 40.5t37.5 100.5h36v-256h-39v168q-5 -17 -22.5 -37.5t-49 -35.5t-74.5 -15q-75 0 -120.5 45t-45.5 115q0 52 24 89t59.5 61t92.5 53l22 12
q-75 10 -125 56.5t-50 121.5q0 53 24.5 91t65.5 57t90 19q48 0 88.5 -19.5t64.5 -57t24 -87.5q0 -52 -24 -89.5t-67 -67.5h237v311h191zM193 472q51 -40 130 -42q49 30 75.5 65t26.5 86q0 60 -41.5 96t-100.5 36t-100 -34t-41 -98q0 -69 51 -109z" />
    <glyph glyph-name="dvJ_NYA" horiz-adv-x="784" 
d="M816 740v-35h-151v-705h-40v504h-259q59 -21 94 -68t35 -116q0 -56 -24 -99.5t-67 -67.5t-99 -24q-68 0 -117.5 31.5t-69.5 75.5v-182h-40v266h38q8 -75 60 -115.5t120 -40.5q74 0 117.5 45.5t43.5 116.5q0 83 -57.5 130.5t-148.5 47.5h-8v34h382v167h-657v35h848z" />
    <glyph glyph-name="dvK" horiz-adv-x="759" 
d="M530 705v-259q21 57 69 93t121 36q59 0 107.5 -28t76.5 -79.5t28 -118.5h-41q0 57 -24 100.5t-65 67t-90 23.5q-62 0 -103 -29.5t-60 -75t-19 -94.5v-341h-38v245q-22 -57 -71.5 -92.5t-123.5 -35.5q-62 0 -111.5 28t-77.5 80.5t-28 123.5q0 68 28.5 119.5t78 79
t111.5 27.5q75 0 124 -35.5t70 -91.5v257h-524v35h964v-35h-402zM410 181q42 29 62 73.5t20 90.5q0 49 -20 93.5t-62 73t-104 28.5q-51 0 -93.5 -23t-67.5 -66.5t-25 -101.5q0 -61 24.5 -105.5t66.5 -68t95 -23.5q62 0 104 29z" />
    <glyph glyph-name="dvKH" horiz-adv-x="678" 
d="M134 364v-143q0 -84 52 -135t140 -51q68 0 115.5 37.5t69.5 94.5q-58 21 -90.5 70t-32.5 117q0 94 57.5 149t151.5 55q95 0 152.5 -55t57.5 -149q0 -93 -58 -147.5t-152 -54.5q-24 0 -51 5q-26 -69 -83 -113.5t-138 -44.5q-105 0 -168 60.5t-63 164.5v172h41q65 0 106 35
t41 127v147h-314v35h839v-35h-485v-151q0 -190 -175 -190h-13zM473 231.5q47 -46.5 124 -46.5q78 0 125.5 46.5t47.5 122.5q0 78 -47.5 124.5t-125.5 46.5q-77 0 -124 -46.5t-47 -124.5q0 -76 47 -122.5z" />
    <glyph glyph-name="dvG" horiz-adv-x="441" 
d="M473 705h-136v-296q0 -67 -34.5 -110t-106.5 -43q-70 0 -105.5 42.5t-35.5 107.5v30h40v-31q0 -47 24 -80.5t76 -33.5q55 0 78 33.5t23 83.5v297h-328v35h505v-35z" />
    <glyph glyph-name="dvGH" horiz-adv-x="444" 
d="M153 705v-92q0 -71 39 -107t124 -36h51v-34h-53q-92 0 -136.5 -38.5t-44.5 -99.5q0 -74 54 -112.5t141 -38.5q64 0 116.5 27.5t83 77t30.5 111.5h34q0 -71 -33.5 -128.5t-93.5 -90t-137 -32.5q-108 0 -171.5 47t-63.5 136q0 67 42.5 108.5t105.5 48.5v2q-58 7 -93.5 45.5
t-35.5 112.5v93h-144v35h624v-35h-439z" />
    <glyph glyph-name="dvNG" horiz-adv-x="635" 
d="M667 740v-35h-204v-179h-172q-64 0 -108 -23t-44 -82q0 -54 37.5 -79t96.5 -25h45q86 0 145 -39t59 -127q0 -71 -52 -116.5t-150 -45.5q-75 0 -128.5 24.5t-81 68.5t-28.5 100h40q0 -70 50.5 -115t146.5 -45q80 0 122 36.5t42 93.5q0 72 -49 102.5t-122 30.5h-43
q-74 0 -122.5 33.5t-48.5 103.5q0 72 52.5 104t127.5 32h146v147h-456v35h699zM599.5 431.5q9.5 -9.5 9.5 -24.5q0 -14 -9.5 -23.5t-23.5 -9.5q-15 0 -25 9.5t-10 23.5q0 15 10 24.5t25 9.5q14 0 23.5 -9.5zM297 -104h41l119 -186h-42z" />
    <glyph glyph-name="dvC" horiz-adv-x="463" 
d="M599 705h-631v35h631v-35zM570.5 224.5q-29.5 -52.5 -83 -84t-120.5 -31.5q-61 0 -112 24.5t-80.5 71t-29.5 110.5q0 65 32 114t89 73h-217v34h359v-34h-31q-59 0 -102.5 -23.5t-67 -65t-23.5 -93.5q0 -55 25 -94.5t67.5 -60t92.5 -20.5q55 0 99.5 26.5t70 71t25.5 96.5
h35q1 -62 -28.5 -114.5z" />
    <glyph glyph-name="dvCH" horiz-adv-x="813" 
d="M148 705v-123q0 -71 39 -107t123 -36h23v-34h-23q-95 0 -142 -43t-47 -110q0 -90 75 -137.5t200 -47.5q94 0 169.5 34.5t118.5 99t43 150.5q0 57 -20 96.5t-51.5 58.5t-66.5 19q-51 0 -90 -33.5t-39 -103.5q0 -46 18 -102h-35q-19 54 -19 105q0 85 48.5 125.5t116.5 40.5
q47 0 87 -22.5t64 -69t24 -114.5q0 -98 -47 -170.5t-131 -111t-191 -38.5q-143 0 -229 57t-86 162q0 74 44.5 118t111.5 52v3q-57 7 -92.5 45.5t-35.5 112.5v124h-140v35h877v-35h-697z" />
    <glyph glyph-name="dvJ" horiz-adv-x="543" 
d="M688 740v-35h-720v35h720zM688 470h-252v-133q0 -84 -48 -136t-129 -52q-79 0 -124.5 52t-45.5 136v169h40v-169q0 -68 35.5 -110t95.5 -42q63 0 99.5 42t36.5 110v169h292v-36z" />
    <glyph glyph-name="dvJH" horiz-adv-x="574" 
d="M181 503q-45 -23 -45 -82q0 -54 38.5 -79t97.5 -25h45h362v-32l-242 1q39 -18 61.5 -52t22.5 -86q0 -65 -45 -108t-132 -43q-60 0 -101.5 19t-63 43t-29.5 44v-176h-39v245h36q10 -61 58 -101.5t132 -40.5q73 0 109.5 34.5t36.5 86.5q0 63 -44.5 98.5t-127.5 35.5
q-34 0 -48 1q-73 0 -120.5 34t-47.5 101q0 73 53 105t129 32h146v147h-455v35h711v-35h-217v-179h-171q-65 0 -110 -23z" />
    <glyph glyph-name="dvNY" horiz-adv-x="549" 
d="M655 740v-35h-687v35h687zM409.5 546q48.5 -29 74.5 -76.5t30 -105.5h141v-36h-140q-4 -60 -30 -109.5t-74.5 -79t-117.5 -29.5q-93 0 -146 47.5t-67 114.5h39q14 -52 57.5 -89t116.5 -37q60 0 101.5 26.5t62 71.5t20.5 100q0 53 -20.5 97.5t-62 71t-101.5 26.5
q-76 0 -119 -37.5t-55 -88.5h-39q12 67 65.5 114.5t147.5 47.5q68 0 116.5 -29z" />
    <glyph glyph-name="dvTT" horiz-adv-x="653" 
d="M189.5 473.5q-69.5 -57.5 -69.5 -167.5q0 -62 28.5 -110.5t78.5 -76t113 -27.5q64 0 113.5 28.5t77.5 79t28 114.5h39q0 -75 -32.5 -134t-91 -91.5t-134.5 -32.5q-74 0 -133.5 32t-93 88.5t-33.5 128.5q0 128 79.5 194.5t208.5 66.5h41v139h-441v35h717v-35h-236v-174
h-79q-111 0 -180.5 -57.5zM321 -37h41l119 -186h-42z" />
    <glyph glyph-name="dvTTH" horiz-adv-x="679" 
d="M359 705v-150q68 -4 122.5 -36t86 -87t31.5 -125q0 -73 -33.5 -129.5t-93 -88t-133.5 -31.5q-73 0 -132.5 31.5t-93 88t-33.5 129.5q0 70 31 125t85.5 87t122.5 36v150h-351v35h743v-35h-352zM530.5 417.5q-28.5 48.5 -78.5 76t-113 27.5q-62 0 -112 -27.5t-78.5 -76
t-28.5 -110.5t28.5 -110.5t78.5 -76t112 -27.5q63 0 113 27.5t78.5 76t28.5 110.5t-28.5 110.5zM320 -35h41l119 -186h-42z" />
    <glyph glyph-name="dvDD" horiz-adv-x="579" 
d="M183 503q-44 -23 -44 -82q0 -54 37.5 -79t96.5 -25h45q86 0 145 -39t59 -127q0 -71 -52 -116.5t-150 -45.5q-75 0 -128.5 24.5t-81 68.5t-28.5 100h40q0 -70 50.5 -115t146.5 -45q80 0 122 36.5t42 93.5q0 72 -49 102.5t-122 30.5h-43q-74 0 -122.5 33.5t-48.5 103.5
q0 72 52.5 104t127.5 32h139v147h-449v35h643v-35h-155v-179h-165q-64 0 -108 -23zM300 -104h41l119 -186h-42z" />
    <glyph glyph-name="dvDDH" horiz-adv-x="633" 
d="M192.5 473.5q-73.5 -62.5 -73.5 -183.5q0 -70 32 -124.5t89 -85t129 -30.5q54 0 97.5 20.5t68 56.5t24.5 81q0 56 -35.5 93t-90.5 37q-47 0 -80.5 -30.5t-33.5 -80.5q0 -9 2 -21h-33q-2 14 -2 26q0 63 42.5 100.5t105.5 37.5q72 0 116.5 -45.5t44.5 -116.5q0 -56 -28 -99
t-79.5 -67t-119.5 -24q-82 0 -147.5 34t-103 96t-37.5 142q0 92 38.5 154.5t105.5 93t152 30.5h53v137h-461v35h697v-35h-197v-169h-83q-119 0 -192.5 -62.5zM332 -75h41l119 -186h-42z" />
    <glyph glyph-name="dvNN" horiz-adv-x="552" 
d="M584 705h-142v-312q0 -84 -46 -135.5t-127 -51.5q-80 0 -126 52t-46 135v312h-129v35h616v-35zM402 705h-265v-315q0 -66 36 -107.5t97 -41.5q62 0 97 41t35 108v315z" />
    <glyph glyph-name="dvT" horiz-adv-x="397" 
d="M-32 740h572v-35h-572v35zM367 465q-116 0 -181.5 -53.5t-65.5 -160.5q0 -103 58.5 -159t165.5 -56h23v-34h-27q-122 0 -191 65t-69 185q0 125 76 187t209 62h175v-36h-173z" />
    <glyph glyph-name="dvTH" horiz-adv-x="470" 
d="M627 346q0 -69 -33.5 -123t-93.5 -84t-138 -30q-127 0 -198 71.5t-71 194.5q0 13 2 41h105q92 0 155 35t63 125q0 59 -36.5 98t-98.5 39q-66 0 -103.5 -39t-37.5 -104q0 -20 5 -47h-38q-4 28 -4 50q0 80 48.5 128t129.5 48q52 0 91.5 -23t61 -62.5t21.5 -88.5
q0 -101 -69 -146t-178 -45h-78q-3 -111 56.5 -175.5t173.5 -64.5q66 0 118 25t81 71t29 106h37z" />
    <glyph glyph-name="dvD" horiz-adv-x="608" 
d="M233.5 520.5q-51.5 -22.5 -82 -67t-30.5 -109.5q0 -87 52 -139.5t140 -52.5q41 0 80.5 17t65.5 54t26 91h36v-320h-39v223q-20 -44 -68.5 -71.5t-109.5 -27.5q-103 0 -163.5 61.5t-60.5 165.5q0 77 35.5 129t95.5 78t134 26h93v127h-470v35h672v-35h-162v-162h-130
q-63 0 -114.5 -22.5zM481 -98h41l119 -186h-42z" />
    <glyph glyph-name="dvDH" horiz-adv-x="429" 
d="M158.5 153q-60.5 44 -60.5 127q0 62 37.5 101t88.5 45v2q-56 11 -94 52.5t-38 110.5q0 68 44.5 113t116.5 45q73 0 115.5 -42t42.5 -110q0 -18 -1 -30h-34l1 27q0 51 -32.5 85.5t-90.5 34.5t-91.5 -36t-33.5 -91q0 -65 43.5 -103.5t123.5 -38.5h55v-34h-53
q-79 0 -119 -35.5t-40 -92.5q0 -68 51 -103.5t128 -35.5q67 0 117.5 24t78.5 67t28 98h36q0 -65 -32 -116t-91.5 -79.5t-139.5 -28.5q-96 0 -156.5 44z" />
    <glyph glyph-name="dvN" horiz-adv-x="507" 
d="M650 740v-35h-682v35h682zM125 459q54 50 140 50h385v-35h-286q37 -21 60 -60t23 -90q0 -53 -24 -93.5t-66 -63t-95 -22.5q-56 0 -99.5 23t-67.5 63.5t-24 93.5q0 84 54 134zM369.5 432q-42.5 41 -107.5 41q-68 0 -110.5 -40.5t-42.5 -106.5q0 -65 42 -105.5t111 -40.5
q65 0 107.5 41.5t42.5 105.5t-42.5 105z" />
    <glyph glyph-name="dvP" horiz-adv-x="374" 
d="M135 705v-244q0 -99 44 -152.5t133 -53.5q53 0 91.5 23.5t58.5 63.5t20 89h35q0 -61 -25 -109t-72 -75.5t-111 -27.5q-105 0 -159.5 64t-54.5 178v244h-127v35h549v-35h-382z" />
    <glyph glyph-name="dvPH" horiz-adv-x="759" 
d="M503 705v-260q20 57 68.5 93.5t122.5 36.5q101 0 156.5 -60.5t55.5 -165.5h-40q0 89 -47 140t-133 51q-62 0 -103 -30t-60.5 -76t-19.5 -96v-338h-40v325q-22 -49 -65 -77.5t-104 -28.5q-98 0 -148.5 63.5t-50.5 176.5v246h-127v35h938v-35h-403zM463 705h-328v-246
q0 -98 41 -151t125 -53q76 0 119 50t43 124v276z" />
    <glyph glyph-name="dvB" horiz-adv-x="430" 
d="M566 740v-35h-598v35h598zM457 549.5q55 -35.5 81.5 -90t26.5 -112.5q0 -64 -29 -118t-83 -86.5t-127 -32.5q-69 0 -125 29t-88.5 82t-32.5 124q0 72 31.5 126.5t87 84t124.5 29.5q79 0 134 -35.5zM520.5 276.5q11.5 34.5 11.5 69.5q0 52 -23.5 99.5t-70.5 78t-114 30.5
q-42 0 -79 -14t-66 -40l307 -286q23 28 34.5 62.5zM144.5 236q28.5 -46 76.5 -70.5t105 -24.5q89 0 144 55l-307 287q-47 -57 -47 -139q0 -62 28.5 -108z" />
    <glyph glyph-name="dvBH" horiz-adv-x="493" 
d="M609 414h-195v-95q0 -96 -42 -145.5t-119 -49.5q-74 0 -119.5 44.5t-45.5 117.5q0 75 49 118.5t127 43.5h112v105q0 76 -28 118t-86 42q-51 0 -82 -34t-31 -94q0 -22 4 -42h-40q-4 30 -4 43q0 75 41.5 119t110.5 44q77 0 115 -52.5t38 -147.5v-101h195v-34zM376 414h-112
q-61 0 -99 -35t-38 -93q0 -57 35.5 -92t90.5 -35q57 0 90 41.5t33 116.5v97z" />
    <glyph glyph-name="dvM" horiz-adv-x="489" 
d="M378 705v-257h228v-34h-228v-95q0 -96 -42 -145.5t-119 -49.5q-74 0 -119 44.5t-45 117.5q0 75 48.5 118.5t126.5 43.5h112v257h-372v35h638v-35h-228zM340 414h-112q-61 0 -99 -35t-38 -93q0 -57 35.5 -92t90.5 -35q57 0 90 41.5t33 116.5v97z" />
    <glyph glyph-name="dvY" horiz-adv-x="453" 
d="M277 468.5q-56 -44.5 -161 -45.5v-15q0 -115 61 -179.5t168 -64.5q60 0 110.5 25t80.5 71t30 105h38q0 -68 -33.5 -121.5t-93 -84t-134.5 -30.5q-126 0 -196 75.5t-70 206.5q0 15 2 39h17q93 0 145 38t52 135v82h-325v35h636v-35h-271v-87q0 -105 -56 -149.5z" />
    <glyph glyph-name="dvR" horiz-adv-x="538" 
d="M134 362v-159q0 -81 36.5 -128.5t108.5 -47.5q67 0 106 44.5t39 117.5v14h39v-13q0 -91 -49.5 -145t-133.5 -54q-91 0 -138.5 58t-47.5 157v190h108q90 0 139 47t49 142v120h-422v35h602v-35h-139v-120q0 -111 -56.5 -167t-162.5 -56h-78zM256 -104h41l119 -186h-42z" />
    <glyph glyph-name="dvL" horiz-adv-x="680" 
d="M-32 740h851v-35h-851v35zM506 506q43 48 124 48q88 0 138.5 -62t50.5 -161h-41q0 82 -39.5 134.5t-113.5 52.5q-77 0 -117.5 -59t-40.5 -162v-10h-36v10q0 101 -39 161t-111 60q-78 0 -119.5 -52t-41.5 -135q0 -90 49 -146t140 -56q10 0 30 2v-37q-22 -2 -33 -2
q-73 0 -124 31t-76.5 85t-25.5 123q0 101 52.5 162t144.5 61q76 0 118 -48.5t53 -114.5h3q12 67 55 115z" />
    <glyph glyph-name="dvV" horiz-adv-x="415" 
d="M-32 740h591v-35h-591v35zM196.5 143.5q-54.5 28.5 -85.5 81.5t-31 125q0 68 31.5 120t86 80.5t122.5 28.5q80 0 134 -34.5t79.5 -88t25.5 -110.5t-26 -110t-80 -87t-133 -34q-69 0 -123.5 28.5zM432.5 178.5q44.5 29.5 66 75t21.5 92.5q0 50 -21 95.5t-66 74.5t-112 29
q-56 0 -102 -23.5t-73 -68t-27 -104.5q0 -62 26.5 -107t72.5 -69t103 -24q67 0 111.5 29.5z" />
    <glyph glyph-name="dvSH" horiz-adv-x="530" 
d="M447 203h39v-12q0 -92 -50 -146t-136 -54q-96 0 -146.5 59t-50.5 159v165h151q90 0 146.5 45.5t56.5 128.5q0 77 -42 121t-113 44q-70 0 -112.5 -44t-42.5 -119q0 -22 5 -50h-41q-4 34 -4 51q0 90 53 144t142 54t142.5 -54t53.5 -149q0 -99 -65 -153t-170 -54h-120v-133
q0 -81 40 -130t117 -49q68 0 107.5 45t39.5 120v11z" />
    <glyph glyph-name="dvSS" horiz-adv-x="389" 
d="M515 705h-381l381 -331q0 -37 -25 -73.5t-71.5 -60t-108.5 -23.5q-106 0 -160.5 64.5t-54.5 179.5v244h-127v35h547v-35zM395 270q36 17 57 43t26 52l-344 303v-208q0 -100 44 -153.5t134 -53.5q47 0 83 17z" />
    <glyph glyph-name="dvS" horiz-adv-x="532" 
d="M398.5 484q-26.5 -48 -71.5 -72h307v-34h-500v-174q0 -80 37 -128.5t109 -48.5q67 0 106 44.5t39 117.5v12h40v-13q0 -90 -50 -143.5t-135 -53.5q-90 0 -138 58.5t-48 156.5v204h104q88 0 138 51t50 139v105h-418v35h666v-35h-209v-105q0 -68 -26.5 -116z" />
    <glyph glyph-name="dvH" horiz-adv-x="587" 
d="M185.5 505.5q-37.5 -23.5 -37.5 -75.5q0 -41 27 -68t72 -38q29 6 61 6q92 0 145.5 -45t66.5 -107h-39q-11 46 -56 82t-117 36q-59 0 -100.5 -24.5t-62.5 -66t-21 -90.5q0 -77 48 -128t136 -51q70 0 115 35t58 82h39q-9 -39 -35 -74t-71 -57t-106 -22q-72 0 -122.5 29.5
t-76 78.5t-25.5 108q0 66 32 117.5t89 76.5q-41 14 -69 45.5t-28 79.5q0 63 45.5 94.5t118.5 31.5h159v144h-463v35h651v-35h-149v-176h-189q-58 0 -95.5 -23.5zM282 -191h41l119 -186h-42z" />
    <glyph glyph-name="dvLL" horiz-adv-x="1019" 
d="M-32 740h1083v-35h-1083v35zM187.5 148q-50.5 28 -79 78t-28.5 114q0 67 28.5 118.5t79 79.5t112.5 28q84 0 136.5 -43t71.5 -108h2q20 65 72.5 108t135.5 43q62 0 112.5 -28t79.5 -79.5t29 -118.5q0 -64 -28.5 -114t-79.5 -78t-114 -28q-80 0 -135.5 44t-70.5 109h-3
q-15 -65 -70.5 -109t-136.5 -44q-63 0 -113.5 28zM400.5 179q41.5 24 64.5 66t23 95q0 85 -50.5 138t-133.5 53q-53 0 -95 -23.5t-66 -67t-24 -100.5q0 -54 24 -96t66.5 -65.5t95.5 -23.5q54 0 95.5 24zM808.5 178.5q42.5 23.5 66.5 65.5t24 96q0 57 -24 100.5t-66 67
t-95 23.5q-55 0 -96.5 -24.5t-64.5 -67.5t-23 -99q0 -53 23 -95t64.5 -66t95.5 -24q53 0 95.5 23.5z" />
    <glyph glyph-name="dvK_SS" horiz-adv-x="512" 
d="M285 376q-56 -29 -87.5 -50t-53.5 -53t-22 -77q0 -57 36 -94t99 -37q64 0 101.5 40.5t37.5 100.5h36v-256h-39v168q-5 -17 -22.5 -37.5t-49 -35.5t-74.5 -15q-75 0 -120.5 45t-45.5 115q0 52 24 89t59.5 61t92.5 53l22 12q-75 10 -125 56.5t-50 121.5q0 53 24.5 91
t65.5 57t90 19q48 0 88.5 -19.5t64.5 -57t24 -87.5q0 -52 -24 -89.5t-67 -67.5h247v-32h-292zM193 472q51 -40 130 -42q49 30 75.5 65t26.5 86q0 60 -41.5 96t-100.5 36t-100 -34t-41 -98q0 -69 51 -109z" />
    <glyph glyph-name="dvJ_NY" horiz-adv-x="528" 
d="M699 740v-35h-731v35h731zM243 538h456v-34h-333q59 -21 94 -68t35 -116q0 -56 -24 -99.5t-67 -67.5t-99 -24q-68 0 -117.5 31.5t-69.5 75.5v-182h-40v266h38q8 -75 60 -115.5t120 -40.5q74 0 117.5 45.5t43.5 116.5q0 83 -57.5 130.5t-148.5 47.5h-8v34z" />
    <glyph glyph-name="dvKx" horiz-adv-x="759" 
d="M530 705v-259q21 57 69 93t121 36q59 0 107.5 -28t76.5 -79.5t28 -118.5h-41q0 57 -24 100.5t-65 67t-90 23.5q-62 0 -103 -29.5t-60 -75t-19 -94.5v-341h-38v245q-22 -57 -71.5 -92.5t-123.5 -35.5q-62 0 -111.5 28t-77.5 80.5t-28 123.5q0 68 28.5 119.5t78 79
t111.5 27.5q75 0 124 -35.5t70 -91.5v257h-524v35h964v-35h-402zM410 181q42 29 62 73.5t20 90.5q0 49 -20 93.5t-62 73t-104 28.5q-51 0 -93.5 -23t-67.5 -66.5t-25 -101.5q0 -61 24.5 -105.5t66.5 -68t95 -23.5q62 0 104 29zM262 -36q-10 10 -10 25t10 25t26 10
q15 0 25 -10t10 -25t-10 -25t-25 -10q-16 0 -26 10z" />
    <glyph glyph-name="dvKHx" horiz-adv-x="678" 
d="M134 364v-143q0 -84 52 -135t140 -51q68 0 115.5 37.5t69.5 94.5q-58 21 -90.5 70t-32.5 117q0 94 57.5 149t151.5 55q95 0 152.5 -55t57.5 -149q0 -93 -58 -147.5t-152 -54.5q-24 0 -51 5q-26 -69 -83 -113.5t-138 -44.5q-105 0 -168 60.5t-63 164.5v172h41q65 0 106 35
t41 127v147h-314v35h839v-35h-485v-151q0 -190 -175 -190h-13zM473 231.5q47 -46.5 124 -46.5q78 0 125.5 46.5t47.5 122.5q0 78 -47.5 124.5t-125.5 46.5q-77 0 -124 -46.5t-47 -124.5q0 -76 47 -122.5zM285 -154q-10 10 -10 25t10 25t26 10q15 0 25 -10t10 -25t-10 -25
t-25 -10q-16 0 -26 10z" />
    <glyph glyph-name="dvGx" horiz-adv-x="441" 
d="M473 705h-136v-296q0 -67 -34.5 -110t-106.5 -43q-70 0 -105.5 42.5t-35.5 107.5v30h40v-31q0 -47 24 -80.5t76 -33.5q55 0 78 33.5t23 83.5v297h-328v35h505v-35zM177 97q-10 10 -10 25t10 25t26 10q15 0 25 -10t10 -25t-10 -25t-25 -10q-16 0 -26 10z" />
    <glyph glyph-name="dvJx" horiz-adv-x="543" 
d="M688 740v-35h-720v35h720zM688 470h-252v-133q0 -84 -48 -136t-129 -52q-79 0 -124.5 52t-45.5 136v169h40v-169q0 -68 35.5 -110t95.5 -42q63 0 99.5 42t36.5 110v169h292v-36zM239 -4q-10 10 -10 25t10 25t26 10q15 0 25 -10t10 -25t-10 -25t-25 -10q-16 0 -26 10z" />
    <glyph glyph-name="dvPHx" horiz-adv-x="759" 
d="M503 705v-260q20 57 68.5 93.5t122.5 36.5q101 0 156.5 -60.5t55.5 -165.5h-40q0 89 -47 140t-133 51q-62 0 -103 -30t-60.5 -76t-19.5 -96v-338h-40v325q-22 -49 -65 -77.5t-104 -28.5q-98 0 -148.5 63.5t-50.5 176.5v246h-127v35h938v-35h-403zM463 705h-328v-246
q0 -98 41 -151t125 -53q76 0 119 50t43 124v276zM253 67q-10 10 -10 25t10 25t26 10q15 0 25 -10t10 -25t-10 -25t-25 -10q-16 0 -26 10z" />
    <glyph glyph-name="dvReph" horiz-adv-x="0" 
d="M-158 820q0 86 37.5 132.5t110.5 46.5q66 0 104.5 -41t37.5 -107h-36q0 50 -28.5 81.5t-76.5 31.5q-110 0 -110 -145v-89h-39v90z" />
    <glyph glyph-name="dvEyelash" horiz-adv-x="259" 
d="M-32 740h353v-35h-353v35zM308.5 402.5q-24.5 -3.5 -51.5 -3.5q-57 0 -108.5 18.5t-84.5 59.5t-33 106h38q1 -79 58 -115t136 -36q31 0 71 7l12 -27q-13 -6 -37.5 -9.5z" />
    <glyph glyph-name="dvRashtrasign" horiz-adv-x="0" 
d="M-38 -97l-161 162l-159 -162h-46l179 179h54l178 -179h-45z" />
    <glyph glyph-name="dvK_RA" horiz-adv-x="1012" 
d="M530 705v-259q21 57 69 93t121 36q59 0 107.5 -28t76.5 -79t28 -118q0 -72 -27.5 -124.5t-75 -80t-107.5 -27.5q-33 0 -59 7v33q25 -5 52 -5q50 0 90 23t63 67.5t23 105.5q0 57 -24 100.5t-65 67t-90 23.5q-62 0 -102.5 -29.5t-59.5 -75t-20 -94.5v-341h-38v247
q-17 -46 -54 -79l-234 -214h-48l186 169q-19 -4 -45 -4q-62 0 -111 27.5t-77.5 80t-28.5 122.5q0 68 28.5 119.5t78 79t111.5 27.5q75 0 124 -35.5t70 -91.5v257h-524v35h1076v-35h-514zM472 256q20 44 20 89q0 49 -20 93.5t-62 73t-104 28.5q-51 0 -93.5 -23t-67.5 -66.5
t-25 -101.5q0 -61 24.5 -105.5t66.5 -68t95 -23.5q52 0 91 22l14 12l3 -2q38 28 58 72z" />
    <glyph glyph-name="dvKH_RA" horiz-adv-x="918" 
d="M950 740v-35h-152v-705h-40v259q-20 -48 -63 -78t-107 -30q-25 0 -44 4q-26 -67 -76 -107l-211 -196h-45v3l164 150q-27 -5 -51 -5q-105 0 -168 60.5t-63 163.5v172h41q65 0 106 35t41 127v147h-314v35h982zM441 71.5q47 36.5 69 93.5q-56 21 -89 71t-33 122
q0 60 26.5 105.5t72 70t101.5 24.5q65 0 108 -29.5t62 -77.5v254h-436v-151q0 -190 -175 -190h-13v-143q0 -84 52 -135t140 -51q68 0 115 36.5zM686 209.5q37 25.5 54.5 64.5t17.5 80v1q0 42 -17.5 81t-54.5 64t-92 25q-46 0 -84 -20t-61 -58t-23 -89q0 -54 22 -93.5
t60.5 -60t85.5 -20.5q55 0 92 25.5z" />
    <glyph glyph-name="dvG_RA" horiz-adv-x="705" 
d="M737 740v-35h-151v-705h-40v289l-308 -309h-48l355 353v372h-208v-251q0 -67 -34.5 -110t-106.5 -43q-70 0 -105.5 42.5t-35.5 107.5v30h40v-31q0 -47 24 -80.5t76 -33.5q55 0 78 33.5t23 83.5v252h-328v35h769z" />
    <glyph glyph-name="dvGH_RA" horiz-adv-x="717" 
d="M749 705h-151v-705h-40v256q-19 -44 -55 -77l-256 -236h-47l200 181q-36 -10 -79 -10q-104 0 -166 46.5t-62 134.5q0 67 42.5 108.5t105.5 48.5v2q-58 7 -93.5 45.5t-35.5 112.5v93h-144v35h781v-35zM558 705h-405v-91q0 -72 39 -108t124 -36h51v-34h-53
q-92 0 -136.5 -38.5t-44.5 -99.5q0 -74 54 -112.5t141 -38.5q63 0 116 27.5t83.5 76.5t30.5 112v342z" />
    <glyph glyph-name="dvNG_RA" horiz-adv-x="635" 
d="M667 740v-35h-204v-179h-172q-64 0 -108 -23t-44 -82q0 -54 37.5 -79t96.5 -25h45q86 0 145 -39t59 -127q0 -71 -52 -116.5t-150 -45.5q-75 0 -128.5 24.5t-81 68.5t-28.5 100h40q0 -70 50.5 -115t146.5 -45q80 0 122 36.5t42 93.5q0 72 -49 102.5t-122 30.5h-43
q-74 0 -122.5 33.5t-48.5 103.5q0 72 52.5 104t127.5 32h146v147h-456v35h699zM599.5 431.5q9.5 -9.5 9.5 -24.5q0 -14 -9.5 -23.5t-23.5 -9.5q-15 0 -25 9.5t-10 23.5q0 15 10 24.5t25 9.5q14 0 23.5 -9.5zM476 -173l-161 162l-159 -162h-46l179 179h54l178 -179h-45z" />
    <glyph glyph-name="dvC_RA" horiz-adv-x="724" 
d="M756 705h-151v-705h-41v235q-20 -44 -57 -73l-226 -208h-47l178 162q-27 -5 -50 -5q-60 0 -109.5 24.5t-78.5 70.5t-29 109q0 65 32 114t89 73h-217v34h359v-34h-31q-59 0 -102.5 -23.5t-67 -65t-23.5 -93.5q0 -55 25 -94.5t67.5 -60t92.5 -20.5q63 0 112 35l4 3h1
q36 27 57 68t21 88v366h-596v35h788v-35z" />
    <glyph glyph-name="dvCH_RA" horiz-adv-x="813" 
d="M609 705v-149q67 -7 111 -59t44 -146q0 -98 -47 -170.5t-131 -111t-191 -38.5q-143 0 -229 57t-86 162q0 74 44.5 118t111.5 52v3q-57 7 -92.5 45.5t-35.5 112.5v124h-140v35h877v-35h-236zM571 705h-423v-123q0 -71 39 -107t123 -36h23v-34h-23q-95 0 -142 -43t-47 -110
q0 -90 75 -137.5t200 -47.5q94 0 169.5 34.5t118.5 99t43 150.5q0 57 -20 96.5t-51.5 58.5t-66.5 19q-51 0 -90 -33.5t-39 -103.5q0 -46 18 -102h-35q-19 54 -19 105q0 79 42 119.5t105 45.5v149zM590 -131l-161 162l-159 -162h-46l179 179h54l178 -179h-45z" />
    <glyph glyph-name="dvJ_RA" horiz-adv-x="829" 
d="M861 705h-151v-705h-39v286l-305 -311h-47l352 356v141h-236v-65q0 -84 -47.5 -136t-128.5 -52q-79 0 -124.5 52t-45.5 136v99h40v-99q0 -68 35.5 -110t95.5 -42q63 0 99.5 42t36.5 110v99h275v199h-703v35h893v-35z" />
    <glyph glyph-name="dvJH_RA" horiz-adv-x="885" 
d="M917 705h-152v-705h-39v185l-201 -287h-43l244 340l-1 6v41l-288 1q39 -18 61.5 -52t22.5 -86q0 -65 -45 -108t-132 -43q-60 0 -101.5 19t-63 43t-29.5 44v-176h-39v245h36q10 -61 58 -101.5t132 -40.5q73 0 109.5 34.5t36.5 86.5q0 63 -44.5 98.5t-127.5 35.5
q-34 0 -48 1q-73 0 -120.5 34t-47.5 101q0 73 53 105t129 32h146v147h-455v35h949v-35zM725 317v388h-263v-179h-171q-65 0 -110 -23t-45 -82q0 -54 38.5 -79t97.5 -25h45h408z" />
    <glyph glyph-name="dvNY_RA" horiz-adv-x="795" 
d="M876 705h-151v-705h-40v224l-292 -297h-44l336 342v79h-170q-3 -58 -28.5 -105.5t-74.5 -76.5t-119 -29q-63 0 -110 23.5t-72.5 61t-30.5 77.5h39q5 -31 26.5 -59.5t59 -47t88.5 -18.5q89 0 136.5 53t47.5 132q0 49 -20.5 90t-62.5 65.5t-101 24.5q-76 0 -119 -37.5
t-55 -88.5h-39q12 67 65.5 114.5t147.5 47.5q67 0 115 -26t74.5 -69.5t31.5 -95.5h170v321h-716v35h908v-35z" />
    <glyph glyph-name="dvTT_RA" horiz-adv-x="653" 
d="M189.5 473.5q-69.5 -57.5 -69.5 -167.5q0 -62 28.5 -110.5t78.5 -76t113 -27.5q64 0 113.5 28.5t77.5 79t28 114.5h39q0 -75 -32.5 -134t-91 -91.5t-134.5 -32.5q-74 0 -133.5 32t-93 88.5t-33.5 128.5q0 128 79.5 194.5t208.5 66.5h41v139h-441v35h717v-35h-236v-174
h-79q-111 0 -180.5 -57.5zM496 -105l-161 162l-159 -162h-46l179 179h54l178 -179h-45z" />
    <glyph glyph-name="dvTTH_RA" horiz-adv-x="679" 
d="M359 705v-150q68 -4 122.5 -36t86 -87t31.5 -125q0 -73 -33.5 -129.5t-93 -88t-133.5 -31.5q-73 0 -132.5 31.5t-93 88t-33.5 129.5q0 70 31 125t85.5 87t122.5 36v150h-351v35h743v-35h-352zM530.5 417.5q-28.5 48.5 -78.5 76t-113 27.5q-62 0 -112 -27.5t-78.5 -76
t-28.5 -110.5t28.5 -110.5t78.5 -76t112 -27.5q63 0 113 27.5t78.5 76t28.5 110.5t-28.5 110.5zM501 -106l-161 162l-159 -162h-46l179 179h54l178 -179h-45z" />
    <glyph glyph-name="dvDD_RA" horiz-adv-x="579" 
d="M183 503q-44 -23 -44 -82q0 -54 37.5 -79t96.5 -25h45q86 0 145 -39t59 -127q0 -71 -52 -116.5t-150 -45.5q-75 0 -128.5 24.5t-81 68.5t-28.5 100h40q0 -70 50.5 -115t146.5 -45q80 0 122 36.5t42 93.5q0 72 -49 102.5t-122 30.5h-43q-74 0 -122.5 33.5t-48.5 103.5
q0 72 52.5 104t127.5 32h139v147h-449v35h643v-35h-155v-179h-165q-64 0 -108 -23zM469 -173l-161 162l-159 -162h-46l179 179h54l178 -179h-45z" />
    <glyph glyph-name="dvDDH_RA" horiz-adv-x="633" 
d="M192.5 473.5q-73.5 -62.5 -73.5 -183.5q0 -70 32 -124.5t89 -85t129 -30.5q54 0 97.5 20.5t68 56.5t24.5 81q0 56 -35.5 93t-90.5 37q-47 0 -80.5 -30.5t-33.5 -80.5q0 -9 2 -21h-33q-2 14 -2 26q0 63 42.5 100.5t105.5 37.5q72 0 116.5 -45.5t44.5 -116.5q0 -56 -28 -99
t-79.5 -67t-119.5 -24q-82 0 -147.5 34t-103 96t-37.5 142q0 92 38.5 154.5t105.5 93t152 30.5h53v137h-461v35h697v-35h-197v-169h-83q-119 0 -192.5 -62.5zM512 -145l-161 162l-159 -162h-46l179 179h54l178 -179h-45z" />
    <glyph glyph-name="dvNN_RA" horiz-adv-x="832" 
d="M864 705h-151v-705h-39v290l-308 -314h-48l355 359v370h-231v-242q0 -84 -46 -135.5t-127 -51.5q-80 0 -126 52t-46 135v242h-129v35h896v-35zM402 705h-265v-245q0 -66 36 -107.5t97 -41.5q62 0 97 41t35 108v245z" />
    <glyph glyph-name="dvT_RA" horiz-adv-x="686" 
d="M718 705h-151v-705h-40v320l-320 -320h-51v3l370 363q-21 61 -76 100t-130 39q-56 0 -101.5 -23.5t-72 -69t-26.5 -107.5h-40q0 73 30.5 125.5t83 80.5t119.5 28q77 0 131 -35t83 -85v286h-559v35h750v-35z" />
    <glyph glyph-name="dvTH_RA" horiz-adv-x="750" 
d="M782 740v-35h-151v-705h-41v252q-18 -51 -65 -88l1 -1l-301 -239h-51v3l239 188q-30 -5 -56 -5q-124 0 -194 71t-70 194q0 13 2 41h105q92 0 155 35t63 125q0 59 -36.5 98t-98.5 39q-66 0 -103.5 -39t-37.5 -104q0 -20 5 -47h-38q-4 28 -4 50q0 80 48.5 128t129.5 48
q52 0 91.5 -23t61 -62.5t21.5 -88.5q0 -101 -69 -146t-178 -45h-78q-3 -111 56.5 -175.5t173.5 -64.5q62 0 114 26t83 74.5t31 111.5v384h192z" />
    <glyph glyph-name="dvD_RA" horiz-adv-x="608" 
d="M233.5 520.5q-51.5 -22.5 -82 -67t-30.5 -109.5q0 -87 52 -139.5t140 -52.5q51 0 95 25l8 7l2 -1q67 46 67 131h36v-320h-39v223q-12 -27 -35 -47l-238 -218h-48l189 172q-19 -4 -46 -4q-103 0 -163.5 61t-60.5 164q0 77 35.5 129t95.5 78t134 26h93v127h-470v35h672v-35
h-162v-162h-130q-63 0 -114.5 -22.5z" />
    <glyph glyph-name="dvDH_RA" horiz-adv-x="700" 
d="M734 705h-151v-705h-41v253q-21 -50 -63 -86l-247 -227h-48l197 178q-35 -8 -71 -8q-93 0 -152.5 44.5t-59.5 125.5q0 62 37.5 101t88.5 45v2q-56 11 -94 52.5t-38 110.5q0 68 44.5 113t116.5 45q73 0 115.5 -42t42.5 -110q0 -18 -1 -30h-34l1 27q0 51 -32.5 85.5
t-90.5 34.5t-91.5 -36t-33.5 -91q0 -65 43.5 -103.5t123.5 -38.5h55v-34h-53q-79 0 -119 -35.5t-40 -92.5q0 -68 50 -103.5t127 -35.5q63 0 114.5 28.5t81.5 79t30 115.5v373h192v-35z" />
    <glyph glyph-name="dvN_RA" horiz-adv-x="795" 
d="M827 705h-152v-705h-37v243l-300 -308h-47l345 350v189h-272q37 -21 60 -60t23 -90q0 -52 -23.5 -92.5t-66 -63.5t-95.5 -23q-56 0 -99.5 23t-67.5 63.5t-24 93.5q0 84 54 134t140 50h371v196h-668v35h859v-35zM369.5 432q-42.5 41 -107.5 41q-68 0 -110.5 -40.5
t-42.5 -106.5q0 -65 42 -105.5t111 -40.5q65 0 107.5 41.5t42.5 105.5t-42.5 105z" />
    <glyph glyph-name="dvP_RA" horiz-adv-x="642" 
d="M674 705h-151v-705h-41v325q-17 -36 -47 -62l-275 -267h-48l240 229q-25 -5 -48 -5q-103 0 -156 63.5t-53 177.5v244h-127v35h706v-35zM482 705h-347v-244q0 -99 43.5 -152.5t132.5 -53.5q53 0 92 23.5t59 63.5t20 89v274z" />
    <glyph glyph-name="dvPH_RA" horiz-adv-x="986" 
d="M503 705v-260q20 57 68.5 93.5t122.5 36.5q59 0 107.5 -27.5t76.5 -79t28 -118.5q0 -72 -27.5 -124.5t-75 -80t-107.5 -27.5q-34 0 -60 7v33q27 -5 53 -5q50 0 90.5 23t63.5 67.5t23 105.5q0 57 -24 100.5t-65.5 67t-90.5 23.5q-62 0 -103 -30t-60.5 -76t-19.5 -96v-338
h-40v325q-16 -38 -49 -66l-270 -263h-48l237 227q-18 -3 -39 -3q-98 0 -148.5 63t-50.5 176v246h-127v35h1050v-35h-515zM463 705h-328v-246q0 -98 41 -151t125 -53q76 0 119 50t43 124v276z" />
    <glyph glyph-name="dvB_RA" horiz-adv-x="690" 
d="M722 740v-35h-152v-705h-39v237q-17 -36 -48 -67l-239 -219h-46l185 168q-29 -8 -61 -8q-66 0 -121.5 28.5t-88 82t-32.5 123.5q0 72 31.5 126.5t86 83.5t121.5 29q79 0 133.5 -37.5t78.5 -95.5v254h-563v35h754zM246 540.5q-37 -13.5 -66 -39.5l307 -286
q23 28 34.5 62.5t11.5 69.5q0 52 -23.5 99.5t-70.5 77.5t-114 30q-42 0 -79 -13.5zM145 236.5q28 -46.5 76 -70.5t106 -24q89 0 144 55l-307 287q-47 -57 -47 -139q0 -62 28 -108.5z" />
    <glyph glyph-name="dvBH_RA" horiz-adv-x="761" 
d="M813 740v-35h-151v-705h-38v242l-306 -307h-48l353 350v130h-209v-76q0 -93 -43.5 -144t-117.5 -51t-119.5 42t-45.5 110q0 70 49 111.5t127 41.5h112v104q0 76 -28 118t-87 42q-51 0 -82 -34t-31 -94q0 -21 4 -41h-39q-4 28 -4 43q0 74 41.5 118t110.5 44
q77 0 115 -52.5t38 -147.5v-100h209v291h190zM376 415h-112q-61 0 -99 -32.5t-38 -86.5q0 -53 35.5 -85t90.5 -32q58 0 90.5 41.5t32.5 116.5v78z" />
    <glyph glyph-name="dvM_RA" horiz-adv-x="753" 
d="M785 705h-151v-705h-38v244l-308 -309h-48l355 352v154h-217v-93q0 -95 -42.5 -145t-118.5 -50q-74 0 -119 44.5t-45 116.5q0 74 48.5 118t126.5 44h112v229h-372v35h817v-35zM595 705h-217v-229h217v229zM340 441h-112q-61 0 -99 -34.5t-38 -92.5q0 -57 35.5 -92
t90.5 -35q58 0 90.5 42t32.5 117v95z" />
    <glyph glyph-name="dvY_RA" horiz-adv-x="726" 
d="M758 705h-151v-705h-41v260q-21 -48 -67 -82l-297 -237h-50v3l241 190q-28 -5 -55 -5q-124 0 -192.5 76t-68.5 206q0 15 2 39h17q93 0 145 38t52 135v82h-325v35h790v-35zM566 705h-233v-87q0 -105 -56 -149.5t-161 -45.5v-15q0 -114 60.5 -179t167.5 -65
q61 0 111.5 25.5t80.5 72.5t30 107v336z" />
    <glyph glyph-name="dvL_RA" horiz-adv-x="898" 
d="M653 705v-152q78 -9 122 -69.5t44 -152.5q0 -69 -25.5 -123t-77 -85t-124.5 -31q-11 0 -33 2v37q22 -2 30 -2q91 0 140 56t49 146q0 82 -39.5 134.5t-113.5 52.5q-77 0 -117.5 -59t-40.5 -162v-10h-36v10q0 101 -39 161t-111 60q-78 0 -119.5 -52t-41.5 -135
q0 -90 49 -146t140 -56q10 0 30 2v-37q-22 -2 -33 -2q-73 0 -124 31t-76.5 85t-25.5 123q0 101 52.5 162t144.5 61q76 0 118 -48.5t53 -114.5h3q11 63 50 110t112 52v152h-645v35h962v-35h-277zM745 -145l-161 162l-159 -162h-46l179 179h54l178 -179h-45z" />
    <glyph glyph-name="dvV_RA" horiz-adv-x="679" 
d="M711 740v-35h-152v-705h-39v246q-20 -50 -63 -84l-225 -205h-47l183 165q-27 -6 -57 -6q-66 0 -118.5 28.5t-82.5 81.5t-30 124q0 68 30.5 120t83 80.5t117.5 28.5q79 0 132.5 -36.5t76.5 -94.5v257h-552v35h743zM499 254.5q21 44.5 21 90.5v1q0 50 -21.5 95.5t-67 74.5
t-113.5 29q-55 0 -100 -23.5t-71.5 -68t-26.5 -104.5q0 -62 26 -107t71 -69t101 -24q67 0 114 30l3 3h1q42 28 63 72.5z" />
    <glyph glyph-name="dvSH_RA" horiz-adv-x="774" 
d="M806 740v-35h-152v-705h-40v176l-89 49l-246 -227h-48v4l263 241l-188 105l-199 -151h-47v5l214 164l-13 7q-75 40 -112.5 89.5t-37.5 115.5q0 46 21.5 85t62 62.5t93.5 23.5q54 0 95 -23t63 -61.5t22 -83.5q0 -61 -29.5 -108t-90.5 -93l-14 -10l280 -157v527h192z
M302 387l22 17q53 41 79.5 81t26.5 95q0 35 -17 66t-49 49.5t-75 18.5q-39 0 -70.5 -17.5t-49 -47t-19.5 -62.5q-3 -60 26 -103t93 -78z" />
    <glyph glyph-name="dvSS_RA" horiz-adv-x="644" 
d="M676 705h-151v-705h-40v325q-19 -40 -50 -66l-275 -263h-48l241 226q-30 -4 -48 -4q-103 0 -156.5 64t-53.5 179v244h-127v35h708v-35zM485 705h-351l349 -305q2 18 2 30v275zM416.5 284.5q42.5 31.5 59.5 83.5l-342 299v-207q0 -99 44 -153t134 -54q62 0 104.5 31.5z
" />
    <glyph glyph-name="dvS_RA" horiz-adv-x="854" 
d="M886 705h-152v-705h-37v265l-232 -317h-42l272 364v68h-562v-203q0 -68 32.5 -109t95.5 -41q55 0 87 42t32 112v11h37v-13q0 -86 -42 -137t-114 -51q-81 0 -124 51t-43 137v231h104q88 0 138 51t50 139v105h-418v35h918v-35zM695 705h-270v-105q0 -68 -26.5 -116
t-71.5 -72h368v293z" />
    <glyph glyph-name="dvH_RA" horiz-adv-x="587" 
d="M185.5 505.5q-37.5 -23.5 -37.5 -75.5q0 -41 27.5 -68.5t73.5 -38.5q25 6 55 6q72 0 122 -32.5t71 -80.5l-131 -127h-42l133 129q-20 33 -59 55.5t-93 22.5q-56 0 -97.5 -26t-63 -70t-21.5 -96q0 -53 21 -97t63 -69.5t102 -25.5q70 0 115 35t59 81h37q-9 -38 -35.5 -72.5
t-71.5 -56.5t-105 -22q-72 0 -122.5 31t-76 82.5t-25.5 114.5q0 68 32.5 123t90.5 81q-42 14 -70.5 45.5t-28.5 80.5q0 63 45.5 94.5t118.5 31.5h159v144h-463v35h651v-35h-149v-176h-189q-58 0 -95.5 -23.5z" />
    <glyph glyph-name="dvLL_RA" horiz-adv-x="1019" 
d="M745 705v-140q56 -6 100 -35.5t69 -78.5t25 -111q0 -85 -50 -144t-130 -73l166 -166h-45l-161 162l-159 -162h-46l166 166q-67 10 -111.5 51.5t-57.5 98.5h-3q-15 -65 -70.5 -109t-136.5 -44q-63 0 -113.5 28t-79 78t-28.5 114q0 67 28.5 118.5t79 79.5t112.5 28
q84 0 136.5 -43t71.5 -108h2q19 62 68 104.5t127 46.5v139h-737v35h1083v-35h-306zM400.5 179q41.5 24 64.5 66t23 95q0 85 -50.5 138t-133.5 53q-53 0 -95 -23.5t-66 -67t-24 -100.5q0 -54 24 -96t66.5 -65.5t95.5 -23.5q54 0 95.5 24zM875 440.5q-24 43.5 -66 67t-95 23.5
q-55 0 -96.5 -24.5t-64.5 -67.5t-23 -99q0 -53 23 -95t64.5 -66t95.5 -24q53 0 95.5 23.5t66.5 65.5t24 96q0 57 -24 100.5z" />
    <glyph glyph-name="dvKx_RA" horiz-adv-x="1041" 
d="M560 705v-258q21 57 68.5 92.5t121.5 35.5q59 0 107.5 -28t76.5 -79t28 -118q0 -72 -27.5 -124.5t-75.5 -80t-108 -27.5q-33 0 -58 7v33q25 -5 51 -5q50 0 90.5 23t63.5 67.5t23 105.5q0 57 -24 100.5t-65.5 67t-90.5 23.5q-61 0 -102 -29.5t-60 -75t-19 -94.5v-341h-39
v244q-18 -44 -51 -74l-237 -216h-47l186 169q-20 -4 -46 -4q-62 0 -111 27.5t-77.5 80t-28.5 122.5q0 68 28.5 119.5t78.5 79t111 27.5q74 0 123 -34.5t71 -89.5v254h-553v35h1105v-35h-513zM501.5 256q19.5 44 19.5 89q0 49 -19.5 93.5t-61.5 73t-105 28.5q-51 0 -93 -23
t-67 -66.5t-25 -101.5q0 -61 24 -105.5t66.5 -68t94.5 -23.5q54 0 93 22l13 12l3 -2q38 28 57.5 72zM110.5 91.5q9.5 -9.5 9.5 -24.5t-9.5 -24.5t-24.5 -9.5q-16 0 -25.5 9.5t-9.5 24.5t9.5 24.5t25.5 9.5q15 0 24.5 -9.5z" />
    <glyph glyph-name="dvKHx_RA" horiz-adv-x="918" 
d="M950 740v-35h-152v-705h-40v259q-20 -48 -63 -78t-107 -30q-25 0 -44 4q-26 -67 -76 -107l-211 -196h-45v3l164 150q-27 -5 -51 -5q-105 0 -168 60.5t-63 163.5v172h41q65 0 106 35t41 127v147h-314v35h982zM441 71.5q47 36.5 69 93.5q-56 21 -89 71t-33 122
q0 60 26.5 105.5t72 70t101.5 24.5q65 0 108 -29.5t62 -77.5v254h-436v-151q0 -190 -175 -190h-13v-143q0 -84 52 -135t140 -51q68 0 115 36.5zM686 209.5q37 25.5 54.5 64.5t17.5 80v1q0 42 -17.5 81t-54.5 64t-92 25q-46 0 -84 -20t-61 -58t-23 -89q0 -54 22 -93.5
t60.5 -60t85.5 -20.5q55 0 92 25.5zM78.6094 -88.4092q-9.77539 9.77539 -9.77539 24.4395t9.77539 24.4404q9.77637 9.77539 25.418 9.77539q14.6641 0 24.4395 -9.77539q9.77637 -9.77637 9.77637 -24.4404t-9.77637 -24.4395q-9.77539 -9.77637 -24.4395 -9.77637
q-15.6416 0 -25.418 9.77637z" />
    <glyph glyph-name="dvGx_RA" horiz-adv-x="705" 
d="M737 740v-35h-151v-705h-40v289l-308 -309h-48l355 353v372h-208v-251q0 -67 -34.5 -110t-106.5 -43q-70 0 -105.5 42.5t-35.5 107.5v30h40v-31q0 -47 24 -80.5t76 -33.5q55 0 78 33.5t23 83.5v252h-328v35h769zM64.6094 97.5908q-9.77539 9.77539 -9.77539 24.4395
t9.77539 24.4404q9.77637 9.77539 25.418 9.77539q14.6641 0 24.4395 -9.77539q9.77637 -9.77637 9.77637 -24.4404t-9.77637 -24.4395q-9.77539 -9.77637 -24.4395 -9.77637q-15.6416 0 -25.418 9.77637z" />
    <glyph glyph-name="dvJx_RA" horiz-adv-x="829" 
d="M861 705h-151v-705h-39v286l-305 -311h-47l352 356v141h-236v-65q0 -84 -47.5 -136t-128.5 -52q-79 0 -124.5 52t-45.5 136v99h40v-99q0 -68 35.5 -110t95.5 -42q63 0 99.5 42t36.5 110v99h275v199h-703v35h893v-35zM113.609 29.5908q-9.77539 9.77539 -9.77539 24.4395
t9.77539 24.4404q9.77637 9.77539 25.418 9.77539q14.6641 0 24.4395 -9.77539q9.77637 -9.77637 9.77637 -24.4404t-9.77637 -24.4395q-9.77539 -9.77637 -24.4395 -9.77637q-15.6416 0 -25.418 9.77637z" />
    <glyph glyph-name="dvPHx_RA" horiz-adv-x="1033" 
d="M551 705v-258q21 57 69 92.5t122 35.5q59 0 107.5 -27.5t76.5 -79t28 -118.5q0 -72 -27.5 -124.5t-75.5 -80t-108 -27.5q-34 0 -59 7v33q27 -5 52 -5q50 0 90.5 23t63.5 67.5t23 105.5q0 57 -24 100.5t-65.5 67t-90.5 23.5q-62 0 -103 -30t-60 -76t-19 -96v-338h-41v325
q-16 -38 -49 -66l-270 -263h-47l237 227q-18 -3 -40 -3q-98 0 -148.5 63t-50.5 176v246h-174v35h1097v-35h-514zM510 705h-328v-246q0 -98 41.5 -151t125.5 -53q75 0 118 50t43 124v276zM95.5 177.5q9.5 -9.5 9.5 -24.5t-9.5 -24.5t-24.5 -9.5q-16 0 -25.5 9.5t-9.5 24.5
t9.5 24.5t25.5 9.5q15 0 24.5 -9.5z" />
    <glyph glyph-name="dvK_R" horiz-adv-x="759" 
d="M530 705v-259q21 57 69 93t121 36q59 0 107.5 -28t76.5 -79.5t28 -118.5h-41q0 57 -24 100.5t-65 67t-90 23.5q-62 0 -102.5 -29.5t-59.5 -75t-20 -94.5v-341h-38v247q-17 -46 -54 -79l-234 -214h-48l186 169q-19 -4 -45 -4q-62 0 -111 27.5t-77.5 80t-28.5 122.5
q0 68 28.5 119.5t78 79t111.5 27.5q75 0 124 -35.5t70 -91.5v257h-524v35h964v-35h-402zM472 256q20 44 20 89q0 49 -20 93.5t-62 73t-104 28.5q-51 0 -93.5 -23t-67.5 -66.5t-25 -101.5q0 -61 24.5 -105.5t66.5 -68t95 -23.5q52 0 91 22l14 12l3 -2q38 28 58 72z" />
    <glyph glyph-name="dvKH_R" horiz-adv-x="678" 
d="M134 364v-143q0 -84 52 -135t140 -51q68 0 115.5 37.5t69.5 94.5q-58 21 -90.5 70t-32.5 117q0 94 57.5 149t151.5 55q95 0 152.5 -55t57.5 -149q0 -93 -58 -147.5t-152 -54.5q-25 0 -53 5q-24 -67 -76 -109l-211 -196h-45v3l164 150q-27 -5 -51 -5q-105 0 -168 60.5
t-63 163.5v172h41q65 0 106 35t41 127v147h-314v35h839v-35h-485v-151q0 -190 -175 -190h-13zM473 231.5q47 -46.5 124 -46.5q78 0 125.5 46.5t47.5 122.5q0 78 -47.5 124.5t-125.5 46.5q-77 0 -124 -46.5t-47 -124.5q0 -76 47 -122.5z" />
    <glyph glyph-name="dvG_R" horiz-adv-x="441" 
d="M553 740v-35h-216v-251q0 -67 -34.5 -110t-106.5 -43q-70 0 -105.5 42.5t-35.5 107.5v30h40v-31q0 -47 24 -80.5t76 -33.5q55 0 78 33.5t23 83.5v252h-328v35h585zM190 -20l363 361v-45l-315 -316h-48z" />
    <glyph glyph-name="dvGH_R" horiz-adv-x="444" 
d="M153 705v-92q0 -71 39 -107t124 -36h51v-34h-53q-92 0 -136.5 -38.5t-44.5 -99.5q0 -74 54 -112.5t141 -38.5q64 0 116.5 27.5t83 77t30.5 111.5h34q0 -59 -23 -109t-66 -85l-245 -226h-48l198 179q-42 -10 -80 -10q-108 0 -171.5 47t-63.5 136q0 67 42.5 108.5
t105.5 48.5v2q-58 7 -93.5 45.5t-35.5 112.5v93h-144v35h624v-35h-439z" />
    <glyph glyph-name="dvNG_R" horiz-adv-x="635" 
d="M667 740v-35h-204v-179h-172q-64 0 -108 -23t-44 -82q0 -54 37.5 -79t96.5 -25h45q86 0 145 -39t59 -127q0 -71 -52 -116.5t-150 -45.5q-75 0 -128.5 24.5t-81 68.5t-28.5 100h40q0 -70 50.5 -115t146.5 -45q80 0 122 36.5t42 93.5q0 72 -49 102.5t-122 30.5h-43
q-74 0 -122.5 33.5t-48.5 103.5q0 72 52.5 104t127.5 32h146v147h-456v35h699zM599.5 431.5q9.5 -9.5 9.5 -24.5q0 -14 -9.5 -23.5t-23.5 -9.5q-15 0 -25 9.5t-10 23.5q0 15 10 24.5t25 9.5q14 0 23.5 -9.5zM476 -173l-161 162l-159 -162h-46l179 179h54l178 -179h-45z
M299 -178h41l119 -186h-42z" />
    <glyph glyph-name="dvC_R" horiz-adv-x="463" 
d="M599 705h-631v35h631v-35zM577.5 237.5q-22.5 -47.5 -64.5 -80.5l-220 -203h-47l176 161q-25 -6 -55 -6q-61 0 -112 24.5t-80.5 71t-29.5 110.5q0 65 32 114t89 73h-217v34h359v-34h-31q-59 0 -102.5 -23.5t-67 -65t-23.5 -93.5q0 -55 25 -94.5t67.5 -60t92.5 -20.5
q55 0 99.5 26.5t70 71t25.5 96.5h35q1 -54 -21.5 -101.5z" />
    <glyph glyph-name="dvCH_R" horiz-adv-x="813" 
d="M590 -131l-161 162l-159 -162h-46l179 179h54l178 -179h-45zM148 705v-123q0 -71 39 -107t123 -36h23v-34h-23q-95 0 -142 -43t-47 -110q0 -90 75 -137.5t200 -47.5q94 0 169.5 34.5t118.5 99t43 150.5q0 57 -20 96.5t-51.5 58.5t-66.5 19q-51 0 -90 -33.5t-39 -103.5
q0 -46 18 -102h-35q-19 54 -19 105q0 85 48.5 125.5t116.5 40.5q47 0 87 -22.5t64 -69t24 -114.5q0 -98 -47 -170.5t-131 -111t-191 -38.5q-143 0 -229 57t-86 162q0 74 44.5 118t111.5 52v3q-57 7 -92.5 45.5t-35.5 112.5v124h-140v35h877v-35h-697z" />
    <glyph glyph-name="dvJ_R" horiz-adv-x="543" 
d="M688 740v-35h-720v35h720zM688 471h-253v-64q0 -84 -47.5 -136t-128.5 -52q-79 0 -124.5 52t-45.5 136v99h40v-99q0 -68 35.5 -110t95.5 -42q63 0 99.5 42t36.5 110v99h292v-35zM319 -25l369 373v-45l-322 -328h-47z" />
    <glyph glyph-name="dvJH_R" horiz-adv-x="574" 
d="M181 503q-45 -23 -45 -82q0 -54 38.5 -79t97.5 -25h45h371v-32l-251 1q39 -18 61.5 -52t22.5 -86q0 -65 -45 -108t-132 -43q-60 0 -101.5 19t-63 43t-29.5 44v-176h-39v245h36q10 -61 58 -101.5t132 -40.5q73 0 109.5 34.5t36.5 86.5q0 63 -44.5 98.5t-127.5 35.5
q-34 0 -48 1q-73 0 -120.5 34t-47.5 101q0 73 53 105t129 32h146v147h-455v35h720v-35h-226v-179h-171q-65 0 -110 -23zM482 -102l206 284v-49l-163 -235h-43z" />
    <glyph glyph-name="dvNY_R" horiz-adv-x="549" 
d="M659 740v-35h-691v35h691zM408 549q48 -26 74.5 -69.5t31.5 -95.5h145v-36h-144q-3 -58 -28.5 -105.5t-74.5 -76.5t-119 -29q-63 0 -110 23.5t-72.5 61t-30.5 77.5h39q5 -31 26.5 -59.5t59 -47t88.5 -18.5q89 0 136.5 53t47.5 132q0 49 -20.5 90t-62.5 65.5t-101 24.5
q-76 0 -119 -37.5t-55 -88.5h-39q12 67 65.5 114.5t147.5 47.5q67 0 115 -26zM349 -73l310 317v-46l-266 -271h-44z" />
    <glyph glyph-name="dvTT_R" horiz-adv-x="653" 
d="M189.5 473.5q-69.5 -57.5 -69.5 -167.5q0 -62 28.5 -110.5t78.5 -76t113 -27.5q64 0 113.5 28.5t77.5 79t28 114.5h39q0 -75 -32.5 -134t-91 -91.5t-134.5 -32.5q-74 0 -133.5 32t-93 88.5t-33.5 128.5q0 128 79.5 194.5t208.5 66.5h41v139h-441v35h717v-35h-236v-174
h-79q-111 0 -180.5 -57.5zM496 -105l-161 162l-159 -162h-46l179 179h54l178 -179h-45zM318 -110h41l119 -186h-42z" />
    <glyph glyph-name="dvTTH_R" horiz-adv-x="679" 
d="M359 705v-150q68 -4 122.5 -36t86 -87t31.5 -125q0 -73 -33.5 -129.5t-93 -88t-133.5 -31.5q-73 0 -132.5 31.5t-93 88t-33.5 129.5q0 70 31 125t85.5 87t122.5 36v150h-351v35h743v-35h-352zM530.5 417.5q-28.5 48.5 -78.5 76t-113 27.5q-62 0 -112 -27.5t-78.5 -76
t-28.5 -110.5t28.5 -110.5t78.5 -76t112 -27.5q63 0 113 27.5t78.5 76t28.5 110.5t-28.5 110.5zM501 -106l-161 162l-159 -162h-46l179 179h54l178 -179h-45zM319 -111h41l119 -186h-42z" />
    <glyph glyph-name="dvDD_R" horiz-adv-x="579" 
d="M183 503q-44 -23 -44 -82q0 -54 37.5 -79t96.5 -25h45q86 0 145 -39t59 -127q0 -71 -52 -116.5t-150 -45.5q-75 0 -128.5 24.5t-81 68.5t-28.5 100h40q0 -70 50.5 -115t146.5 -45q80 0 122 36.5t42 93.5q0 72 -49 102.5t-122 30.5h-43q-74 0 -122.5 33.5t-48.5 103.5
q0 72 52.5 104t127.5 32h139v147h-449v35h643v-35h-155v-179h-165q-64 0 -108 -23zM469 -173l-161 162l-159 -162h-46l179 179h54l178 -179h-45zM288 -178h41l119 -186h-42z" />
    <glyph glyph-name="dvDDH_R" horiz-adv-x="633" 
d="M192.5 473.5q-73.5 -62.5 -73.5 -183.5q0 -70 32 -124.5t89 -85t129 -30.5q54 0 97.5 20.5t68 56.5t24.5 81q0 56 -35.5 93t-90.5 37q-47 0 -80.5 -30.5t-33.5 -80.5q0 -9 2 -21h-33q-2 14 -2 26q0 63 42.5 100.5t105.5 37.5q72 0 116.5 -45.5t44.5 -116.5q0 -56 -28 -99
t-79.5 -67t-119.5 -24q-82 0 -147.5 34t-103 96t-37.5 142q0 92 38.5 154.5t105.5 93t152 30.5h53v137h-461v35h697v-35h-197v-169h-83q-119 0 -192.5 -62.5zM512 -145l-161 162l-159 -162h-46l179 179h54l178 -179h-45zM338 -150h41l119 -186h-42z" />
    <glyph glyph-name="dvNN_R" horiz-adv-x="552" 
d="M653 740v-35h-211v-242q0 -84 -46 -135.5t-127 -51.5q-80 0 -126 52t-46 135v242h-129v35h685zM402 705h-265v-245q0 -66 36 -107.5t97 -41.5q62 0 97 41t35 108v245zM318 -24l335 339v-48l-287 -291h-48z" />
    <glyph glyph-name="dvT_R" horiz-adv-x="435" 
d="M566 740v-35h-598v35h598zM481 488q64 -51 85 -130l-359 -358h-51v3l370 363q-20 61 -73.5 100t-128.5 39q-57 0 -103.5 -23.5t-73.5 -69t-27 -107.5h-40q0 72 31.5 125t86.5 81t124 28q95 0 159 -51z" />
    <glyph glyph-name="dvTH_R" horiz-adv-x="470" 
d="M605.5 245q-21.5 -46 -61.5 -78l-307 -246h-51v4l242 190q-31 -6 -66 -6q-127 0 -198 71.5t-71 194.5q0 13 2 41h105q92 0 155 35t63 125q0 59 -36.5 98t-98.5 39q-66 0 -103.5 -39t-37.5 -104q0 -20 5 -47h-38q-4 28 -4 50q0 80 48.5 128t129.5 48q52 0 91.5 -23
t61 -62.5t21.5 -88.5q0 -101 -69 -146t-178 -45h-78q-3 -111 56.5 -175.5t173.5 -64.5q66 0 118 25t81 71t29 106h37q0 -55 -21.5 -101z" />
    <glyph glyph-name="dvD_R" horiz-adv-x="608" 
d="M233.5 520.5q-51.5 -22.5 -82 -67t-30.5 -109.5q0 -87 52 -139.5t140 -52.5q51 0 95 25l8 7l2 -1q67 46 67 131h36v-320h-39v223q-12 -27 -35 -47l-238 -218h-48l189 172q-19 -4 -46 -4q-103 0 -163.5 61t-60.5 164q0 77 35.5 129t95.5 78t134 26h93v127h-470v35h672v-35
h-162v-162h-130q-63 0 -114.5 -22.5zM480 -98h41l119 -186h-42z" />
    <glyph glyph-name="dvDH_R" horiz-adv-x="429" 
d="M557 236q-21 -44 -61 -73l-240 -223h-48l199 180q-44 -11 -92 -11q-96 0 -156.5 44t-60.5 127q0 62 37.5 101t88.5 45v2q-56 11 -94 52.5t-38 110.5q0 68 44.5 113t116.5 45q73 0 115.5 -42t42.5 -110q0 -18 -1 -30h-34l1 27q0 51 -32.5 85.5t-90.5 34.5t-91.5 -36
t-33.5 -91q0 -65 43.5 -103.5t123.5 -38.5h55v-34h-53q-79 0 -119 -35.5t-40 -92.5q0 -68 51 -103.5t128 -35.5q67 0 117.5 24t78.5 67t28 98h36q0 -53 -21 -97z" />
    <glyph glyph-name="dvN_R" horiz-adv-x="507" 
d="M650 740v-35h-682v35h682zM125 459q54 50 140 50h385v-35h-286q37 -21 60 -60t23 -90q0 -53 -24 -93.5t-66 -63t-95 -22.5q-56 0 -99.5 23t-67.5 63.5t-24 93.5q0 84 54 134zM369.5 432q-42.5 41 -107.5 41q-68 0 -110.5 -40.5t-42.5 -106.5q0 -65 42 -105.5t111 -40.5
q65 0 107.5 41.5t42.5 105.5t-42.5 105zM291 -65l359 365v-46l-312 -319h-47z" />
    <glyph glyph-name="dvP_R" horiz-adv-x="374" 
d="M135 705v-244q0 -99 44 -152.5t133 -53.5q53 0 91.5 23.5t58.5 63.5t20 89h35q0 -53 -18.5 -96t-52.5 -71l-275 -268h-47l239 229q-25 -6 -54 -6q-105 0 -159.5 64t-54.5 178v244h-127v35h549v-35h-382z" />
    <glyph glyph-name="dvPH_R" horiz-adv-x="759" 
d="M503 705v-260q20 57 68.5 93.5t122.5 36.5q101 0 156.5 -60.5t55.5 -165.5h-40q0 89 -47 140t-133 51q-62 0 -103 -30t-60.5 -76t-19.5 -96v-338h-40v325q-16 -38 -49 -66l-270 -263h-48l237 227q-18 -3 -39 -3q-98 0 -148.5 63t-50.5 176v246h-127v35h938v-35h-403z
M463 705h-328v-246q0 -98 41 -151t125 -53q76 0 119 50t43 124v276z" />
    <glyph glyph-name="dvB_R" horiz-adv-x="430" 
d="M566 740v-35h-598v35h598zM457 549.5q55 -35.5 81.5 -90t26.5 -112.5q0 -55 -22 -104t-63 -82l-227 -210h-46l184 167q-32 -8 -65 -8q-69 0 -125 29t-88.5 82t-32.5 124q0 72 31.5 126.5t87 84t124.5 29.5q79 0 134 -35.5zM520.5 276.5q11.5 34.5 11.5 69.5
q0 52 -23.5 99.5t-70.5 78t-114 30.5q-42 0 -79 -14t-66 -40l307 -286q23 28 34.5 62.5zM144.5 236q28.5 -46 76.5 -70.5t105 -24.5q89 0 144 55l-307 287q-47 -57 -47 -139q0 -62 28.5 -108z" />
    <glyph glyph-name="dvBH_R" horiz-adv-x="493" 
d="M609 449v-34h-195v-76q0 -93 -43.5 -144t-117.5 -51t-119.5 42t-45.5 110q0 70 49 111.5t127 41.5h112v104q0 76 -28 118t-87 42q-51 0 -82 -34t-31 -94q0 -21 4 -41h-39q-4 28 -4 43q0 74 41.5 118t110.5 44q77 0 115 -52.5t38 -147.5v-100h195zM376 415h-112
q-61 0 -99 -32.5t-38 -86.5q0 -53 35.5 -85t90.5 -32q58 0 90.5 41.5t32.5 116.5v78zM270 -65l339 335v-43l-291 -292h-48z" />
    <glyph glyph-name="dvM_R" horiz-adv-x="489" 
d="M378 705v-229h226v-35h-226v-93q0 -95 -42.5 -145t-118.5 -50q-74 0 -119 44.5t-45 116.5q0 74 48.5 118t126.5 44h112v229h-372v35h638v-35h-228zM340 441h-112q-61 0 -99 -34.5t-38 -92.5q0 -57 35.5 -92t90.5 -35q58 0 90.5 42t32.5 117v95zM240 -65l364 359l-1 -42
l-315 -317h-48z" />
    <glyph glyph-name="dvY_R" horiz-adv-x="453" 
d="M277 468.5q-56 -44.5 -161 -45.5v-15q0 -115 61 -179.5t168 -64.5q60 0 110.5 25t80.5 71t30 105h38q0 -56 -23.5 -103.5t-66.5 -79.5l-302 -241h-51v3l243 191q-28 -6 -61 -6q-126 0 -196 75.5t-70 206.5q0 15 2 39h17q93 0 145 38t52 135v82h-325v35h636v-35h-271v-87
q0 -105 -56 -149.5z" />
    <glyph glyph-name="dvL_R" horiz-adv-x="898" 
d="M653 705v-152q78 -9 122 -69.5t44 -152.5q0 -69 -25.5 -123t-77 -85t-124.5 -31q-11 0 -33 2v37q22 -2 30 -2q91 0 140 56t49 146q0 82 -39.5 134.5t-113.5 52.5q-77 0 -117.5 -59t-40.5 -162v-10h-36v10q0 101 -39 161t-111 60q-78 0 -119.5 -52t-41.5 -135
q0 -90 49 -146t140 -56q10 0 30 2v-37q-22 -2 -33 -2q-73 0 -124 31t-76.5 85t-25.5 123q0 101 52.5 162t144.5 61q76 0 118 -48.5t53 -114.5h3q11 63 50 110t112 52v152h-645v35h962v-35h-277zM745 -145l-161 162l-159 -162h-46l179 179h54l178 -179h-45zM565 -150h41
l119 -186h-42z" />
    <glyph glyph-name="dvV_R" horiz-adv-x="415" 
d="M559 740v-35h-591v35h591zM454 544.5q54 -34.5 79.5 -88t25.5 -110.5q0 -50 -21 -98t-61 -82l-230 -212h-46l187 169q-34 -8 -68 -8q-69 0 -123.5 28.5t-85.5 81.5t-31 125q0 68 31.5 120t86 80.5t122.5 28.5q80 0 134 -34.5zM432.5 178.5q44.5 29.5 66 75t21.5 92.5
q0 50 -21 95.5t-66 74.5t-112 29q-56 0 -101.5 -23.5t-72.5 -68t-27 -104.5q0 -62 26 -107t72 -69t103 -24q67 0 111.5 29.5z" />
    <glyph glyph-name="dvSH_R" horiz-adv-x="485" 
d="M526 263v-37l-247 -228h-49v3l265 242l-189 105l-199 -151h-47v5l214 164l-13 7q-75 40 -112.5 89.5t-37.5 115.5q0 46 21.5 85t62 62.5t93.5 23.5q54 0 95 -23t63 -61.5t22 -83.5q0 -61 -29.5 -108t-90.5 -93l-14 -10zM302 387l22 17q53 41 79.5 81t26.5 95q0 35 -17 66
t-49 49.5t-75 18.5q-39 0 -70.5 -17.5t-49 -47t-19.5 -62.5q-3 -60 26 -103t93 -78z" />
    <glyph glyph-name="dvSS_R" horiz-adv-x="389" 
d="M515 705h-381l381 -331q0 -28 -15.5 -57.5t-43.5 -52.5l-280 -268h-47l242 228q-27 -7 -61 -7q-106 0 -160.5 64.5t-54.5 179.5v244h-127v35h547v-35zM395 270q36 17 57 43t26 52l-344 303v-208q0 -100 44 -153.5t134 -53.5q47 0 83 17z" />
    <glyph glyph-name="dvS_R" horiz-adv-x="532" 
d="M398.5 484q-26.5 -48 -71.5 -72h312v-32h-506v-203q0 -68 32.5 -109t95.5 -41q55 0 87 42t32 112v11h37v-13q0 -86 -42 -137t-114 -51q-81 0 -124 51t-43 137v231h104q88 0 138 51t50 139v105h-418v35h671v-35h-214v-105q0 -68 -26.5 -116zM423 -52l216 288v-51
l-174 -237h-42z" />
    <glyph glyph-name="dvH_R" horiz-adv-x="587" 
d="M185.5 505.5q-37.5 -23.5 -37.5 -75.5q0 -41 27.5 -68.5t73.5 -38.5q25 6 55 6q72 0 122 -32.5t71 -80.5l-131 -127h-42l133 129q-20 33 -59 55.5t-93 22.5q-56 0 -97.5 -26t-63 -70t-21.5 -96q0 -53 21 -97t63 -69.5t102 -25.5q70 0 115 35t59 81h37q-9 -38 -35.5 -72.5
t-71.5 -56.5t-105 -22q-72 0 -122.5 31t-76 82.5t-25.5 114.5q0 68 32.5 123t90.5 81q-42 14 -70.5 45.5t-28.5 80.5q0 63 45.5 94.5t118.5 31.5h159v144h-463v35h651v-35h-149v-176h-189q-58 0 -95.5 -23.5zM284 -216h41l119 -186h-42z" />
    <glyph glyph-name="dvLL_R" horiz-adv-x="1019" 
d="M-32 740h1083v-35h-1083v35zM187.5 148q-50.5 28 -79 78t-28.5 114q0 67 28.5 118.5t79 79.5t112.5 28q84 0 136.5 -43t71.5 -108h2q20 65 72.5 108t135.5 43q62 0 112.5 -28t79.5 -79.5t29 -118.5q0 -64 -28.5 -114t-79.5 -78t-114 -28q-80 0 -135.5 44t-70.5 109h-3
q-15 -65 -70.5 -109t-136.5 -44q-63 0 -113.5 28zM400.5 179q41.5 24 64.5 66t23 95q0 85 -50.5 138t-133.5 53q-53 0 -95 -23.5t-66 -67t-24 -100.5q0 -54 24 -96t66.5 -65.5t95.5 -23.5q54 0 95.5 24zM808.5 178.5q42.5 23.5 66.5 65.5t24 96q0 57 -24 100.5t-66 67
t-95 23.5q-55 0 -96.5 -24.5t-64.5 -67.5t-23 -99q0 -53 23 -95t64.5 -66t95.5 -24q53 0 95.5 23.5zM880 -43l-161 162l-159 -162h-46l179 179h54l178 -179h-45z" />
    <glyph glyph-name="dvKx_R" horiz-adv-x="789" 
d="M560 705v-258q21 57 68.5 92.5t121.5 35.5q59 0 107.5 -28t76.5 -79.5t28 -118.5h-41q0 57 -24 100.5t-65.5 67t-90.5 23.5q-61 0 -102 -29.5t-60 -75t-19 -94.5v-341h-39v244q-18 -44 -51 -74l-237 -216h-47l186 169q-20 -4 -46 -4q-62 0 -111 27.5t-77.5 80
t-28.5 122.5q0 68 28.5 119.5t78.5 79t111 27.5q74 0 123 -34.5t71 -89.5v254h-553v35h994v-35h-402zM501.5 256q19.5 44 19.5 89q0 49 -19.5 93.5t-61.5 73t-105 28.5q-51 0 -93 -23t-67 -66.5t-25 -101.5q0 -61 24 -105.5t66.5 -68t94.5 -23.5q54 0 93 22l13 12l3 -2
q38 28 57.5 72zM110.5 91.5q9.5 -9.5 9.5 -24.5t-9.5 -24.5t-24.5 -9.5q-16 0 -25.5 9.5t-9.5 24.5t9.5 24.5t25.5 9.5q15 0 24.5 -9.5z" />
    <glyph glyph-name="dvKHx_R" horiz-adv-x="678" 
d="M134 364v-143q0 -84 52 -135t140 -51q68 0 115.5 37.5t69.5 94.5q-58 21 -90.5 70t-32.5 117q0 94 57.5 149t151.5 55q95 0 152.5 -55t57.5 -149q0 -93 -58 -147.5t-152 -54.5q-25 0 -53 5q-24 -67 -76 -109l-211 -196h-45v3l164 150q-27 -5 -51 -5q-105 0 -168 60.5
t-63 163.5v172h41q65 0 106 35t41 127v147h-314v35h839v-35h-485v-151q0 -190 -175 -190h-13zM473 231.5q47 -46.5 124 -46.5q78 0 125.5 46.5t47.5 122.5q0 78 -47.5 124.5t-125.5 46.5q-77 0 -124 -46.5t-47 -124.5q0 -76 47 -122.5zM78.6094 -88.4092
q-9.77539 9.77539 -9.77539 24.4395t9.77539 24.4404q9.77637 9.77539 25.418 9.77539q14.6641 0 24.4395 -9.77539q9.77637 -9.77637 9.77637 -24.4404t-9.77637 -24.4395q-9.77539 -9.77637 -24.4395 -9.77637q-15.6416 0 -25.418 9.77637z" />
    <glyph glyph-name="dvGx_R" horiz-adv-x="441" 
d="M553 740v-35h-216v-251q0 -67 -34.5 -110t-106.5 -43q-70 0 -105.5 42.5t-35.5 107.5v30h40v-31q0 -47 24 -80.5t76 -33.5q55 0 78 33.5t23 83.5v252h-328v35h585zM190 -20l363 361v-45l-315 -316h-48zM64.6094 97.5908q-9.77539 9.77539 -9.77539 24.4395
t9.77539 24.4404q9.77637 9.77539 25.418 9.77539q14.6641 0 24.4395 -9.77539q9.77637 -9.77637 9.77637 -24.4404t-9.77637 -24.4395q-9.77539 -9.77637 -24.4395 -9.77637q-15.6416 0 -25.418 9.77637z" />
    <glyph glyph-name="dvJx_R" horiz-adv-x="543" 
d="M688 740v-35h-720v35h720zM688 471h-253v-64q0 -84 -47.5 -136t-128.5 -52q-79 0 -124.5 52t-45.5 136v99h40v-99q0 -68 35.5 -110t95.5 -42q63 0 99.5 42t36.5 110v99h292v-35zM319 -25l369 373v-45l-322 -328h-47zM113.609 29.5908q-9.77539 9.77539 -9.77539 24.4395
t9.77539 24.4404q9.77637 9.77539 25.418 9.77539q14.6641 0 24.4395 -9.77539q9.77637 -9.77637 9.77637 -24.4404t-9.77637 -24.4395q-9.77539 -9.77637 -24.4395 -9.77637q-15.6416 0 -25.418 9.77637z" />
    <glyph glyph-name="dvPHx_R" horiz-adv-x="806" 
d="M551 705v-258q21 57 69 92.5t122 35.5q100 0 156 -60.5t56 -165.5h-41q0 89 -47 140t-133 51q-62 0 -103 -30t-60 -76t-19 -96v-338h-41v325q-16 -38 -49 -66l-270 -263h-47l237 227q-18 -3 -40 -3q-98 0 -148.5 63t-50.5 176v246h-174v35h986v-35h-403zM510 705h-328
v-246q0 -98 41.5 -151t125.5 -53q75 0 118 50t43 124v276zM95.5 177.5q9.5 -9.5 9.5 -24.5t-9.5 -24.5t-24.5 -9.5q-16 0 -25.5 9.5t-9.5 24.5t9.5 24.5t25.5 9.5q15 0 24.5 -9.5z" />
    <glyph glyph-name="dvK_KA" horiz-adv-x="1806" 
d="M1324 705v-259q21 57 69 93t121 36q59 0 107.5 -28t76.5 -79t28 -118q0 -72 -27.5 -124.5t-75 -80t-107.5 -27.5q-33 0 -59 7v33q25 -5 52 -5q50 0 90 23t63 67.5t23 105.5q0 57 -24 100.5t-65 67t-90 23.5q-62 0 -103 -29.5t-60 -75t-19 -94.5v-341h-38v245
q-22 -57 -71.5 -92.5t-123.5 -35.5q-62 0 -111.5 28t-77.5 80.5t-28 123.5q0 58 -22 101t-61 66.5t-88 23.5q-90 0 -131.5 -59.5t-41.5 -139.5v-341h-38v245q-22 -57 -71.5 -92.5t-123.5 -35.5q-62 0 -111.5 28t-77.5 80.5t-28 123.5q0 68 28.5 119.5t78 79t111.5 27.5
q75 0 124 -35.5t70 -91.5v257h-524v35h1870v-35h-514zM822.5 543q48.5 -32 72.5 -89q26 57 78.5 89t118.5 32q75 0 124 -35.5t70 -91.5v257h-756v-255q20 56 64.5 90.5t116.5 34.5q63 0 111.5 -32zM410 181q42 29 62 73.5t20 90.5q0 49 -20 93.5t-62 73t-104 28.5
q-51 0 -93.5 -23t-67.5 -66.5t-25 -101.5q0 -61 24.5 -105.5t66.5 -68t95 -23.5q62 0 104 29zM1204 181q42 29 62 73.5t20 90.5q0 49 -20 93.5t-62 73t-104 28.5q-49 0 -90 -21t-66.5 -60.5t-28.5 -92.5v-17h-1q0 -61 24.5 -105.5t66.5 -68t95 -23.5q62 0 104 29z" />
    <glyph glyph-name="dvKx_KxA" horiz-adv-x="1806" 
d="M1324 705v-259q21 57 69 93t121 36q59 0 107.5 -28t76.5 -79t28 -118q0 -72 -27.5 -124.5t-75 -80t-107.5 -27.5q-33 0 -59 7v33q25 -5 52 -5q50 0 90 23t63 67.5t23 105.5q0 57 -24 100.5t-65 67t-90 23.5q-62 0 -103 -29.5t-60 -75t-19 -94.5v-341h-38v245
q-22 -57 -71.5 -92.5t-123.5 -35.5q-62 0 -111.5 28t-77.5 80.5t-28 123.5q0 58 -22 101t-61 66.5t-88 23.5q-90 0 -131.5 -59.5t-41.5 -139.5v-341h-38v245q-22 -57 -71.5 -92.5t-123.5 -35.5q-62 0 -111.5 28t-77.5 80.5t-28 123.5q0 68 28.5 119.5t78 79t111.5 27.5
q75 0 124 -35.5t70 -91.5v257h-524v35h1870v-35h-514zM822.5 541.5q47.5 -33.5 70.5 -92.5q25 60 78 93t121 33q75 0 124 -35.5t70 -91.5v257h-756v-255q20 56 64.5 90.5t116.5 34.5q64 0 111.5 -33.5zM410 181q42 29 62 73.5t20 90.5q0 49 -20 93.5t-62 73t-104 28.5
q-51 0 -93.5 -23t-67.5 -66.5t-25 -101.5q0 -61 24.5 -105.5t66.5 -68t95 -23.5q62 0 104 29zM1204 181q42 29 62 73.5t20 90.5q0 49 -20 93.5t-62 73t-104 28.5q-51 0 -93.5 -23t-67.5 -66.5t-25 -101.5q0 -61 24.5 -105.5t66.5 -68t95 -23.5q62 0 104 29zM313 14
q10 -10 10 -25t-10 -25t-25 -10q-16 0 -26 10t-10 25t10 25t26 10q15 0 25 -10zM1107 14q10 -10 10 -25t-10 -25t-25 -10q-16 0 -26 10t-10 25t10 25t26 10q15 0 25 -10z" />
    <glyph glyph-name="dvK_KHA" horiz-adv-x="1697" 
d="M1729 705h-151v-705h-40v261q-20 -49 -63 -79.5t-107 -30.5q-25 0 -44 4q-26 -68 -82.5 -112t-137.5 -44q-105 0 -167.5 60t-62.5 163v127q0 58 -22 101t-61 66.5t-88 23.5q-90 0 -131.5 -59.5t-41.5 -139.5v-341h-38v245q-22 -57 -71.5 -92.5t-123.5 -35.5
q-62 0 -111.5 28t-77.5 80.5t-28 123.5q0 68 28.5 119.5t78 79t111.5 27.5q75 0 124 -35.5t70 -91.5v257h-524v35h1761v-35zM842.5 526q53.5 -48 66.5 -130h6q65 0 105.5 35t40.5 127v147h-531v-255q20 56 64.5 90t116.5 34q78 0 131.5 -48zM1220.5 71.5
q46.5 36.5 69.5 93.5q-56 21 -89 71t-33 122q0 60 26.5 105.5t72 70t101.5 24.5q65 0 107.5 -30.5t62.5 -78.5v256h-436v-151q0 -190 -176 -190h-12v-143q0 -85 51.5 -135.5t140.5 -50.5q68 0 114.5 36.5zM410 181q42 29 62 73.5t20 90.5q0 49 -20 93.5t-62 73t-104 28.5
q-51 0 -93.5 -23t-67.5 -66.5t-25 -101.5q0 -61 24.5 -105.5t66.5 -68t95 -23.5q62 0 104 29zM1466 209.5q37 25.5 54.5 65t17.5 79.5v1q0 42 -17.5 81t-54.5 64t-92 25q-46 0 -84.5 -20t-61.5 -58t-23 -89q0 -54 22.5 -93.5t61 -60t85.5 -20.5q55 0 92 25.5z" />
    <glyph glyph-name="dvK_CA" horiz-adv-x="1396" 
d="M1428 705h-151v-705h-41v235q-26 -56 -80 -90.5t-122 -34.5q-60 0 -109.5 24.5t-78.5 71.5t-29 113q0 69 33.5 121t93.5 75h-219q-100 0 -147.5 -55t-47.5 -133v-327h-38v245q-22 -57 -71.5 -92.5t-123.5 -35.5q-62 0 -111.5 28t-77.5 80.5t-28 123.5q0 68 28.5 119.5
t78 79t111.5 27.5q75 0 124 -35.5t70 -91.5v257h-524v35h1460v-35zM1236 705h-706v-277q21 55 71.5 88t131.5 33h347v-34h-31q-59 0 -102.5 -25t-67 -68t-23.5 -96q0 -57 25 -98t67 -62t93 -21q55 0 99.5 26.5t70 71t25.5 96.5v366zM410 181q42 29 62 73.5t20 90.5
q0 49 -20 93.5t-62 73t-104 28.5q-51 0 -93.5 -23t-67.5 -66.5t-25 -101.5q0 -61 24.5 -105.5t66.5 -68t95 -23.5q62 0 104 29z" />
    </font>
</defs>
</svg>
