<?xml version="1.0" standalone="no"?>
<!DOCTYPE svg PUBLIC "-//W3C//DTD SVG 1.1//EN" "http://www.w3.org/Graphics/SVG/1.1/DTD/svg11.dtd" >
<svg xmlns="http://www.w3.org/2000/svg" xmlns:xlink="http://www.w3.org/1999/xlink" version="1.1">
<metadata>
Created by FontForge 20170731 at Tue Mar 19 18:39:57 2019
 By Aleksey,,,
Copyright 2017 The Playfair Display Project Authors (https://github.com/clauseggers/Playfair-Display), with Reserved Font Name "Playfair Display".
</metadata>
<defs>
<font id="PlayfairDisplay-SemiBold" horiz-adv-x="0" >
  <font-face 
    font-family="Playfair Display SemiBold"
    font-weight="600"
    font-stretch="normal"
    units-per-em="1000"
    panose-1="0 0 0 0 0 0 0 0 0 0"
    ascent="800"
    descent="-200"
    x-height="517"
    cap-height="708"
    bbox="-269 -242 1247 1159.73"
    underline-thickness="20"
    underline-position="-130"
    unicode-range="U+000D-FB02"
  />
<missing-glyph horiz-adv-x="562" 
d="M502 772v-772h-442v772h442zM466 742h-370v-712h370v712z" />
    <glyph glyph-name="IJ" unicode="IJ" horiz-adv-x="707" 
d="M327 708v-20q-32 -1 -48.5 -7.5t-22.5 -24t-6 -54.5v-496q0 -36 6 -54t22.5 -24t48.5 -8v-20q-25 2 -64 2.5t-79 0.5q-45 0 -84 -0.5t-64 -2.5v20q33 2 49.5 8t22 24t5.5 54v496q0 37 -5.5 54.5t-22 24t-49.5 7.5v20q25 -1 64 -2t84 -1q40 0 79 1t64 2zM334 -188v20
q41 2 70.5 22t44.5 68t15 131v549q0 37 -5.5 54.5t-22.5 24t-49 7.5v20q23 -1 61.5 -2t80.5 -1t82.5 1t66.5 2v-20q-33 -1 -49.5 -7.5t-22 -24t-5.5 -54.5v-366q0 -41 -0.5 -89t-4 -93t-12.5 -79q-19 -70 -82 -116.5t-168 -46.5z" />
    <glyph glyph-name="ij" unicode="ij" horiz-adv-x="581" 
d="M509 528v-426q0 -85 -18 -150.5t-63.5 -102.5t-128.5 -37q-50 0 -80.5 16t-30.5 50q0 24 18.5 40.5t52.5 16.5q30 0 50 -13.5t20 -38.5q0 -19 -12.5 -32.5t-35.5 -20.5q7 -1 11.5 -1h8.5q46 0 64 30t18 95v138q-20 -51 -61.5 -78.5t-100.5 -27.5q-39 0 -65.5 10.5
t-42.5 28.5q-17 19 -24 50t-7 80v253q0 45 -14.5 66.5t-53.5 21.5v21q32 -3 62 -3q37 0 70.5 3.5t61.5 10.5v-408q0 -27 4.5 -48t18.5 -33.5t42 -12.5q49 0 79.5 39.5t30.5 97.5v245q0 45 -14.5 66.5t-53.5 21.5v21q32 -3 62 -3q37 0 70.5 3.5t61.5 10.5zM134 772
q37 0 59.5 -20t22.5 -53t-22.5 -53t-59.5 -20q-36 0 -59 20t-23 53t23 53t59 20zM437 772q37 0 59.5 -20t22.5 -53t-22.5 -53t-59.5 -20q-36 0 -59 20t-23 53t23 53t59 20z" />
    <glyph glyph-name="fi" unicode="fi" horiz-adv-x="640" 
d="M373 782q55 0 90.5 -9.5t60.5 -24.5q16 -10 27 -26.5t11 -36.5q0 -33 -22.5 -53t-61.5 -20q-38 0 -61 20t-23 51q0 50 55 69q-10 6 -29 9.5t-38 3.5q-49 0 -81.5 -20.5t-51.5 -54.5q-14 -25 -20.5 -63t-6.5 -111h133q48 0 82 1t61.5 3.5t54.5 7.5v-435q0 -42 16.5 -57
t55.5 -15v-21q-19 1 -56.5 2.5t-76.5 1.5q-38 0 -76 -1.5t-57 -2.5v21q37 0 52.5 15t15.5 57v315q0 45 -15 66.5t-57 21.5h-133v-403q0 -43 22 -57.5t60 -14.5v-21q-22 1 -61.5 2.5t-81.5 1.5t-80 -1.5t-57 -2.5v21q39 0 55.5 15t16.5 57v403h-76v20h76q0 63 18.5 112.5
t58.5 86.5q33 32 85 49.5t115 17.5z" />
    <glyph glyph-name="fl" unicode="fl" horiz-adv-x="643" 
d="M553 784v-691q0 -42 16.5 -57t55.5 -15v-21q-19 1 -56.5 2.5t-76.5 1.5q-38 0 -76 -1.5t-57 -2.5v21q37 0 52.5 15t15.5 57v575q0 28 -5.5 44t-16.5 27q-13 14 -33.5 20t-38.5 6q-29 0 -47.5 -9t-31.5 -24q-21 -23 -26.5 -58.5t-5.5 -89.5v-68h113v-20h-113v-403
q0 -43 22 -57.5t60 -14.5v-21q-22 1 -61.5 2.5t-81.5 1.5t-80 -1.5t-57 -2.5v21q39 0 55.5 15t16.5 57v403h-76v20h76q0 74 14.5 127t55.5 87q32 28 73 40t82 12q31 0 63.5 -4.5t70.5 -4.5q21 0 47.5 3t50.5 8z" />
    <glyph glyph-name="f_f" unicode="ff" horiz-adv-x="671" 
d="M313 742q54 0 97 -25t57 -73l-17 -9q-11 37 -43.5 61.5t-81.5 24.5q-53 0 -78 -33t-25 -107v-65h139v-20h-139v-403q0 -42 15.5 -57t52.5 -15v-21q-19 1 -55 2.5t-73 1.5q-39 0 -79 -1.5t-59 -2.5v21q39 0 55.5 15t16.5 57v403h-76v20h76q0 54 14.5 96.5t43.5 70.5
q26 27 67.5 43t91.5 16zM609 782q33 0 57.5 -8.5t43.5 -22.5q14 -12 23.5 -30t9.5 -40q0 -27 -18 -46t-47 -19q-30 0 -49.5 17.5t-19.5 48.5q0 24 13.5 41.5t39.5 24.5q-3 7 -13 12t-27 5q-21 0 -35.5 -8t-22.5 -22q-11 -17 -15 -50t-4 -100v-69h107v-20h-107v-393
q0 -49 26.5 -65.5t71.5 -16.5v-21q-25 1 -70 2.5t-96 1.5q-36 0 -71.5 -1.5t-54.5 -2.5v21q37 0 52.5 15t15.5 57v403h-72v20h72q0 89 13.5 135.5t45.5 80.5q22 22 56.5 36t74.5 14z" />
    <glyph glyph-name="f_f_i" unicode="ffi" horiz-adv-x="972" 
d="M710 782q50 0 86 -9.5t60 -24.5q16 -10 27 -26.5t11 -36.5q0 -33 -22.5 -53t-61.5 -20q-38 0 -61 20t-23 51q0 50 55 69q-11 6 -29.5 9.5t-38.5 3.5q-44 0 -74.5 -17t-47.5 -43q-15 -19 -23.5 -43.5t-11.5 -59t-3 -86.5h133q48 0 82.5 1t62 3.5t53.5 7.5v-435
q0 -42 16.5 -57t55.5 -15v-21q-19 1 -56.5 2.5t-76.5 1.5q-37 0 -75.5 -1.5t-57.5 -2.5v21q37 0 52.5 15t15.5 57v315q0 45 -15 66.5t-57 21.5h-133v-403q0 -43 22 -57.5t60 -14.5v-21q-22 1 -61.5 2.5t-81.5 1.5q-41 0 -79 -1.5t-58 -2.5v21q39 0 55.5 15t16.5 57v403h-76
v20h76q0 63 18.5 113t58.5 86q34 31 86 49t120 18zM327 746q60 0 100 -20.5t68 -56.5l-14 -14q-19 29 -54.5 50t-85.5 21q-57 0 -88 -35t-31 -114v-61h139v-20h-139v-403q0 -42 15.5 -57t52.5 -15v-21q-19 1 -55 2.5t-73 1.5q-39 0 -79 -1.5t-59 -2.5v21q39 0 55.5 15
t16.5 57v403h-76v20h76q0 54 16 96t44 71q29 30 73.5 46.5t97.5 16.5z" />
    <glyph glyph-name="f_f_l" unicode="ffl" horiz-adv-x="974" 
d="M884 784v-691q0 -42 16.5 -57t55.5 -15v-21q-19 1 -56.5 2.5t-76.5 1.5q-37 0 -75.5 -1.5t-57.5 -2.5v21q37 0 52.5 15t15.5 57v575q0 28 -5.5 44t-15.5 27q-13 14 -34 20t-39 6q-28 0 -47 -9t-31 -24q-21 -23 -27 -58.5t-6 -87.5v-70h113v-20h-113v-403q0 -43 22 -57.5
t60 -14.5v-21q-22 1 -61.5 2.5t-81.5 1.5q-41 0 -79 -1.5t-58 -2.5v21q39 0 55.5 15t16.5 57v403h-76v20h76q0 74 15 127t55 87q32 28 73 40t82 12q32 0 64 -4.5t69 -4.5q21 0 48.5 3t50.5 8zM327 746q60 0 100 -20.5t68 -56.5l-14 -14q-19 29 -54.5 50t-85.5 21
q-57 0 -88 -35t-31 -114v-61h139v-20h-139v-403q0 -42 15.5 -57t52.5 -15v-21q-18 1 -54.5 2.5t-73.5 1.5q-39 0 -79 -1.5t-59 -2.5v21q39 0 55.5 15t16.5 57v403h-76v20h76q0 54 16 96t44 71q29 30 73.5 46.5t97.5 16.5z" />
    <glyph glyph-name="f_b.liga" unicode="fb" horiz-adv-x="920" 
d="M541 784v-754q-21 -1 -43 -7.5t-41 -16t-33 -22.5l-16 8q4 14 5.5 28t1.5 29v619q0 28 -6 44t-16 27q-12 13 -30.5 19.5t-36.5 6.5q-25 0 -42.5 -8.5t-29.5 -22.5q-22 -24 -27 -61t-5 -89v-68h113v-20h-113v-403q0 -43 22 -57.5t60 -14.5v-21q-22 1 -61.5 2.5t-81.5 1.5
t-80 -1.5t-57 -2.5v21q39 0 55.5 15t16.5 57v403h-76v20h76q0 75 14.5 127.5t55.5 86.5q31 27 70 39.5t80 12.5q30 0 60.5 -4t70.5 -4q20 0 46 2.5t48 7.5zM695 531q79 0 131.5 -65.5t52.5 -198.5q0 -99 -31 -161.5t-83 -91t-113 -28.5q-44 0 -83 18.5t-63 58.5h16
q21 -28 49.5 -41.5t57.5 -13.5q59 0 88 61.5t29 188.5q0 84 -11.5 135.5t-33.5 75t-55 23.5q-39 0 -71.5 -33t-37.5 -94l-7 28q15 66 60 102t105 36z" />
    <glyph glyph-name="f_f_b.liga" unicode="ffb" horiz-adv-x="1251" 
d="M872 784v-754q-21 -1 -42.5 -7.5t-40.5 -16t-34 -22.5l-16 8q5 14 6 28t1 29v619q0 28 -5.5 44t-15.5 27q-13 13 -31.5 19.5t-35.5 6.5q-26 0 -43 -8.5t-30 -22.5q-22 -24 -27 -61.5t-5 -91.5v-65h113v-20h-113v-403q0 -43 22 -57.5t60 -14.5v-21q-22 1 -61.5 2.5
t-81.5 1.5q-41 0 -79 -1.5t-58 -2.5v21q39 0 55.5 15t16.5 57v403h-76v20h76q0 75 15 127.5t55 86.5q31 27 70.5 39.5t79.5 12.5q31 0 61.5 -4t70.5 -4q19 0 45.5 2.5t47.5 7.5zM327 746q60 0 100 -20.5t68 -56.5l-14 -14q-19 29 -54.5 50t-85.5 21q-55 0 -85 -35t-30 -114
v-61h135v-20h-135v-403q0 -42 15.5 -57t52.5 -15v-21q-19 1 -56 2.5t-76 1.5t-79 -1.5t-59 -2.5v21q39 0 55.5 15t16.5 57v403h-76v20h76q0 54 16 96t44 71q29 30 73.5 46.5t97.5 16.5zM1027 531q79 0 131 -65.5t52 -198.5q0 -99 -31 -161.5t-82.5 -91t-113.5 -28.5
q-43 0 -82 18.5t-64 58.5h17q20 -28 48.5 -41.5t57.5 -13.5q59 0 88 61.5t29 188.5q0 84 -11 135.5t-33.5 75t-55.5 23.5q-38 0 -70.5 -33t-38.5 -94l-7 28q16 66 60.5 102t105.5 36z" />
    <glyph glyph-name="f_f_h.liga" unicode="ffh" horiz-adv-x="1261" 
d="M872 783v-354q26 56 70 79t96 23q41 0 67 -11t42 -28q17 -19 24.5 -49t7.5 -81v-269q0 -42 15.5 -57t52.5 -15v-21q-18 1 -55 2.5t-73 1.5t-71 -1.5t-53 -2.5v21q32 0 45 15t13 57v303q0 27 -5 48.5t-19.5 34t-43.5 12.5q-48 0 -80.5 -38.5t-32.5 -99.5v-260
q0 -42 13.5 -57t44.5 -15v-21q-17 1 -50.5 2.5t-69.5 1.5t-74.5 -1.5t-57.5 -2.5v21q37 0 52.5 15t15.5 57v575q0 28 -5.5 44t-15.5 27q-13 13 -31.5 19.5t-35.5 6.5q-26 0 -43 -8.5t-30 -22.5q-22 -23 -27 -59.5t-5 -86.5v-72h113v-20h-113v-403q0 -43 22 -57.5t60 -14.5
v-21q-22 1 -61.5 2.5t-81.5 1.5q-41 0 -79 -1.5t-58 -2.5v21q39 0 55.5 15t16.5 57v403h-76v20h76q0 75 15 127.5t55 86.5q31 27 70.5 39.5t79.5 12.5q31 0 61.5 -4t70.5 -4q19 0 45.5 2t47.5 7zM327 746q60 0 100 -20.5t68 -56.5l-14 -14q-19 29 -54.5 50t-85.5 21
q-57 0 -88 -35t-31 -114v-61h139v-20h-139v-403q0 -42 15.5 -57t52.5 -15v-21q-19 1 -55 2.5t-73 1.5q-39 0 -79 -1.5t-59 -2.5v21q39 0 55.5 15t16.5 57v403h-76v20h76q0 54 16 96t44 71q29 30 73.5 46.5t97.5 16.5z" />
    <glyph glyph-name="f_f_j.liga" unicode="ffj" horiz-adv-x="954" 
d="M704 782q56 0 91.5 -9.5t59.5 -24.5q17 -10 28 -26.5t11 -36.5q0 -33 -22.5 -53t-61.5 -20q-38 0 -61 20t-23 51q0 50 55 69q-11 6 -29.5 9.5t-38.5 3.5q-48 0 -80.5 -20.5t-52.5 -54.5q-14 -25 -20.5 -63t-6.5 -111h133q48 0 82.5 1t62 3.5t53.5 7.5v-427
q0 -77 -12 -135t-48 -97q-23 -27 -59.5 -42t-89.5 -15q-22 0 -39 3.5t-29 8.5q-19 8 -29 21t-10 30q0 22 18 39.5t52 17.5q29 0 48.5 -14t19.5 -39q0 -14 -9.5 -26.5t-26.5 -22.5q12 1 21.5 3t16.5 5q15 3 25 13.5t16 25.5q4 11 6.5 30.5t2.5 42v43.5v415q0 45 -15 66.5
t-57 21.5h-133v-397q0 -47 25.5 -62.5t68.5 -15.5v-21q-23 1 -66 2.5t-90 1.5q-40 0 -78 -1.5t-58 -2.5v21q39 0 55.5 15t16.5 57v403h-76v20h76q0 63 19 112.5t58 86.5q34 32 85.5 49.5t114.5 17.5zM327 746q60 0 100 -20.5t68 -56.5l-14 -14q-19 29 -54.5 50t-85.5 21
q-55 0 -85 -35t-30 -114v-61h135v-20h-135v-403q0 -42 15.5 -57t52.5 -15v-21q-19 1 -56 2.5t-76 1.5t-79 -1.5t-59 -2.5v21q39 0 55.5 15t16.5 57v403h-76v20h76q0 54 16 96t44 71q30 30 74 46.5t97 16.5z" />
    <glyph glyph-name="f_f_k.liga" unicode="ffk" horiz-adv-x="1232" 
d="M872 783v-690q0 -42 15 -57t51 -15v-21q-18 1 -54 2.5t-73 1.5t-75.5 -1.5t-57.5 -2.5v21q37 0 52.5 15t15.5 57v575q0 28 -5.5 44t-15.5 27q-13 13 -31.5 19.5t-35.5 6.5q-26 0 -43 -8.5t-30 -22.5q-22 -24 -27 -61t-5 -89v-68h113v-20h-113v-403q0 -43 22 -57.5
t60 -14.5v-21q-22 1 -61.5 2.5t-81.5 1.5q-41 0 -79 -1.5t-58 -2.5v21q39 0 55.5 15t16.5 57v403h-76v20h76q0 75 15 127.5t55 86.5q31 27 70.5 39.5t79.5 12.5q31 0 61.5 -4t70.5 -4q19 0 45.5 2t47.5 7zM327 746q60 0 100 -20.5t68 -56.5l-14 -14q-19 29 -54.5 50
t-85.5 21q-55 0 -85 -35t-30 -114v-61h135v-20h-135v-403q0 -42 15.5 -57t52.5 -15v-21q-19 1 -56 2.5t-76 1.5t-79 -1.5t-59 -2.5v21q39 0 55.5 15t16.5 57v403h-76v20h76q0 54 16 96t44 71q29 30 73.5 46.5t97.5 16.5zM1196 517v-20q-29 -6 -57 -22.5t-56 -45.5l-99 -103
l11 22l176 -275q14 -20 27 -33.5t31 -18.5v-21q-13 1 -41 2.5t-56 1.5q-34 0 -69.5 -1.5t-53.5 -2.5v21q20 0 27.5 9.5t-2.5 24.5l-104 175q-14 22 -27 28.5t-35 6.5v20q25 2 41.5 9t31.5 22l75 75q34 33 34 56t-21.5 35.5t-55.5 14.5v20q27 -1 60 -2.5t56 -1.5q19 0 39 0.5
t38.5 1.5t29.5 2z" />
    <glyph glyph-name="f_h.liga" unicode="fh" horiz-adv-x="929" 
d="M541 783v-354q25 56 69 79t97 23q41 0 67 -11t41 -28q18 -19 25.5 -49t7.5 -81v-269q0 -42 15.5 -57t52.5 -15v-21q-18 1 -55.5 2.5t-72.5 1.5q-37 0 -71.5 -1.5t-52.5 -2.5v21q32 0 45 15t13 57v303q0 27 -5 48.5t-19.5 34t-43.5 12.5q-48 0 -80.5 -38.5t-32.5 -99.5
v-260q0 -42 13 -57t45 -15v-21q-17 1 -51 2.5t-69 1.5q-37 0 -75 -1.5t-57 -2.5v21q37 0 52.5 15t15.5 57v575q0 28 -6 44t-16 27q-12 13 -30.5 19.5t-36.5 6.5q-25 0 -42.5 -8.5t-29.5 -22.5q-22 -24 -27 -61.5t-5 -91.5v-65h113v-20h-113v-403q0 -43 22 -57.5t60 -14.5
v-21q-22 1 -61.5 2.5t-81.5 1.5t-80 -1.5t-57 -2.5v21q39 0 55.5 15t16.5 57v403h-76v20h76q0 75 14.5 127.5t55.5 86.5q31 27 70 39.5t80 12.5q30 0 60.5 -4t70.5 -4q20 0 46 2t48 7z" />
    <glyph glyph-name="f_idieresis.liga" unicode="f&#xef;" horiz-adv-x="640" 
d="M301 782q48 0 79.5 -13t46 -35.5t14.5 -49.5l-32 6q-4 38 -31.5 56.5t-69.5 18.5t-61 -24t-22 -79q-1 -16 -2 -41.5t-1 -53v-51.5h133q48 0 82 1t61.5 3.5t54.5 7.5v-435q0 -42 16.5 -57t55.5 -15v-21q-19 1 -56.5 2.5t-76.5 1.5q-38 0 -76 -1.5t-57 -2.5v21
q37 0 52.5 15t15.5 57v314q0 46 -15 67.5t-57 21.5h-133v-403q0 -43 22 -57.5t60 -14.5v-21q-22 1 -62 2.5t-81 1.5q-42 0 -80 -1.5t-57 -2.5v21q39 0 55.5 15t16.5 57v403h-76v20h76q0 79 12.5 127.5t43.5 81.5q29 32 68 44.5t81 12.5zM594 755q28 0 49 -21t21 -49
q0 -29 -21 -49.5t-49 -20.5q-29 0 -49 20.5t-20 49.5q0 28 20 49t49 21zM372 755q28 0 48.5 -21t20.5 -49q0 -29 -21 -49.5t-48 -20.5q-29 0 -49.5 20.5t-20.5 49.5q0 28 20.5 49t49.5 21z" />
    <glyph glyph-name="f_igrave.liga" unicode="f&#xec;" horiz-adv-x="640" 
d="M285 768q35 0 62 -11.5t50 -29.5l4 -23q-28 22 -50.5 33t-49.5 11q-41 0 -62 -38q-8 -15 -12.5 -40t-4.5 -64v-90h133q48 0 82 1t61.5 3.5t54.5 7.5v-435q0 -42 16.5 -57t55.5 -15v-21q-19 1 -56.5 2.5t-76.5 1.5q-38 0 -76 -1.5t-57 -2.5v21q37 0 52.5 15t15.5 57v315
q0 45 -15 66.5t-57 21.5h-133v-403q0 -43 22 -57.5t60 -14.5v-21q-22 1 -61.5 2.5t-81.5 1.5t-80 -1.5t-57 -2.5v21q39 0 55.5 15t16.5 57v403h-76v20h76q0 66 11 117.5t47 86.5q27 27 61.5 37.5t69.5 10.5zM359 816q17 14 38.5 10.5t36.5 -22.5q17 -20 28 -46t26.5 -62
t45.5 -88l-11 -9q-42 41 -73.5 65t-53.5 41.5t-38 36.5q-16 21 -15 41t16 33z" />
    <glyph glyph-name="f_j.liga" unicode="fj" horiz-adv-x="623" 
d="M373 782q55 0 90.5 -9.5t60.5 -24.5q16 -10 27 -26.5t11 -36.5q0 -33 -22.5 -53t-61.5 -20q-38 0 -61 20t-23 51q0 50 55 69q-10 6 -29 9.5t-38 3.5q-49 0 -81.5 -20.5t-51.5 -54.5q-14 -25 -20.5 -63t-6.5 -111h133q48 0 82 1t61.5 3.5t54.5 7.5v-427q0 -77 -12.5 -135
t-47.5 -97q-23 -27 -59.5 -42t-90.5 -15q-21 0 -38.5 3.5t-29.5 8.5q-19 8 -29 21t-10 30q0 22 18 39.5t52 17.5q30 0 49.5 -14t19.5 -39q0 -14 -9.5 -26.5t-27.5 -22.5q12 1 21 2.5t16 4.5q15 3 25.5 13.5t16.5 24.5q4 12 6.5 31.5t3 42.5t0.5 44v415q0 45 -15 66.5
t-57 21.5h-133v-397q0 -47 25 -62.5t69 -15.5v-21q-24 1 -67 2.5t-90 1.5q-40 0 -78 -1.5t-57 -2.5v21q39 0 55.5 15t16.5 57v403h-76v20h76q0 63 18.5 112.5t58.5 86.5q33 32 85 49.5t115 17.5z" />
    <glyph glyph-name="f_k.liga" unicode="fk" horiz-adv-x="901" 
d="M541 783v-690q0 -42 15 -57t51 -15v-21q-18 1 -54 2.5t-74 1.5q-37 0 -75 -1.5t-57 -2.5v21q37 0 52.5 15t15.5 57v575q0 28 -6 44t-16 27q-12 13 -30.5 19.5t-36.5 6.5q-25 0 -42.5 -8.5t-29.5 -22.5q-22 -24 -27 -61t-5 -90v-67h113v-20h-113v-403q0 -43 22 -57.5
t60 -14.5v-21q-22 1 -61.5 2.5t-81.5 1.5t-80 -1.5t-57 -2.5v21q39 0 55.5 15t16.5 57v403h-76v20h76q0 75 14.5 127.5t55.5 86.5q31 27 70 39.5t80 12.5q30 0 60.5 -4t70.5 -4q20 0 46 2t48 7zM865 517v-20q-30 -6 -58 -22.5t-56 -45.5l-98 -103l11 22l176 -275
q13 -20 26 -33.5t32 -18.5v-21q-13 1 -41 2.5t-56 1.5q-35 0 -70 -1.5t-53 -2.5v21q20 0 27.5 9.5t-2.5 24.5l-104 175q-14 22 -27 28.5t-35 6.5v20q24 2 41 9t32 22l75 75q33 33 33.5 56t-21 35.5t-55.5 14.5v20q27 -1 60 -2.5t56 -1.5q18 0 38.5 0.5t38.5 1.5t30 2z" />
    <glyph glyph-name=".notdef" horiz-adv-x="562" 
d="M502 772v-772h-442v772h442zM466 742h-370v-712h370v712z" />
    <glyph glyph-name=".null" 
 />
    <glyph glyph-name="nonmarkingreturn" horiz-adv-x="333" 
 />
    <glyph glyph-name="CR" unicode="&#xd;" 
 />
    <glyph glyph-name="space" unicode=" " horiz-adv-x="239" 
 />
    <glyph glyph-name="exclam" unicode="!" horiz-adv-x="280" 
d="M140 782q28 0 49 -21.5t21 -62.5q0 -42 -9 -97t-20.5 -120.5t-21 -137.5t-10.5 -147v0h-18q-2 75 -11 147t-21 137.5t-20.5 120.5t-8.5 97q0 41 20 62.5t50 21.5zM140 132q34 0 56 -20t22 -53t-22 -53t-56 -20q-35 0 -56.5 20t-21.5 53t21.5 53t56.5 20z" />
    <glyph glyph-name="quotedbl" unicode="&#x22;" horiz-adv-x="346" 
d="M101 730q23 0 38.5 -16t15.5 -44q0 -31 -6.5 -57.5t-17.5 -59.5t-23 -85h-14q-11 49 -22 82t-18 60.5t-7 58.5q0 28 16 44t38 17zM244 730q23 0 38.5 -16t15.5 -44q0 -31 -6.5 -57.5t-17.5 -59.5t-23 -85h-14q-11 49 -22 82t-18 60.5t-7 58.5q0 28 16 44t38 17z" />
    <glyph glyph-name="numbersign" unicode="#" horiz-adv-x="626" 
d="M465 602l-97 -501h-20l97 501h20zM547 267l-4 -20h-501l4 20h501zM278 602l-97 -501h-20l97 501h20zM583 454l-3 -20h-501l3 20h501z" />
    <glyph glyph-name="dollar" unicode="$" horiz-adv-x="557" 
d="M268 720q56 0 86 -12t52 -26q12 -7 19.5 -10.5t14.5 -3.5q16 0 22 44h23q-1 -19 -2.5 -44t-2 -66.5t-0.5 -109.5h-23q-6 58 -25 105t-54.5 74.5t-95.5 27.5q-57 0 -88.5 -28.5t-31.5 -72.5q0 -26 9.5 -47.5t31 -42.5t56.5 -45.5t87 -57.5q50 -31 89 -62.5t61.5 -70
t22.5 -93.5q0 -65 -32.5 -108t-86 -64t-117.5 -21q-59 0 -92.5 13t-54.5 24q-13 7 -22.5 10.5t-17.5 3.5q-16 0 -22 -44h-23q2 23 2.5 54t1 80.5t0.5 125.5h23q7 -80 28 -135t63 -82.5t110 -27.5q62 0 97.5 28.5t35.5 84.5q0 24 -8.5 44.5t-28.5 41t-54.5 46t-86.5 59.5
q-47 31 -88 62t-65.5 71t-24.5 96q0 62 30 101.5t78.5 58.5t103.5 19zM248 840v-972h-20v972h20zM341 840v-972h-20v972h20z" />
    <glyph glyph-name="percent" unicode="%" horiz-adv-x="733" 
d="M192 761q71 0 114.5 -43t43.5 -120q0 -76 -44.5 -122t-113.5 -46q-71 0 -114.5 43t-43.5 120q0 75 45 121.5t113 46.5zM538 299q-69 0 -69 -149q0 -73 20 -109.5t53 -36.5q68 0 68 148q0 74 -19 110.5t-53 36.5zM540 317q71 0 114.5 -43t43.5 -120q0 -76 -44.5 -122
t-113.5 -46q-71 0 -114.5 43t-43.5 120q0 75 45 121.5t113 46.5zM190 743q-69 0 -69 -149q0 -73 20 -109.5t53 -36.5q68 0 68 148q0 74 -19 110.5t-53 36.5zM654 824l19 -13l-585 -866l-19 13z" />
    <glyph glyph-name="ampersand" unicode="&#x26;" horiz-adv-x="877" 
d="M323 707q38 0 62 -6.5t42 -16.5q22 -13 37 -32.5t15 -44.5q0 -29 -21 -46t-49 -17q-26 0 -45.5 15t-19.5 43q0 25 16.5 43.5t43.5 23.5q-7 9 -25.5 15.5t-43.5 6.5q-52 0 -87 -32t-35 -95q0 -24 8.5 -51.5t34.5 -54.5q17 4 32.5 5.5t25.5 1.5q38 0 38 -25q0 -10 -8 -15
t-20 -5q-18 0 -37 9t-30 15q-51 -21 -82.5 -59t-31.5 -103q0 -67 35.5 -112t99.5 -67.5t148 -22.5q51 0 99.5 11.5t87.5 34.5t62 55.5t23 75.5q0 17 -6 43t-26 52t-62 42l8 9q60 -18 89.5 -65.5t29.5 -108.5q0 -66 -41 -121.5t-115.5 -88.5t-175.5 -33q-102 0 -182 30
t-125.5 86t-45.5 133q0 55 22 94t55 64.5t66 39.5t54 19q-49 20 -79 52t-30 75q0 30 14.5 53.5t40.5 40.5t60 25.5t74 8.5zM706 722q67 0 111 -36.5t44 -102.5q0 -68 -46 -107t-121 -59q-18 -7 -44 -15t-55.5 -16.5t-56 -16.5t-44.5 -15q-63 -16 -100 -36.5t-37 -56.5
q0 -25 16 -43.5t40 -27.5t47 -9q12 0 27.5 3.5t19.5 10.5q-22 6 -36 21t-14 39q0 29 21 45t51 16q32 0 50.5 -17t18.5 -46q0 -30 -19 -50t-49.5 -29.5t-65.5 -9.5q-36 0 -68 13.5t-52 40.5t-20 71q0 69 51.5 109t142.5 62q24 7 55.5 15t64.5 17.5t62 20.5q64 19 96 42t32 56
q0 41 -34.5 67.5t-79.5 26.5q-10 0 -17.5 -1.5t-10.5 -4.5q20 -9 30.5 -25t10.5 -33q0 -27 -20.5 -43t-50.5 -16q-29 0 -49.5 16t-20.5 45q0 26 16 44t43.5 26.5t60.5 8.5z" />
    <glyph glyph-name="quotesingle" unicode="'" horiz-adv-x="202" 
d="M101 730q23 0 38.5 -16t15.5 -44q0 -31 -6.5 -57.5t-17.5 -59.5t-23 -85h-14q-11 49 -22 82t-18 60.5t-7 58.5q0 28 16 44t38 17z" />
    <glyph glyph-name="parenleft" unicode="(" horiz-adv-x="310" 
d="M278 806q-113 -89 -176.5 -211t-63.5 -283t63.5 -283t176.5 -211l14 13q-72 103 -103 218.5t-31 262.5t31 263t103 218z" />
    <glyph glyph-name="parenright" unicode=")" horiz-adv-x="310" 
d="M32 806q113 -89 176.5 -211t63.5 -283t-63.5 -283t-176.5 -211l-14 13q72 103 103 218.5t31 262.5t-31 263t-103 218z" />
    <glyph glyph-name="asterisk" unicode="*" horiz-adv-x="484" 
d="M355 636q26 15 44 8.5t26 -21.5q9 -14 5 -32t-30 -33q-25 -14 -62.5 -20.5t-94.5 -20.5l-2 3q39 40 64.5 71t49.5 45zM243 520q55 -13 94 -20t64 -21q26 -15 29.5 -33.5t-5.5 -33.5q-8 -14 -25.5 -20t-43.5 9q-25 14 -49.5 44t-64.5 72zM244 518q16 -53 29.5 -91
t14.5 -66q-1 -30 -15 -42t-31 -12q-16 0 -30 11.5t-14 42.5q0 29 13.5 65t29.5 92h3zM241 519l2 -3q-38 -40 -64 -71t-50 -45q-26 -15 -43.5 -8.5t-25.5 21.5q-9 14 -5.5 31.5t29.5 33.5q25 14 63 20.5t94 20.5zM128 635q25 -14 50 -43.5t64 -72.5l-1 -3q-53 13 -93 20.5
t-64 20.5q-26 15 -29 33.5t5 33.5q8 14 25 20t43 -9zM242 729q17 0 30.5 -12t13.5 -42q0 -28 -13 -64.5t-30 -92.5h-3q-15 53 -29 91t-14 66q0 30 14.5 42t30.5 12z" />
    <glyph glyph-name="plus" unicode="+" horiz-adv-x="578" 
d="M308 606v-236h232v-30h-232v-235h-36v235h-233v30h233v236h36z" />
    <glyph glyph-name="comma" unicode="," horiz-adv-x="268" 
d="M130 132q23 0 39.5 -9.5t27.5 -24.5q11 -16 15.5 -37t4.5 -41q0 -49 -25.5 -91t-78.5 -67l-9 18q29 13 50.5 38.5t24.5 53.5q4 18 0 34q-20 -20 -52 -20q-31 0 -52 19t-21 54q0 32 21.5 52.5t54.5 20.5z" />
    <glyph glyph-name="hyphen" unicode="-" horiz-adv-x="487" 
d="M424 307v-74h-361v74h361z" />
    <glyph glyph-name="period" unicode="." horiz-adv-x="264" 
d="M132 132q34 0 56 -20t22 -53t-22 -53t-56 -20q-35 0 -56.5 20t-21.5 53t21.5 53t56.5 20z" />
    <glyph glyph-name="slash" unicode="/" horiz-adv-x="370" 
d="M338 722l-272 -736h-33l272 736h33z" />
    <glyph glyph-name="zero" unicode="0" horiz-adv-x="630" 
d="M320 531q77 0 136 -33t92.5 -92t33.5 -139t-34.5 -144t-95.5 -100.5t-143 -36.5q-75 0 -134.5 32.5t-93.5 92.5t-34 140q0 79 34 142t95.5 100.5t143.5 37.5zM311 513q-57 0 -94 -68.5t-37 -190.5q0 -90 19 -145t51 -80t68 -25q58 0 94.5 69t36.5 191q0 90 -19 144.5
t-50 79.5t-69 25z" />
    <glyph glyph-name="one" unicode="1" horiz-adv-x="379" 
d="M273 528v-429q0 -46 18 -62t62 -16v-21q-20 1 -58.5 2.5t-79.5 1.5q-50 0 -95.5 -1.5t-70.5 -2.5v21q46 0 72 16.5t26 65.5v244q0 48 -9 71t-32 30t-63 7v22q81 2 134.5 13t95.5 38z" />
    <glyph glyph-name="two" unicode="2" horiz-adv-x="509" 
d="M264 531q75 0 118.5 -33t43.5 -94q0 -49 -29 -89.5t-73 -75.5t-88 -68t-73 -66h213q41 0 52 10.5t15 36.5h19q0 -62 1 -96t3 -61q-13 3 -58.5 4t-90.5 1h-272v19q29 30 70.5 66.5t81 80.5t66 96t26.5 113q0 54 -24.5 79t-71.5 25q-41 0 -74.5 -21.5t-59.5 -62.5l-16 11
q28 49 80 87t141 38z" />
    <glyph glyph-name="three" unicode="3" horiz-adv-x="475" 
d="M240 531q69 0 115.5 -30.5t46.5 -84.5q0 -38 -24 -71t-65.5 -57t-95.5 -37q61 1 111 -15.5t80 -51t30 -86.5q0 -57 -36.5 -103t-96 -78.5t-131 -50t-142.5 -17.5v19q48 2 96.5 17t89 44t65 71.5t24.5 97.5q0 59 -28 97t-77 42l-27.5 -11t-23.5 -5q-17 0 -17 15q0 10 9 15
t21 5q8 0 16.5 -1t18.5 -2q42 30 59.5 65.5t17.5 71.5q0 46 -24 67.5t-64 21.5t-74.5 -20.5t-57.5 -61.5l-17 9q17 33 42.5 61.5t64.5 46t94 17.5z" />
    <glyph glyph-name="four" unicode="4" horiz-adv-x="516" 
d="M368 531l4 -26l-301 -400l8 28h315q41 0 52 10.5t15 36.5h19q0 -57 1 -87.5t3 -55.5q-9 2 -37 3t-63 1.5t-65 0.5h-308v21zM384 531v-672h-104v542l88 130h16z" />
    <glyph glyph-name="five" unicode="5" horiz-adv-x="445" 
d="M368 559q0 -63 1 -98.5t3 -62.5q-13 3 -55 4t-84 1h-138l-15 -178q24 14 57.5 25t82.5 11q97 0 143 -45t46 -111q0 -58 -33 -105t-87.5 -80t-120.5 -50.5t-133 -17.5v18q61 1 116.5 26.5t91 76.5t35.5 124q0 63 -30.5 97.5t-87.5 34.5q-28 0 -47.5 -7t-40.5 -18l-12 8
l27 308q11 -2 25.5 -3t28.5 -1h147q34 0 45 9.5t14 33.5h21z" />
    <glyph glyph-name="six" unicode="6" horiz-adv-x="547" 
d="M429 723l4 -20q-44 -14 -88.5 -38.5t-81 -71t-58.5 -125t-22 -200.5q0 -101 15.5 -158.5t39 -80.5t47.5 -23q37 0 66.5 48t29.5 161q0 107 -27.5 151.5t-65.5 44.5q-18 0 -41 -10t-42 -33t-28 -63h-10q7 51 32 80t58.5 42t65.5 13q51 0 94.5 -26t70 -74.5t26.5 -117.5
q0 -75 -33 -128.5t-87.5 -80.5t-119.5 -27q-104 0 -164 74.5t-60 209.5q0 91 24.5 161t65 121.5t90.5 86.5t102 55.5t97 28.5z" />
    <glyph glyph-name="seven" unicode="7" horiz-adv-x="439" 
d="M25 521q14 -3 59 -4t90 -1h262v-21q-21 -47 -50.5 -100t-58.5 -113.5t-48 -131t-18 -152.5q0 -10 1 -25l2 -30t1 -25q0 -26 -16.5 -46t-48.5 -20t-47.5 22t-15.5 55q0 60 19 117t50 112t67 107t70.5 100.5t59.5 93.5l-24 -53h-264q-41 0 -52 -10t-15 -37h-19q0 63 -1 99
t-3 63z" />
    <glyph glyph-name="eight" unicode="8" horiz-adv-x="547" 
d="M281 722q80 0 133 -37t53 -102q0 -56 -40 -98t-107 -79l-8 14q28 30 39.5 72.5t11.5 80.5q0 60 -23.5 95.5t-67.5 35.5q-35 0 -57 -24.5t-22 -66.5q0 -44 22.5 -80.5t58 -68.5t74.5 -63t74.5 -64.5t58 -73t22.5 -88.5q0 -55 -30.5 -98t-83.5 -67t-122 -24
q-58 0 -108.5 19t-81.5 57t-31 94q0 73 51 124t123 82l8 -14q-39 -33 -54.5 -79.5t-15.5 -95.5q0 -45 11 -83.5t36 -62t68 -23.5q48 0 78.5 31t30.5 84q0 48 -22 85.5t-56.5 70t-73 63.5t-73 64t-56.5 72t-22 88q0 51 28 87t74 54.5t100 18.5z" />
    <glyph glyph-name="nine" unicode="9" horiz-adv-x="538" 
d="M271 531q105 0 164.5 -71.5t59.5 -201.5q0 -81 -24 -144t-64.5 -110t-90 -79t-100.5 -50.5t-96 -24.5l-4 20q43 12 86.5 34t80 64t58 112.5t21.5 180.5q0 97 -15.5 151t-38.5 76.5t-47 22.5q-38 0 -67.5 -48t-29.5 -161q0 -108 27.5 -152t65.5 -44q19 0 41.5 10t42.5 33
t27 63h10q-6 -51 -31.5 -80.5t-58.5 -42t-66 -12.5q-50 0 -94 26t-70.5 74.5t-26.5 116.5q0 76 33 129t87.5 80.5t119.5 27.5z" />
    <glyph glyph-name="colon" unicode=":" horiz-adv-x="282" 
d="M141 530q34 0 56 -20t22 -53t-22 -53t-56 -20q-35 0 -56.5 20t-21.5 53t21.5 53t56.5 20zM141 132q34 0 56 -20t22 -53t-22 -53t-56 -20q-35 0 -56.5 20t-21.5 53t21.5 53t56.5 20z" />
    <glyph glyph-name="semicolon" unicode=";" horiz-adv-x="293" 
d="M141 132q23 0 39.5 -9.5t27.5 -24.5q11 -16 15.5 -37t4.5 -41q0 -49 -25.5 -91t-78.5 -67l-9 18q29 13 50.5 38.5t24.5 53.5q4 18 0 34q-20 -20 -52 -20q-31 0 -52 19t-21 54q0 32 21.5 52.5t54.5 20.5zM147 530q34 0 56 -20t22 -53t-22 -53t-56 -20q-35 0 -56.5 20
t-21.5 53t21.5 53t56.5 20z" />
    <glyph glyph-name="less" unicode="&#x3c;" horiz-adv-x="604" 
d="M516 582l17 -36l-409 -191l409 -191l-17 -36l-487 227z" />
    <glyph glyph-name="equal" unicode="=" horiz-adv-x="639" 
d="M570 440v-30h-501v30h501zM570 300v-30h-501v30h501z" />
    <glyph glyph-name="greater" unicode="&#x3e;" horiz-adv-x="604" 
d="M88 582l-17 -36l409 -191l-409 -191l17 -36l487 227z" />
    <glyph glyph-name="question" unicode="?" horiz-adv-x="491" 
d="M229 782q103 0 166.5 -48t63.5 -132q0 -85 -67.5 -140.5t-177.5 -81.5v-146h-20v155q61 25 90.5 55t39.5 65t10 74q0 95 -35.5 137t-92.5 42q-26 0 -51.5 -6.5t-38.5 -22.5q24 -7 37.5 -23.5t13.5 -42.5q0 -29 -20 -47.5t-52 -18.5q-28 0 -46 19t-18 45q0 27 15 47t39 34
q23 14 59 25t85 11zM206 132q34 0 56 -20t22 -53t-22 -53t-56 -20q-35 0 -56.5 20t-21.5 53t21.5 53t56.5 20z" />
    <glyph glyph-name="at" unicode="@" horiz-adv-x="882" 
d="M533 668q88 0 159.5 -28t114 -88.5t42.5 -158.5q0 -84 -27.5 -152t-71.5 -116t-95 -73.5t-100 -25.5q-39 0 -56 15.5t-19 38.5t3 46.5t10 39.5l60 298q29 0 59.5 3t55.5 11l-81 -363q-9 -32 -4.5 -47.5t27.5 -10.5q30 6 67.5 31t72 67.5t57 102.5t22.5 136
q0 93 -40.5 149t-107.5 81.5t-147 25.5q-93 0 -177 -40.5t-149.5 -110.5t-103.5 -161t-38 -193q0 -103 39.5 -166.5t108.5 -92.5t156 -29q54 0 105.5 12.5t100.5 41.5l7 -13q-37 -26 -92 -42.5t-122 -16.5q-94 0 -167 32t-114.5 99t-41.5 173q0 101 37.5 195t104.5 168.5
t155 118t190 43.5zM469 478q28 0 46.5 -13t26.5 -35t4 -52l-10 -6q2 21 -3 38t-16.5 27t-30.5 10q-27 0 -52.5 -25.5t-46 -68t-32 -94t-11.5 -103.5q0 -47 11.5 -67.5t33.5 -20.5q35 0 67.5 50t55.5 140l7 -16q-21 -78 -46.5 -125.5t-58 -69t-73.5 -21.5q-53 0 -82 33.5
t-29 93.5q0 55 20 112t54 105t76.5 78t88.5 30z" />
    <glyph glyph-name="A" unicode="A" horiz-adv-x="655" 
d="M353 711l243 -627q15 -36 32.5 -49.5t32.5 -14.5v-20q-26 2 -62.5 2.5t-74.5 0.5q-44 0 -82 -0.5t-62 -2.5v20q51 2 65 17.5t-6 66.5l-176 475l18 22l-160 -415q-26 -66 -25 -101.5t24 -49.5t65 -15v-20q-32 2 -62 2.5t-60 0.5q-22 0 -41.5 -0.5t-34.5 -2.5v20
q22 5 43.5 26t41.5 73l229 592q12 -1 26 -1t26 1zM440 288v-20h-298l10 20h288z" />
    <glyph glyph-name="B" unicode="B" horiz-adv-x="655" 
d="M36 708q25 -1 64 -2t78 -1q49 0 93 1t62 1q118 0 176.5 -44t58.5 -113q0 -35 -18.5 -70t-59 -63t-105.5 -42v-2q88 -8 139.5 -35.5t73.5 -65t22 -78.5q0 -91 -70 -142.5t-194 -51.5q-22 0 -67 1.5t-109 1.5q-41 0 -80 -0.5t-64 -2.5v20q33 2 49.5 8t22 24t5.5 54v496
q0 37 -5.5 54.5t-22 24t-49.5 7.5v20zM316 688q-41 0 -53.5 -17t-12.5 -69v-496q0 -52 14 -67.5t57 -15.5q82 0 118.5 45.5t36.5 129.5q0 77 -39.5 119t-130.5 42h-91v8.5v8.5h86q51 0 79 22.5t38 60t10 80.5q0 74 -25.5 111.5t-86.5 37.5z" />
    <glyph glyph-name="C" unicode="C" horiz-adv-x="700" 
d="M388 722q66 0 108.5 -19.5t75.5 -45.5q20 -15 30.5 -3.5t14.5 54.5h23q-2 -38 -3 -93t-1 -145h-23q-6 45 -13 75.5t-19.5 52.5t-34.5 42q-27 30 -64.5 44.5t-78.5 14.5q-52 0 -90.5 -27.5t-64 -75t-38 -110.5t-12.5 -134q0 -73 13.5 -135.5t40 -109t66 -72.5t91.5 -26
q37 0 76 14t64 43q33 30 45 71.5t19 110.5h23q0 -94 1 -151.5t3 -96.5h-23q-4 43 -13.5 54t-31.5 -3q-37 -26 -78.5 -45.5t-106.5 -19.5q-102 0 -179 43t-119.5 124t-42.5 195q0 112 44 196t121 131t177 47z" />
    <glyph glyph-name="D" unicode="D" horiz-adv-x="758" 
d="M333 708q192 0 284.5 -89.5t92.5 -256.5q0 -109 -45.5 -190.5t-131.5 -126.5t-209 -45q-22 0 -66 1.5t-78 1.5q-41 0 -80 -0.5t-64 -2.5v20q33 2 49.5 8t22 24t5.5 54v496q0 37 -5.5 54.5t-22 24t-49.5 7.5v20q25 -1 64 -2.5t78 -0.5q36 1 81 2t74 1zM324 690
q-46 0 -60 -17t-14 -69v-500q0 -52 14.5 -69t60.5 -17q93 0 145.5 39.5t74 115.5t21.5 185q0 168 -54.5 250t-187.5 82z" />
    <glyph glyph-name="E" unicode="E" horiz-adv-x="625" 
d="M559 708q-4 -41 -5.5 -79.5t-1.5 -58.5q0 -19 1 -36.5t2 -29.5h-23q-8 69 -26 108.5t-48.5 56t-79.5 16.5h-55q-30 0 -46 -5t-21.5 -21t-5.5 -49v-512q0 -32 5.5 -48.5t21.5 -21.5t46 -5h57q51 0 85.5 19t55.5 62.5t31 119.5h23q-3 -31 -3 -80q0 -21 1.5 -61t5.5 -83
q-51 2 -115 2.5t-114 0.5h-86t-114.5 -0.5t-113.5 -2.5v20q33 2 49.5 8t22 24t5.5 54v496q0 37 -5.5 54.5t-22 24t-49.5 7.5v20q53 -1 113.5 -2t114.5 -1h86q46 0 104.5 0.5t104.5 2.5zM398 366v-10v-10h-178v10v10h178zM427 498q-4 -57 -3.5 -87t0.5 -55t1 -55t5 -87h-23
q-5 34 -15.5 64.5t-33 49t-64.5 18.5v20q42 0 63.5 22t31.5 53t15 57h23z" />
    <glyph glyph-name="F" unicode="F" horiz-adv-x="585" 
d="M559 708q-4 -43 -5.5 -83t-1.5 -61q0 -23 1 -43t2 -35h-23q-11 75 -30 118.5t-51 62t-85 18.5h-43q-30 0 -46 -5t-21.5 -21t-5.5 -49v-500q0 -38 8 -57t31 -25t66 -7v-21q-29 2 -75 2.5t-95 0.5q-42 0 -81 -0.5t-68 -2.5v20q33 2 49.5 8t22 24t5.5 54v496q0 37 -5.5 54.5
t-22 24t-49.5 7.5v20q53 -1 113.5 -2t114.5 -1h86q46 0 104.5 0.5t104.5 2.5zM408 360v-10v-10h-188v10v10h188zM431 492q-4 -57 -3.5 -87t0.5 -55t1 -55t5 -87h-23q-4 34 -15 64.5t-33.5 49t-64.5 18.5v20q42 0 63.5 22t32 53t14.5 57h23z" />
    <glyph glyph-name="G" unicode="G" horiz-adv-x="724" 
d="M395 722q67 0 109 -19.5t77 -45.5q12 -10 20 -10q19 0 25 61h23q-2 -38 -3 -93t-1 -145h-23q-7 54 -20 97t-47 73q-26 28 -65.5 43.5t-79.5 15.5q-53 0 -92.5 -27.5t-66 -75t-39.5 -110t-13 -133.5q0 -180 52.5 -263.5t154.5 -83.5q28 0 48.5 7.5t33.5 15.5q16 11 21 23
t5 30v98q0 44 -8 65.5t-29.5 29.5t-63.5 9v20q20 -1 47.5 -1.5t58 -1t55.5 -0.5q39 0 71 1t53 2v-20q-30 -2 -38.5 -16t-8.5 -70v-198h-20q-1 17 -8 37t-21 20q-7 0 -16 -3.5t-31 -15.5q-35 -23 -74.5 -37.5t-86.5 -14.5q-168 0 -257.5 95t-89.5 263q0 115 45 200
t123.5 131.5t179.5 46.5z" />
    <glyph glyph-name="H" unicode="H" horiz-adv-x="786" 
d="M458 0v20q33 2 49.5 8t22 24t5.5 54v496q0 37 -5.5 54.5t-22 24t-49.5 7.5v20q27 -1 67 -2t80 -1q44 0 82.5 1t61.5 2v-20q-32 -1 -48.5 -7.5t-22.5 -24t-6 -54.5v-496q0 -36 6 -54t22.5 -24t48.5 -8v-20q-23 2 -61.5 2.5t-82.5 0.5q-40 0 -80 -0.5t-67 -2.5zM36 0v20
q33 2 49.5 8t22 24t5.5 54v496q0 37 -5.5 54.5t-22 24t-49.5 7.5v20q25 -1 64 -2t84 -1q40 0 79 1t64 2v-20q-32 -1 -48.5 -7.5t-22.5 -24t-6 -54.5v-496q0 -36 6 -54t22.5 -24t48.5 -8v-20q-25 2 -64 2.5t-79 0.5q-45 0 -84 -0.5t-64 -2.5zM195 346v20h395v-20h-395z" />
    <glyph glyph-name="I" unicode="I" horiz-adv-x="364" 
d="M327 708v-20q-32 -1 -48.5 -7.5t-22.5 -24t-6 -54.5v-496q0 -36 6 -54t22.5 -24t48.5 -8v-20q-25 2 -64 2.5t-79 0.5q-45 0 -84 -0.5t-64 -2.5v20q33 2 49.5 8t22 24t5.5 54v496q0 37 -5.5 54.5t-22 24t-49.5 7.5v20q25 -1 64 -2t84 -1q40 0 79 1t64 2z" />
    <glyph glyph-name="J" unicode="J" horiz-adv-x="352" 
d="M-22 -188v20q41 2 70.5 22t44.5 68t15 131v549q0 37 -5.5 54.5t-22.5 24t-49 7.5v20q23 -1 61.5 -2t80.5 -1t82.5 1t66.5 2v-20q-33 -1 -49.5 -7.5t-22 -24t-5.5 -54.5v-366q0 -41 -0.5 -89t-4 -93t-12.5 -79q-19 -70 -82 -116.5t-168 -46.5z" />
    <glyph glyph-name="K" unicode="K" horiz-adv-x="695" 
d="M665 708v-20q-33 -6 -67 -25t-70 -62l-189 -232l45 72l239 -360q16 -23 33 -37t44 -24v-20q-31 2 -71 2.5t-73 0.5q-19 0 -47.5 -0.5t-71.5 -2.5v20q40 2 48 11.5t-7 33.5l-146 230q-16 26 -28.5 39t-25.5 17.5t-32 5.5v20q42 2 75 22t66 59l71 89q37 44 45 75t-9 48
t-57 18v20q34 -1 66 -2t70 -1q58 0 92 3zM327 708v-20q-32 -1 -48.5 -7.5t-22.5 -24t-6 -54.5v-496q0 -36 6 -54t22.5 -24t48.5 -8v-20q-25 2 -64 2.5t-79 0.5q-45 0 -84 -0.5t-64 -2.5v20q33 2 49.5 8t22 24t5.5 54v496q0 37 -5.5 54.5t-22 24t-49.5 7.5v20q25 -1 64 -2
t84 -1q40 0 79 1t64 2z" />
    <glyph glyph-name="L" unicode="L" horiz-adv-x="603" 
d="M331 708v-20q-34 -1 -51.5 -7.5t-23.5 -24t-6 -54.5v-504q0 -32 5.5 -48.5t20.5 -21.5t43 -5h57q52 0 88 25t58 72t30 114h23q-3 -33 -3 -86q0 -22 1.5 -63t5.5 -85q-51 2 -115 2.5t-114 0.5h-86t-114.5 -0.5t-113.5 -2.5v20q33 2 49.5 8t22 24t5.5 54v496
q0 37 -5.5 54.5t-22 24t-49.5 7.5v20q25 -1 64 -2t84 -1q41 0 81 1t66 2z" />
    <glyph glyph-name="M" unicode="M" horiz-adv-x="909" 
d="M872 708v-20q-32 -1 -49 -7.5t-22.5 -24t-5.5 -54.5v-496q0 -36 6 -54t22.5 -24t48.5 -8v-20q-26 2 -66 2.5t-81 0.5q-45 0 -84.5 -0.5t-63.5 -2.5v20q34 2 51.5 8t23.5 24t6 54v544l7 -1l-248 -652h-16l-264 647v-496q0 -48 6 -74.5t26.5 -38t62.5 -15.5v-20
q-19 2 -49 2.5t-57 0.5q-24 0 -48.5 -0.5t-40.5 -2.5v20q33 4 49.5 15t22 36t5.5 69v462q0 37 -5.5 54.5t-22 24t-49.5 7.5v20q16 -1 40.5 -2t48.5 -1q37 0 72 1t62 2l215 -537l-22 -18l209 552h31.5h31.5q41 0 81 1t66 2z" />
    <glyph glyph-name="N" unicode="N" horiz-adv-x="716" 
d="M685 708v-20q-32 -3 -49 -14.5t-22.5 -36t-5.5 -69.5v-571q-9 1 -19.5 1t-22.5 -1l-429 583v-432q0 -48 6 -74.5t26.5 -38t62.5 -15.5v-20q-19 2 -49 2.5t-57 0.5q-24 0 -48.5 -0.5t-40.5 -2.5v20q33 4 49.5 15t22 36t5.5 69v462q0 37 -5.5 54.5t-22 24t-49.5 7.5v20
q16 -1 40.5 -2t48.5 -1q23 0 45 1t39 2l375 -499v351q0 49 -6 75t-26 38t-63 15v20q19 -1 49.5 -2t56.5 -1q25 0 49.5 1t39.5 2z" />
    <glyph glyph-name="O" unicode="O" horiz-adv-x="775" 
d="M388 722q102 0 179 -43t119.5 -123.5t42.5 -195.5q0 -112 -43.5 -196t-121 -131t-177.5 -47q-102 0 -179 43t-119.5 124t-42.5 195q0 112 44 196t121 131t177 47zM384 704q-59 0 -102.5 -45t-67.5 -124t-24 -183q0 -106 27 -184.5t73 -121t101 -42.5q59 0 102.5 45
t67.5 124.5t24 182.5q0 107 -27 185t-72.5 120.5t-101.5 42.5z" />
    <glyph glyph-name="P" unicode="P" horiz-adv-x="622" 
d="M36 708q25 -1 64 -2t78 -1q49 0 93 1t62 1q134 0 199.5 -55t65.5 -142q0 -36 -13 -75.5t-45 -73t-87.5 -54.5t-141.5 -21h-100v20h90q63 0 96.5 27t45 71t11.5 95q0 95 -31 142t-107 47q-41 0 -53.5 -17t-12.5 -69v-492q0 -38 8 -57t31 -25t66 -7v-21q-29 2 -75 2.5
t-95 0.5q-42 0 -81 -0.5t-68 -2.5v20q33 2 49.5 8t22 24t5.5 54v496q0 37 -5.5 54.5t-22 24t-49.5 7.5v20z" />
    <glyph glyph-name="Q" unicode="Q" horiz-adv-x="775" 
d="M759 1l16 -6q-9 -50 -25.5 -86t-41.5 -56q-20 -17 -53 -29t-78 -12q-54 0 -105.5 17t-105 42t-114.5 47q-7 2 -13.5 4t-11.5 3q-19 -9 -41 -14t-42 -5t-33 6t-13 18q0 25 54 25q35 0 75 -12q37 10 63.5 22.5t55 23.5t67.5 14l1 -16q-30 -3 -53 -11.5t-45.5 -18.5
t-53.5 -19q65 -7 125.5 -14t113 -10.5t94.5 -0.5q65 5 103 25t61 63zM388 722q102 0 179 -43t119.5 -123.5t42.5 -195.5q0 -112 -43.5 -196t-121 -131t-177.5 -47q-102 0 -179 43t-119.5 124t-42.5 195q0 112 44 196t121 131t177 47zM384 704q-59 0 -102.5 -45t-67.5 -124
t-24 -183q0 -106 27 -184.5t73 -121t101 -42.5q59 0 102.5 45t67.5 124.5t24 182.5q0 107 -27 185t-72.5 120.5t-101.5 42.5z" />
    <glyph glyph-name="R" unicode="R" horiz-adv-x="677" 
d="M36 708q25 -1 64 -2t78 -1q49 0 93 1t62 1q134 0 199.5 -47t65.5 -127q0 -33 -13 -67.5t-45 -63.5t-87.5 -47.5t-141.5 -18.5h-96v20h86q63 0 96.5 22.5t45 60t11.5 83.5q0 79 -31 122.5t-107 43.5q-41 0 -53.5 -17t-12.5 -69v-496q0 -36 6 -54t22.5 -24t48.5 -8v-20
q-25 2 -64 2.5t-79 0.5q-45 0 -84 -0.5t-64 -2.5v20q33 2 49.5 8t22 24t5.5 54v496q0 37 -5.5 54.5t-22 24t-49.5 7.5v20zM215 353q47 -2 78.5 -4.5t54 -4.5t40.5 -5q83 -8 122.5 -38.5t52.5 -92.5l23 -103q9 -41 19.5 -58.5t30.5 -16.5q14 0 24 7.5t20 20.5l14 -12
q-25 -31 -53 -45.5t-71 -14.5q-48 0 -81 22.5t-45 85.5l-19 100q-8 42 -18.5 74t-28.5 50t-53 18h-108z" />
    <glyph glyph-name="S" unicode="S" horiz-adv-x="569" 
d="M274 720q56 0 86 -12t52 -26q12 -7 19.5 -10.5t14.5 -3.5q16 0 22 44h23q-1 -19 -2.5 -44t-2 -66.5t-0.5 -109.5h-23q-3 51 -22.5 98t-55 77.5t-90.5 30.5q-49 0 -81.5 -29t-32.5 -78q0 -42 21 -70.5t59.5 -55t91.5 -60.5q49 -32 88 -63.5t61.5 -69.5t22.5 -93
q0 -65 -32 -108t-86 -64t-118 -21q-59 0 -93.5 12t-59.5 25q-22 14 -34 14q-16 0 -22 -44h-23q2 23 2.5 54t1 80.5t0.5 125.5h23q4 -64 22.5 -119.5t57 -89.5t102.5 -34q52 0 89 29.5t37 89.5q0 61 -42 102t-110 83q-47 30 -88 61t-65.5 70.5t-24.5 95.5q0 62 30 101.5
t78.5 58.5t103.5 19z" />
    <glyph glyph-name="T" unicode="T" horiz-adv-x="652" 
d="M626 708q-4 -46 -5.5 -89.5t-1.5 -66.5t1 -43t2 -35h-23q-14 80 -34 125.5t-52.5 65.5t-85.5 20h-32v-570q0 -41 7.5 -61t30.5 -26.5t67 -7.5v-20q-30 2 -78 2.5t-98 0.5q-52 0 -97.5 -0.5t-73.5 -2.5v20q43 1 66 7.5t31 26.5t8 61v570h-33q-52 0 -85 -20t-53 -65.5
t-33 -125.5h-23q2 15 2.5 35t0.5 43t-1.5 66.5t-5.5 89.5q44 -1 97 -2t106 -1h97h96t106 1t97 2z" />
    <glyph glyph-name="U" unicode="U" horiz-adv-x="686" 
d="M665 708v-20q-32 -3 -48.5 -14.5t-22.5 -36t-6 -69.5v-277q0 -67 -8.5 -120t-32.5 -92q-25 -42 -74.5 -67.5t-120.5 -25.5q-48 0 -94.5 11t-81.5 41q-31 26 -48.5 59t-23.5 79.5t-6 111.5v314q0 37 -5.5 54.5t-22 24t-49.5 7.5v20q25 -1 64 -2t84 -1q41 0 81 1t66 2v-20
q-34 -1 -51.5 -7.5t-23.5 -24t-6 -54.5v-362q0 -67 12 -116t43 -76t90 -27q73 0 113 33t56 92t16 134v280q0 49 -7 75t-27.5 38t-60.5 15v20q19 -1 49.5 -2t56.5 -1q25 0 49.5 1t39.5 2z" />
    <glyph glyph-name="V" unicode="V" horiz-adv-x="655" 
d="M664 708v-20q-20 -7 -44 -31.5t-43 -76.5l-219 -583q-6 0 -12.5 0.5t-13.5 0.5t-13.5 -0.5t-12.5 -0.5l-251 627q-15 37 -32.5 50t-32.5 14v20q26 -1 63.5 -2t73.5 -1q44 0 82.5 1t61.5 2v-20q-49 -2 -64 -17t5 -67l184 -473l-19 -23l150 400q25 67 25 106t-22 56t-63 18
v20q33 -1 62.5 -2t58.5 -1q24 0 42.5 1t33.5 2z" />
    <glyph glyph-name="W" unicode="W" horiz-adv-x="947" 
d="M951 708v-20q-20 -7 -44 -31t-40 -77l-181 -583q-6 0 -12.5 0.5t-13.5 0.5q-6 0 -12.5 -0.5t-12.5 -0.5l-212 634q-11 34 -25.5 45t-29.5 12v20q24 -1 58.5 -2t68.5 -1q42 0 79 1t60 2v-20q-31 -1 -48 -6.5t-19.5 -23t9.5 -54.5l144 -443l-20 -32l120 379q22 68 20.5 107
t-23.5 55.5t-63 17.5v20q33 -1 62.5 -2t59.5 -1q23 0 41.5 1t33.5 2zM243 708v-20q-23 -2 -32 -13t-7.5 -28.5t9.5 -42.5l153 -454l-26 -32l132 398l15 -26l-161 -493q-6 0 -12.5 0.5t-13.5 0.5q-6 0 -12.5 -0.5t-12.5 -0.5l-220 627q-13 37 -31.5 50t-33.5 14v20
q26 -1 63 -2t72 -1q37 0 68 1t50 2z" />
    <glyph glyph-name="X" unicode="X" horiz-adv-x="672" 
d="M281 708v-21q-47 0 -59 -9t2 -31l389 -576q19 -29 31.5 -38.5t33.5 -11.5v-21q-18 1 -51.5 2.5t-68.5 1.5q-44 0 -88 -1.5t-66 -2.5v21q46 0 60 6.5t0 27.5l-391 582q-20 29 -31.5 39t-33.5 11v21q18 -1 53 -2.5t71 -1.5q43 0 83 1.5t66 2.5zM305 359l4.5 -13l4.5 -13
l-109 -153q-38 -53 -42 -88t19.5 -52.5t66.5 -19.5v-20q-19 1 -48 1.5t-57 1t-45 0.5q-59 0 -90 -3v20q34 9 67 37t67 75zM641 708v-20q-32 -8 -63 -35t-59 -65l-162 -224l-3.5 12.5l-3.5 12.5l107 149q56 76 45 111.5t-73 38.5v20q29 -1 63 -2t59 -1q59 0 90 3z" />
    <glyph glyph-name="Y" unicode="Y" horiz-adv-x="612" 
d="M607 708v-20q-20 -6 -42 -30.5t-48 -75.5l-193 -383h-37l-234 432q-19 35 -33 45.5t-25 10.5v21q24 -1 50.5 -2.5t57.5 -1.5q40 0 86 1t86 3v-21q-25 0 -45 -4t-27 -17t5 -38l162 -310l-24 -28l114 226q33 66 34.5 103t-21 52.5t-63.5 16.5v20q33 -1 62.5 -2t58.5 -1
q24 0 42.5 1t33.5 2zM385 340v-234q0 -36 6 -54t22.5 -24t48.5 -8v-20q-25 2 -65 2.5t-80 0.5q-43 0 -82.5 -0.5t-63.5 -2.5v20q33 2 49.5 8t22 24t5.5 54v205l76 -62z" />
    <glyph glyph-name="Z" unicode="Z" horiz-adv-x="599" 
d="M554 708v-20l-360 -665h134q39 0 71.5 11t58.5 34.5t43 63.5t22 98h23q-3 -33 -3 -86q0 -21 1.5 -61t5.5 -83q-55 2 -124.5 2.5t-124.5 0.5q-62 0 -131 -0.5t-130 -2.5v20l362 665h-137q-53 0 -92 -18.5t-63 -61.5t-33 -119h-23q2 15 2.5 35t0.5 43q0 21 -1.5 61t-5.5 83
q53 -2 117.5 -2.5t115.5 -0.5q65 0 137 0.5t134 2.5z" />
    <glyph glyph-name="bracketleft" unicode="[" horiz-adv-x="314" 
d="M277 772v-19h-65v-915h65v-19h-191v953h191z" />
    <glyph glyph-name="backslash" unicode="\" horiz-adv-x="370" 
d="M32 722l272 -736h33l-272 736h-33z" />
    <glyph glyph-name="bracketright" unicode="]" horiz-adv-x="314" 
d="M37 772v-19h65v-915h-65v-19h191v953h-191z" />
    <glyph glyph-name="asciicircum" unicode="^" horiz-adv-x="531" 
d="M275 528q27 -57 78.5 -111.5t116.5 -88.5l-8 -14q-63 18 -121.5 44t-94.5 52q-30 -26 -78 -52t-98 -44l-8 14q63 34 115 88t80 112h18z" />
    <glyph glyph-name="underscore" unicode="_" horiz-adv-x="602" 
d="M540 -70v-80h-478v80h478z" />
    <glyph glyph-name="grave" unicode="`" horiz-adv-x="291" 
d="M66 816q17 14 38.5 10.5t37.5 -22.5q16 -20 27 -46t26.5 -62t45.5 -88l-11 -9q-42 41 -73.5 65t-53.5 41.5t-38 36.5q-16 21 -15 41t16 33z" />
    <glyph glyph-name="a" unicode="a" horiz-adv-x="511" 
d="M158 -7q-66 0 -96 34t-30 86q0 42 20 69.5t51.5 44.5t66.5 29.5t66 24t51 26t20 37.5v73q0 32 -9.5 52.5t-28 31t-46.5 10.5q-21 0 -44 -6t-38 -23q26 -7 40.5 -26t14.5 -46q0 -31 -20.5 -48.5t-51.5 -17.5q-33 0 -50 21t-17 49t14 46.5t39 33.5q25 17 64 27t85 10
q44 0 78 -9.5t58 -33.5q24 -23 31 -57t7 -83v-274q0 -25 5.5 -35.5t19.5 -10.5q12 0 21 6t18 13l11 -17q-22 -17 -46 -27t-58 -10q-57 0 -76 25.5t-20 58.5q-27 -45 -65 -64.5t-85 -19.5zM225 49q22 0 43 12t39 40v202q-13 -20 -38 -33t-50.5 -28.5t-44 -40.5t-18.5 -69
q0 -43 19.5 -63t49.5 -20z" />
    <glyph glyph-name="b" unicode="b" horiz-adv-x="578" 
d="M354 531q78 0 130.5 -65.5t52.5 -198.5q0 -99 -31 -161.5t-83 -91t-113 -28.5q-43 0 -82.5 18.5t-63.5 58.5h17q20 -28 48.5 -41.5t57.5 -13.5q59 0 88 61.5t29 188.5q0 84 -11.5 135.5t-33.5 75t-55 23.5q-39 0 -71.5 -33t-37.5 -94l-7 28q16 66 60.5 102t105.5 36z
M199 783v-753q-21 -1 -43 -7.5t-41 -16t-33 -22.5l-16 8q5 14 6 28t1 29v614q0 45 -14.5 66.5t-53.5 21.5v21q32 -3 62 -3q38 0 71 3.5t61 10.5z" />
    <glyph glyph-name="c" unicode="c" horiz-adv-x="493" 
d="M282 531q37 0 68.5 -8.5t54.5 -23.5q24 -15 38 -37.5t14 -49.5q0 -33 -20 -53t-50 -20q-31 0 -50.5 18t-19.5 48q0 29 17 48t41 25q-9 13 -28 21.5t-42 8.5q-30 0 -54 -15.5t-41.5 -46t-27 -75t-9.5 -102.5q0 -81 19.5 -128t50.5 -66.5t66 -19.5q31 0 69 18t66 71l19 -7
q-11 -35 -35.5 -70t-63.5 -58t-95 -23q-64 0 -116 29.5t-82.5 89.5t-30.5 149q0 88 31 149.5t86.5 94.5t124.5 33z" />
    <glyph glyph-name="d" unicode="d" horiz-adv-x="592" 
d="M505 783v-674q0 -45 15 -66.5t53 -21.5v-21q-31 3 -62 3q-37 0 -70 -3t-62 -11v674q0 45 -14.5 66.5t-53.5 21.5v21q32 -3 62 -3q38 0 71 3.5t61 10.5zM266 531q44 0 79 -17t52 -57l-12 -10q-14 29 -38 43t-54 14q-54 0 -86.5 -60.5t-32.5 -185.5q0 -84 13 -135.5
t37.5 -74.5t58.5 -23q36 0 65 29.5t34 84.5l7 -28q-13 -61 -49 -93t-95 -32q-60 0 -106.5 29.5t-72 90t-25.5 153.5q0 91 30 151.5t81 90.5t114 30z" />
    <glyph glyph-name="e" unicode="e" horiz-adv-x="505" 
d="M278 531q88 0 138 -53t50 -169h-337l-1 19h222q2 49 -6 90.5t-25.5 66.5t-45.5 25q-38 0 -66 -44.5t-35 -145.5l4 -6q-2 -13 -2.5 -28t-0.5 -30q0 -69 20 -114t52 -66t66 -21q35 0 71.5 17.5t64.5 69.5l19 -8q-11 -35 -36.5 -69.5t-65.5 -56.5t-94 -22q-68 0 -120 30
t-81 89.5t-29 145.5q0 91 30.5 153t84.5 94.5t123 32.5z" />
    <glyph glyph-name="f" unicode="f" horiz-adv-x="345" 
d="M284 782q33 0 57.5 -8.5t42.5 -22.5q15 -12 24.5 -30t9.5 -40q0 -27 -18.5 -46t-46.5 -19q-30 0 -49.5 17.5t-19.5 48.5q0 24 13.5 41.5t38.5 24.5q-3 7 -13 12t-27 5q-20 0 -34.5 -8t-23.5 -22q-10 -17 -14 -50t-4 -100v-69h107v-20h-107v-393q0 -49 26.5 -65.5
t71.5 -16.5v-21q-25 1 -70 2.5t-96 1.5q-36 0 -72 -1.5t-54 -2.5v21q37 0 52.5 15t15.5 57v403h-72v20h72q0 89 13.5 135.5t45.5 80.5q21 22 55.5 36t75.5 14z" />
    <glyph glyph-name="g" unicode="g" horiz-adv-x="545" 
d="M216 -188q-59 0 -107 11t-76 32.5t-28 54.5q0 32 28 57t82 38l7 -16q-19 -11 -29 -30t-10 -40q0 -43 39.5 -66.5t105.5 -23.5q45 0 83 12t61 37t23 62q0 31 -22.5 52t-89.5 21h-66q-37 0 -67.5 8t-48.5 26t-18 50q0 39 32 70.5t100 61.5l11 -9q-25 -13 -44.5 -28
t-19.5 -38q0 -32 44 -32h113q76 0 128.5 -29.5t52.5 -98.5q0 -48 -31 -89.5t-93.5 -67t-159.5 -25.5zM225 213q-82 0 -136.5 38.5t-54.5 120.5q0 83 54.5 121t136.5 38q81 0 136 -38t55 -121q0 -82 -55 -120.5t-136 -38.5zM225 231q30 0 47.5 30.5t17.5 110.5t-17.5 110.5
t-47.5 30.5t-47.5 -30.5t-17.5 -110.5t17.5 -110.5t47.5 -30.5zM376 446l-19 7q15 37 49 62.5t72 25.5q29 0 45.5 -16t16.5 -45q0 -30 -16 -44t-35 -14q-17 0 -31 11.5t-16 36t16 61.5l10 -4q-39 -15 -58 -33t-34 -48z" />
    <glyph glyph-name="h" unicode="h" horiz-adv-x="602" 
d="M213 783v-354q25 56 69.5 79t96.5 23q41 0 67 -11t42 -28q17 -19 24.5 -49t7.5 -81v-269q0 -42 15.5 -57t52.5 -15v-21q-18 1 -55 2.5t-73 1.5t-71 -1.5t-53 -2.5v21q32 0 45 15t13 57v303q0 27 -5 48.5t-19.5 34t-43.5 12.5q-48 0 -80.5 -38.5t-32.5 -99.5v-260
q0 -42 13.5 -57t44.5 -15v-21q-17 1 -50.5 2.5t-69.5 1.5t-74.5 -1.5t-57.5 -2.5v21q37 0 52.5 15t15.5 57v570q0 45 -14.5 66.5t-53.5 21.5v21q32 -3 62 -3q38 0 71 3.5t61 10.5z" />
    <glyph glyph-name="i" unicode="i" horiz-adv-x="308" 
d="M150 772q36 0 59 -20t23 -53t-23 -53t-59 -20t-59 20t-23 53t23 53t59 20zM220 528v-435q0 -42 15.5 -57t52.5 -15v-21q-18 1 -55 2.5t-75 1.5q-37 0 -75 -1.5t-57 -2.5v21q37 0 52.5 15t15.5 57v314q0 46 -14.5 67.5t-53.5 21.5v21q32 -3 62 -3q37 0 70.5 3.5t61.5 10.5
z" />
    <glyph glyph-name="j" unicode="j" horiz-adv-x="287" 
d="M-24 -188v17q53 2 82.5 43.5t29.5 122.5v413q0 45 -14 66.5t-54 21.5v21q32 -3 62 -3q38 0 71 3.5t61 10.5v-427q0 -80 -16 -137t-55 -95q-25 -25 -66 -41t-101 -16zM142 772q36 0 59 -20t23 -53t-23 -53t-59 -20t-59 20t-23 53t23 53t59 20z" />
    <glyph glyph-name="k" unicode="k" horiz-adv-x="574" 
d="M213 783v-690q0 -42 14 -57t48 -15v-21q-17 1 -52 2.5t-71 1.5q-37 0 -75.5 -1.5t-57.5 -2.5v21q37 0 52.5 15t15.5 57v570q0 45 -14.5 66.5t-53.5 21.5v21q32 -3 62 -3q38 0 71 3.5t61 10.5zM537 517v-20q-30 -6 -58 -22.5t-55 -45.5l-99 -103l11 22l176 -275
q14 -20 26.5 -33.5t31.5 -18.5v-21q-13 1 -41 2.5t-56 1.5q-34 0 -69.5 -1.5t-53.5 -2.5v21q20 0 27.5 9.5t-2.5 24.5l-104 175q-14 22 -27 28.5t-35 6.5v20q25 2 41.5 9t31.5 22l75 75q33 33 33.5 56t-21 35.5t-55.5 14.5v20q27 -1 60 -2.5t56 -1.5q18 0 38.5 0.5t39 1.5
t29.5 2z" />
    <glyph glyph-name="l" unicode="l" horiz-adv-x="303" 
d="M214 783v-690q0 -42 15.5 -57t52.5 -15v-21q-18 1 -54.5 2.5t-74.5 1.5q-37 0 -75.5 -1.5t-57.5 -2.5v21q37 0 52.5 15t15.5 57v570q0 45 -14 66.5t-54 21.5v21q32 -3 62 -3q38 0 71 3.5t61 10.5z" />
    <glyph glyph-name="m" unicode="m" horiz-adv-x="899" 
d="M378 531q39 0 65.5 -11t41.5 -28q18 -19 25 -50.5t7 -79.5v-269q0 -42 14.5 -57t49.5 -15v-21q-18 1 -54 2.5t-70 1.5q-36 0 -69.5 -1.5t-50.5 -2.5v21q29 0 41.5 15t12.5 57v303q0 27 -4 48.5t-17 34t-40 12.5q-31 0 -56 -18t-39.5 -49.5t-14.5 -70.5v-260q0 -42 12 -57
t42 -15v-21q-17 1 -49.5 2.5t-66.5 1.5q-37 0 -75 -1.5t-57 -2.5v21q37 0 52.5 15t15.5 57v315q0 45 -14.5 66.5t-53.5 21.5v21q32 -3 62 -3q37 0 70.5 3.5t61.5 10.5v-100q25 55 67 79t91 24zM679 531q39 0 65.5 -11t41.5 -28q18 -19 25 -50.5t7 -79.5v-269q0 -42 15.5 -57
t52.5 -15v-21q-18 1 -55.5 2.5t-72.5 1.5q-36 0 -69.5 -1.5t-50.5 -2.5v21q29 0 41.5 15t12.5 57v303q0 27 -4.5 48.5t-18.5 34t-42 12.5q-46 0 -78 -41t-33 -99l-5 72q27 62 72 85t96 23z" />
    <glyph glyph-name="n" unicode="n" horiz-adv-x="608" 
d="M385 531q42 0 67.5 -11t41.5 -28q18 -19 25.5 -49t7.5 -81v-269q0 -42 15.5 -57t52.5 -15v-21q-18 1 -55.5 2.5t-72.5 1.5q-37 0 -72 -1.5t-52 -2.5v21q32 0 45 15t13 57v303q0 27 -5 48.5t-20 34t-43 12.5q-49 0 -81 -39.5t-32 -98.5v-260q0 -42 13 -57t45 -15v-21
q-17 1 -51 2.5t-69 1.5q-37 0 -75 -1.5t-57 -2.5v21q37 0 52.5 15t15.5 57v315q0 45 -14.5 66.5t-53.5 21.5v21q32 -3 62 -3q37 0 70.5 3.5t61.5 10.5v-100q25 57 69 80t96 23z" />
    <glyph glyph-name="o" unicode="o" horiz-adv-x="559" 
d="M280 531q69 0 122.5 -27.5t85 -87.5t31.5 -158t-31.5 -158t-85 -87t-122.5 -27t-123 27t-85 87t-31 158t31 158t85 87.5t123 27.5zM280 511q-47 0 -76.5 -59.5t-29.5 -193.5t29.5 -193t76.5 -59q46 0 76 59t30 193t-30 193.5t-76 59.5z" />
    <glyph glyph-name="p" unicode="p" horiz-adv-x="593" 
d="M214 527v-611q0 -45 24.5 -60.5t67.5 -15.5v-21q-24 1 -67.5 2.5t-92.5 1.5q-34 0 -68 -1.5t-52 -2.5v21q34 0 48 14t14 52v501q0 45 -14 66.5t-54 21.5v21q32 -3 62 -3q38 0 71 3.5t61 10.5zM371 531q77 0 129 -63t52 -187q0 -88 -26.5 -155t-78 -103.5t-125.5 -36.5
q-42 0 -75 16t-48 43l10 14q12 -21 33 -34t50 -13q48 0 76 31.5t39.5 88.5t11.5 132q0 83 -11 133t-33 72.5t-52 22.5q-41 0 -73.5 -32.5t-39.5 -94.5l-7 28q16 66 61 102t107 36z" />
    <glyph glyph-name="q" unicode="q" horiz-adv-x="578" 
d="M258 531q51 0 86.5 -17.5t59.5 -60.5h-16q-17 29 -44 42.5t-59 13.5q-53 0 -82 -62t-29 -189q0 -83 13 -135t38 -75t58 -23q37 0 66.5 32.5t33.5 93.5l7 -28q-12 -66 -50.5 -101.5t-93.5 -35.5q-57 0 -104 29t-74 90t-27 154q0 91 28 151.5t77 90.5t112 30zM496 533
l16 -9q-4 -13 -5.5 -27.5t-1.5 -28.5v-562q0 -38 14 -52t48 -14v-21q-18 1 -51.5 2.5t-68.5 1.5q-48 0 -92 -1.5t-68 -2.5v21q43 0 67.5 15.5t24.5 60.5v560q21 3 42.5 11t41 20t33.5 26z" />
    <glyph glyph-name="r" unicode="r" horiz-adv-x="459" 
d="M358 531q31 0 51.5 -13t30.5 -33t10 -42q0 -33 -19.5 -55t-51.5 -22q-30 0 -49 16t-19 44q0 25 12.5 42t28.5 27q-11 6 -25 4q-32 -3 -56 -27.5t-37.5 -58t-13.5 -63.5v-247q0 -49 25 -65.5t73 -16.5v-21q-23 1 -66.5 2.5t-90.5 1.5q-39 0 -77.5 -1.5t-57.5 -2.5v21
q37 0 52.5 15t15.5 57v315q0 45 -14.5 66.5t-53.5 21.5v21q32 -3 62 -3q37 0 70.5 3.5t61.5 10.5v-104q12 28 31.5 52t47 39.5t59.5 15.5z" />
    <glyph glyph-name="s" unicode="s" horiz-adv-x="457" 
d="M217 531q42 0 72 -12t44 -21q34 -25 41 32h22q-2 -29 -3 -68.5t-1 -105.5h-22q-5 37 -19 72t-41 58.5t-71 23.5q-31 0 -51.5 -18t-20.5 -51q0 -30 18 -52.5t46.5 -42t59.5 -42.5q53 -37 89.5 -74.5t36.5 -97.5q0 -46 -25.5 -78.5t-67 -50t-91.5 -17.5q-27 0 -49 5t-39 13
q-13 7 -23.5 13t-21.5 10q-10 5 -17.5 -4t-11.5 -30h-22q2 32 3 78t1 122h22q7 -55 21.5 -96.5t42.5 -65t72 -23.5q27 0 52 18t25 61q0 44 -30 73t-75 62q-34 25 -63.5 49t-48 54t-18.5 71q0 45 23 74.5t60.5 45t80.5 15.5z" />
    <glyph glyph-name="t" unicode="t" horiz-adv-x="352" 
d="M215 681v-165h128v-20h-128v-398q0 -36 13 -51t37 -15q23 0 42 17.5t34 58.5l18 -8q-15 -49 -46.5 -81.5t-88.5 -32.5q-34 0 -57.5 8.5t-40.5 24.5q-22 23 -29.5 55t-7.5 85v337h-88v20h88v139q36 1 67 7t59 19z" />
    <glyph glyph-name="u" unicode="u" horiz-adv-x="597" 
d="M509 528v-420q0 -45 15 -66.5t53 -21.5v-21q-31 3 -62 3q-37 0 -70.5 -3t-61.5 -11v100q-25 -55 -68.5 -78.5t-93.5 -23.5q-39 0 -65.5 10.5t-42.5 28.5q-17 19 -24 50t-7 80v253q0 45 -14.5 66.5t-53.5 21.5v21q32 -3 62 -3q37 0 70.5 3.5t61.5 10.5v-408q0 -27 4.5 -48
t18.5 -33.5t42 -12.5q47 0 78.5 39.5t31.5 97.5v245q0 45 -14.5 66.5t-53.5 21.5v21q32 -3 62 -3q37 0 70.5 3.5t61.5 10.5z" />
    <glyph glyph-name="v" unicode="v" horiz-adv-x="501" 
d="M500 517v-21q-19 -4 -35.5 -21t-31.5 -60l-153 -418q-12 1 -24 1t-25 -1l-180 443q-15 38 -31 47t-27 9v21q28 -2 58 -3.5t66 -1.5q31 0 65.5 1.5t64.5 3.5v-21q-22 0 -39.5 -3t-23.5 -15.5t5 -43.5l120 -311l-9 -11l91 247q25 70 7.5 102t-67.5 35v21q24 -2 48 -3t45 -1
t41.5 1t34.5 3z" />
    <glyph glyph-name="w" unicode="w" horiz-adv-x="781" 
d="M250 517v-21q-24 0 -41 -3.5t-22.5 -16.5t4.5 -46l98 -298l-11 -8l127 395l21 -10l-163 -512q-12 1 -24.5 1t-24.5 -1l-160 443q-16 40 -31.5 48t-26.5 8v21q28 -3 58 -4.5t66 -1.5q31 0 65.5 2t64.5 4zM781 517v-21q-19 -4 -36.5 -20.5t-31.5 -60.5l-137 -418
q-12 1 -24 1t-25 -1l-147 393l26 129q14 -1 28 -1t28 1l143 -407l-10 5l78 242q22 71 4 102t-69 35v21q16 -1 33 -2t33 -1.5t30 -0.5q21 0 42 1t35 3z" />
    <glyph glyph-name="x" unicode="x" horiz-adv-x="530" 
d="M234 517v-21q-19 0 -30 -9t-1 -25l265 -391q14 -20 27 -33t31 -17v-21q-14 1 -41 2.5t-54 1.5q-35 0 -71.5 -1.5t-54.5 -2.5v21q20 0 31 9.5t0 24.5l-265 391q-17 26 -29 36.5t-29 13.5v21q15 -1 45 -2.5t58 -1.5q34 0 68 1.5t50 2.5zM228 248l3.5 -12.5l3.5 -12.5
l-54 -71q-29 -37 -31.5 -66t17.5 -46t55 -20v-20q-18 1 -43.5 1.5t-49.5 1t-40 0.5q-43 0 -73 -3v20q22 6 43 23.5t48 51.5zM500 517v-20q-20 -6 -43 -24.5t-47 -50.5l-113 -146l-3 12.5l-3 12.5l60 81q37 50 31.5 80.5t-58.5 34.5v20q28 -1 53.5 -2t50.5 -1q43 0 72 3z" />
    <glyph glyph-name="y" unicode="y" horiz-adv-x="514" 
d="M506 517v-21q-19 -4 -35.5 -21t-31.5 -60l-148 -406l-31 -47l-206 478q-19 38 -36 47t-28 9v21q29 -3 60.5 -4.5t63.5 -1.5q37 0 71.5 2t64.5 4v-21q-23 0 -41 -3t-23.5 -16.5t7.5 -46.5l125 -305l-8 -4l88 238q25 70 7 102t-67 35v21q24 -2 47.5 -3t44.5 -1t41.5 1
t34.5 3zM291 9l-38 -101q-18 -50 -43 -71q-15 -13 -36.5 -19t-47.5 -6q-23 0 -44.5 8t-36 24t-14.5 42q0 28 19 45t52 17q29 0 47.5 -14.5t18.5 -43.5q0 -19 -11 -34t-31 -23q5 -1 9.5 -1.5t7.5 -0.5q29 0 52 19t37 60l36 99h23z" />
    <glyph glyph-name="z" unicode="z" horiz-adv-x="474" 
d="M442 521l-263 -506h72q39 0 71.5 16.5t54.5 54.5t26 102h22q0 -70 1 -116t3 -76q-45 2 -93.5 3t-96.5 1q-51 0 -104 -1.5t-102 -3.5l263 506h-74q-41 0 -73.5 -16.5t-52 -54t-24.5 -102.5h-22q0 71 -1 116.5t-3 75.5q45 -2 93.5 -3t96.5 -1q51 0 104 1.5t102 3.5z" />
    <glyph glyph-name="braceleft" unicode="{" horiz-adv-x="324" 
d="M304 782v-19q-31 -1 -47.5 -14.5t-22.5 -58t-6 -139.5q0 -90 -25.5 -141t-66.5 -75.5t-87 -35.5q46 -11 87 -36t66.5 -75.5t25.5 -140.5q0 -74 3 -117t11 -64.5t23.5 -28t38.5 -6.5v-19q-75 0 -119.5 20.5t-63.5 71.5t-19 143q0 94 -6.5 145.5t-22.5 73.5t-47 24h-5v18h5
q31 2 47 23.5t22.5 73.5t6.5 146q0 88 19 138.5t63.5 71.5t119.5 21z" />
    <glyph glyph-name="bar" unicode="|" horiz-adv-x="243" 
d="M157 858v-1053h-72v1053h72z" />
    <glyph glyph-name="braceright" unicode="}" horiz-adv-x="324" 
d="M20 782v-19q31 -1 47.5 -14.5t22.5 -58t6 -139.5q0 -90 25.5 -141t66.5 -75.5t87 -35.5q-46 -11 -87 -36t-66.5 -75.5t-25.5 -140.5q0 -74 -3 -117t-11 -64.5t-23.5 -28t-38.5 -6.5v-19q75 0 119.5 20.5t63.5 71.5t19 143q0 94 6.5 145.5t22.5 73.5t47 24h5v18h-5
q-31 2 -47 23.5t-22.5 73.5t-6.5 146q0 88 -19 138.5t-63.5 71.5t-119.5 21z" />
    <glyph glyph-name="asciitilde" unicode="~" horiz-adv-x="662" 
d="M214 381q39 0 72.5 -12.5t64.5 -30t64 -30t69 -12.5q32 0 58 15t40 51l17 -4q-6 -64 -49.5 -101.5t-99.5 -37.5q-40 0 -73 12.5t-64.5 30t-63.5 30t-69 12.5q-33 0 -58 -15t-40 -51l-18 4q7 65 50.5 102t99.5 37z" />
    <glyph glyph-name="uni00A0" unicode="&#xa0;" horiz-adv-x="239" 
 />
    <glyph glyph-name="exclamdown" unicode="&#xa1;" horiz-adv-x="267" 
d="M142 318q2 -63 11 -125t21 -117.5t20.5 -102t8.5 -79.5q0 -42 -19.5 -62t-49.5 -20q-31 0 -51 20.5t-20 61.5q0 32 9 78.5t20.5 102.5t21 118t10.5 125h18zM134 531q35 0 56.5 -20t21.5 -53t-21.5 -53t-56.5 -20t-56.5 20t-21.5 53t21.5 53t56.5 20z" />
    <glyph glyph-name="cent" unicode="&#xa2;" horiz-adv-x="490" 
d="M249 -181v213h22v-213h-22zM249 520v188h22v-188h-22zM275 531q37 0 68.5 -8.5t54.5 -23.5q24 -15 38 -37.5t14 -49.5q0 -33 -20 -53t-50 -20q-31 0 -50.5 18t-19.5 48q0 29 17.5 48t40.5 25q-9 13 -28 21.5t-42 8.5q-29 0 -53 -15.5t-42 -46t-27.5 -75t-9.5 -102.5
q0 -81 19.5 -128t50.5 -66.5t66 -19.5q32 0 69.5 18t66.5 71l18 -7q-11 -35 -35.5 -70t-63.5 -58t-95 -23q-64 0 -116 29.5t-82.5 89.5t-30.5 149q0 88 31 149.5t86.5 94.5t124.5 33z" />
    <glyph glyph-name="sterling" unicode="&#xa3;" horiz-adv-x="641" 
d="M377 736q36 0 62 -7t43 -18q19 -13 30.5 -31t11.5 -39q0 -28 -18 -46t-45 -18t-45.5 16.5t-18.5 42.5q0 48 46 65q-5 8 -22.5 13t-37.5 5q-41 0 -65 -18t-35 -51.5t-15 -80.5t-4 -104v-134q0 -54 -14 -95t-37.5 -78t-53.5 -80q38 29 69 39.5t60 10.5q38 0 69 -9.5
t62 -18.5t68 -9q34 0 50.5 17t16.5 40q0 32 -21 51.5t-56 26.5l4 16q48 -7 88 -39.5t40 -89.5q0 -54 -34 -90.5t-103 -36.5q-42 0 -78.5 14.5t-70.5 32t-69 27.5q-10 3 -22.5 5.5t-26.5 2.5q-28 0 -55 -10q-21 -35 -46.5 -53.5t-49.5 -18.5q-8 0 -14.5 2.5t-6.5 11.5
q0 10 12 23t32 25t44 19q8 24 11 49t3 59v83v181q0 82 22 149.5t74.5 107.5t145.5 40zM393 317v-20h-335v20h335zM393 417v-20h-335v20h335z" />
    <glyph glyph-name="currency" unicode="&#xa4;" horiz-adv-x="589" 
d="M458 530l66 -66l-54 -55q15 -24 24 -51.5t9 -57.5t-9 -58t-25 -51l55 -53l-66 -67l-55 54q-23 -15 -50.5 -24t-58.5 -9q-61 0 -108 32l-54 -53l-66 67l53 53q-15 23 -24 51t-9 58q0 59 33 110l-53 54l66 66l53 -54q24 16 51.5 24.5t57.5 8.5q31 0 58.5 -9t51.5 -25z
M295 435q-35 0 -64 -18.5t-46 -49t-17 -67.5q0 -36 17.5 -66.5t46.5 -49t63 -18.5q35 0 63.5 18.5t45.5 49t17 66.5t-17 67t-45.5 49.5t-63.5 18.5z" />
    <glyph glyph-name="yen" unicode="&#xa5;" horiz-adv-x="667" 
d="M547 300v-20h-397v20h397zM547 200v-20h-397v20h397zM638 708v-20q-20 -6 -42 -30.5t-48 -75.5l-193 -383h-37l-234 432q-19 35 -33 45.5t-25 10.5v21q24 -1 50.5 -2.5t57.5 -1.5q40 0 86.5 1t85.5 3v-21q-25 0 -45 -4t-27 -17t5 -38l162 -310l-23 -28l113 226
q34 66 35.5 103t-21.5 52.5t-64 16.5v20q33 -1 62.5 -2t59.5 -1q23 0 41.5 1t33.5 2zM417 340v-234q0 -36 5.5 -54t22 -24t49.5 -8v-20q-26 2 -66 2.5t-79 0.5q-44 0 -83.5 -0.5t-62.5 -2.5v20q32 2 48.5 8t22.5 24t6 54v205l76 -62z" />
    <glyph glyph-name="brokenbar" unicode="&#xa6;" horiz-adv-x="246" 
d="M159 326v-521h-72v521h72zM159 858v-474h-72v474h72z" />
    <glyph glyph-name="section" unicode="&#xa7;" horiz-adv-x="557" 
d="M296 782q38 0 65 -6.5t43 -14.5q32 -14 51 -37t19 -54q0 -26 -18 -45.5t-49 -19.5q-30 0 -49.5 17.5t-19.5 46.5q0 22 12 40.5t36 26.5q-8 15 -35 21t-49 6q-40 0 -63.5 -14t-33.5 -35.5t-10 -44.5q0 -39 22 -68t59 -55t81 -57q53 -35 89.5 -65.5t55 -63t18.5 -75.5
q0 -51 -32.5 -96t-116.5 -84l-9 10q36 22 52 47t16 59q0 31 -17.5 57t-52.5 53t-86 61q-58 40 -100.5 73.5t-65.5 69.5t-23 83q0 50 26.5 86.5t74.5 57t110 20.5zM185 490l10 -11q-35 -20 -51.5 -46t-16.5 -60q0 -30 18 -56.5t53 -53.5t85 -61q59 -39 101.5 -72.5t65 -70
t22.5 -83.5q0 -49 -26 -86t-73.5 -57.5t-110.5 -20.5q-38 0 -65 6.5t-43 14.5q-33 14 -51.5 37.5t-18.5 53.5q0 26 18 45.5t49 19.5q30 0 49.5 -17.5t19.5 -46.5q0 -22 -12 -40.5t-36 -26.5q5 -9 19 -15t32.5 -9t33.5 -3q39 0 62 14t33 36t10 44q0 40 -21.5 68.5t-58.5 54.5
t-82 57q-52 36 -88.5 66t-55.5 62.5t-19 75.5q0 52 32.5 97.5t115.5 83.5z" />
    <glyph glyph-name="dieresis" unicode="&#xa8;" horiz-adv-x="462" 
d="M342 755q28 0 49 -21t21 -49q0 -29 -21 -49.5t-49 -20.5q-29 0 -49 20.5t-20 49.5q0 28 20 49t49 21zM120 755q28 0 48.5 -21t20.5 -49q0 -29 -21 -49.5t-48 -20.5q-29 0 -49.5 20.5t-20.5 49.5q0 28 20.5 49t49.5 21z" />
    <glyph glyph-name="copyright" unicode="&#xa9;" horiz-adv-x="885" 
d="M443 782q83 0 155 -31t126.5 -85.5t85.5 -126.5t31 -155q0 -82 -31 -154.5t-85.5 -127t-126.5 -85.5t-155 -31q-82 0 -154.5 31t-127 85.5t-85.5 127t-31 154.5q0 83 31 155t85.5 126.5t127 85.5t154.5 31zM463 657q38 0 70.5 -9.5t54.5 -23.5t35.5 -36t13.5 -50
q0 -33 -20 -53t-50 -20q-31 0 -50.5 19t-19.5 50q0 28 17 46t41 24q-9 14 -30.5 23t-46.5 9q-16 0 -32 -6t-31 -19q-18 -14 -32 -40t-22 -69t-8 -109q0 -84 19.5 -133t50.5 -69.5t66 -20.5q22 0 45.5 8t47.5 30t43 62l18 -6q-11 -36 -35 -71t-63.5 -58t-94.5 -23
q-64 0 -116.5 29.5t-83 89.5t-30.5 149q0 88 31.5 149.5t86.5 94.5t125 33zM443 750q-74 0 -139 -28.5t-114 -79t-77 -116.5t-28 -142t28 -142t77 -116.5t114 -79t139 -28.5t139 28.5t114 79t77 116.5t28 142t-28 142t-77 116.5t-114 79t-139 28.5z" />
    <glyph glyph-name="ordfeminine" unicode="&#xaa;" horiz-adv-x="476" 
d="M235 722q76 0 109 -30t33 -97v-167q0 -16 5 -22.5t16 -6.5q20 0 33 13l11 -15q-18 -16 -44.5 -26.5t-61.5 -10.5q-39 0 -54 12.5t-17 34.5q-25 -25 -56 -36t-63 -11q-38 0 -67.5 19t-29.5 59q0 43 36 65.5t100 43.5q29 10 54.5 23.5t25.5 32.5v18q0 45 -16.5 63.5
t-47.5 18.5q-14 0 -30.5 -4t-29.5 -13q18 -5 29 -20t11 -34q0 -24 -18.5 -38.5t-41.5 -14.5q-27 0 -43.5 14.5t-16.5 38.5t15 40.5t37 26.5q26 12 55 17.5t67 5.5zM265 573q-3 -8 -12.5 -16t-32.5 -22q-28 -16 -41.5 -35t-13.5 -43t12.5 -39t32.5 -15q30 0 55 23v147z" />
    <glyph glyph-name="guillemotleft" unicode="&#xab;" horiz-adv-x="547" 
d="M288 531l16 -5q-18 -56 -42.5 -106t-52 -90.5t-56.5 -69.5q29 -28 56.5 -69.5t52 -92.5t42.5 -107l-16 -6q-52 84 -114.5 151.5t-145.5 117.5v8q83 50 145.5 117.5t114.5 151.5zM480 515l16 -5q-17 -54 -39.5 -100.5t-48 -84.5t-52.5 -65q27 -27 52.5 -65.5t48 -86
t39.5 -101.5l-16 -6q-49 79 -107.5 143t-137.5 110v8q79 47 137.5 110.5t107.5 142.5z" />
    <glyph glyph-name="logicalnot" unicode="&#xac;" horiz-adv-x="646" 
d="M577 370v-205h-36v175h-465v30h501z" />
    <glyph glyph-name="uni00AD" unicode="&#xad;" horiz-adv-x="487" 
 />
    <glyph glyph-name="registered" unicode="&#xae;" horiz-adv-x="669" 
d="M335 782q77 0 140.5 -37.5t101 -101t37.5 -140.5t-37.5 -140.5t-101 -101t-140.5 -37.5t-140.5 37.5t-101 101t-37.5 140.5t37.5 140.5t101 101t140.5 37.5zM268 522q34 0 48.5 -1t22 -2.5t18.5 -3.5q51 -4 69.5 -18t23.5 -41l14 -63q3 -11 5.5 -18.5t10.5 -7.5q7 0 12 6
l8 -8q-7 -10 -19 -15t-31 -5q-29 0 -44 10.5t-20 32.5l-15 73q-4 20 -11.5 29.5t-27.5 13t-62 3.5zM335 750q-66 0 -119.5 -33.5t-85.5 -89.5t-32 -124q0 -67 32 -123.5t85.5 -90t119.5 -33.5t120 33.5t85.5 90t31.5 123.5q0 68 -31.5 124t-85.5 89.5t-120 33.5zM346 676
q62 0 91 -20.5t29 -58.5q0 -18 -11.5 -37t-42.5 -33t-89 -17l-60 -3v8v8h53q42 0 57.5 18.5t15.5 48.5q0 35 -14 53t-45 18q-19 0 -24.5 -6t-5.5 -24v-227q0 -23 4.5 -29t18.5 -8v-15q-12 0 -27.5 0.5t-31.5 0.5q-19 0 -35.5 -0.5t-26.5 -0.5v15q14 2 18.5 8t4.5 29v219
q0 24 -4.5 30.5t-18.5 7.5v15q10 -1 26 -1h32q28 0 52 0.5t34 0.5z" />
    <glyph glyph-name="macron" unicode="&#xaf;" horiz-adv-x="428" 
d="M378 712v-25h-328v25h328z" />
    <glyph glyph-name="degree" unicode="&#xb0;" horiz-adv-x="319" 
d="M159 820q49 0 85.5 -32t36.5 -88t-36.5 -88.5t-85.5 -32.5q-48 0 -84.5 32.5t-36.5 88.5t36.5 88t84.5 32zM159 803q-34 0 -65 -26.5t-31 -77.5q0 -52 31 -77.5t65 -25.5t65.5 25.5t31.5 77.5q0 51 -31.5 77.5t-65.5 26.5z" />
    <glyph glyph-name="plusminus" unicode="&#xb1;" horiz-adv-x="585" 
d="M546 30v-30h-501v30h501zM309 606v-236h232v-30h-232v-235h-36v235h-233v30h233v236h36z" />
    <glyph glyph-name="uni00B2" unicode="&#xb2;" horiz-adv-x="346" 
d="M178 755q46 0 76 -18.5t30 -56.5q0 -28 -16 -51t-41.5 -42.5t-53.5 -38.5t-53 -40h134q24 0 32 9t15 25l17 -3q-7 -31 -10.5 -56t-4.5 -48q-9 2 -18.5 2.5t-19.5 0.5h-236v20q22 19 51 40t57 46.5t46 55.5t18 65q0 26 -16 39t-45 13q-58 0 -91 -50l-15 8q18 31 52.5 55.5
t91.5 24.5z" />
    <glyph glyph-name="uni00B3" unicode="&#xb3;" horiz-adv-x="328" 
d="M170 756q47 0 78.5 -19t31.5 -54q0 -34 -30 -58.5t-79 -35.5q51 1 89.5 -22.5t38.5 -68.5q0 -36 -24.5 -63.5t-64.5 -46t-88 -28.5t-95 -12v17q53 4 96 22.5t69 48t26 65.5q0 33 -17.5 54.5t-47.5 22.5q-11 -5 -19.5 -9.5t-17.5 -4.5q-15 0 -15 12q0 11 13 13t31 1
q31 14 41.5 36t10.5 38q0 24 -17.5 40t-47.5 16q-27 0 -50.5 -13.5t-39.5 -38.5l-15 8q17 31 51 55.5t92 24.5z" />
    <glyph glyph-name="acute" unicode="&#xb4;" horiz-adv-x="291" 
d="M225 816q15 -13 16 -33t-15 -41q-15 -19 -37.5 -36.5t-53.5 -41.5t-74 -65l-11 9q30 52 45.5 88t26.5 62t27 46q16 19 37.5 22t38.5 -10z" />
    <glyph glyph-name="paragraph" unicode="&#xb6;" horiz-adv-x="703" 
d="M411 709q71 0 132 -2.5t119 1.5v-19q-46 -2 -59.5 -18.5t-13.5 -49.5v-696q0 -36 6 -54t22.5 -24t48.5 -8v-20q-27 2 -70.5 2.5t-88.5 0.5q-47 0 -88.5 -0.5t-67.5 -2.5v20q63 2 82 22.5t19 73.5v52q-154 0 -246 49t-132.5 133.5t-40.5 190.5q0 102 45 181t129.5 123.5
t203.5 44.5zM453 656q-3 0 -12 -39.5t-17.5 -104t-9.5 -142.5q-81 0 -147 -4t-105.5 -8t-39.5 -7t39.5 -7t105.5 -7.5t147 -3.5q1 -80 9.5 -144.5t17.5 -102.5t12 -38v32.5v86.5v118.5v129.5v119v87.5v34.5z" />
    <glyph glyph-name="periodcentered" unicode="&#xb7;" horiz-adv-x="274" 
d="M137 350q34 0 56 -20t22 -53t-22 -53t-56 -20q-35 0 -56.5 20t-21.5 53t21.5 53t56.5 20z" />
    <glyph glyph-name="cedilla" unicode="&#xb8;" horiz-adv-x="317" 
d="M156 4l-22 -71q15 5 31.5 7.5t35.5 2.5q32 0 49 -14t17 -37q0 -29 -19.5 -46.5t-49 -25.5t-62.5 -8q-28 0 -49.5 3.5t-36.5 8.5l5 18q6 -1 17.5 -2.5t24.5 -1.5q26 0 52.5 9t26.5 33q0 27 -37 27q-8 0 -20.5 -1.5t-21.5 -5.5l32 104h27z" />
    <glyph glyph-name="uni00B9" unicode="&#xb9;" horiz-adv-x="277" 
d="M195 753v-246q0 -29 15.5 -39t51.5 -10v-21q-16 1 -46.5 1.5t-62.5 0.5q-35 0 -66.5 -0.5t-48.5 -1.5v21q35 0 54.5 10t19.5 39v129q0 44 -17 54.5t-64 10.5v21q57 1 94.5 8t69.5 23z" />
    <glyph glyph-name="ordmasculine" unicode="&#xba;" horiz-adv-x="464" 
d="M232 722q51 0 94 -20.5t69 -60.5t26 -100q0 -59 -26 -99.5t-69 -61t-94 -20.5t-94 20.5t-69 61t-26 99.5q0 60 26 100t69 60.5t94 20.5zM232 704q-30 0 -51.5 -38t-21.5 -125t21.5 -125t51.5 -38t51 38t21 125t-21 125t-51 38z" />
    <glyph glyph-name="guillemotright" unicode="&#xbb;" horiz-adv-x="546" 
d="M258 531q53 -84 115.5 -151.5t145.5 -117.5v-9q-83 -49 -145.5 -116.5t-115.5 -151.5l-15 5q19 57 42.5 106.5t51.5 90t57 68.5q-29 29 -57 70.5t-51.5 92.5t-42.5 107zM67 515q49 -79 108 -143t136 -110v-9q-77 -46 -136 -109.5t-108 -142.5l-16 5q18 54 40 100.5
t47.5 84.5t52.5 64q-27 28 -52.5 66.5t-47.5 86.5t-40 101z" />
    <glyph glyph-name="onequarter" unicode="&#xbc;" horiz-adv-x="704" 
d="M659 824l19 -13l-585 -866l-19 13zM211 753v-246q0 -29 15.5 -39t51.5 -10v-21q-16 1 -46.5 1.5t-62.5 0.5q-35 0 -66.5 -0.5t-48.5 -1.5v21q35 0 54.5 10t19.5 39v129q0 44 -17 54.5t-64 10.5v21q57 1 94.5 8t69.5 23zM536 309l8 -15l-220 -247l11 23h234q24 0 32 9
t15 25l17 -3q-4 -15 -7 -30.5t-4.5 -30.5l-2.5 -25q-9 2 -18.5 2.5t-19.5 0.5h-286v21zM557 309v-408h-66v344l45 64h21z" />
    <glyph glyph-name="onehalf" unicode="&#xbd;" horiz-adv-x="714" 
d="M643 824l19 -13l-585 -866l-19 13zM214 753v-246q0 -29 15.5 -39t51.5 -10v-21q-16 1 -46.5 1.5t-62.5 0.5q-35 0 -66.5 -0.5t-48.5 -1.5v21q35 0 54.5 10t19.5 39v129q0 44 -17 54.5t-64 10.5v21q57 1 94.5 8t69.5 23zM537 318q46 0 76 -18.5t30 -56.5q0 -28 -16 -51
t-41.5 -42.5t-53.5 -38.5t-53 -40h134q24 0 32 9t15 25l17 -3q-7 -31 -10.5 -56t-4.5 -48q-9 2 -18.5 2.5t-19.5 0.5h-236v20q22 19 51 40t57 46.5t46 55.5t18 65q0 26 -16 39t-45 13q-58 0 -91 -50l-15 8q18 31 52.5 55.5t91.5 24.5z" />
    <glyph glyph-name="threequarters" unicode="&#xbe;" horiz-adv-x="750" 
d="M702 824l19 -13l-585 -866l-19 13zM192 756q47 0 78.5 -19t31.5 -54q0 -34 -30 -58.5t-79 -35.5q51 1 89.5 -22.5t38.5 -68.5q0 -36 -24.5 -63.5t-64.5 -46t-88 -28.5t-95 -12v17q53 4 96 22.5t69 48t26 65.5q0 33 -17.5 54.5t-47.5 22.5q-11 -5 -19.5 -9.5t-17.5 -4.5
q-15 0 -15 12q0 11 13 13t31 1q31 14 41.5 36t10.5 38q0 24 -17.5 40t-47.5 16q-27 0 -50.5 -13.5t-39.5 -38.5l-15 8q17 31 51 55.5t92 24.5zM582 309l8 -15l-220 -247l11 23h234q24 0 32 9t15 25l17 -3q-4 -15 -7 -30.5t-4.5 -30.5l-2.5 -25q-9 2 -18.5 2.5t-19.5 0.5
h-286v21zM603 309v-408h-66v344l45 64h21z" />
    <glyph glyph-name="questiondown" unicode="&#xbf;" horiz-adv-x="486" 
d="M294 322v-137q-59 -23 -89 -52.5t-40.5 -63.5t-10.5 -72q0 -87 36 -126t93 -39q26 0 51 5t39 18q-24 7 -37.5 23t-13.5 43q0 30 20.5 48t50.5 18q29 0 47 -18.5t18 -45.5t-15 -46.5t-39 -33.5q-22 -12 -57.5 -21.5t-87.5 -9.5q-102 0 -166 46.5t-64 127.5q0 79 68 132
t177 76v128h20zM284 532q34 0 56 -20t22 -53t-22 -53t-56 -20q-35 0 -56.5 20t-21.5 53t21.5 53t56.5 20z" />
    <glyph glyph-name="Agrave" unicode="&#xc0;" horiz-adv-x="655" 
d="M353 711l243 -627q15 -36 32.5 -49.5t32.5 -14.5v-20q-26 2 -62.5 2.5t-74.5 0.5q-44 0 -82 -0.5t-62 -2.5v20q51 2 65 17.5t-6 66.5l-176 475l18 22l-160 -415q-26 -66 -25 -101.5t24 -49.5t65 -15v-20q-32 2 -62 2.5t-60 0.5q-22 0 -41.5 -0.5t-34.5 -2.5v20
q22 5 43.5 26t41.5 73l229 592q12 -1 26 -1t26 1zM440 288v-20h-298l10 20h288zM229 931q23 -12 42 -32.5t47 -48.5t75 -65l-7 -13q-54 23 -92 34t-64.5 19t-49.5 21q-22 13 -28 32t3 37q10 19 31.5 23.5t42.5 -7.5z" />
    <glyph glyph-name="Aacute" unicode="&#xc1;" horiz-adv-x="655" 
d="M353 711l243 -627q15 -36 32.5 -49.5t32.5 -14.5v-20q-26 2 -62.5 2.5t-74.5 0.5q-44 0 -82 -0.5t-62 -2.5v20q51 2 65 17.5t-6 66.5l-176 475l18 22l-160 -415q-26 -66 -25 -101.5t24 -49.5t65 -15v-20q-32 2 -62 2.5t-60 0.5q-22 0 -41.5 -0.5t-34.5 -2.5v20
q22 5 43.5 26t41.5 73l229 592q12 -1 26 -1t26 1zM440 288v-20h-298l10 20h288zM421 931q21 12 42.5 7.5t31.5 -23.5q9 -18 3 -37t-28 -32t-49.5 -21t-64.5 -19t-92 -34l-7 13q47 37 75 65t47.5 48.5t41.5 32.5z" />
    <glyph glyph-name="Acircumflex" unicode="&#xc2;" horiz-adv-x="655" 
d="M353 711l243 -627q15 -36 32.5 -49.5t32.5 -14.5v-20q-26 2 -62.5 2.5t-74.5 0.5q-44 0 -82 -0.5t-62 -2.5v20q51 2 65 17.5t-6 66.5l-176 475l18 22l-160 -415q-26 -66 -25 -101.5t24 -49.5t65 -15v-20q-32 2 -62 2.5t-60 0.5q-22 0 -41.5 -0.5t-34.5 -2.5v20
q22 5 43.5 26t41.5 73l229 592q12 -1 26 -1t26 1zM440 288v-20h-298l10 20h288zM335 932q28 -42 81 -81.5t118 -66.5l-5 -14q-64 12 -125 30t-98 36q-30 -18 -80.5 -36t-102.5 -30l-5 14q65 26 117.5 66t81.5 82h18z" />
    <glyph glyph-name="Atilde" unicode="&#xc3;" horiz-adv-x="655" 
d="M353 711l243 -627q15 -36 32.5 -49.5t32.5 -14.5v-20q-26 2 -62.5 2.5t-74.5 0.5q-44 0 -82 -0.5t-62 -2.5v20q51 2 65 17.5t-6 66.5l-176 475l18 22l-160 -415q-26 -66 -25 -101.5t24 -49.5t65 -15v-20q-32 2 -62 2.5t-60 0.5q-22 0 -41.5 -0.5t-34.5 -2.5v20
q22 5 43.5 26t41.5 73l229 592q12 -1 26 -1t26 1zM440 288v-20h-298l10 20h288zM240 916q33 0 58.5 -10.5t48.5 -25t46.5 -25.5t51.5 -11q23 0 42.5 12t33.5 43l15 -5q-11 -62 -46.5 -93.5t-79.5 -31.5q-33 0 -59 11t-48.5 25.5t-46 25.5t-51.5 11q-24 0 -43 -12t-33 -43
l-15 5q11 62 46.5 93t79.5 31z" />
    <glyph glyph-name="Adieresis" unicode="&#xc4;" horiz-adv-x="655" 
d="M353 711l243 -627q15 -36 32.5 -49.5t32.5 -14.5v-20q-26 2 -62.5 2.5t-74.5 0.5q-44 0 -82 -0.5t-62 -2.5v20q51 2 65 17.5t-6 66.5l-176 475l18 22l-160 -415q-26 -66 -25 -101.5t24 -49.5t65 -15v-20q-32 2 -62 2.5t-60 0.5q-22 0 -41.5 -0.5t-34.5 -2.5v20
q22 5 43.5 26t41.5 73l229 592q12 -1 26 -1t26 1zM440 288v-20h-298l10 20h288zM441 907q28 0 49 -21t21 -48q0 -29 -21 -49.5t-49 -20.5q-29 0 -49 20.5t-20 49.5q0 27 20 48t49 21zM211 907q28 0 48.5 -21t20.5 -48q0 -29 -21 -49.5t-48 -20.5q-29 0 -49.5 20.5
t-20.5 49.5q0 27 20.5 48t49.5 21z" />
    <glyph glyph-name="Aring" unicode="&#xc5;" horiz-adv-x="655" 
d="M353 711l243 -627q15 -36 32.5 -49.5t32.5 -14.5v-20q-26 2 -62.5 2.5t-74.5 0.5q-44 0 -82 -0.5t-62 -2.5v20q51 2 65 17.5t-6 66.5l-176 475l18 22l-160 -415q-26 -66 -25 -101.5t24 -49.5t65 -15v-20q-32 2 -62 2.5t-60 0.5q-22 0 -41.5 -0.5t-34.5 -2.5v20
q22 5 43.5 26t41.5 73l229 592q12 -1 26 -1t26 1zM440 288v-20h-298l10 20h288zM326 933q42 0 73.5 -25.5t31.5 -69.5q0 -45 -31.5 -70.5t-73.5 -25.5q-41 0 -72.5 25.5t-31.5 70.5q0 44 31.5 69.5t72.5 25.5zM326 912q-27 0 -51.5 -19t-24.5 -56t24.5 -55.5t51.5 -18.5
q28 0 52.5 18.5t24.5 55.5t-24.5 56t-52.5 19z" />
    <glyph glyph-name="AE" unicode="&#xc6;" horiz-adv-x="877" 
d="M489 772l-395 -668q-27 -46 -13.5 -64t64.5 -20v-20q-15 2 -39.5 2.5t-51.5 0.5q-17 0 -35.5 -0.5t-31.5 -2.5v20q16 1 32 15t37 49l409 688h24zM811 708q-4 -39 -5.5 -75t-1.5 -55t1 -36.5t2 -29.5h-23q-7 65 -21 103t-38 54t-61 16h-43q-32 0 -48.5 -5.5t-22.5 -23
t-6 -54.5v-496q0 -36 6 -54t22.5 -23.5t48.5 -5.5h57q40 0 65 18t40 60.5t21 114.5h23q-3 -31 -3 -80q0 -20 1.5 -58t5.5 -78q-48 2 -108.5 2.5t-108.5 0.5h-74.5t-98.5 -0.5t-99 -2.5v20q28 2 42 8t18.5 24t4.5 54v496q0 37 -5.5 54.5t-22 24t-49.5 7.5v20q49 -1 103.5 -2
t103 -1h77.5q43 0 98.5 0.5t98.5 2.5zM440 366v-20h-215l10 20h205zM680 366v-10v-10h-166v10v10h166zM709 482q-4 -51 -3.5 -77.5t0.5 -48.5t1 -48.5t5 -77.5h-23q-4 28 -10.5 55t-23 44t-51.5 17v20q35 0 51 20.5t21.5 47.5t9.5 48h23z" />
    <glyph glyph-name="Ccedilla" unicode="&#xc7;" horiz-adv-x="700" 
d="M388 722q66 0 108.5 -19.5t75.5 -45.5q20 -15 30.5 -3.5t14.5 54.5h23q-2 -38 -3 -93t-1 -145h-23q-6 45 -13 75.5t-19.5 52.5t-34.5 42q-27 30 -64.5 44.5t-78.5 14.5q-52 0 -90.5 -27.5t-64 -75t-38 -110.5t-12.5 -134q0 -73 13.5 -135.5t40 -109t66 -72.5t91.5 -26
q37 0 76 14t64 43q33 30 45 71.5t19 110.5h23q0 -94 1 -151.5t3 -96.5h-23q-4 43 -13.5 54t-31.5 -3q-37 -26 -78.5 -45.5t-106.5 -19.5q-102 0 -179 43t-119.5 124t-42.5 195q0 112 44 196t121 131t177 47zM403 5l-23 -72q16 5 33.5 7.5t37.5 2.5q34 0 52 -14t18 -37
q0 -29 -21 -46.5t-53 -25.5t-69 -8q-29 0 -51.5 3.5t-38.5 8.5l5 18q6 -1 19 -2.5t27 -1.5q31 0 61 9t30 33q0 14 -12 20.5t-32 6.5q-8 0 -21 -1.5t-22 -5.5l33 105h27z" />
    <glyph glyph-name="Egrave" unicode="&#xc8;" horiz-adv-x="625" 
d="M559 708q-4 -41 -5.5 -79.5t-1.5 -58.5q0 -19 1 -36.5t2 -29.5h-23q-8 69 -26 108.5t-48.5 56t-79.5 16.5h-55q-30 0 -46 -5t-21.5 -21t-5.5 -49v-512q0 -32 5.5 -48.5t21.5 -21.5t46 -5h57q51 0 85.5 19t55.5 62.5t31 119.5h23q-3 -31 -3 -80q0 -21 1.5 -61t5.5 -83
q-51 2 -115 2.5t-114 0.5h-86t-114.5 -0.5t-113.5 -2.5v20q33 2 49.5 8t22 24t5.5 54v496q0 37 -5.5 54.5t-22 24t-49.5 7.5v20q53 -1 113.5 -2t114.5 -1h86q46 0 104.5 0.5t104.5 2.5zM398 366v-10v-10h-178v10v10h178zM427 498q-4 -57 -3.5 -87t0.5 -55t1 -55t5 -87h-23
q-5 34 -15.5 64.5t-33 49t-64.5 18.5v20q42 0 63.5 22t31.5 53t15 57h23zM215 931q23 -12 42 -32.5t47 -48.5t75 -65l-7 -13q-54 23 -92 34t-64.5 19t-49.5 21q-22 13 -28 32t3 37q10 19 31.5 23.5t42.5 -7.5z" />
    <glyph glyph-name="Eacute" unicode="&#xc9;" horiz-adv-x="625" 
d="M559 708q-4 -41 -5.5 -79.5t-1.5 -58.5q0 -19 1 -36.5t2 -29.5h-23q-8 69 -26 108.5t-48.5 56t-79.5 16.5h-55q-30 0 -46 -5t-21.5 -21t-5.5 -49v-512q0 -32 5.5 -48.5t21.5 -21.5t46 -5h57q51 0 85.5 19t55.5 62.5t31 119.5h23q-3 -31 -3 -80q0 -21 1.5 -61t5.5 -83
q-51 2 -115 2.5t-114 0.5h-86t-114.5 -0.5t-113.5 -2.5v20q33 2 49.5 8t22 24t5.5 54v496q0 37 -5.5 54.5t-22 24t-49.5 7.5v20q53 -1 113.5 -2t114.5 -1h86q46 0 104.5 0.5t104.5 2.5zM398 366v-10v-10h-178v10v10h178zM427 498q-4 -57 -3.5 -87t0.5 -55t1 -55t5 -87h-23
q-5 34 -15.5 64.5t-33 49t-64.5 18.5v20q42 0 63.5 22t31.5 53t15 57h23zM407 931q21 12 42.5 7.5t31.5 -23.5q9 -18 3 -37t-28 -32t-49.5 -21t-64.5 -19t-92 -34l-7 13q47 37 75 65t47.5 48.5t41.5 32.5z" />
    <glyph glyph-name="Ecircumflex" unicode="&#xca;" horiz-adv-x="625" 
d="M559 708q-4 -41 -5.5 -79.5t-1.5 -58.5q0 -19 1 -36.5t2 -29.5h-23q-8 69 -26 108.5t-48.5 56t-79.5 16.5h-55q-30 0 -46 -5t-21.5 -21t-5.5 -49v-512q0 -32 5.5 -48.5t21.5 -21.5t46 -5h57q51 0 85.5 19t55.5 62.5t31 119.5h23q-3 -31 -3 -80q0 -21 1.5 -61t5.5 -83
q-51 2 -115 2.5t-114 0.5h-86t-114.5 -0.5t-113.5 -2.5v20q33 2 49.5 8t22 24t5.5 54v496q0 37 -5.5 54.5t-22 24t-49.5 7.5v20q53 -1 113.5 -2t114.5 -1h86q46 0 104.5 0.5t104.5 2.5zM398 366v-10v-10h-178v10v10h178zM427 498q-4 -57 -3.5 -87t0.5 -55t1 -55t5 -87h-23
q-5 34 -15.5 64.5t-33 49t-64.5 18.5v20q42 0 63.5 22t31.5 53t15 57h23zM321 932q28 -42 81 -81.5t118 -66.5l-5 -14q-64 12 -125 30t-98 36q-30 -18 -80.5 -36t-102.5 -30l-5 14q65 26 117.5 66t81.5 82h18z" />
    <glyph glyph-name="Edieresis" unicode="&#xcb;" horiz-adv-x="625" 
d="M559 708q-4 -41 -5.5 -79.5t-1.5 -58.5q0 -19 1 -36.5t2 -29.5h-23q-8 69 -26 108.5t-48.5 56t-79.5 16.5h-55q-30 0 -46 -5t-21.5 -21t-5.5 -49v-512q0 -32 5.5 -48.5t21.5 -21.5t46 -5h57q51 0 85.5 19t55.5 62.5t31 119.5h23q-3 -31 -3 -80q0 -21 1.5 -61t5.5 -83
q-51 2 -115 2.5t-114 0.5h-86t-114.5 -0.5t-113.5 -2.5v20q33 2 49.5 8t22 24t5.5 54v496q0 37 -5.5 54.5t-22 24t-49.5 7.5v20q53 -1 113.5 -2t114.5 -1h86q46 0 104.5 0.5t104.5 2.5zM398 366v-10v-10h-178v10v10h178zM427 498q-4 -57 -3.5 -87t0.5 -55t1 -55t5 -87h-23
q-5 34 -15.5 64.5t-33 49t-64.5 18.5v20q42 0 63.5 22t31.5 53t15 57h23zM427 907q28 0 49 -21t21 -48q0 -29 -21 -49.5t-49 -20.5q-29 0 -49 20.5t-20 49.5q0 27 20 48t49 21zM197 907q28 0 48.5 -21t20.5 -48q0 -29 -21 -49.5t-48 -20.5q-29 0 -49.5 20.5t-20.5 49.5
q0 27 20.5 48t49.5 21z" />
    <glyph glyph-name="Igrave" unicode="&#xcc;" horiz-adv-x="364" 
d="M327 708v-20q-32 -1 -48.5 -7.5t-22.5 -24t-6 -54.5v-496q0 -36 6 -54t22.5 -24t48.5 -8v-20q-25 2 -64 2.5t-79 0.5q-45 0 -84 -0.5t-64 -2.5v20q33 2 49.5 8t22 24t5.5 54v496q0 37 -5.5 54.5t-22 24t-49.5 7.5v20q25 -1 64 -2t84 -1q40 0 79 1t64 2zM87 931
q23 -12 42 -32.5t47 -48.5t75 -65l-7 -13q-54 23 -92 34t-64.5 19t-49.5 21q-22 13 -28 32t3 37q10 19 31.5 23.5t42.5 -7.5z" />
    <glyph glyph-name="Iacute" unicode="&#xcd;" horiz-adv-x="364" 
d="M327 708v-20q-32 -1 -48.5 -7.5t-22.5 -24t-6 -54.5v-496q0 -36 6 -54t22.5 -24t48.5 -8v-20q-25 2 -64 2.5t-79 0.5q-45 0 -84 -0.5t-64 -2.5v20q33 2 49.5 8t22 24t5.5 54v496q0 37 -5.5 54.5t-22 24t-49.5 7.5v20q25 -1 64 -2t84 -1q40 0 79 1t64 2zM279 931
q21 12 42.5 7.5t31.5 -23.5q9 -18 3 -37t-28 -32t-49.5 -21t-64.5 -19t-92 -34l-7 13q47 37 75 65t47.5 48.5t41.5 32.5z" />
    <glyph glyph-name="Icircumflex" unicode="&#xce;" horiz-adv-x="364" 
d="M327 708v-20q-32 -1 -48.5 -7.5t-22.5 -24t-6 -54.5v-496q0 -36 6 -54t22.5 -24t48.5 -8v-20q-25 2 -64 2.5t-79 0.5q-45 0 -84 -0.5t-64 -2.5v20q33 2 49.5 8t22 24t5.5 54v496q0 37 -5.5 54.5t-22 24t-49.5 7.5v20q25 -1 64 -2t84 -1q40 0 79 1t64 2zM193 932
q28 -42 81 -81.5t118 -66.5l-5 -14q-64 12 -125 30t-98 36q-30 -18 -80.5 -36t-102.5 -30l-5 14q65 26 117.5 66t81.5 82h18z" />
    <glyph glyph-name="Idieresis" unicode="&#xcf;" horiz-adv-x="364" 
d="M327 708v-20q-32 -1 -48.5 -7.5t-22.5 -24t-6 -54.5v-496q0 -36 6 -54t22.5 -24t48.5 -8v-20q-25 2 -64 2.5t-79 0.5q-45 0 -84 -0.5t-64 -2.5v20q33 2 49.5 8t22 24t5.5 54v496q0 37 -5.5 54.5t-22 24t-49.5 7.5v20q25 -1 64 -2t84 -1q40 0 79 1t64 2zM299 907
q28 0 49 -21t21 -48q0 -29 -21 -49.5t-49 -20.5q-29 0 -49 20.5t-20 49.5q0 27 20 48t49 21zM69 907q28 0 48.5 -21t20.5 -48q0 -29 -21 -49.5t-48 -20.5q-29 0 -49.5 20.5t-20.5 49.5q0 27 20.5 48t49.5 21z" />
    <glyph glyph-name="Eth" unicode="&#xd0;" horiz-adv-x="758" 
d="M333 708q192 0 284.5 -89.5t92.5 -256.5q0 -109 -45.5 -190.5t-131.5 -126.5t-209 -45q-22 0 -66 1.5t-78 1.5q-41 0 -80 -0.5t-64 -2.5v20q33 2 49.5 8t22 24t5.5 54v496q0 37 -5.5 54.5t-22 24t-49.5 7.5v20q25 -1 64 -2.5t78 -0.5q36 1 81 2t74 1zM324 690
q-46 0 -60 -17t-14 -69v-500q0 -52 14.5 -69t60.5 -17q93 0 145.5 39.5t74 115.5t21.5 185q0 168 -54.5 250t-187.5 82zM383 366v-20h-374v20h374z" />
    <glyph glyph-name="Ntilde" unicode="&#xd1;" horiz-adv-x="716" 
d="M685 708v-20q-32 -3 -49 -14.5t-22.5 -36t-5.5 -69.5v-571q-9 1 -19.5 1t-22.5 -1l-429 583v-432q0 -48 6 -74.5t26.5 -38t62.5 -15.5v-20q-19 2 -49 2.5t-57 0.5q-24 0 -48.5 -0.5t-40.5 -2.5v20q33 4 49.5 15t22 36t5.5 69v462q0 37 -5.5 54.5t-22 24t-49.5 7.5v20
q16 -1 40.5 -2t48.5 -1q23 0 45 1t39 2l375 -499v351q0 49 -6 75t-26 38t-63 15v20q19 -1 49.5 -2t56.5 -1q25 0 49.5 1t39.5 2zM291 916q33 0 58.5 -10.5t48.5 -25t46.5 -25.5t51.5 -11q23 0 42.5 12t33.5 43l15 -5q-11 -62 -46.5 -93.5t-79.5 -31.5q-33 0 -59 11
t-48.5 25.5t-46 25.5t-51.5 11q-24 0 -43 -12t-33 -43l-15 5q11 62 46.5 93t79.5 31z" />
    <glyph glyph-name="Ograve" unicode="&#xd2;" horiz-adv-x="775" 
d="M388 722q102 0 179 -43t119.5 -123.5t42.5 -195.5q0 -112 -43.5 -196t-121 -131t-177.5 -47q-102 0 -179 43t-119.5 124t-42.5 195q0 112 44 196t121 131t177 47zM384 704q-59 0 -102.5 -45t-67.5 -124t-24 -183q0 -106 27 -184.5t73 -121t101 -42.5q59 0 102.5 45
t67.5 124.5t24 182.5q0 107 -27 185t-72.5 120.5t-101.5 42.5zM289 931q23 -12 42 -32.5t47 -48.5t75 -65l-7 -13q-54 23 -92 34t-64.5 19t-49.5 21q-22 13 -28 32t3 37q10 19 31.5 23.5t42.5 -7.5z" />
    <glyph glyph-name="Oacute" unicode="&#xd3;" horiz-adv-x="775" 
d="M388 722q102 0 179 -43t119.5 -123.5t42.5 -195.5q0 -112 -43.5 -196t-121 -131t-177.5 -47q-102 0 -179 43t-119.5 124t-42.5 195q0 112 44 196t121 131t177 47zM384 704q-59 0 -102.5 -45t-67.5 -124t-24 -183q0 -106 27 -184.5t73 -121t101 -42.5q59 0 102.5 45
t67.5 124.5t24 182.5q0 107 -27 185t-72.5 120.5t-101.5 42.5zM481 931q21 12 42.5 7.5t31.5 -23.5q9 -18 3 -37t-28 -32t-49.5 -21t-64.5 -19t-92 -34l-7 13q47 37 75 65t47.5 48.5t41.5 32.5z" />
    <glyph glyph-name="Ocircumflex" unicode="&#xd4;" horiz-adv-x="775" 
d="M388 722q102 0 179 -43t119.5 -123.5t42.5 -195.5q0 -112 -43.5 -196t-121 -131t-177.5 -47q-102 0 -179 43t-119.5 124t-42.5 195q0 112 44 196t121 131t177 47zM384 704q-59 0 -102.5 -45t-67.5 -124t-24 -183q0 -106 27 -184.5t73 -121t101 -42.5q59 0 102.5 45
t67.5 124.5t24 182.5q0 107 -27 185t-72.5 120.5t-101.5 42.5zM395 932q28 -42 81 -81.5t118 -66.5l-5 -14q-64 12 -125 30t-98 36q-30 -18 -80.5 -36t-102.5 -30l-5 14q65 26 117.5 66t81.5 82h18z" />
    <glyph glyph-name="Otilde" unicode="&#xd5;" horiz-adv-x="775" 
d="M388 722q102 0 179 -43t119.5 -123.5t42.5 -195.5q0 -112 -43.5 -196t-121 -131t-177.5 -47q-102 0 -179 43t-119.5 124t-42.5 195q0 112 44 196t121 131t177 47zM384 704q-59 0 -102.5 -45t-67.5 -124t-24 -183q0 -106 27 -184.5t73 -121t101 -42.5q59 0 102.5 45
t67.5 124.5t24 182.5q0 107 -27 185t-72.5 120.5t-101.5 42.5zM300 916q33 0 58.5 -10.5t48.5 -25t46.5 -25.5t51.5 -11q23 0 42.5 12t33.5 43l15 -5q-11 -62 -46.5 -93.5t-79.5 -31.5q-33 0 -59 11t-48.5 25.5t-46 25.5t-51.5 11q-24 0 -43 -12t-33 -43l-15 5
q11 62 46.5 93t79.5 31z" />
    <glyph glyph-name="Odieresis" unicode="&#xd6;" horiz-adv-x="775" 
d="M388 722q102 0 179 -43t119.5 -123.5t42.5 -195.5q0 -112 -43.5 -196t-121 -131t-177.5 -47q-102 0 -179 43t-119.5 124t-42.5 195q0 112 44 196t121 131t177 47zM384 704q-59 0 -102.5 -45t-67.5 -124t-24 -183q0 -106 27 -184.5t73 -121t101 -42.5q59 0 102.5 45
t67.5 124.5t24 182.5q0 107 -27 185t-72.5 120.5t-101.5 42.5zM501 907q28 0 49 -21t21 -48q0 -29 -21 -49.5t-49 -20.5q-29 0 -49 20.5t-20 49.5q0 27 20 48t49 21zM271 907q28 0 48.5 -21t20.5 -48q0 -29 -21 -49.5t-48 -20.5q-29 0 -49.5 20.5t-20.5 49.5q0 27 20.5 48
t49.5 21z" />
    <glyph glyph-name="multiply" unicode="&#xd7;" horiz-adv-x="499" 
d="M75 552l175 -175l173 173l22 -22l-173 -172l173 -173l-22 -22l-173 173l-174 -174l-22 22l174 173l-175 175z" />
    <glyph glyph-name="Oslash" unicode="&#xd8;" horiz-adv-x="775" 
d="M388 722q102 0 179 -43t119.5 -123.5t42.5 -195.5q0 -112 -43.5 -196t-121 -131t-177.5 -47q-102 0 -179 43t-119.5 124t-42.5 195q0 112 44 196t121 131t177 47zM384 704q-59 0 -102.5 -45t-67.5 -124t-24 -183q0 -106 27 -184.5t73 -121t101 -42.5q59 0 102.5 45
t67.5 124.5t24 182.5q0 107 -27 185t-72.5 120.5t-101.5 42.5zM552 635l15 -20l-345 -539l-18 18zM193 94l18 -18l-107 -153l-21 14zM656 777l19 -13l-101 -149l-15 20z" />
    <glyph glyph-name="Ugrave" unicode="&#xd9;" horiz-adv-x="686" 
d="M665 708v-20q-32 -3 -48.5 -14.5t-22.5 -36t-6 -69.5v-277q0 -67 -8.5 -120t-32.5 -92q-25 -42 -74.5 -67.5t-120.5 -25.5q-48 0 -94.5 11t-81.5 41q-31 26 -48.5 59t-23.5 79.5t-6 111.5v314q0 37 -5.5 54.5t-22 24t-49.5 7.5v20q25 -1 64 -2t84 -1q41 0 81 1t66 2v-20
q-34 -1 -51.5 -7.5t-23.5 -24t-6 -54.5v-362q0 -67 12 -116t43 -76t90 -27q73 0 113 33t56 92t16 134v280q0 49 -7 75t-27.5 38t-60.5 15v20q19 -1 49.5 -2t56.5 -1q25 0 49.5 1t39.5 2zM259 931q23 -12 42 -32.5t47 -48.5t75 -65l-7 -13q-54 23 -92 34t-64.5 19t-49.5 21
q-22 13 -28 32t3 37q10 19 31.5 23.5t42.5 -7.5z" />
    <glyph glyph-name="Uacute" unicode="&#xda;" horiz-adv-x="686" 
d="M665 708v-20q-32 -3 -48.5 -14.5t-22.5 -36t-6 -69.5v-277q0 -67 -8.5 -120t-32.5 -92q-25 -42 -74.5 -67.5t-120.5 -25.5q-48 0 -94.5 11t-81.5 41q-31 26 -48.5 59t-23.5 79.5t-6 111.5v314q0 37 -5.5 54.5t-22 24t-49.5 7.5v20q25 -1 64 -2t84 -1q41 0 81 1t66 2v-20
q-34 -1 -51.5 -7.5t-23.5 -24t-6 -54.5v-362q0 -67 12 -116t43 -76t90 -27q73 0 113 33t56 92t16 134v280q0 49 -7 75t-27.5 38t-60.5 15v20q19 -1 49.5 -2t56.5 -1q25 0 49.5 1t39.5 2zM451 931q21 12 42.5 7.5t31.5 -23.5q9 -18 3 -37t-28 -32t-49.5 -21t-64.5 -19
t-92 -34l-7 13q47 37 75 65t47.5 48.5t41.5 32.5z" />
    <glyph glyph-name="Ucircumflex" unicode="&#xdb;" horiz-adv-x="686" 
d="M665 708v-20q-32 -3 -48.5 -14.5t-22.5 -36t-6 -69.5v-277q0 -67 -8.5 -120t-32.5 -92q-25 -42 -74.5 -67.5t-120.5 -25.5q-48 0 -94.5 11t-81.5 41q-31 26 -48.5 59t-23.5 79.5t-6 111.5v314q0 37 -5.5 54.5t-22 24t-49.5 7.5v20q25 -1 64 -2t84 -1q41 0 81 1t66 2v-20
q-34 -1 -51.5 -7.5t-23.5 -24t-6 -54.5v-362q0 -67 12 -116t43 -76t90 -27q73 0 113 33t56 92t16 134v280q0 49 -7 75t-27.5 38t-60.5 15v20q19 -1 49.5 -2t56.5 -1q25 0 49.5 1t39.5 2zM365 932q28 -42 81 -81.5t118 -66.5l-5 -14q-64 12 -125 30t-98 36q-30 -18 -80.5 -36
t-102.5 -30l-5 14q65 26 117.5 66t81.5 82h18z" />
    <glyph glyph-name="Udieresis" unicode="&#xdc;" horiz-adv-x="686" 
d="M665 708v-20q-32 -3 -48.5 -14.5t-22.5 -36t-6 -69.5v-277q0 -67 -8.5 -120t-32.5 -92q-25 -42 -74.5 -67.5t-120.5 -25.5q-48 0 -94.5 11t-81.5 41q-31 26 -48.5 59t-23.5 79.5t-6 111.5v314q0 37 -5.5 54.5t-22 24t-49.5 7.5v20q25 -1 64 -2t84 -1q41 0 81 1t66 2v-20
q-34 -1 -51.5 -7.5t-23.5 -24t-6 -54.5v-362q0 -67 12 -116t43 -76t90 -27q73 0 113 33t56 92t16 134v280q0 49 -7 75t-27.5 38t-60.5 15v20q19 -1 49.5 -2t56.5 -1q25 0 49.5 1t39.5 2zM471 907q28 0 49 -21t21 -48q0 -29 -21 -49.5t-49 -20.5q-29 0 -49 20.5t-20 49.5
q0 27 20 48t49 21zM241 907q28 0 48.5 -21t20.5 -48q0 -29 -21 -49.5t-48 -20.5q-29 0 -49.5 20.5t-20.5 49.5q0 27 20.5 48t49.5 21z" />
    <glyph glyph-name="Yacute" unicode="&#xdd;" horiz-adv-x="612" 
d="M607 708v-20q-20 -6 -42 -30.5t-48 -75.5l-193 -383h-37l-234 432q-19 35 -33 45.5t-25 10.5v21q24 -1 50.5 -2.5t57.5 -1.5q40 0 86 1t86 3v-21q-25 0 -45 -4t-27 -17t5 -38l162 -310l-24 -28l114 226q33 66 34.5 103t-21 52.5t-63.5 16.5v20q33 -1 62.5 -2t58.5 -1
q24 0 42.5 1t33.5 2zM385 340v-234q0 -36 6 -54t22.5 -24t48.5 -8v-20q-25 2 -65 2.5t-80 0.5q-43 0 -82.5 -0.5t-63.5 -2.5v20q33 2 49.5 8t22 24t5.5 54v205l76 -62zM417 931q21 12 42.5 7.5t31.5 -23.5q9 -18 3 -37t-28 -32t-49.5 -21t-64.5 -19t-92 -34l-7 13
q47 37 75 65t47.5 48.5t41.5 32.5z" />
    <glyph glyph-name="Thorn" unicode="&#xde;" horiz-adv-x="607" 
d="M318 565q134 0 199.5 -52t65.5 -141q0 -41 -13 -81.5t-45 -74t-87.5 -53t-141.5 -19.5h-96v10v10h86q63 0 96.5 27.5t45 73.5t11.5 99q0 89 -32.5 135.5t-113.5 46.5q-31 0 -69 -1t-55 -1l-2 19q47 0 90 1t61 1zM327 708v-20q-32 -1 -48.5 -7.5t-22.5 -24t-6 -54.5v-496
q0 -36 6 -54t22.5 -24t48.5 -8v-20q-25 2 -64 2.5t-79 0.5q-45 0 -84 -0.5t-64 -2.5v20q33 2 49.5 8t22 24t5.5 54v496q0 37 -5.5 54.5t-22 24t-49.5 7.5v20q25 -1 64 -2t84 -1q40 0 79 1t64 2z" />
    <glyph glyph-name="germandbls" unicode="&#xdf;" horiz-adv-x="632" 
d="M318 782q97 0 148.5 -40.5t51.5 -105.5q0 -38 -18.5 -71.5t-48 -60t-64 -44.5t-67.5 -27q85 -14 147.5 -50t98 -88t35.5 -117q0 -61 -29.5 -104t-77 -65.5t-101.5 -22.5q-34 0 -64.5 9.5t-50.5 31t-20 56.5q0 32 17 51.5t48 19.5q28 0 45.5 -17t17.5 -45
q0 -27 -15.5 -45.5t-39.5 -27.5q4 -7 15.5 -12t26.5 -5q28 0 50.5 18t35.5 53.5t13 88.5t-13 96t-35.5 75.5t-53 55t-65.5 33.5q-9 -4 -18.5 -8.5t-17.5 -4.5q-7 0 -13.5 4.5t-6.5 12.5q0 18 22 18q8 0 17.5 -2t17.5 -5q50 36 70 81t20 109q0 69 -23.5 104.5t-68.5 35.5
q-26 0 -46.5 -15.5t-32 -54t-11.5 -109.5v-599q-26 7 -55.5 10.5t-62.5 3.5q-18 0 -35 -0.5t-41 -2.5v21q39 0 53.5 19t14.5 63v425q0 89 27.5 145t79.5 82.5t123 26.5z" />
    <glyph glyph-name="agrave" unicode="&#xe0;" horiz-adv-x="511" 
d="M158 -7q-66 0 -96 34t-30 86q0 42 20 69.5t51.5 44.5t66.5 29.5t66 24t51 26t20 37.5v73q0 32 -9.5 52.5t-28 31t-46.5 10.5q-21 0 -44 -6t-38 -23q26 -7 40.5 -26t14.5 -46q0 -31 -20.5 -48.5t-51.5 -17.5q-33 0 -50 21t-17 49t14 46.5t39 33.5q25 17 64 27t85 10
q44 0 78 -9.5t58 -33.5q24 -23 31 -57t7 -83v-274q0 -25 5.5 -35.5t19.5 -10.5q12 0 21 6t18 13l11 -17q-22 -17 -46 -27t-58 -10q-57 0 -76 25.5t-20 58.5q-27 -45 -65 -64.5t-85 -19.5zM225 49q22 0 43 12t39 40v202q-13 -20 -38 -33t-50.5 -28.5t-44 -40.5t-18.5 -69
q0 -43 19.5 -63t49.5 -20zM130 816q17 14 38.5 10.5t37.5 -22.5q16 -20 27 -46t26.5 -62t45.5 -88l-11 -9q-42 41 -73.5 65t-53.5 41.5t-38 36.5q-16 21 -15 41t16 33z" />
    <glyph glyph-name="aacute" unicode="&#xe1;" horiz-adv-x="511" 
d="M158 -7q-66 0 -96 34t-30 86q0 42 20 69.5t51.5 44.5t66.5 29.5t66 24t51 26t20 37.5v73q0 32 -9.5 52.5t-28 31t-46.5 10.5q-21 0 -44 -6t-38 -23q26 -7 40.5 -26t14.5 -46q0 -31 -20.5 -48.5t-51.5 -17.5q-33 0 -50 21t-17 49t14 46.5t39 33.5q25 17 64 27t85 10
q44 0 78 -9.5t58 -33.5q24 -23 31 -57t7 -83v-274q0 -25 5.5 -35.5t19.5 -10.5q12 0 21 6t18 13l11 -17q-22 -17 -46 -27t-58 -10q-57 0 -76 25.5t-20 58.5q-27 -45 -65 -64.5t-85 -19.5zM225 49q22 0 43 12t39 40v202q-13 -20 -38 -33t-50.5 -28.5t-44 -40.5t-18.5 -69
q0 -43 19.5 -63t49.5 -20zM364 816q15 -13 16 -33t-15 -41q-15 -19 -37.5 -36.5t-53.5 -41.5t-74 -65l-11 9q30 52 45.5 88t26.5 62t27 46q16 19 37.5 22t38.5 -10z" />
    <glyph glyph-name="acircumflex" unicode="&#xe2;" horiz-adv-x="511" 
d="M158 -7q-66 0 -96 34t-30 86q0 42 20 69.5t51.5 44.5t66.5 29.5t66 24t51 26t20 37.5v73q0 32 -9.5 52.5t-28 31t-46.5 10.5q-21 0 -44 -6t-38 -23q26 -7 40.5 -26t14.5 -46q0 -31 -20.5 -48.5t-51.5 -17.5q-33 0 -50 21t-17 49t14 46.5t39 33.5q25 17 64 27t85 10
q44 0 78 -9.5t58 -33.5q24 -23 31 -57t7 -83v-274q0 -25 5.5 -35.5t19.5 -10.5q12 0 21 6t18 13l11 -17q-22 -17 -46 -27t-58 -10q-57 0 -76 25.5t-20 58.5q-27 -45 -65 -64.5t-85 -19.5zM225 49q22 0 43 12t39 40v202q-13 -20 -38 -33t-50.5 -28.5t-44 -40.5t-18.5 -69
q0 -43 19.5 -63t49.5 -20zM264 814q24 -54 70.5 -104.5t104.5 -83.5l-8 -14q-56 16 -109.5 38.5t-86.5 45.5q-26 -23 -69 -45.5t-87 -38.5l-8 14q57 32 103.5 83t71.5 105h18z" />
    <glyph glyph-name="atilde" unicode="&#xe3;" horiz-adv-x="511" 
d="M158 -7q-66 0 -96 34t-30 86q0 42 20 69.5t51.5 44.5t66.5 29.5t66 24t51 26t20 37.5v73q0 32 -9.5 52.5t-28 31t-46.5 10.5q-21 0 -44 -6t-38 -23q26 -7 40.5 -26t14.5 -46q0 -31 -20.5 -48.5t-51.5 -17.5q-33 0 -50 21t-17 49t14 46.5t39 33.5q25 17 64 27t85 10
q44 0 78 -9.5t58 -33.5q24 -23 31 -57t7 -83v-274q0 -25 5.5 -35.5t19.5 -10.5q12 0 21 6t18 13l11 -17q-22 -17 -46 -27t-58 -10q-57 0 -76 25.5t-20 58.5q-27 -45 -65 -64.5t-85 -19.5zM225 49q22 0 43 12t39 40v202q-13 -20 -38 -33t-50.5 -28.5t-44 -40.5t-18.5 -69
q0 -43 19.5 -63t49.5 -20zM181 780q29 0 49.5 -10t37.5 -23t34.5 -23t41.5 -10q21 0 40.5 12.5t36.5 40.5l14 -7q-17 -68 -50 -97.5t-72 -29.5q-29 0 -50 10t-38 23.5t-34.5 23.5t-41.5 10q-21 0 -40.5 -12.5t-36.5 -41.5l-14 7q16 68 50 97.5t73 29.5z" />
    <glyph glyph-name="adieresis" unicode="&#xe4;" horiz-adv-x="511" 
d="M158 -7q-66 0 -96 34t-30 86q0 42 20 69.5t51.5 44.5t66.5 29.5t66 24t51 26t20 37.5v73q0 32 -9.5 52.5t-28 31t-46.5 10.5q-21 0 -44 -6t-38 -23q26 -7 40.5 -26t14.5 -46q0 -31 -20.5 -48.5t-51.5 -17.5q-33 0 -50 21t-17 49t14 46.5t39 33.5q25 17 64 27t85 10
q44 0 78 -9.5t58 -33.5q24 -23 31 -57t7 -83v-274q0 -25 5.5 -35.5t19.5 -10.5q12 0 21 6t18 13l11 -17q-22 -17 -46 -27t-58 -10q-57 0 -76 25.5t-20 58.5q-27 -45 -65 -64.5t-85 -19.5zM225 49q22 0 43 12t39 40v202q-13 -20 -38 -33t-50.5 -28.5t-44 -40.5t-18.5 -69
q0 -43 19.5 -63t49.5 -20zM367 755q28 0 49 -21t21 -49q0 -29 -21 -49.5t-49 -20.5q-29 0 -49 20.5t-20 49.5q0 28 20 49t49 21zM145 755q28 0 48.5 -21t20.5 -49q0 -29 -21 -49.5t-48 -20.5q-29 0 -49.5 20.5t-20.5 49.5q0 28 20.5 49t49.5 21z" />
    <glyph glyph-name="aring" unicode="&#xe5;" horiz-adv-x="511" 
d="M158 -7q-66 0 -96 34t-30 86q0 42 20 69.5t51.5 44.5t66.5 29.5t66 24t51 26t20 37.5v73q0 32 -9.5 52.5t-28 31t-46.5 10.5q-21 0 -44 -6t-38 -23q26 -7 40.5 -26t14.5 -46q0 -31 -20.5 -48.5t-51.5 -17.5q-33 0 -50 21t-17 49t14 46.5t39 33.5q25 17 64 27t85 10
q44 0 78 -9.5t58 -33.5q24 -23 31 -57t7 -83v-274q0 -25 5.5 -35.5t19.5 -10.5q12 0 21 6t18 13l11 -17q-22 -17 -46 -27t-58 -10q-57 0 -76 25.5t-20 58.5q-27 -45 -65 -64.5t-85 -19.5zM225 49q22 0 43 12t39 40v202q-13 -20 -38 -33t-50.5 -28.5t-44 -40.5t-18.5 -69
q0 -43 19.5 -63t49.5 -20zM255 795q42 0 73.5 -25.5t31.5 -69.5q0 -45 -31.5 -70.5t-73.5 -25.5q-41 0 -72.5 25.5t-31.5 70.5q0 44 31.5 69.5t72.5 25.5zM255 774q-27 0 -51.5 -19t-24.5 -56t24.5 -55.5t51.5 -18.5q28 0 52.5 18.5t24.5 55.5t-24.5 56t-52.5 19z" />
    <glyph glyph-name="ae" unicode="&#xe6;" horiz-adv-x="742" 
d="M158 -7q-66 0 -96 34t-30 86q0 42 20 69.5t51.5 44.5t66.5 29.5t66 24t51 26t20 37.5v73q0 32 -9.5 52.5t-28 31t-46.5 10.5q-21 0 -44 -6t-38 -23q26 -7 40.5 -26t14.5 -46q0 -31 -20.5 -48.5t-51.5 -17.5q-33 0 -50 21t-17 49t14 46.5t39 33.5q25 17 64 27t85 10
q44 0 78 -9.5t58 -33.5q23 -23 30 -57t7 -84l-94 -227q-27 -52 -57 -79.5t-60.5 -37.5t-62.5 -10zM223 49q26 0 50 16t45 56l-8 186q-14 -22 -39.5 -36t-51.5 -29.5t-44.5 -40.5t-18.5 -69q0 -43 19.5 -63t47.5 -20zM520 -14q-64 0 -111.5 29t-74 88t-26.5 148q0 86 26 149
t75.5 97t118.5 34q83 0 130.5 -53t47.5 -169h-311l-1 19h196q2 49 -5 90.5t-22.5 66.5t-39.5 25q-34 0 -59 -44.5t-31 -145.5l4 -6q-2 -13 -2.5 -28t-0.5 -30q0 -69 18.5 -114t47.5 -66t61 -21q31 0 62.5 17.5t57.5 69.5l19 -8q-11 -35 -34.5 -69.5t-59.5 -56.5t-86 -22z
" />
    <glyph glyph-name="ccedilla" unicode="&#xe7;" horiz-adv-x="493" 
d="M282 531q37 0 68.5 -8.5t54.5 -23.5q24 -15 38 -37.5t14 -49.5q0 -33 -20 -53t-50 -20q-31 0 -50.5 18t-19.5 48q0 29 17 48t41 25q-9 13 -28 21.5t-42 8.5q-30 0 -54 -15.5t-41.5 -46t-27 -75t-9.5 -102.5q0 -81 19.5 -128t50.5 -66.5t66 -19.5q31 0 69 18t66 71l19 -7
q-11 -35 -35.5 -70t-63.5 -58t-95 -23q-64 0 -116 29.5t-82.5 89.5t-30.5 149q0 88 31 149.5t86.5 94.5t124.5 33zM263 4l-22 -71q15 5 31.5 7.5t35.5 2.5q32 0 49 -14t17 -37q0 -29 -19.5 -46.5t-49 -25.5t-62.5 -8q-28 0 -49.5 3.5t-36.5 8.5l5 18q6 -1 17.5 -2.5
t24.5 -1.5q26 0 52.5 9t26.5 33q0 27 -37 27q-8 0 -20.5 -1.5t-21.5 -5.5l32 104h27z" />
    <glyph glyph-name="egrave" unicode="&#xe8;" horiz-adv-x="505" 
d="M278 531q88 0 138 -53t50 -169h-337l-1 19h222q2 49 -6 90.5t-25.5 66.5t-45.5 25q-38 0 -66 -44.5t-35 -145.5l4 -6q-2 -13 -2.5 -28t-0.5 -30q0 -69 20 -114t52 -66t66 -21q35 0 71.5 17.5t64.5 69.5l19 -8q-11 -35 -36.5 -69.5t-65.5 -56.5t-94 -22q-68 0 -120 30
t-81 89.5t-29 145.5q0 91 30.5 153t84.5 94.5t123 32.5zM149 816q17 14 38.5 10.5t37.5 -22.5q16 -20 27 -46t26.5 -62t45.5 -88l-11 -9q-42 41 -73.5 65t-53.5 41.5t-38 36.5q-16 21 -15 41t16 33z" />
    <glyph glyph-name="eacute" unicode="&#xe9;" horiz-adv-x="505" 
d="M278 531q88 0 138 -53t50 -169h-337l-1 19h222q2 49 -6 90.5t-25.5 66.5t-45.5 25q-38 0 -66 -44.5t-35 -145.5l4 -6q-2 -13 -2.5 -28t-0.5 -30q0 -69 20 -114t52 -66t66 -21q35 0 71.5 17.5t64.5 69.5l19 -8q-11 -35 -36.5 -69.5t-65.5 -56.5t-94 -22q-68 0 -120 30
t-81 89.5t-29 145.5q0 91 30.5 153t84.5 94.5t123 32.5zM383 816q15 -13 16 -33t-15 -41q-15 -19 -37.5 -36.5t-53.5 -41.5t-74 -65l-11 9q30 52 45.5 88t26.5 62t27 46q16 19 37.5 22t38.5 -10z" />
    <glyph glyph-name="ecircumflex" unicode="&#xea;" horiz-adv-x="505" 
d="M278 531q88 0 138 -53t50 -169h-337l-1 19h222q2 49 -6 90.5t-25.5 66.5t-45.5 25q-38 0 -66 -44.5t-35 -145.5l4 -6q-2 -13 -2.5 -28t-0.5 -30q0 -69 20 -114t52 -66t66 -21q35 0 71.5 17.5t64.5 69.5l19 -8q-11 -35 -36.5 -69.5t-65.5 -56.5t-94 -22q-68 0 -120 30
t-81 89.5t-29 145.5q0 91 30.5 153t84.5 94.5t123 32.5zM283 814q24 -54 70.5 -104.5t104.5 -83.5l-8 -14q-56 16 -109.5 38.5t-86.5 45.5q-26 -23 -69 -45.5t-87 -38.5l-8 14q57 32 103.5 83t71.5 105h18z" />
    <glyph glyph-name="edieresis" unicode="&#xeb;" horiz-adv-x="505" 
d="M278 531q88 0 138 -53t50 -169h-337l-1 19h222q2 49 -6 90.5t-25.5 66.5t-45.5 25q-38 0 -66 -44.5t-35 -145.5l4 -6q-2 -13 -2.5 -28t-0.5 -30q0 -69 20 -114t52 -66t66 -21q35 0 71.5 17.5t64.5 69.5l19 -8q-11 -35 -36.5 -69.5t-65.5 -56.5t-94 -22q-68 0 -120 30
t-81 89.5t-29 145.5q0 91 30.5 153t84.5 94.5t123 32.5zM386 755q28 0 49 -21t21 -49q0 -29 -21 -49.5t-49 -20.5q-29 0 -49 20.5t-20 49.5q0 28 20 49t49 21zM164 755q28 0 48.5 -21t20.5 -49q0 -29 -21 -49.5t-48 -20.5q-29 0 -49.5 20.5t-20.5 49.5q0 28 20.5 49t49.5 21
z" />
    <glyph glyph-name="igrave" unicode="&#xec;" horiz-adv-x="308" 
d="M220 528v-435q0 -42 15.5 -57t52.5 -15v-21q-18 1 -55 2.5t-75 1.5q-37 0 -75 -1.5t-57 -2.5v21q37 0 52.5 15t15.5 57v314q0 46 -14.5 67.5t-53.5 21.5v21q32 -3 62 -3q37 0 70.5 3.5t61.5 10.5zM27 816q17 14 38.5 10.5t37.5 -22.5q16 -20 27 -46t26.5 -62t45.5 -88
l-11 -9q-42 41 -73.5 65t-53.5 41.5t-38 36.5q-16 21 -15 41t16 33z" />
    <glyph glyph-name="iacute" unicode="&#xed;" horiz-adv-x="308" 
d="M220 528v-435q0 -42 15.5 -57t52.5 -15v-21q-18 1 -55 2.5t-75 1.5q-37 0 -75 -1.5t-57 -2.5v21q37 0 52.5 15t15.5 57v314q0 46 -14.5 67.5t-53.5 21.5v21q32 -3 62 -3q37 0 70.5 3.5t61.5 10.5zM261 816q15 -13 16 -33t-15 -41q-15 -19 -37.5 -36.5t-53.5 -41.5
t-74 -65l-11 9q30 52 45.5 88t26.5 62t27 46q16 19 37.5 22t38.5 -10z" />
    <glyph glyph-name="icircumflex" unicode="&#xee;" horiz-adv-x="308" 
d="M220 528v-435q0 -42 15.5 -57t52.5 -15v-21q-18 1 -55 2.5t-75 1.5q-37 0 -75 -1.5t-57 -2.5v21q37 0 52.5 15t15.5 57v314q0 46 -14.5 67.5t-53.5 21.5v21q32 -3 62 -3q37 0 70.5 3.5t61.5 10.5zM161 814q24 -54 70.5 -104.5t104.5 -83.5l-8 -14q-56 16 -109.5 38.5
t-86.5 45.5q-26 -23 -69 -45.5t-87 -38.5l-8 14q57 32 103.5 83t71.5 105h18z" />
    <glyph glyph-name="idieresis" unicode="&#xef;" horiz-adv-x="308" 
d="M220 528v-435q0 -42 15.5 -57t52.5 -15v-21q-18 1 -55 2.5t-75 1.5q-37 0 -75 -1.5t-57 -2.5v21q37 0 52.5 15t15.5 57v314q0 46 -14.5 67.5t-53.5 21.5v21q32 -3 62 -3q37 0 70.5 3.5t61.5 10.5zM264 755q28 0 49 -21t21 -49q0 -29 -21 -49.5t-49 -20.5q-29 0 -49 20.5
t-20 49.5q0 28 20 49t49 21zM42 755q28 0 48.5 -21t20.5 -49q0 -29 -21 -49.5t-48 -20.5q-29 0 -49.5 20.5t-20.5 49.5q0 28 20.5 49t49.5 21z" />
    <glyph glyph-name="eth" unicode="&#xf0;" horiz-adv-x="562" 
d="M137 782q103 -36 189 -99t138 -156.5t52 -222.5q0 -109 -32 -180t-86 -105t-120 -34q-70 0 -123.5 28t-83.5 86.5t-31 151.5q0 83 28 146t78.5 98.5t117.5 35.5q60 0 94.5 -31t48.5 -97l-17 -3q-6 46 -23 69t-38 31t-42 8q-33 0 -59 -25t-40.5 -80.5t-14.5 -146.5
q0 -90 14 -145t37 -80.5t51 -25.5q29 0 54 26.5t40.5 91t15.5 177.5q0 100 -17 174.5t-50 129t-81 93.5t-108 68zM288 694l17 -14l-199 -97l-9 18zM444 770l9 -18l-148 -72l-17 14z" />
    <glyph glyph-name="ntilde" unicode="&#xf1;" horiz-adv-x="608" 
d="M385 531q42 0 67.5 -11t41.5 -28q18 -19 25.5 -49t7.5 -81v-269q0 -42 15.5 -57t52.5 -15v-21q-18 1 -55.5 2.5t-72.5 1.5q-37 0 -72 -1.5t-52 -2.5v21q32 0 45 15t13 57v303q0 27 -5 48.5t-20 34t-43 12.5q-49 0 -81 -39.5t-32 -98.5v-260q0 -42 13 -57t45 -15v-21
q-17 1 -51 2.5t-69 1.5q-37 0 -75 -1.5t-57 -2.5v21q37 0 52.5 15t15.5 57v315q0 45 -14.5 66.5t-53.5 21.5v21q32 -3 62 -3q37 0 70.5 3.5t61.5 10.5v-100q25 57 69 80t96 23zM236 780q29 0 49.5 -10t37.5 -23t34.5 -23t41.5 -10q21 0 40.5 12.5t36.5 40.5l14 -7
q-17 -68 -50 -97.5t-72 -29.5q-29 0 -50 10t-38 23.5t-34.5 23.5t-41.5 10q-21 0 -40.5 -12.5t-36.5 -41.5l-14 7q16 68 50 97.5t73 29.5z" />
    <glyph glyph-name="ograve" unicode="&#xf2;" horiz-adv-x="559" 
d="M280 531q69 0 122.5 -27.5t85 -87.5t31.5 -158t-31.5 -158t-85 -87t-122.5 -27t-123 27t-85 87t-31 158t31 158t85 87.5t123 27.5zM280 511q-47 0 -76.5 -59.5t-29.5 -193.5t29.5 -193t76.5 -59q46 0 76 59t30 193t-30 193.5t-76 59.5zM156 816q17 14 38.5 10.5
t37.5 -22.5q16 -20 27 -46t26.5 -62t45.5 -88l-11 -9q-42 41 -73.5 65t-53.5 41.5t-38 36.5q-16 21 -15 41t16 33z" />
    <glyph glyph-name="oacute" unicode="&#xf3;" horiz-adv-x="559" 
d="M280 531q69 0 122.5 -27.5t85 -87.5t31.5 -158t-31.5 -158t-85 -87t-122.5 -27t-123 27t-85 87t-31 158t31 158t85 87.5t123 27.5zM280 511q-47 0 -76.5 -59.5t-29.5 -193.5t29.5 -193t76.5 -59q46 0 76 59t30 193t-30 193.5t-76 59.5zM390 816q15 -13 16 -33t-15 -41
q-15 -19 -37.5 -36.5t-53.5 -41.5t-74 -65l-11 9q30 52 45.5 88t26.5 62t27 46q16 19 37.5 22t38.5 -10z" />
    <glyph glyph-name="ocircumflex" unicode="&#xf4;" horiz-adv-x="559" 
d="M280 531q69 0 122.5 -27.5t85 -87.5t31.5 -158t-31.5 -158t-85 -87t-122.5 -27t-123 27t-85 87t-31 158t31 158t85 87.5t123 27.5zM280 511q-47 0 -76.5 -59.5t-29.5 -193.5t29.5 -193t76.5 -59q46 0 76 59t30 193t-30 193.5t-76 59.5zM290 814q24 -54 70.5 -104.5
t104.5 -83.5l-8 -14q-56 16 -109.5 38.5t-86.5 45.5q-26 -23 -69 -45.5t-87 -38.5l-8 14q57 32 103.5 83t71.5 105h18z" />
    <glyph glyph-name="otilde" unicode="&#xf5;" horiz-adv-x="559" 
d="M280 531q69 0 122.5 -27.5t85 -87.5t31.5 -158t-31.5 -158t-85 -87t-122.5 -27t-123 27t-85 87t-31 158t31 158t85 87.5t123 27.5zM280 511q-47 0 -76.5 -59.5t-29.5 -193.5t29.5 -193t76.5 -59q46 0 76 59t30 193t-30 193.5t-76 59.5zM207 780q29 0 49.5 -10t37.5 -23
t34.5 -23t41.5 -10q21 0 40.5 12.5t36.5 40.5l14 -7q-17 -68 -50 -97.5t-72 -29.5q-29 0 -50 10t-38 23.5t-34.5 23.5t-41.5 10q-21 0 -40.5 -12.5t-36.5 -41.5l-14 7q16 68 50 97.5t73 29.5z" />
    <glyph glyph-name="odieresis" unicode="&#xf6;" horiz-adv-x="559" 
d="M280 531q69 0 122.5 -27.5t85 -87.5t31.5 -158t-31.5 -158t-85 -87t-122.5 -27t-123 27t-85 87t-31 158t31 158t85 87.5t123 27.5zM280 511q-47 0 -76.5 -59.5t-29.5 -193.5t29.5 -193t76.5 -59q46 0 76 59t30 193t-30 193.5t-76 59.5zM393 755q28 0 49 -21t21 -49
q0 -29 -21 -49.5t-49 -20.5q-29 0 -49 20.5t-20 49.5q0 28 20 49t49 21zM171 755q28 0 48.5 -21t20.5 -49q0 -29 -21 -49.5t-48 -20.5q-29 0 -49.5 20.5t-20.5 49.5q0 28 20.5 49t49.5 21z" />
    <glyph glyph-name="divide" unicode="&#xf7;" horiz-adv-x="639" 
d="M320 266q23 0 39.5 -16t16.5 -39t-16.5 -39.5t-39.5 -16.5q-22 0 -38.5 16.5t-16.5 39.5t16.5 39t38.5 16zM320 554q23 0 39.5 -16t16.5 -39t-16.5 -39t-39.5 -16q-22 0 -38.5 16t-16.5 39t16.5 39t38.5 16zM570 370v-30h-501v30h501z" />
    <glyph glyph-name="oslash" unicode="&#xf8;" horiz-adv-x="559" 
d="M280 531q69 0 122.5 -27.5t85 -87.5t31.5 -158t-31.5 -158t-85 -87t-122.5 -27t-123 27t-85 87t-31 158t31 158t85 87.5t123 27.5zM280 511q-47 0 -76.5 -59.5t-29.5 -193.5t29.5 -193t76.5 -59q46 0 76 59t30 193t-30 193.5t-76 59.5zM392 466l15 -20l-230 -383l-16 21z
M145 80l15 -21l-91 -132l-20 14zM491 589l19 -13l-89 -130l-15 20z" />
    <glyph glyph-name="ugrave" unicode="&#xf9;" horiz-adv-x="597" 
d="M509 528v-420q0 -45 15 -66.5t53 -21.5v-21q-31 3 -62 3q-37 0 -70.5 -3t-61.5 -11v100q-25 -55 -68.5 -78.5t-93.5 -23.5q-39 0 -65.5 10.5t-42.5 28.5q-17 19 -24 50t-7 80v253q0 45 -14.5 66.5t-53.5 21.5v21q32 -3 62 -3q37 0 70.5 3.5t61.5 10.5v-408q0 -27 4.5 -48
t18.5 -33.5t42 -12.5q47 0 78.5 39.5t31.5 97.5v245q0 45 -14.5 66.5t-53.5 21.5v21q32 -3 62 -3q37 0 70.5 3.5t61.5 10.5zM161 816q17 14 38.5 10.5t37.5 -22.5q16 -20 27 -46t26.5 -62t45.5 -88l-11 -9q-42 41 -73.5 65t-53.5 41.5t-38 36.5q-16 21 -15 41t16 33z" />
    <glyph glyph-name="uacute" unicode="&#xfa;" horiz-adv-x="597" 
d="M509 528v-420q0 -45 15 -66.5t53 -21.5v-21q-31 3 -62 3q-37 0 -70.5 -3t-61.5 -11v100q-25 -55 -68.5 -78.5t-93.5 -23.5q-39 0 -65.5 10.5t-42.5 28.5q-17 19 -24 50t-7 80v253q0 45 -14.5 66.5t-53.5 21.5v21q32 -3 62 -3q37 0 70.5 3.5t61.5 10.5v-408q0 -27 4.5 -48
t18.5 -33.5t42 -12.5q47 0 78.5 39.5t31.5 97.5v245q0 45 -14.5 66.5t-53.5 21.5v21q32 -3 62 -3q37 0 70.5 3.5t61.5 10.5zM395 816q15 -13 16 -33t-15 -41q-15 -19 -37.5 -36.5t-53.5 -41.5t-74 -65l-11 9q30 52 45.5 88t26.5 62t27 46q16 19 37.5 22t38.5 -10z" />
    <glyph glyph-name="ucircumflex" unicode="&#xfb;" horiz-adv-x="597" 
d="M509 528v-420q0 -45 15 -66.5t53 -21.5v-21q-31 3 -62 3q-37 0 -70.5 -3t-61.5 -11v100q-25 -55 -68.5 -78.5t-93.5 -23.5q-39 0 -65.5 10.5t-42.5 28.5q-17 19 -24 50t-7 80v253q0 45 -14.5 66.5t-53.5 21.5v21q32 -3 62 -3q37 0 70.5 3.5t61.5 10.5v-408q0 -27 4.5 -48
t18.5 -33.5t42 -12.5q47 0 78.5 39.5t31.5 97.5v245q0 45 -14.5 66.5t-53.5 21.5v21q32 -3 62 -3q37 0 70.5 3.5t61.5 10.5zM295 814q24 -54 70.5 -104.5t104.5 -83.5l-8 -14q-56 16 -109.5 38.5t-86.5 45.5q-26 -23 -69 -45.5t-87 -38.5l-8 14q57 32 103.5 83t71.5 105h18z
" />
    <glyph glyph-name="udieresis" unicode="&#xfc;" horiz-adv-x="597" 
d="M509 528v-420q0 -45 15 -66.5t53 -21.5v-21q-31 3 -62 3q-37 0 -70.5 -3t-61.5 -11v100q-25 -55 -68.5 -78.5t-93.5 -23.5q-39 0 -65.5 10.5t-42.5 28.5q-17 19 -24 50t-7 80v253q0 45 -14.5 66.5t-53.5 21.5v21q32 -3 62 -3q37 0 70.5 3.5t61.5 10.5v-408q0 -27 4.5 -48
t18.5 -33.5t42 -12.5q47 0 78.5 39.5t31.5 97.5v245q0 45 -14.5 66.5t-53.5 21.5v21q32 -3 62 -3q37 0 70.5 3.5t61.5 10.5zM398 755q28 0 49 -21t21 -49q0 -29 -21 -49.5t-49 -20.5q-29 0 -49 20.5t-20 49.5q0 28 20 49t49 21zM176 755q28 0 48.5 -21t20.5 -49
q0 -29 -21 -49.5t-48 -20.5q-29 0 -49.5 20.5t-20.5 49.5q0 28 20.5 49t49.5 21z" />
    <glyph glyph-name="yacute" unicode="&#xfd;" horiz-adv-x="514" 
d="M506 517v-21q-19 -4 -35.5 -21t-31.5 -60l-148 -406l-31 -47l-206 478q-19 38 -36 47t-28 9v21q29 -3 60.5 -4.5t63.5 -1.5q37 0 71.5 2t64.5 4v-21q-23 0 -41 -3t-23.5 -16.5t7.5 -46.5l125 -305l-8 -4l88 238q25 70 7 102t-67 35v21q24 -2 47.5 -3t44.5 -1t41.5 1
t34.5 3zM291 9l-38 -101q-18 -50 -43 -71q-15 -13 -36.5 -19t-47.5 -6q-23 0 -44.5 8t-36 24t-14.5 42q0 28 19 45t52 17q29 0 47.5 -14.5t18.5 -43.5q0 -19 -11 -34t-31 -23q5 -1 9.5 -1.5t7.5 -0.5q29 0 52 19t37 60l36 99h23zM365 816q15 -13 16 -33t-15 -41
q-15 -19 -37.5 -36.5t-53.5 -41.5t-74 -65l-11 9q30 52 45.5 88t26.5 62t27 46q16 19 37.5 22t38.5 -10z" />
    <glyph glyph-name="thorn" unicode="&#xfe;" horiz-adv-x="576" 
d="M197 783v-867q0 -45 24.5 -60.5t67.5 -15.5v-21q-25 1 -68 2.5t-92 1.5q-35 0 -69 -1.5t-51 -2.5v21q34 0 48 14t14 52v757q0 45 -14.5 66.5t-53.5 21.5v21q32 -3 62 -3q37 0 70.5 3.5t61.5 10.5zM354 531q77 0 129 -63t52 -187q0 -88 -27 -155t-78 -103.5t-126 -36.5
q-42 0 -74.5 16t-48.5 43l10 14q12 -21 33 -34t50 -13q49 0 76.5 31.5t39.5 88.5t12 132q0 83 -11.5 133t-33 72.5t-52.5 22.5q-40 0 -73 -32.5t-39 -94.5l-8 28q16 66 61.5 102t107.5 36z" />
    <glyph glyph-name="ydieresis" unicode="&#xff;" horiz-adv-x="514" 
d="M506 517v-21q-19 -4 -35.5 -21t-31.5 -60l-148 -406l-31 -47l-206 478q-19 38 -36 47t-28 9v21q29 -3 60.5 -4.5t63.5 -1.5q37 0 71.5 2t64.5 4v-21q-23 0 -41 -3t-23.5 -16.5t7.5 -46.5l125 -305l-8 -4l88 238q25 70 7 102t-67 35v21q24 -2 47.5 -3t44.5 -1t41.5 1
t34.5 3zM291 9l-38 -101q-18 -50 -43 -71q-15 -13 -36.5 -19t-47.5 -6q-23 0 -44.5 8t-36 24t-14.5 42q0 28 19 45t52 17q29 0 47.5 -14.5t18.5 -43.5q0 -19 -11 -34t-31 -23q5 -1 9.5 -1.5t7.5 -0.5q29 0 52 19t37 60l36 99h23zM368 755q28 0 49 -21t21 -49
q0 -29 -21 -49.5t-49 -20.5q-29 0 -49 20.5t-20 49.5q0 28 20 49t49 21zM146 755q28 0 48.5 -21t20.5 -49q0 -29 -21 -49.5t-48 -20.5q-29 0 -49.5 20.5t-20.5 49.5q0 28 20.5 49t49.5 21z" />
    <glyph glyph-name="Amacron" unicode="&#x100;" horiz-adv-x="655" 
d="M353 711l243 -627q15 -36 32.5 -49.5t32.5 -14.5v-20q-26 2 -62.5 2.5t-74.5 0.5q-44 0 -82 -0.5t-62 -2.5v20q51 2 65 17.5t-6 66.5l-176 475l18 22l-160 -415q-26 -66 -25 -101.5t24 -49.5t65 -15v-20q-32 2 -62 2.5t-60 0.5q-22 0 -41.5 -0.5t-34.5 -2.5v20
q22 5 43.5 26t41.5 73l229 592q12 -1 26 -1t26 1zM440 288v-20h-298l10 20h288zM518 844v-25h-384v25h384z" />
    <glyph glyph-name="amacron" unicode="&#x101;" horiz-adv-x="511" 
d="M158 -7q-66 0 -96 34t-30 86q0 42 20 69.5t51.5 44.5t66.5 29.5t66 24t51 26t20 37.5v73q0 32 -9.5 52.5t-28 31t-46.5 10.5q-21 0 -44 -6t-38 -23q26 -7 40.5 -26t14.5 -46q0 -31 -20.5 -48.5t-51.5 -17.5q-33 0 -50 21t-17 49t14 46.5t39 33.5q25 17 64 27t85 10
q44 0 78 -9.5t58 -33.5q24 -23 31 -57t7 -83v-274q0 -25 5.5 -35.5t19.5 -10.5q12 0 21 6t18 13l11 -17q-22 -17 -46 -27t-58 -10q-57 0 -76 25.5t-20 58.5q-27 -45 -65 -64.5t-85 -19.5zM225 49q22 0 43 12t39 40v202q-13 -20 -38 -33t-50.5 -28.5t-44 -40.5t-18.5 -69
q0 -43 19.5 -63t49.5 -20zM416 712v-25h-328v25h328z" />
    <glyph glyph-name="Abreve" unicode="&#x102;" horiz-adv-x="655" 
d="M353 711l243 -627q15 -36 32.5 -49.5t32.5 -14.5v-20q-26 2 -62.5 2.5t-74.5 0.5q-44 0 -82 -0.5t-62 -2.5v20q51 2 65 17.5t-6 66.5l-176 475l18 22l-160 -415q-26 -66 -25 -101.5t24 -49.5t65 -15v-20q-32 2 -62 2.5t-60 0.5q-22 0 -41.5 -0.5t-34.5 -2.5v20
q22 5 43.5 26t41.5 73l229 592q12 -1 26 -1t26 1zM440 288v-20h-298l10 20h288zM525 913l12 -11q-15 -28 -43.5 -58t-71 -50t-100.5 -20t-100.5 20t-71 50t-43.5 58l13 11q25 -21 74.5 -41.5t127.5 -20.5t128 21t75 41z" />
    <glyph glyph-name="abreve" unicode="&#x103;" horiz-adv-x="511" 
d="M158 -7q-66 0 -96 34t-30 86q0 42 20 69.5t51.5 44.5t66.5 29.5t66 24t51 26t20 37.5v73q0 32 -9.5 52.5t-28 31t-46.5 10.5q-21 0 -44 -6t-38 -23q26 -7 40.5 -26t14.5 -46q0 -31 -20.5 -48.5t-51.5 -17.5q-33 0 -50 21t-17 49t14 46.5t39 33.5q25 17 64 27t85 10
q44 0 78 -9.5t58 -33.5q24 -23 31 -57t7 -83v-274q0 -25 5.5 -35.5t19.5 -10.5q12 0 21 6t18 13l11 -17q-22 -17 -46 -27t-58 -10q-57 0 -76 25.5t-20 58.5q-27 -45 -65 -64.5t-85 -19.5zM225 49q22 0 43 12t39 40v202q-13 -20 -38 -33t-50.5 -28.5t-44 -40.5t-18.5 -69
q0 -43 19.5 -63t49.5 -20zM424 788l17 -9q-13 -35 -37 -71t-61 -59.5t-89 -23.5t-89 23.5t-61 59.5t-37 71l17 9q21 -28 62 -54t108 -26q68 0 108.5 26t61.5 54z" />
    <glyph glyph-name="Aogonek" unicode="&#x104;" horiz-adv-x="655" 
d="M353 711l243 -627q15 -36 32.5 -49.5t32.5 -14.5v-20q-26 2 -62.5 2.5t-74.5 0.5q-44 0 -82 -0.5t-62 -2.5v20q51 2 65 17.5t-6 66.5l-176 475l18 22l-160 -415q-26 -66 -25 -101.5t24 -49.5t65 -15v-20q-32 2 -62 2.5t-60 0.5q-22 0 -41.5 -0.5t-34.5 -2.5v20
q22 5 43.5 26t41.5 73l229 592q12 -1 26 -1t26 1zM440 288v-20h-298l10 20h288zM650 3q-61 -18 -84 -45.5t-23 -51.5q0 -19 10.5 -30t30.5 -11q19 0 36 8.5t27 20.5l15 -14q-26 -35 -57 -51.5t-72 -16.5q-42 0 -64.5 18t-22.5 49q0 41 43.5 72.5t122.5 51.5h38z" />
    <glyph glyph-name="aogonek" unicode="&#x105;" horiz-adv-x="511" 
d="M158 -7q-66 0 -96 34t-30 86q0 42 20 69.5t51.5 44.5t66.5 29.5t66 24t51 26t20 37.5v73q0 32 -9.5 52.5t-28 31t-46.5 10.5q-21 0 -44 -6t-38 -23q26 -7 40.5 -26t14.5 -46q0 -31 -20.5 -48.5t-51.5 -17.5q-33 0 -50 21t-17 49t14 46.5t39 33.5q25 17 64 27t85 10
q44 0 78 -9.5t58 -33.5q24 -23 31 -57t7 -83v-274q0 -25 5.5 -35.5t19.5 -10.5q12 0 21 6t18 13l11 -17q-22 -17 -46 -27t-58 -10q-57 0 -76 25.5t-20 58.5q-27 -45 -65 -64.5t-85 -19.5zM225 49q22 0 43 12t39 40v202q-13 -20 -38 -33t-50.5 -28.5t-44 -40.5t-18.5 -69
q0 -43 19.5 -63t49.5 -20zM468 7q-3 -3 -7 -5t-9 -5q-45 -20 -62.5 -44t-17.5 -47q0 -19 11.5 -30t30.5 -11q18 0 35.5 8.5t27.5 20.5l14 -14q-25 -35 -56.5 -51.5t-72.5 -16.5t-64 18t-23 49q0 41 40.5 72.5t113.5 51.5z" />
    <glyph glyph-name="Cacute" unicode="&#x106;" horiz-adv-x="700" 
d="M388 722q66 0 108.5 -19.5t75.5 -45.5q20 -15 30.5 -3.5t14.5 54.5h23q-2 -38 -3 -93t-1 -145h-23q-6 45 -13 75.5t-19.5 52.5t-34.5 42q-27 30 -64.5 44.5t-78.5 14.5q-52 0 -90.5 -27.5t-64 -75t-38 -110.5t-12.5 -134q0 -73 13.5 -135.5t40 -109t66 -72.5t91.5 -26
q37 0 76 14t64 43q33 30 45 71.5t19 110.5h23q0 -94 1 -151.5t3 -96.5h-23q-4 43 -13.5 54t-31.5 -3q-37 -26 -78.5 -45.5t-106.5 -19.5q-102 0 -179 43t-119.5 124t-42.5 195q0 112 44 196t121 131t177 47zM469 931q21 12 42.5 7.5t31.5 -23.5q9 -18 3 -37t-28 -32
t-49.5 -21t-64.5 -19t-92 -34l-7 13q47 37 75 65t47.5 48.5t41.5 32.5z" />
    <glyph glyph-name="cacute" unicode="&#x107;" horiz-adv-x="493" 
d="M282 531q37 0 68.5 -8.5t54.5 -23.5q24 -15 38 -37.5t14 -49.5q0 -33 -20 -53t-50 -20q-31 0 -50.5 18t-19.5 48q0 29 17 48t41 25q-9 13 -28 21.5t-42 8.5q-30 0 -54 -15.5t-41.5 -46t-27 -75t-9.5 -102.5q0 -81 19.5 -128t50.5 -66.5t66 -19.5q31 0 69 18t66 71l19 -7
q-11 -35 -35.5 -70t-63.5 -58t-95 -23q-64 0 -116 29.5t-82.5 89.5t-30.5 149q0 88 31 149.5t86.5 94.5t124.5 33zM375 816q15 -13 16 -33t-15 -41q-15 -19 -37.5 -36.5t-53.5 -41.5t-74 -65l-11 9q30 52 45.5 88t26.5 62t27 46q16 19 37.5 22t38.5 -10z" />
    <glyph glyph-name="Ccircumflex" unicode="&#x108;" horiz-adv-x="700" 
d="M388 722q66 0 108.5 -19.5t75.5 -45.5q20 -15 30.5 -3.5t14.5 54.5h23q-2 -38 -3 -93t-1 -145h-23q-6 45 -13 75.5t-19.5 52.5t-34.5 42q-27 30 -64.5 44.5t-78.5 14.5q-52 0 -90.5 -27.5t-64 -75t-38 -110.5t-12.5 -134q0 -73 13.5 -135.5t40 -109t66 -72.5t91.5 -26
q37 0 76 14t64 43q33 30 45 71.5t19 110.5h23q0 -94 1 -151.5t3 -96.5h-23q-4 43 -13.5 54t-31.5 -3q-37 -26 -78.5 -45.5t-106.5 -19.5q-102 0 -179 43t-119.5 124t-42.5 195q0 112 44 196t121 131t177 47zM383 932q28 -42 81 -81.5t118 -66.5l-5 -14q-64 12 -125 30
t-98 36q-30 -18 -80.5 -36t-102.5 -30l-5 14q65 26 117.5 66t81.5 82h18z" />
    <glyph glyph-name="ccircumflex" unicode="&#x109;" horiz-adv-x="493" 
d="M282 531q37 0 68.5 -8.5t54.5 -23.5q24 -15 38 -37.5t14 -49.5q0 -33 -20 -53t-50 -20q-31 0 -50.5 18t-19.5 48q0 29 17 48t41 25q-9 13 -28 21.5t-42 8.5q-30 0 -54 -15.5t-41.5 -46t-27 -75t-9.5 -102.5q0 -81 19.5 -128t50.5 -66.5t66 -19.5q31 0 69 18t66 71l19 -7
q-11 -35 -35.5 -70t-63.5 -58t-95 -23q-64 0 -116 29.5t-82.5 89.5t-30.5 149q0 88 31 149.5t86.5 94.5t124.5 33zM275 814q24 -54 70.5 -104.5t104.5 -83.5l-8 -14q-56 16 -109.5 38.5t-86.5 45.5q-26 -23 -69 -45.5t-87 -38.5l-8 14q57 32 103.5 83t71.5 105h18z" />
    <glyph glyph-name="Cdotaccent" unicode="&#x10a;" horiz-adv-x="700" 
d="M388 722q66 0 108.5 -19.5t75.5 -45.5q20 -15 30.5 -3.5t14.5 54.5h23q-2 -38 -3 -93t-1 -145h-23q-6 45 -13 75.5t-19.5 52.5t-34.5 42q-27 30 -64.5 44.5t-78.5 14.5q-52 0 -90.5 -27.5t-64 -75t-38 -110.5t-12.5 -134q0 -73 13.5 -135.5t40 -109t66 -72.5t91.5 -26
q37 0 76 14t64 43q33 30 45 71.5t19 110.5h23q0 -94 1 -151.5t3 -96.5h-23q-4 43 -13.5 54t-31.5 -3q-37 -26 -78.5 -45.5t-106.5 -19.5q-102 0 -179 43t-119.5 124t-42.5 195q0 112 44 196t121 131t177 47zM374 913q35 0 56.5 -20t21.5 -53t-21.5 -53t-56.5 -20t-56.5 20
t-21.5 53t21.5 53t56.5 20z" />
    <glyph glyph-name="cdotaccent" unicode="&#x10b;" horiz-adv-x="493" 
d="M282 531q37 0 68.5 -8.5t54.5 -23.5q24 -15 38 -37.5t14 -49.5q0 -33 -20 -53t-50 -20q-31 0 -50.5 18t-19.5 48q0 29 17 48t41 25q-9 13 -28 21.5t-42 8.5q-30 0 -54 -15.5t-41.5 -46t-27 -75t-9.5 -102.5q0 -81 19.5 -128t50.5 -66.5t66 -19.5q31 0 69 18t66 71l19 -7
q-11 -35 -35.5 -70t-63.5 -58t-95 -23q-64 0 -116 29.5t-82.5 89.5t-30.5 149q0 88 31 149.5t86.5 94.5t124.5 33zM275 772q36 0 59 -20t23 -53t-23 -53t-59 -20t-59 20t-23 53t23 53t59 20z" />
    <glyph glyph-name="Ccaron" unicode="&#x10c;" horiz-adv-x="700" 
d="M388 722q66 0 108.5 -19.5t75.5 -45.5q20 -15 30.5 -3.5t14.5 54.5h23q-2 -38 -3 -93t-1 -145h-23q-6 45 -13 75.5t-19.5 52.5t-34.5 42q-27 30 -64.5 44.5t-78.5 14.5q-52 0 -90.5 -27.5t-64 -75t-38 -110.5t-12.5 -134q0 -73 13.5 -135.5t40 -109t66 -72.5t91.5 -26
q37 0 76 14t64 43q33 30 45 71.5t19 110.5h23q0 -94 1 -151.5t3 -96.5h-23q-4 43 -13.5 54t-31.5 -3q-37 -26 -78.5 -45.5t-106.5 -19.5q-102 0 -179 43t-119.5 124t-42.5 195q0 112 44 196t121 131t177 47zM574 934l5 -14q-65 -26 -117.5 -66t-81.5 -82h-18
q-28 41 -81 81.5t-118 66.5l5 14q64 -12 125.5 -30t97.5 -36q31 18 81 36t102 30z" />
    <glyph glyph-name="ccaron" unicode="&#x10d;" horiz-adv-x="493" 
d="M282 531q37 0 68.5 -8.5t54.5 -23.5q24 -15 38 -37.5t14 -49.5q0 -33 -20 -53t-50 -20q-31 0 -50.5 18t-19.5 48q0 29 17 48t41 25q-9 13 -28 21.5t-42 8.5q-30 0 -54 -15.5t-41.5 -46t-27 -75t-9.5 -102.5q0 -81 19.5 -128t50.5 -66.5t66 -19.5q31 0 69 18t66 71l19 -7
q-11 -35 -35.5 -70t-63.5 -58t-95 -23q-64 0 -116 29.5t-82.5 89.5t-30.5 149q0 88 31 149.5t86.5 94.5t124.5 33zM432 814l8 -14q-57 -32 -103.5 -83t-71.5 -105h-18q-24 54 -70.5 105t-104.5 83l8 14q56 -15 110 -38t86 -46q27 23 69.5 46t86.5 38z" />
    <glyph glyph-name="Dcaron" unicode="&#x10e;" horiz-adv-x="758" 
d="M333 708q192 0 284.5 -89.5t92.5 -256.5q0 -109 -45.5 -190.5t-131.5 -126.5t-209 -45q-22 0 -66 1.5t-78 1.5q-41 0 -80 -0.5t-64 -2.5v20q33 2 49.5 8t22 24t5.5 54v496q0 37 -5.5 54.5t-22 24t-49.5 7.5v20q25 -1 64 -2.5t78 -0.5q36 1 81 2t74 1zM324 690
q-46 0 -60 -17t-14 -69v-500q0 -52 14.5 -69t60.5 -17q93 0 145.5 39.5t74 115.5t21.5 185q0 168 -54.5 250t-187.5 82zM533 934l5 -14q-65 -26 -117.5 -66t-81.5 -82h-18q-28 41 -81 81.5t-118 66.5l5 14q64 -12 125.5 -30t97.5 -36q31 18 81 36t102 30z" />
    <glyph glyph-name="dcaron" unicode="&#x10f;" horiz-adv-x="592" 
d="M505 783v-674q0 -45 15 -66.5t53 -21.5v-21q-31 3 -62 3q-37 0 -70 -3t-62 -11v674q0 45 -14.5 66.5t-53.5 21.5v21q32 -3 62 -3q38 0 71 3.5t61 10.5zM266 531q44 0 79 -17t52 -57l-12 -10q-14 29 -38 43t-54 14q-54 0 -86.5 -60.5t-32.5 -185.5q0 -84 13 -135.5
t37.5 -74.5t58.5 -23q36 0 65 29.5t34 84.5l7 -28q-13 -61 -49 -93t-95 -32q-60 0 -106.5 29.5t-72 90t-25.5 153.5q0 91 30 151.5t81 90.5t114 30zM653 784q2 -5 3.5 -18.5t1.5 -22.5q0 -29 -23.5 -72t-63.5 -108l-14 4q12 68 16 100t4 45q0 20 -3.5 30t-16.5 10v21
q35 -2 56.5 2t39.5 9z" />
    <glyph glyph-name="Dcroat" unicode="&#x110;" horiz-adv-x="758" 
d="M333 708q192 0 284.5 -89.5t92.5 -256.5q0 -109 -45.5 -190.5t-131.5 -126.5t-209 -45q-22 0 -66 1.5t-78 1.5q-41 0 -80 -0.5t-64 -2.5v20q33 2 49.5 8t22 24t5.5 54v496q0 37 -5.5 54.5t-22 24t-49.5 7.5v20q25 -1 64 -2.5t78 -0.5q36 1 81 2t74 1zM324 690
q-46 0 -60 -17t-14 -69v-500q0 -52 14.5 -69t60.5 -17q93 0 145.5 39.5t74 115.5t21.5 185q0 168 -54.5 250t-187.5 82zM383 366v-20h-374v20h374z" />
    <glyph glyph-name="dcroat" unicode="&#x111;" horiz-adv-x="592" 
d="M505 783v-674q0 -45 15 -66.5t53 -21.5v-21q-31 3 -62 3q-37 0 -70 -3t-62 -11v674q0 45 -14.5 66.5t-53.5 21.5v21q32 -3 62 -3q38 0 71 3.5t61 10.5zM266 531q44 0 79 -17t52 -57l-12 -10q-14 29 -38 43t-54 14q-54 0 -86.5 -60.5t-32.5 -185.5q0 -84 13 -135.5
t37.5 -74.5t58.5 -23q36 0 65 29.5t34 84.5l7 -28q-13 -61 -49 -93t-95 -32q-60 0 -106.5 29.5t-72 90t-25.5 153.5q0 91 30 151.5t81 90.5t114 30zM583 628v-20h-374v20h374z" />
    <glyph glyph-name="Emacron" unicode="&#x112;" horiz-adv-x="625" 
d="M559 708q-4 -41 -5.5 -79.5t-1.5 -58.5q0 -19 1 -36.5t2 -29.5h-23q-8 69 -26 108.5t-48.5 56t-79.5 16.5h-55q-30 0 -46 -5t-21.5 -21t-5.5 -49v-512q0 -32 5.5 -48.5t21.5 -21.5t46 -5h57q51 0 85.5 19t55.5 62.5t31 119.5h23q-3 -31 -3 -80q0 -21 1.5 -61t5.5 -83
q-51 2 -115 2.5t-114 0.5h-86t-114.5 -0.5t-113.5 -2.5v20q33 2 49.5 8t22 24t5.5 54v496q0 37 -5.5 54.5t-22 24t-49.5 7.5v20q53 -1 113.5 -2t114.5 -1h86q46 0 104.5 0.5t104.5 2.5zM398 366v-10v-10h-178v10v10h178zM427 498q-4 -57 -3.5 -87t0.5 -55t1 -55t5 -87h-23
q-5 34 -15.5 64.5t-33 49t-64.5 18.5v20q42 0 63.5 22t31.5 53t15 57h23zM504 844v-25h-384v25h384z" />
    <glyph glyph-name="emacron" unicode="&#x113;" horiz-adv-x="505" 
d="M278 531q88 0 138 -53t50 -169h-337l-1 19h222q2 49 -6 90.5t-25.5 66.5t-45.5 25q-38 0 -66 -44.5t-35 -145.5l4 -6q-2 -13 -2.5 -28t-0.5 -30q0 -69 20 -114t52 -66t66 -21q35 0 71.5 17.5t64.5 69.5l19 -8q-11 -35 -36.5 -69.5t-65.5 -56.5t-94 -22q-68 0 -120 30
t-81 89.5t-29 145.5q0 91 30.5 153t84.5 94.5t123 32.5zM435 712v-25h-328v25h328z" />
    <glyph glyph-name="Ebreve" unicode="&#x114;" horiz-adv-x="625" 
d="M559 708q-4 -41 -5.5 -79.5t-1.5 -58.5q0 -19 1 -36.5t2 -29.5h-23q-8 69 -26 108.5t-48.5 56t-79.5 16.5h-55q-30 0 -46 -5t-21.5 -21t-5.5 -49v-512q0 -32 5.5 -48.5t21.5 -21.5t46 -5h57q51 0 85.5 19t55.5 62.5t31 119.5h23q-3 -31 -3 -80q0 -21 1.5 -61t5.5 -83
q-51 2 -115 2.5t-114 0.5h-86t-114.5 -0.5t-113.5 -2.5v20q33 2 49.5 8t22 24t5.5 54v496q0 37 -5.5 54.5t-22 24t-49.5 7.5v20q53 -1 113.5 -2t114.5 -1h86q46 0 104.5 0.5t104.5 2.5zM398 366v-10v-10h-178v10v10h178zM427 498q-4 -57 -3.5 -87t0.5 -55t1 -55t5 -87h-23
q-5 34 -15.5 64.5t-33 49t-64.5 18.5v20q42 0 63.5 22t31.5 53t15 57h23zM511 913l12 -11q-15 -28 -43.5 -58t-71 -50t-100.5 -20t-100.5 20t-71 50t-43.5 58l13 11q25 -21 74.5 -41.5t127.5 -20.5t128 21t75 41z" />
    <glyph glyph-name="ebreve" unicode="&#x115;" horiz-adv-x="505" 
d="M278 531q88 0 138 -53t50 -169h-337l-1 19h222q2 49 -6 90.5t-25.5 66.5t-45.5 25q-38 0 -66 -44.5t-35 -145.5l4 -6q-2 -13 -2.5 -28t-0.5 -30q0 -69 20 -114t52 -66t66 -21q35 0 71.5 17.5t64.5 69.5l19 -8q-11 -35 -36.5 -69.5t-65.5 -56.5t-94 -22q-68 0 -120 30
t-81 89.5t-29 145.5q0 91 30.5 153t84.5 94.5t123 32.5zM443 788l17 -9q-13 -35 -37 -71t-61 -59.5t-89 -23.5t-89 23.5t-61 59.5t-37 71l17 9q21 -28 62 -54t108 -26q68 0 108.5 26t61.5 54z" />
    <glyph glyph-name="Edotaccent" unicode="&#x116;" horiz-adv-x="625" 
d="M559 708q-4 -41 -5.5 -79.5t-1.5 -58.5q0 -19 1 -36.5t2 -29.5h-23q-8 69 -26 108.5t-48.5 56t-79.5 16.5h-55q-30 0 -46 -5t-21.5 -21t-5.5 -49v-512q0 -32 5.5 -48.5t21.5 -21.5t46 -5h57q51 0 85.5 19t55.5 62.5t31 119.5h23q-3 -31 -3 -80q0 -21 1.5 -61t5.5 -83
q-51 2 -115 2.5t-114 0.5h-86t-114.5 -0.5t-113.5 -2.5v20q33 2 49.5 8t22 24t5.5 54v496q0 37 -5.5 54.5t-22 24t-49.5 7.5v20q53 -1 113.5 -2t114.5 -1h86q46 0 104.5 0.5t104.5 2.5zM398 366v-10v-10h-178v10v10h178zM427 498q-4 -57 -3.5 -87t0.5 -55t1 -55t5 -87h-23
q-5 34 -15.5 64.5t-33 49t-64.5 18.5v20q42 0 63.5 22t31.5 53t15 57h23zM312 913q35 0 56.5 -20t21.5 -53t-21.5 -53t-56.5 -20t-56.5 20t-21.5 53t21.5 53t56.5 20z" />
    <glyph glyph-name="edotaccent" unicode="&#x117;" horiz-adv-x="505" 
d="M278 531q88 0 138 -53t50 -169h-337l-1 19h222q2 49 -6 90.5t-25.5 66.5t-45.5 25q-38 0 -66 -44.5t-35 -145.5l4 -6q-2 -13 -2.5 -28t-0.5 -30q0 -69 20 -114t52 -66t66 -21q35 0 71.5 17.5t64.5 69.5l19 -8q-11 -35 -36.5 -69.5t-65.5 -56.5t-94 -22q-68 0 -120 30
t-81 89.5t-29 145.5q0 91 30.5 153t84.5 94.5t123 32.5zM274 772q36 0 59 -20t23 -53t-23 -53t-59 -20t-59 20t-23 53t23 53t59 20z" />
    <glyph glyph-name="Eogonek" unicode="&#x118;" horiz-adv-x="625" 
d="M559 708q-4 -41 -5.5 -79.5t-1.5 -58.5q0 -19 1 -36.5t2 -29.5h-23q-8 69 -26 108.5t-48.5 56t-79.5 16.5h-55q-30 0 -46 -5t-21.5 -21t-5.5 -49v-512q0 -32 5.5 -48.5t21.5 -21.5t46 -5h57q51 0 85.5 19t55.5 62.5t31 119.5h23q-3 -31 -3 -80q0 -21 1.5 -61t5.5 -83
q-51 2 -115 2.5t-114 0.5h-86t-114.5 -0.5t-113.5 -2.5v20q33 2 49.5 8t22 24t5.5 54v496q0 37 -5.5 54.5t-22 24t-49.5 7.5v20q53 -1 113.5 -2t114.5 -1h86q46 0 104.5 0.5t104.5 2.5zM398 366v-10v-10h-178v10v10h178zM427 498q-4 -57 -3.5 -87t0.5 -55t1 -55t5 -87h-23
q-5 34 -15.5 64.5t-33 49t-64.5 18.5v20q42 0 63.5 22t31.5 53t15 57h23zM578 3q-61 -18 -84 -45.5t-23 -51.5q0 -19 10.5 -30t30.5 -11q19 0 36 8.5t27 20.5l15 -14q-26 -35 -57 -51.5t-72 -16.5q-42 0 -64.5 18t-22.5 49q0 41 43.5 72.5t122.5 51.5h38z" />
    <glyph glyph-name="eogonek" unicode="&#x119;" horiz-adv-x="505" 
d="M278 531q88 0 138 -53t50 -169h-337l-1 19h222q2 49 -6 90.5t-25.5 66.5t-45.5 25q-38 0 -66 -44.5t-35 -145.5l4 -6q-2 -13 -2.5 -28t-0.5 -30q0 -69 20 -114t52 -66t66 -21q35 0 71.5 17.5t64.5 69.5l19 -8q-11 -35 -36.5 -69.5t-65.5 -56.5t-94 -22q-68 0 -120 30
t-81 89.5t-29 145.5q0 91 30.5 153t84.5 94.5t123 32.5zM356 7q-3 -3 -7 -5t-9 -5q-45 -20 -62.5 -44t-17.5 -47q0 -19 11.5 -30t30.5 -11q18 0 35.5 8.5t27.5 20.5l14 -14q-25 -35 -56.5 -51.5t-72.5 -16.5t-64 18t-23 49q0 41 40.5 72.5t113.5 51.5z" />
    <glyph glyph-name="Ecaron" unicode="&#x11a;" horiz-adv-x="625" 
d="M559 708q-4 -41 -5.5 -79.5t-1.5 -58.5q0 -19 1 -36.5t2 -29.5h-23q-8 69 -26 108.5t-48.5 56t-79.5 16.5h-55q-30 0 -46 -5t-21.5 -21t-5.5 -49v-512q0 -32 5.5 -48.5t21.5 -21.5t46 -5h57q51 0 85.5 19t55.5 62.5t31 119.5h23q-3 -31 -3 -80q0 -21 1.5 -61t5.5 -83
q-51 2 -115 2.5t-114 0.5h-86t-114.5 -0.5t-113.5 -2.5v20q33 2 49.5 8t22 24t5.5 54v496q0 37 -5.5 54.5t-22 24t-49.5 7.5v20q53 -1 113.5 -2t114.5 -1h86q46 0 104.5 0.5t104.5 2.5zM398 366v-10v-10h-178v10v10h178zM427 498q-4 -57 -3.5 -87t0.5 -55t1 -55t5 -87h-23
q-5 34 -15.5 64.5t-33 49t-64.5 18.5v20q42 0 63.5 22t31.5 53t15 57h23zM512 934l5 -14q-65 -26 -117.5 -66t-81.5 -82h-18q-28 41 -81 81.5t-118 66.5l5 14q64 -12 125.5 -30t97.5 -36q31 18 81 36t102 30z" />
    <glyph glyph-name="ecaron" unicode="&#x11b;" horiz-adv-x="505" 
d="M278 531q88 0 138 -53t50 -169h-337l-1 19h222q2 49 -6 90.5t-25.5 66.5t-45.5 25q-38 0 -66 -44.5t-35 -145.5l4 -6q-2 -13 -2.5 -28t-0.5 -30q0 -69 20 -114t52 -66t66 -21q35 0 71.5 17.5t64.5 69.5l19 -8q-11 -35 -36.5 -69.5t-65.5 -56.5t-94 -22q-68 0 -120 30
t-81 89.5t-29 145.5q0 91 30.5 153t84.5 94.5t123 32.5zM440 814l8 -14q-57 -32 -103.5 -83t-71.5 -105h-18q-24 54 -70.5 105t-104.5 83l8 14q56 -15 110 -38t86 -46q27 23 69.5 46t86.5 38z" />
    <glyph glyph-name="Gcircumflex" unicode="&#x11c;" horiz-adv-x="724" 
d="M395 722q67 0 109 -19.5t77 -45.5q12 -10 20 -10q19 0 25 61h23q-2 -38 -3 -93t-1 -145h-23q-7 54 -20 97t-47 73q-26 28 -65.5 43.5t-79.5 15.5q-53 0 -92.5 -27.5t-66 -75t-39.5 -110t-13 -133.5q0 -180 52.5 -263.5t154.5 -83.5q28 0 48.5 7.5t33.5 15.5q16 11 21 23
t5 30v98q0 44 -8 65.5t-29.5 29.5t-63.5 9v20q20 -1 47.5 -1.5t58 -1t55.5 -0.5q39 0 71 1t53 2v-20q-30 -2 -38.5 -16t-8.5 -70v-198h-20q-1 17 -8 37t-21 20q-7 0 -16 -3.5t-31 -15.5q-35 -23 -74.5 -37.5t-86.5 -14.5q-168 0 -257.5 95t-89.5 263q0 115 45 200
t123.5 131.5t179.5 46.5zM387 932q28 -42 81 -81.5t118 -66.5l-5 -14q-64 12 -125 30t-98 36q-30 -18 -80.5 -36t-102.5 -30l-5 14q65 26 117.5 66t81.5 82h18z" />
    <glyph glyph-name="gcircumflex" unicode="&#x11d;" horiz-adv-x="545" 
d="M216 -188q-59 0 -107 11t-76 32.5t-28 54.5q0 32 28 57t82 38l7 -16q-19 -11 -29 -30t-10 -40q0 -43 39.5 -66.5t105.5 -23.5q45 0 83 12t61 37t23 62q0 31 -22.5 52t-89.5 21h-66q-37 0 -67.5 8t-48.5 26t-18 50q0 39 32 70.5t100 61.5l11 -9q-25 -13 -44.5 -28
t-19.5 -38q0 -32 44 -32h113q76 0 128.5 -29.5t52.5 -98.5q0 -48 -31 -89.5t-93.5 -67t-159.5 -25.5zM225 213q-82 0 -136.5 38.5t-54.5 120.5q0 83 54.5 121t136.5 38q81 0 136 -38t55 -121q0 -82 -55 -120.5t-136 -38.5zM225 231q30 0 47.5 30.5t17.5 110.5t-17.5 110.5
t-47.5 30.5t-47.5 -30.5t-17.5 -110.5t17.5 -110.5t47.5 -30.5zM376 446l-19 7q15 37 49 62.5t72 25.5q29 0 45.5 -16t16.5 -45q0 -30 -16 -44t-35 -14q-17 0 -31 11.5t-16 36t16 61.5l10 -4q-39 -15 -58 -33t-34 -48zM254 814q24 -54 70.5 -104.5t104.5 -83.5l-8 -14
q-56 16 -109.5 38.5t-86.5 45.5q-26 -23 -69 -45.5t-87 -38.5l-8 14q57 32 103.5 83t71.5 105h18z" />
    <glyph glyph-name="Gbreve" unicode="&#x11e;" horiz-adv-x="724" 
d="M395 722q67 0 109 -19.5t77 -45.5q12 -10 20 -10q19 0 25 61h23q-2 -38 -3 -93t-1 -145h-23q-7 54 -20 97t-47 73q-26 28 -65.5 43.5t-79.5 15.5q-53 0 -92.5 -27.5t-66 -75t-39.5 -110t-13 -133.5q0 -180 52.5 -263.5t154.5 -83.5q28 0 48.5 7.5t33.5 15.5q16 11 21 23
t5 30v98q0 44 -8 65.5t-29.5 29.5t-63.5 9v20q20 -1 47.5 -1.5t58 -1t55.5 -0.5q39 0 71 1t53 2v-20q-30 -2 -38.5 -16t-8.5 -70v-198h-20q-1 17 -8 37t-21 20q-7 0 -16 -3.5t-31 -15.5q-35 -23 -74.5 -37.5t-86.5 -14.5q-168 0 -257.5 95t-89.5 263q0 115 45 200
t123.5 131.5t179.5 46.5zM577 913l12 -11q-15 -28 -43.5 -58t-71 -50t-100.5 -20t-100.5 20t-71 50t-43.5 58l13 11q25 -21 74.5 -41.5t127.5 -20.5t128 21t75 41z" />
    <glyph glyph-name="gbreve" unicode="&#x11f;" horiz-adv-x="545" 
d="M216 -188q-59 0 -107 11t-76 32.5t-28 54.5q0 32 28 57t82 38l7 -16q-19 -11 -29 -30t-10 -40q0 -43 39.5 -66.5t105.5 -23.5q45 0 83 12t61 37t23 62q0 31 -22.5 52t-89.5 21h-66q-37 0 -67.5 8t-48.5 26t-18 50q0 39 32 70.5t100 61.5l11 -9q-25 -13 -44.5 -28
t-19.5 -38q0 -32 44 -32h113q76 0 128.5 -29.5t52.5 -98.5q0 -48 -31 -89.5t-93.5 -67t-159.5 -25.5zM225 213q-82 0 -136.5 38.5t-54.5 120.5q0 83 54.5 121t136.5 38q81 0 136 -38t55 -121q0 -82 -55 -120.5t-136 -38.5zM225 231q30 0 47.5 30.5t17.5 110.5t-17.5 110.5
t-47.5 30.5t-47.5 -30.5t-17.5 -110.5t17.5 -110.5t47.5 -30.5zM376 446l-19 7q15 37 49 62.5t72 25.5q29 0 45.5 -16t16.5 -45q0 -30 -16 -44t-35 -14q-17 0 -31 11.5t-16 36t16 61.5l10 -4q-39 -15 -58 -33t-34 -48zM414 788l17 -9q-13 -35 -37 -71t-61 -59.5t-89 -23.5
t-89 23.5t-61 59.5t-37 71l17 9q21 -28 62 -54t108 -26q68 0 108.5 26t61.5 54z" />
    <glyph glyph-name="Gdotaccent" unicode="&#x120;" horiz-adv-x="724" 
d="M395 722q67 0 109 -19.5t77 -45.5q12 -10 20 -10q19 0 25 61h23q-2 -38 -3 -93t-1 -145h-23q-7 54 -20 97t-47 73q-26 28 -65.5 43.5t-79.5 15.5q-53 0 -92.5 -27.5t-66 -75t-39.5 -110t-13 -133.5q0 -180 52.5 -263.5t154.5 -83.5q28 0 48.5 7.5t33.5 15.5q16 11 21 23
t5 30v98q0 44 -8 65.5t-29.5 29.5t-63.5 9v20q20 -1 47.5 -1.5t58 -1t55.5 -0.5q39 0 71 1t53 2v-20q-30 -2 -38.5 -16t-8.5 -70v-198h-20q-1 17 -8 37t-21 20q-7 0 -16 -3.5t-31 -15.5q-35 -23 -74.5 -37.5t-86.5 -14.5q-168 0 -257.5 95t-89.5 263q0 115 45 200
t123.5 131.5t179.5 46.5zM383 913q35 0 56.5 -20t21.5 -53t-21.5 -53t-56.5 -20t-56.5 20t-21.5 53t21.5 53t56.5 20z" />
    <glyph glyph-name="gdotaccent" unicode="&#x121;" horiz-adv-x="545" 
d="M216 -188q-59 0 -107 11t-76 32.5t-28 54.5q0 32 28 57t82 38l7 -16q-19 -11 -29 -30t-10 -40q0 -43 39.5 -66.5t105.5 -23.5q45 0 83 12t61 37t23 62q0 31 -22.5 52t-89.5 21h-66q-37 0 -67.5 8t-48.5 26t-18 50q0 39 32 70.5t100 61.5l11 -9q-25 -13 -44.5 -28
t-19.5 -38q0 -32 44 -32h113q76 0 128.5 -29.5t52.5 -98.5q0 -48 -31 -89.5t-93.5 -67t-159.5 -25.5zM225 213q-82 0 -136.5 38.5t-54.5 120.5q0 83 54.5 121t136.5 38q81 0 136 -38t55 -121q0 -82 -55 -120.5t-136 -38.5zM225 231q30 0 47.5 30.5t17.5 110.5t-17.5 110.5
t-47.5 30.5t-47.5 -30.5t-17.5 -110.5t17.5 -110.5t47.5 -30.5zM376 446l-19 7q15 37 49 62.5t72 25.5q29 0 45.5 -16t16.5 -45q0 -30 -16 -44t-35 -14q-17 0 -31 11.5t-16 36t16 61.5l10 -4q-39 -15 -58 -33t-34 -48zM245 772q36 0 59 -20t23 -53t-23 -53t-59 -20t-59 20
t-23 53t23 53t59 20z" />
    <glyph glyph-name="uni0122" unicode="&#x122;" horiz-adv-x="724" 
d="M395 722q67 0 109 -19.5t77 -45.5q12 -10 20 -10q19 0 25 61h23q-2 -38 -3 -93t-1 -145h-23q-7 54 -20 97t-47 73q-26 28 -65.5 43.5t-79.5 15.5q-53 0 -92.5 -27.5t-66 -75t-39.5 -110t-13 -133.5q0 -180 52.5 -263.5t154.5 -83.5q28 0 48.5 7.5t33.5 15.5q16 11 21 23
t5 30v98q0 44 -8 65.5t-29.5 29.5t-63.5 9v20q20 -1 47.5 -1.5t58 -1t55.5 -0.5q39 0 71 1t53 2v-20q-30 -2 -38.5 -16t-8.5 -70v-198h-20q-1 17 -8 37t-21 20q-7 0 -16 -3.5t-31 -15.5q-35 -23 -74.5 -37.5t-86.5 -14.5q-168 0 -257.5 95t-89.5 263q0 115 45 200
t123.5 131.5t179.5 46.5zM389 -59q33 0 54.5 -20.5t21.5 -54.5q0 -42 -23.5 -69.5t-79.5 -38.5l-5 19q31 7 51.5 21t22.5 37q-7 -7 -18.5 -11t-27.5 -4q-30 0 -47.5 15t-17.5 45q0 27 19 44t50 17z" />
    <glyph glyph-name="uni0123" unicode="&#x123;" horiz-adv-x="531" 
d="M216 -188q-59 0 -107 11t-76 32.5t-28 54.5q0 32 28 57t82 38l7 -16q-19 -11 -29 -30t-10 -40q0 -43 39.5 -66.5t105.5 -23.5q45 0 83 12t61 37t23 62q0 31 -22.5 52t-89.5 21h-66q-37 0 -67.5 8t-48.5 26t-18 50q0 39 32 70.5t100 61.5l11 -9q-25 -13 -44.5 -28
t-19.5 -38q0 -32 44 -32h113q76 0 128.5 -29.5t52.5 -98.5q0 -48 -31 -89.5t-93.5 -67t-159.5 -25.5zM225 213q-82 0 -136.5 38.5t-54.5 120.5q0 83 54.5 121t136.5 38q81 0 136 -38t55 -121q0 -82 -55 -120.5t-136 -38.5zM225 231q30 0 47.5 30.5t17.5 110.5t-17.5 110.5
t-47.5 30.5t-47.5 -30.5t-17.5 -110.5t17.5 -110.5t47.5 -30.5zM376 446l-19 7q15 37 49 62.5t72 25.5q29 0 45.5 -16t16.5 -45q0 -30 -16 -44t-35 -14q-17 0 -31 11.5t-16 36t16 61.5l10 -4q-39 -15 -58 -33t-34 -48zM238 628q-33 0 -54.5 20.5t-21.5 54.5q0 42 23.5 69.5
t79.5 38.5l5 -19q-31 -7 -51.5 -21t-22.5 -37q7 7 18.5 11t27.5 4q30 0 47.5 -15t17.5 -45q0 -27 -19 -44t-50 -17z" />
    <glyph glyph-name="Hcircumflex" unicode="&#x124;" horiz-adv-x="786" 
d="M458 0v20q33 2 49.5 8t22 24t5.5 54v496q0 37 -5.5 54.5t-22 24t-49.5 7.5v20q27 -1 67 -2t80 -1q44 0 82.5 1t61.5 2v-20q-32 -1 -48.5 -7.5t-22.5 -24t-6 -54.5v-496q0 -36 6 -54t22.5 -24t48.5 -8v-20q-23 2 -61.5 2.5t-82.5 0.5q-40 0 -80 -0.5t-67 -2.5zM36 0v20
q33 2 49.5 8t22 24t5.5 54v496q0 37 -5.5 54.5t-22 24t-49.5 7.5v20q25 -1 64 -2t84 -1q40 0 79 1t64 2v-20q-32 -1 -48.5 -7.5t-22.5 -24t-6 -54.5v-496q0 -36 6 -54t22.5 -24t48.5 -8v-20q-25 2 -64 2.5t-79 0.5q-45 0 -84 -0.5t-64 -2.5zM195 346v20h395v-20h-395z
M404 932q28 -42 81 -81.5t118 -66.5l-5 -14q-64 12 -125 30t-98 36q-30 -18 -80.5 -36t-102.5 -30l-5 14q65 26 117.5 66t81.5 82h18z" />
    <glyph glyph-name="hcircumflex" unicode="&#x125;" horiz-adv-x="602" 
d="M213 783v-354q25 56 69.5 79t96.5 23q41 0 67 -11t42 -28q17 -19 24.5 -49t7.5 -81v-269q0 -42 15.5 -57t52.5 -15v-21q-18 1 -55 2.5t-73 1.5t-71 -1.5t-53 -2.5v21q32 0 45 15t13 57v303q0 27 -5 48.5t-19.5 34t-43.5 12.5q-48 0 -80.5 -38.5t-32.5 -99.5v-260
q0 -42 13.5 -57t44.5 -15v-21q-17 1 -50.5 2.5t-69.5 1.5t-74.5 -1.5t-57.5 -2.5v21q37 0 52.5 15t15.5 57v570q0 45 -14.5 66.5t-53.5 21.5v21q32 -3 62 -3q38 0 71 3.5t61 10.5zM298 996q28 -42 81 -81.5t118 -66.5l-5 -14q-64 12 -125 30t-98 36q-30 -18 -80.5 -36
t-102.5 -30l-5 14q65 26 117.5 66t81.5 82h18z" />
    <glyph glyph-name="Hbar" unicode="&#x126;" horiz-adv-x="786" 
d="M458 0v20q33 2 49.5 8t22 24t5.5 54v496q0 37 -5.5 54.5t-22 24t-49.5 7.5v20q27 -1 67 -2t80 -1q44 0 82.5 1t61.5 2v-20q-32 -1 -48.5 -7.5t-22.5 -24t-6 -54.5v-496q0 -36 6 -54t22.5 -24t48.5 -8v-20q-23 2 -61.5 2.5t-82.5 0.5q-40 0 -80 -0.5t-67 -2.5zM36 0v20
q33 2 49.5 8t22 24t5.5 54v496q0 37 -5.5 54.5t-22 24t-49.5 7.5v20q25 -1 64 -2t84 -1q40 0 79 1t64 2v-20q-32 -1 -48.5 -7.5t-22.5 -24t-6 -54.5v-496q0 -36 6 -54t22.5 -24t48.5 -8v-20q-25 2 -64 2.5t-79 0.5q-45 0 -84 -0.5t-64 -2.5zM195 346v20h395v-20h-395z
M749 533v-20h-713v20h713z" />
    <glyph glyph-name="hbar" unicode="&#x127;" horiz-adv-x="602" 
d="M213 783v-354q25 56 69.5 79t96.5 23q41 0 67 -11t42 -28q17 -19 24.5 -49t7.5 -81v-269q0 -42 15.5 -57t52.5 -15v-21q-18 1 -55 2.5t-73 1.5t-71 -1.5t-53 -2.5v21q32 0 45 15t13 57v303q0 27 -5 48.5t-19.5 34t-43.5 12.5q-48 0 -80.5 -38.5t-32.5 -99.5v-260
q0 -42 13.5 -57t44.5 -15v-21q-17 1 -50.5 2.5t-69.5 1.5t-74.5 -1.5t-57.5 -2.5v21q37 0 52.5 15t15.5 57v570q0 45 -14.5 66.5t-53.5 21.5v21q32 -3 62 -3q38 0 71 3.5t61 10.5zM383 628v-20h-374v20h374z" />
    <glyph glyph-name="Itilde" unicode="&#x128;" horiz-adv-x="364" 
d="M327 708v-20q-32 -1 -48.5 -7.5t-22.5 -24t-6 -54.5v-496q0 -36 6 -54t22.5 -24t48.5 -8v-20q-25 2 -64 2.5t-79 0.5q-45 0 -84 -0.5t-64 -2.5v20q33 2 49.5 8t22 24t5.5 54v496q0 37 -5.5 54.5t-22 24t-49.5 7.5v20q25 -1 64 -2t84 -1q40 0 79 1t64 2zM98 916
q33 0 58.5 -10.5t48.5 -25t46.5 -25.5t51.5 -11q23 0 42.5 12t33.5 43l15 -5q-11 -62 -46.5 -93.5t-79.5 -31.5q-33 0 -59 11t-48.5 25.5t-46 25.5t-51.5 11q-24 0 -43 -12t-33 -43l-15 5q11 62 46.5 93t79.5 31z" />
    <glyph glyph-name="itilde" unicode="&#x129;" horiz-adv-x="308" 
d="M220 528v-435q0 -42 15.5 -57t52.5 -15v-21q-18 1 -55 2.5t-75 1.5q-37 0 -75 -1.5t-57 -2.5v21q37 0 52.5 15t15.5 57v314q0 46 -14.5 67.5t-53.5 21.5v21q32 -3 62 -3q37 0 70.5 3.5t61.5 10.5zM77 780q29 0 49.5 -10t37.5 -23t34.5 -23t41.5 -10q21 0 40.5 12.5
t36.5 40.5l14 -7q-17 -68 -50 -97.5t-72 -29.5q-29 0 -50 10t-38 23.5t-34.5 23.5t-41.5 10q-21 0 -40.5 -12.5t-36.5 -41.5l-14 7q16 68 50 97.5t73 29.5z" />
    <glyph glyph-name="Imacron" unicode="&#x12a;" horiz-adv-x="364" 
d="M327 708v-20q-32 -1 -48.5 -7.5t-22.5 -24t-6 -54.5v-496q0 -36 6 -54t22.5 -24t48.5 -8v-20q-25 2 -64 2.5t-79 0.5q-45 0 -84 -0.5t-64 -2.5v20q33 2 49.5 8t22 24t5.5 54v496q0 37 -5.5 54.5t-22 24t-49.5 7.5v20q25 -1 64 -2t84 -1q40 0 79 1t64 2zM376 844v-25h-384
v25h384z" />
    <glyph glyph-name="imacron" unicode="&#x12b;" horiz-adv-x="308" 
d="M298 712v-25h-308v25h308zM220 528v-435q0 -42 15.5 -57t52.5 -15v-21q-18 1 -55 2.5t-75 1.5q-37 0 -75 -1.5t-57 -2.5v21q37 0 52.5 15t15.5 57v314q0 46 -14.5 67.5t-53.5 21.5v21q32 -3 62 -3q37 0 70.5 3.5t61.5 10.5z" />
    <glyph glyph-name="Ibreve" unicode="&#x12c;" horiz-adv-x="364" 
d="M327 708v-20q-32 -1 -48.5 -7.5t-22.5 -24t-6 -54.5v-496q0 -36 6 -54t22.5 -24t48.5 -8v-20q-25 2 -64 2.5t-79 0.5q-45 0 -84 -0.5t-64 -2.5v20q33 2 49.5 8t22 24t5.5 54v496q0 37 -5.5 54.5t-22 24t-49.5 7.5v20q25 -1 64 -2t84 -1q40 0 79 1t64 2zM383 913l12 -11
q-15 -28 -43.5 -58t-71 -50t-100.5 -20t-100.5 20t-71 50t-43.5 58l13 11q25 -21 74.5 -41.5t127.5 -20.5t128 21t75 41z" />
    <glyph glyph-name="ibreve" unicode="&#x12d;" horiz-adv-x="308" 
d="M220 528v-435q0 -42 15.5 -57t52.5 -15v-21q-18 1 -55 2.5t-75 1.5q-37 0 -75 -1.5t-57 -2.5v21q37 0 52.5 15t15.5 57v314q0 46 -14.5 67.5t-53.5 21.5v21q32 -3 62 -3q37 0 70.5 3.5t61.5 10.5zM321 788l17 -9q-13 -35 -37 -71t-61 -59.5t-89 -23.5t-89 23.5t-61 59.5
t-37 71l17 9q21 -28 62 -54t108 -26q68 0 108.5 26t61.5 54z" />
    <glyph glyph-name="Iogonek" unicode="&#x12e;" horiz-adv-x="364" 
d="M327 708v-20q-32 -1 -48.5 -7.5t-22.5 -24t-6 -54.5v-496q0 -36 6 -54t22.5 -24t48.5 -8v-20q-25 2 -64 2.5t-79 0.5q-45 0 -84 -0.5t-64 -2.5v20q33 2 49.5 8t22 24t5.5 54v496q0 37 -5.5 54.5t-22 24t-49.5 7.5v20q25 -1 64 -2t84 -1q40 0 79 1t64 2zM320 3
q-61 -18 -84 -45.5t-23 -51.5q0 -19 10.5 -30t30.5 -11q19 0 36 8.5t27 20.5l15 -14q-26 -35 -57 -51.5t-72 -16.5q-42 0 -64.5 18t-22.5 49q0 41 43.5 72.5t122.5 51.5h38z" />
    <glyph glyph-name="iogonek" unicode="&#x12f;" horiz-adv-x="308" 
d="M149 772q36 0 59 -20t23 -53t-23 -53t-59 -20t-59 20t-23 53t23 53t59 20zM220 528v-435q0 -42 15.5 -57t52.5 -15v-21q-18 1 -55 2.5t-75 1.5q-37 0 -75 -1.5t-57 -2.5v21q37 0 52.5 15t15.5 57v314q0 46 -14.5 67.5t-53.5 21.5v21q32 -3 62 -3q37 0 70.5 3.5t61.5 10.5
zM279 7q-3 -3 -7 -5t-9 -5q-45 -20 -62.5 -44t-17.5 -47q0 -19 11.5 -30t30.5 -11q18 0 35.5 8.5t27.5 20.5l14 -14q-25 -35 -56.5 -51.5t-72.5 -16.5t-64 18t-23 49q0 41 40.5 72.5t113.5 51.5z" />
    <glyph glyph-name="Idotaccent" unicode="&#x130;" horiz-adv-x="364" 
d="M327 708v-20q-32 -1 -48.5 -7.5t-22.5 -24t-6 -54.5v-496q0 -36 6 -54t22.5 -24t48.5 -8v-20q-25 2 -64 2.5t-79 0.5q-45 0 -84 -0.5t-64 -2.5v20q33 2 49.5 8t22 24t5.5 54v496q0 37 -5.5 54.5t-22 24t-49.5 7.5v20q25 -1 64 -2t84 -1q40 0 79 1t64 2zM184 964
q36 0 59 -20t23 -53t-23 -53t-59 -20t-59 20t-23 53t23 53t59 20z" />
    <glyph glyph-name="dotlessi" unicode="&#x131;" horiz-adv-x="308" 
d="M220 528v-435q0 -42 15.5 -57t52.5 -15v-21q-18 1 -55 2.5t-75 1.5q-37 0 -75 -1.5t-57 -2.5v21q37 0 52.5 15t15.5 57v314q0 46 -14.5 67.5t-53.5 21.5v21q32 -3 62 -3q37 0 70.5 3.5t61.5 10.5z" />
    <glyph glyph-name="Jcircumflex" unicode="&#x134;" horiz-adv-x="352" 
d="M-22 -188v20q41 2 70.5 22t44.5 68t15 131v549q0 37 -5.5 54.5t-22.5 24t-49 7.5v20q23 -1 61.5 -2t80.5 -1t82.5 1t66.5 2v-20q-33 -1 -49.5 -7.5t-22 -24t-5.5 -54.5v-366q0 -41 -0.5 -89t-4 -93t-12.5 -79q-19 -70 -82 -116.5t-168 -46.5zM184 932q28 -42 81 -81.5
t118 -66.5l-5 -14q-64 12 -125 30t-98 36q-30 -18 -80.5 -36t-102.5 -30l-5 14q65 26 117.5 66t81.5 82h18z" />
    <glyph glyph-name="jcircumflex" unicode="&#x135;" horiz-adv-x="287" 
d="M-24 -188v17q53 2 82.5 43.5t29.5 122.5v413q0 45 -14 66.5t-54 21.5v21q32 -3 62 -3q38 0 71 3.5t61 10.5v-427q0 -80 -16 -137t-55 -95q-25 -25 -66 -41t-101 -16zM151 814q24 -54 70.5 -104.5t104.5 -83.5l-8 -14q-56 16 -109.5 38.5t-86.5 45.5q-26 -23 -69 -45.5
t-87 -38.5l-8 14q57 32 103.5 83t71.5 105h18z" />
    <glyph glyph-name="uni0136" unicode="&#x136;" horiz-adv-x="695" 
d="M665 708v-20q-33 -6 -67 -25t-70 -62l-189 -232l45 72l239 -360q16 -23 33 -37t44 -24v-20q-31 2 -71 2.5t-73 0.5q-19 0 -47.5 -0.5t-71.5 -2.5v20q40 2 48 11.5t-7 33.5l-146 230q-16 26 -28.5 39t-25.5 17.5t-32 5.5v20q42 2 75 22t66 59l71 89q37 44 45 75t-9 48
t-57 18v20q34 -1 66 -2t70 -1q58 0 92 3zM327 708v-20q-32 -1 -48.5 -7.5t-22.5 -24t-6 -54.5v-496q0 -36 6 -54t22.5 -24t48.5 -8v-20q-25 2 -64 2.5t-79 0.5q-45 0 -84 -0.5t-64 -2.5v20q33 2 49.5 8t22 24t5.5 54v496q0 37 -5.5 54.5t-22 24t-49.5 7.5v20q25 -1 64 -2
t84 -1q40 0 79 1t64 2zM375 -59q33 0 54.5 -20.5t21.5 -54.5q0 -42 -23.5 -69.5t-79.5 -38.5l-5 19q31 7 51.5 21t22.5 37q-7 -7 -18.5 -11t-27.5 -4q-30 0 -47.5 15t-17.5 45q0 27 19 44t50 17z" />
    <glyph glyph-name="uni0137" unicode="&#x137;" horiz-adv-x="574" 
d="M213 783v-690q0 -42 14 -57t48 -15v-21q-17 1 -52 2.5t-71 1.5q-37 0 -75.5 -1.5t-57.5 -2.5v21q37 0 52.5 15t15.5 57v570q0 45 -14.5 66.5t-53.5 21.5v21q32 -3 62 -3q38 0 71 3.5t61 10.5zM537 517v-20q-30 -6 -58 -22.5t-55 -45.5l-99 -103l11 22l176 -275
q14 -20 26.5 -33.5t31.5 -18.5v-21q-13 1 -41 2.5t-56 1.5q-34 0 -69.5 -1.5t-53.5 -2.5v21q20 0 27.5 9.5t-2.5 24.5l-104 175q-14 22 -27 28.5t-35 6.5v20q25 2 41.5 9t31.5 22l75 75q33 33 33.5 56t-21 35.5t-55.5 14.5v20q27 -1 60 -2.5t56 -1.5q18 0 38.5 0.5t39 1.5
t29.5 2zM303 -59q33 0 54.5 -20.5t21.5 -54.5q0 -42 -23.5 -69.5t-79.5 -38.5l-5 19q31 7 51.5 21t22.5 37q-7 -7 -18.5 -11t-27.5 -4q-30 0 -47.5 15t-17.5 45q0 27 19 44t50 17z" />
    <glyph glyph-name="kgreenlandic" unicode="&#x138;" horiz-adv-x="581" 
d="M549 517v-20q-31 -3 -51.5 -12.5t-43.5 -35.5l-117 -133l177 -241q15 -21 30.5 -36t32.5 -18v-21q-14 1 -41.5 2.5t-55.5 1.5q-34 0 -68 -1.5t-51 -2.5v21q20 0 27.5 10t-2.5 24l-120 161q-12 18 -24 26t-27 8v19q32 4 51 15.5t38 32.5l102 114q23 27 11.5 46t-54.5 20
v20q26 -1 53.5 -2t49.5 -1q26 0 47 1t36 2zM220 528v-435q0 -42 14 -57t48 -15v-21q-18 1 -53 2.5t-71 1.5q-37 0 -75 -1.5t-57 -2.5v21q37 0 52.5 15t15.5 57v315q0 45 -14.5 66.5t-53.5 21.5v21q32 -3 62 -3q37 0 70.5 3.5t61.5 10.5z" />
    <glyph glyph-name="Lacute" unicode="&#x139;" horiz-adv-x="603" 
d="M331 708v-20q-34 -1 -51.5 -7.5t-23.5 -24t-6 -54.5v-504q0 -32 5.5 -48.5t20.5 -21.5t43 -5h57q52 0 88 25t58 72t30 114h23q-3 -33 -3 -86q0 -22 1.5 -63t5.5 -85q-51 2 -115 2.5t-114 0.5h-86t-114.5 -0.5t-113.5 -2.5v20q33 2 49.5 8t22 24t5.5 54v496
q0 37 -5.5 54.5t-22 24t-49.5 7.5v20q25 -1 64 -2t84 -1q41 0 81 1t66 2zM279 931q21 12 42.5 7.5t31.5 -23.5q9 -18 3 -37t-28 -32t-49.5 -21t-64.5 -19t-92 -34l-7 13q47 37 75 65t47.5 48.5t41.5 32.5z" />
    <glyph glyph-name="lacute" unicode="&#x13a;" horiz-adv-x="303" 
d="M214 783v-690q0 -42 15.5 -57t52.5 -15v-21q-18 1 -54.5 2.5t-74.5 1.5q-37 0 -75.5 -1.5t-57.5 -2.5v21q37 0 52.5 15t15.5 57v570q0 45 -14 66.5t-54 21.5v21q32 -3 62 -3q38 0 71 3.5t61 10.5zM246 981q21 12 42.5 7.5t31.5 -23.5q9 -18 3 -37t-28 -32t-49.5 -21
t-64.5 -19t-92 -34l-7 13q47 37 75 65t47.5 48.5t41.5 32.5z" />
    <glyph glyph-name="uni013B" unicode="&#x13b;" horiz-adv-x="603" 
d="M331 708v-20q-34 -1 -51.5 -7.5t-23.5 -24t-6 -54.5v-504q0 -32 5.5 -48.5t20.5 -21.5t43 -5h57q52 0 88 25t58 72t30 114h23q-3 -33 -3 -86q0 -22 1.5 -63t5.5 -85q-51 2 -115 2.5t-114 0.5h-86t-114.5 -0.5t-113.5 -2.5v20q33 2 49.5 8t22 24t5.5 54v496
q0 37 -5.5 54.5t-22 24t-49.5 7.5v20q25 -1 64 -2t84 -1q41 0 81 1t66 2zM341 -59q33 0 54.5 -20.5t21.5 -54.5q0 -42 -23.5 -69.5t-79.5 -38.5l-5 19q31 7 51.5 21t22.5 37q-7 -7 -18.5 -11t-27.5 -4q-30 0 -47.5 15t-17.5 45q0 27 19 44t50 17z" />
    <glyph glyph-name="uni013C" unicode="&#x13c;" horiz-adv-x="303" 
d="M214 783v-690q0 -42 15.5 -57t52.5 -15v-21q-18 1 -54.5 2.5t-74.5 1.5q-37 0 -75.5 -1.5t-57.5 -2.5v21q37 0 52.5 15t15.5 57v570q0 45 -14 66.5t-54 21.5v21q32 -3 62 -3q38 0 71 3.5t61 10.5zM146 -59q33 0 54.5 -20.5t21.5 -54.5q0 -42 -23.5 -69.5t-79.5 -38.5
l-5 19q31 7 51.5 21t22.5 37q-7 -7 -18.5 -11t-27.5 -4q-30 0 -47.5 15t-17.5 45q0 27 19 44t50 17z" />
    <glyph glyph-name="Lcaron" unicode="&#x13d;" horiz-adv-x="603" 
d="M331 708v-20q-34 -1 -51.5 -7.5t-23.5 -24t-6 -54.5v-504q0 -32 5.5 -48.5t20.5 -21.5t43 -5h57q52 0 88 25t58 72t30 114h23q-3 -33 -3 -86q0 -22 1.5 -63t5.5 -85q-51 2 -115 2.5t-114 0.5h-86t-114.5 -0.5t-113.5 -2.5v20q33 2 49.5 8t22 24t5.5 54v496
q0 37 -5.5 54.5t-22 24t-49.5 7.5v20q25 -1 64 -2t84 -1q41 0 81 1t66 2zM521 714q2 -5 3.5 -16t1.5 -20q0 -32 -29 -80t-78 -120l-14 4q12 77 16 113.5t4 51.5q0 20 -5.5 30t-24.5 10v21q46 -4 73.5 -1.5t52.5 7.5z" />
    <glyph glyph-name="lcaron" unicode="&#x13e;" horiz-adv-x="303" 
d="M214 783v-690q0 -42 15.5 -57t52.5 -15v-21q-18 1 -54.5 2.5t-74.5 1.5q-37 0 -75.5 -1.5t-57.5 -2.5v21q37 0 52.5 15t15.5 57v570q0 45 -14 66.5t-54 21.5v21q32 -3 62 -3q38 0 71 3.5t61 10.5zM385 784q2 -5 3.5 -18.5t1.5 -22.5q0 -29 -23.5 -72t-63.5 -108l-14 4
q12 68 16 100t4 45q0 20 -3.5 30t-16.5 10v21q35 -2 56.5 2t39.5 9z" />
    <glyph glyph-name="Ldot" unicode="&#x13f;" horiz-adv-x="604" 
d="M331 708v-20q-34 -1 -51.5 -7.5t-23.5 -24t-6 -54.5v-504q0 -32 5.5 -48.5t20.5 -21.5t43 -5h57q52 0 88 25t58 72t30 114h23q-3 -33 -3 -86q0 -22 1.5 -63t5.5 -85q-51 2 -115 2.5t-114 0.5h-86t-114.5 -0.5t-113.5 -2.5v20q33 2 49.5 8t22 24t5.5 54v496
q0 37 -5.5 54.5t-22 24t-49.5 7.5v20q25 -1 64 -2t84 -1q41 0 81 1t66 2zM486 509q34 0 56 -20t22 -53t-22 -53t-56 -20q-35 0 -56.5 20t-21.5 53t21.5 53t56.5 20z" />
    <glyph glyph-name="ldot" unicode="&#x140;" horiz-adv-x="476" 
d="M214 783v-690q0 -42 15.5 -57t52.5 -15v-21q-18 1 -54.5 2.5t-74.5 1.5q-37 0 -75.5 -1.5t-57.5 -2.5v21q37 0 52.5 15t15.5 57v570q0 45 -14 66.5t-54 21.5v21q32 -3 62 -3q38 0 71 3.5t61 10.5zM390 377q34 0 56 -20t22 -53t-22 -53t-56 -20q-35 0 -56.5 20t-21.5 53
t21.5 53t56.5 20z" />
    <glyph glyph-name="Lslash" unicode="&#x141;" horiz-adv-x="603" 
d="M331 708v-20q-34 -1 -51.5 -7.5t-23.5 -24t-6 -54.5v-504q0 -32 5.5 -48.5t20.5 -21.5t43 -5h57q52 0 88 25t58 72t30 114h23q-3 -33 -3 -86q0 -22 1.5 -63t5.5 -85q-51 2 -115 2.5t-114 0.5h-86t-114.5 -0.5t-113.5 -2.5v20q33 2 49.5 8t22 24t5.5 54v496
q0 37 -5.5 54.5t-22 24t-49.5 7.5v20q25 -1 64 -2t84 -1q41 0 81 1t66 2zM460 473v-23l-284 -165v23zM176 318v-23l-153 -88v23z" />
    <glyph glyph-name="lslash" unicode="&#x142;" horiz-adv-x="303" 
d="M214 783v-690q0 -42 15.5 -57t52.5 -15v-21q-18 1 -54.5 2.5t-74.5 1.5q-37 0 -75.5 -1.5t-57.5 -2.5v21q37 0 52.5 15t15.5 57v570q0 45 -14 66.5t-54 21.5v21q32 -3 62 -3q38 0 71 3.5t61 10.5zM318 529v-30l-165 -145v30zM153 411v-30l-166 -144v30z" />
    <glyph glyph-name="Nacute" unicode="&#x143;" horiz-adv-x="716" 
d="M685 708v-20q-32 -3 -49 -14.5t-22.5 -36t-5.5 -69.5v-571q-9 1 -19.5 1t-22.5 -1l-429 583v-432q0 -48 6 -74.5t26.5 -38t62.5 -15.5v-20q-19 2 -49 2.5t-57 0.5q-24 0 -48.5 -0.5t-40.5 -2.5v20q33 4 49.5 15t22 36t5.5 69v462q0 37 -5.5 54.5t-22 24t-49.5 7.5v20
q16 -1 40.5 -2t48.5 -1q23 0 45 1t39 2l375 -499v351q0 49 -6 75t-26 38t-63 15v20q19 -1 49.5 -2t56.5 -1q25 0 49.5 1t39.5 2zM472 931q21 12 42.5 7.5t31.5 -23.5q9 -18 3 -37t-28 -32t-49.5 -21t-64.5 -19t-92 -34l-7 13q47 37 75 65t47.5 48.5t41.5 32.5z" />
    <glyph glyph-name="nacute" unicode="&#x144;" horiz-adv-x="608" 
d="M385 531q42 0 67.5 -11t41.5 -28q18 -19 25.5 -49t7.5 -81v-269q0 -42 15.5 -57t52.5 -15v-21q-18 1 -55.5 2.5t-72.5 1.5q-37 0 -72 -1.5t-52 -2.5v21q32 0 45 15t13 57v303q0 27 -5 48.5t-20 34t-43 12.5q-49 0 -81 -39.5t-32 -98.5v-260q0 -42 13 -57t45 -15v-21
q-17 1 -51 2.5t-69 1.5q-37 0 -75 -1.5t-57 -2.5v21q37 0 52.5 15t15.5 57v315q0 45 -14.5 66.5t-53.5 21.5v21q32 -3 62 -3q37 0 70.5 3.5t61.5 10.5v-100q25 57 69 80t96 23zM420 816q15 -13 16 -33t-15 -41q-15 -19 -37.5 -36.5t-53.5 -41.5t-74 -65l-11 9q30 52 45.5 88
t26.5 62t27 46q16 19 37.5 22t38.5 -10z" />
    <glyph glyph-name="uni0145" unicode="&#x145;" horiz-adv-x="716" 
d="M685 708v-20q-32 -3 -49 -14.5t-22.5 -36t-5.5 -69.5v-571q-9 1 -19.5 1t-22.5 -1l-429 583v-432q0 -48 6 -74.5t26.5 -38t62.5 -15.5v-20q-19 2 -49 2.5t-57 0.5q-24 0 -48.5 -0.5t-40.5 -2.5v20q33 4 49.5 15t22 36t5.5 69v462q0 37 -5.5 54.5t-22 24t-49.5 7.5v20
q16 -1 40.5 -2t48.5 -1q23 0 45 1t39 2l375 -499v351q0 49 -6 75t-26 38t-63 15v20q19 -1 49.5 -2t56.5 -1q25 0 49.5 1t39.5 2zM365 -59q33 0 54.5 -20.5t21.5 -54.5q0 -42 -23.5 -69.5t-79.5 -38.5l-5 19q31 7 51.5 21t22.5 37q-7 -7 -18.5 -11t-27.5 -4q-30 0 -47.5 15
t-17.5 45q0 27 19 44t50 17z" />
    <glyph glyph-name="uni0146" unicode="&#x146;" horiz-adv-x="608" 
d="M385 531q42 0 67.5 -11t41.5 -28q18 -19 25.5 -49t7.5 -81v-269q0 -42 15.5 -57t52.5 -15v-21q-18 1 -55.5 2.5t-72.5 1.5q-37 0 -72 -1.5t-52 -2.5v21q32 0 45 15t13 57v303q0 27 -5 48.5t-20 34t-43 12.5q-49 0 -81 -39.5t-32 -98.5v-260q0 -42 13 -57t45 -15v-21
q-17 1 -51 2.5t-69 1.5q-37 0 -75 -1.5t-57 -2.5v21q37 0 52.5 15t15.5 57v315q0 45 -14.5 66.5t-53.5 21.5v21q32 -3 62 -3q37 0 70.5 3.5t61.5 10.5v-100q25 57 69 80t96 23zM316 -59q33 0 54.5 -20.5t21.5 -54.5q0 -42 -23.5 -69.5t-79.5 -38.5l-5 19q31 7 51.5 21
t22.5 37q-7 -7 -18.5 -11t-27.5 -4q-30 0 -47.5 15t-17.5 45q0 27 19 44t50 17z" />
    <glyph glyph-name="Ncaron" unicode="&#x147;" horiz-adv-x="716" 
d="M685 708v-20q-32 -3 -49 -14.5t-22.5 -36t-5.5 -69.5v-571q-9 1 -19.5 1t-22.5 -1l-429 583v-432q0 -48 6 -74.5t26.5 -38t62.5 -15.5v-20q-19 2 -49 2.5t-57 0.5q-24 0 -48.5 -0.5t-40.5 -2.5v20q33 4 49.5 15t22 36t5.5 69v462q0 37 -5.5 54.5t-22 24t-49.5 7.5v20
q16 -1 40.5 -2t48.5 -1q23 0 45 1t39 2l375 -499v351q0 49 -6 75t-26 38t-63 15v20q19 -1 49.5 -2t56.5 -1q25 0 49.5 1t39.5 2zM577 934l5 -14q-65 -26 -117.5 -66t-81.5 -82h-18q-28 41 -81 81.5t-118 66.5l5 14q64 -12 125.5 -30t97.5 -36q31 18 81 36t102 30z" />
    <glyph glyph-name="ncaron" unicode="&#x148;" horiz-adv-x="608" 
d="M385 531q42 0 67.5 -11t41.5 -28q18 -19 25.5 -49t7.5 -81v-269q0 -42 15.5 -57t52.5 -15v-21q-18 1 -55.5 2.5t-72.5 1.5q-37 0 -72 -1.5t-52 -2.5v21q32 0 45 15t13 57v303q0 27 -5 48.5t-20 34t-43 12.5q-49 0 -81 -39.5t-32 -98.5v-260q0 -42 13 -57t45 -15v-21
q-17 1 -51 2.5t-69 1.5q-37 0 -75 -1.5t-57 -2.5v21q37 0 52.5 15t15.5 57v315q0 45 -14.5 66.5t-53.5 21.5v21q32 -3 62 -3q37 0 70.5 3.5t61.5 10.5v-100q25 57 69 80t96 23zM477 814l8 -14q-57 -32 -103.5 -83t-71.5 -105h-18q-24 54 -70.5 105t-104.5 83l8 14
q56 -15 110 -38t86 -46q27 23 69.5 46t86.5 38z" />
    <glyph glyph-name="napostrophe" unicode="&#x149;" horiz-adv-x="608" 
d="M385 531q42 0 67.5 -11t41.5 -28q18 -19 25.5 -49t7.5 -81v-269q0 -42 15.5 -57t52.5 -15v-21q-18 1 -55.5 2.5t-72.5 1.5q-37 0 -72 -1.5t-52 -2.5v21q32 0 45 15t13 57v303q0 27 -5 48.5t-20 34t-43 12.5q-49 0 -81 -39.5t-32 -98.5v-260q0 -42 13 -57t45 -15v-21
q-17 1 -51 2.5t-69 1.5q-37 0 -75 -1.5t-57 -2.5v21q37 0 52.5 15t15.5 57v315q0 45 -14.5 66.5t-53.5 21.5v21q32 -3 62 -3q37 0 70.5 3.5t61.5 10.5v-100q25 57 69 80t96 23zM19 769q23 0 39.5 -9.5t27.5 -24.5q11 -16 15.5 -37t4.5 -41q0 -49 -25.5 -91t-78.5 -67l-9 18
q29 13 50.5 38.5t24.5 53.5q4 18 0 34q-20 -20 -52 -20q-31 0 -52 19t-21 54q0 32 21.5 52.5t54.5 20.5z" />
    <glyph glyph-name="Eng" unicode="&#x14a;" horiz-adv-x="715" 
d="M684 708v-20q-32 -1 -48.5 -7.5t-22.5 -24t-6 -54.5v-334l-15 -271q-6 1 -12.5 1t-13.5 -1l-430 583v-474q0 -36 6 -54t23.5 -24t51.5 -8v-20q-18 2 -42 2.5t-50 0.5q-23 0 -47.5 -0.5t-41.5 -2.5v20q33 2 49.5 8t22 24t5.5 54v496q0 37 -5.5 54.5t-22 24t-49.5 7.5v20
q17 -1 41.5 -2t47.5 -1q25 0 49 1t43 2l367 -487v381q0 37 -6 54.5t-23.5 24t-51.5 7.5v20q18 -1 42.5 -2t49.5 -1t49.5 1t39.5 2zM607 445v-372q0 -107 -18 -163.5t-50 -77t-76 -20.5q-43 0 -75 17t-32 57q0 29 19.5 45.5t48.5 16.5q28 0 47 -15.5t19 -41.5
q0 -18 -10 -34.5t-29 -24.5q5 -1 10.5 -1.5t10.5 -0.5q60 0 86 55t26 158v402h11.5h11.5z" />
    <glyph glyph-name="eng" unicode="&#x14b;" horiz-adv-x="593" 
d="M385 530q42 0 67.5 -10.5t41.5 -28.5q18 -19 25.5 -49t7.5 -81v-260q0 -77 -12.5 -135t-47.5 -97q-24 -27 -60 -42t-90 -15q-17 0 -36 3.5t-35 11t-26 20t-10 28.5q0 22 18 39.5t52 17.5q30 0 49.5 -14t19.5 -39q0 -14 -9.5 -26.5t-27.5 -22.5q15 1 26.5 4.5t18.5 9.5
q14 4 22.5 14t13.5 25q4 11 5.5 29.5t2 40t0.5 40.5v403q0 27 -5 48t-20 33.5t-43 12.5q-49 0 -81 -39t-32 -98v-260q0 -42 13 -57t45 -15v-21q-17 1 -51 2.5t-69 1.5q-37 0 -75 -1.5t-57 -2.5v21q37 0 52.5 15t15.5 57v315q0 45 -14.5 66.5t-53.5 21.5v21q32 -3 62 -3
q37 0 70.5 3.5t61.5 10.5v-100q25 57 69 79.5t96 22.5z" />
    <glyph glyph-name="Omacron" unicode="&#x14c;" horiz-adv-x="775" 
d="M388 722q102 0 179 -43t119.5 -123.5t42.5 -195.5q0 -112 -43.5 -196t-121 -131t-177.5 -47q-102 0 -179 43t-119.5 124t-42.5 195q0 112 44 196t121 131t177 47zM384 704q-59 0 -102.5 -45t-67.5 -124t-24 -183q0 -106 27 -184.5t73 -121t101 -42.5q59 0 102.5 45
t67.5 124.5t24 182.5q0 107 -27 185t-72.5 120.5t-101.5 42.5zM578 844v-25h-384v25h384z" />
    <glyph glyph-name="omacron" unicode="&#x14d;" horiz-adv-x="559" 
d="M280 531q69 0 122.5 -27.5t85 -87.5t31.5 -158t-31.5 -158t-85 -87t-122.5 -27t-123 27t-85 87t-31 158t31 158t85 87.5t123 27.5zM280 511q-47 0 -76.5 -59.5t-29.5 -193.5t29.5 -193t76.5 -59q46 0 76 59t30 193t-30 193.5t-76 59.5zM442 712v-25h-328v25h328z" />
    <glyph glyph-name="Obreve" unicode="&#x14e;" horiz-adv-x="775" 
d="M388 722q102 0 179 -43t119.5 -123.5t42.5 -195.5q0 -112 -43.5 -196t-121 -131t-177.5 -47q-102 0 -179 43t-119.5 124t-42.5 195q0 112 44 196t121 131t177 47zM384 704q-59 0 -102.5 -45t-67.5 -124t-24 -183q0 -106 27 -184.5t73 -121t101 -42.5q59 0 102.5 45
t67.5 124.5t24 182.5q0 107 -27 185t-72.5 120.5t-101.5 42.5zM585 913l12 -11q-15 -28 -43.5 -58t-71 -50t-100.5 -20t-100.5 20t-71 50t-43.5 58l13 11q25 -21 74.5 -41.5t127.5 -20.5t128 21t75 41z" />
    <glyph glyph-name="obreve" unicode="&#x14f;" horiz-adv-x="559" 
d="M280 531q69 0 122.5 -27.5t85 -87.5t31.5 -158t-31.5 -158t-85 -87t-122.5 -27t-123 27t-85 87t-31 158t31 158t85 87.5t123 27.5zM280 511q-47 0 -76.5 -59.5t-29.5 -193.5t29.5 -193t76.5 -59q46 0 76 59t30 193t-30 193.5t-76 59.5zM450 788l17 -9q-13 -35 -37 -71
t-61 -59.5t-89 -23.5t-89 23.5t-61 59.5t-37 71l17 9q21 -28 62 -54t108 -26q68 0 108.5 26t61.5 54z" />
    <glyph glyph-name="Ohungarumlaut" unicode="&#x150;" horiz-adv-x="775" 
d="M388 722q102 0 179 -43t119.5 -123.5t42.5 -195.5q0 -112 -43.5 -196t-121 -131t-177.5 -47q-102 0 -179 43t-119.5 124t-42.5 195q0 112 44 196t121 131t177 47zM384 704q-59 0 -102.5 -45t-67.5 -124t-24 -183q0 -106 27 -184.5t73 -121t101 -42.5q59 0 102.5 45
t67.5 124.5t24 182.5q0 107 -27 185t-72.5 120.5t-101.5 42.5zM550 930q20 16 41 13.5t34 -19.5t9 -36.5t-25 -35.5q-28 -21 -70.5 -36t-96.5 -44l-9 12q28 30 47 58t35 51t35 37zM347 930q20 16 41 13.5t34 -19.5t9 -36.5t-25 -35.5q-28 -21 -70.5 -36t-96.5 -44l-9 12
q28 30 47 58t35 51t35 37z" />
    <glyph glyph-name="ohungarumlaut" unicode="&#x151;" horiz-adv-x="559" 
d="M280 531q69 0 122.5 -27.5t85 -87.5t31.5 -158t-31.5 -158t-85 -87t-122.5 -27t-123 27t-85 87t-31 158t31 158t85 87.5t123 27.5zM280 511q-47 0 -76.5 -59.5t-29.5 -193.5t29.5 -193t76.5 -59q46 0 76 59t30 193t-30 193.5t-76 59.5zM491 815q16 -13 18.5 -32.5
t-12.5 -41.5q-21 -27 -58 -55t-94 -87l-12 7q25 50 38 85.5t22.5 61.5t22.5 45q15 21 36.5 25t38.5 -8zM313 815q17 -13 19.5 -32.5t-13.5 -41.5q-20 -27 -57 -55t-95 -87l-12 7q25 50 38 85.5t22.5 61.5t23.5 45q14 21 35.5 25t38.5 -8z" />
    <glyph glyph-name="OE" unicode="&#x152;" horiz-adv-x="973" 
d="M384 722q47 0 88 -15q68 -1 134 -1.5t104 -0.5q43 0 98 0.5t99 2.5q-4 -39 -5.5 -75t-1.5 -55t1 -36.5t2 -29.5h-23q-8 65 -23.5 103t-43 54t-71.5 16h-25q-32 0 -49 -5.5t-22.5 -23t-5.5 -54.5v-496q0 -36 5.5 -54t22.5 -23.5t49 -5.5h27q48 0 79.5 18t50 60.5
t26.5 114.5h23q-3 -31 -3 -80q0 -20 1 -58t6 -78q-48 2 -109 2.5t-108 0.5h-106.5t-135.5 -2q-19 -7 -40.5 -11t-44.5 -4q-101 0 -177 43t-118 124t-42 195q0 112 43.5 196t119.5 131t175 47zM380 704q-58 0 -100.5 -45t-66 -124t-23.5 -183q0 -106 26.5 -184.5t71.5 -121
t99 -42.5q25 0 52 9.5t45.5 30.5t18.5 54v508q0 38 -18.5 59t-47 30t-57.5 9zM776 366v-20h-166v20h166zM799 482q-4 -51 -3.5 -77.5t0.5 -48.5t1 -48.5t5 -77.5h-23q-5 28 -12 55t-26 44t-59 17v20q40 0 58 20.5t24.5 47.5t11.5 48h23z" />
    <glyph glyph-name="oe" unicode="&#x153;" horiz-adv-x="821" 
d="M270 530q58 0 103.5 -27.5t71.5 -87t26 -157.5t-26 -158t-71.5 -87t-103.5 -27q-65 0 -117.5 27t-82 87t-29.5 158t29.5 157.5t82 87t117.5 27.5zM270 510q-41 0 -68.5 -59t-27.5 -193t27.5 -193t68.5 -59q44 0 72 58.5t28 192.5q0 135 -28 194t-72 59zM601 531
q85 0 133 -53t48 -169h-311l-1 19h196q2 49 -5.5 90.5t-23.5 66.5t-42 25q-35 0 -61 -44.5t-31 -145.5l3 -6q-2 -13 -2.5 -28t-0.5 -30q0 -69 20.5 -114t52 -66t65.5 -21q32 0 64.5 17.5t58.5 69.5l18 -8q-10 -35 -34 -69.5t-61 -56.5t-86 -22q-62 0 -108.5 30t-72.5 89.5
t-26 145.5q0 91 26.5 153t73.5 94.5t107 32.5z" />
    <glyph glyph-name="Racute" unicode="&#x154;" horiz-adv-x="677" 
d="M36 708q25 -1 64 -2t78 -1q49 0 93 1t62 1q134 0 199.5 -47t65.5 -127q0 -33 -13 -67.5t-45 -63.5t-87.5 -47.5t-141.5 -18.5h-96v20h86q63 0 96.5 22.5t45 60t11.5 83.5q0 79 -31 122.5t-107 43.5q-41 0 -53.5 -17t-12.5 -69v-496q0 -36 6 -54t22.5 -24t48.5 -8v-20
q-25 2 -64 2.5t-79 0.5q-45 0 -84 -0.5t-64 -2.5v20q33 2 49.5 8t22 24t5.5 54v496q0 37 -5.5 54.5t-22 24t-49.5 7.5v20zM215 353q47 -2 78.5 -4.5t54 -4.5t40.5 -5q83 -8 122.5 -38.5t52.5 -92.5l23 -103q9 -41 19.5 -58.5t30.5 -16.5q14 0 24 7.5t20 20.5l14 -12
q-25 -31 -53 -45.5t-71 -14.5q-48 0 -81 22.5t-45 85.5l-19 100q-8 42 -18.5 74t-28.5 50t-53 18h-108zM409 931q21 12 42.5 7.5t31.5 -23.5q9 -18 3 -37t-28 -32t-49.5 -21t-64.5 -19t-92 -34l-7 13q47 37 75 65t47.5 48.5t41.5 32.5z" />
    <glyph glyph-name="racute" unicode="&#x155;" horiz-adv-x="459" 
d="M358 531q31 0 51.5 -13t30.5 -33t10 -42q0 -33 -19.5 -55t-51.5 -22q-30 0 -49 16t-19 44q0 25 12.5 42t28.5 27q-11 6 -25 4q-32 -3 -56 -27.5t-37.5 -58t-13.5 -63.5v-247q0 -49 25 -65.5t73 -16.5v-21q-23 1 -66.5 2.5t-90.5 1.5q-39 0 -77.5 -1.5t-57.5 -2.5v21
q37 0 52.5 15t15.5 57v315q0 45 -14.5 66.5t-53.5 21.5v21q32 -3 62 -3q37 0 70.5 3.5t61.5 10.5v-104q12 28 31.5 52t47 39.5t59.5 15.5zM346 816q15 -13 16 -33t-15 -41q-15 -19 -37.5 -36.5t-53.5 -41.5t-74 -65l-11 9q30 52 45.5 88t26.5 62t27 46q16 19 37.5 22
t38.5 -10z" />
    <glyph glyph-name="uni0156" unicode="&#x156;" horiz-adv-x="677" 
d="M36 708q25 -1 64 -2t78 -1q49 0 93 1t62 1q134 0 199.5 -47t65.5 -127q0 -33 -13 -67.5t-45 -63.5t-87.5 -47.5t-141.5 -18.5h-96v20h86q63 0 96.5 22.5t45 60t11.5 83.5q0 79 -31 122.5t-107 43.5q-41 0 -53.5 -17t-12.5 -69v-496q0 -36 6 -54t22.5 -24t48.5 -8v-20
q-25 2 -64 2.5t-79 0.5q-45 0 -84 -0.5t-64 -2.5v20q33 2 49.5 8t22 24t5.5 54v496q0 37 -5.5 54.5t-22 24t-49.5 7.5v20zM215 353q47 -2 78.5 -4.5t54 -4.5t40.5 -5q83 -8 122.5 -38.5t52.5 -92.5l23 -103q9 -41 19.5 -58.5t30.5 -16.5q14 0 24 7.5t20 20.5l14 -12
q-25 -31 -53 -45.5t-71 -14.5q-48 0 -81 22.5t-45 85.5l-19 100q-8 42 -18.5 74t-28.5 50t-53 18h-108zM350 -59q33 0 54.5 -20.5t21.5 -54.5q0 -42 -23.5 -69.5t-79.5 -38.5l-5 19q31 7 51.5 21t22.5 37q-7 -7 -18.5 -11t-27.5 -4q-30 0 -47.5 15t-17.5 45q0 27 19 44
t50 17z" />
    <glyph glyph-name="uni0157" unicode="&#x157;" horiz-adv-x="459" 
d="M358 531q31 0 51.5 -13t30.5 -33t10 -42q0 -33 -19.5 -55t-51.5 -22q-30 0 -49 16t-19 44q0 25 12.5 42t28.5 27q-11 6 -25 4q-32 -3 -56 -27.5t-37.5 -58t-13.5 -63.5v-247q0 -49 25 -65.5t73 -16.5v-21q-23 1 -66.5 2.5t-90.5 1.5q-39 0 -77.5 -1.5t-57.5 -2.5v21
q37 0 52.5 15t15.5 57v315q0 45 -14.5 66.5t-53.5 21.5v21q32 -3 62 -3q37 0 70.5 3.5t61.5 10.5v-104q12 28 31.5 52t47 39.5t59.5 15.5zM166 -59q33 0 54.5 -20.5t21.5 -54.5q0 -42 -23.5 -69.5t-79.5 -38.5l-5 19q31 7 51.5 21t22.5 37q-7 -7 -18.5 -11t-27.5 -4
q-30 0 -47.5 15t-17.5 45q0 27 19 44t50 17z" />
    <glyph glyph-name="Rcaron" unicode="&#x158;" horiz-adv-x="677" 
d="M36 708q25 -1 64 -2t78 -1q49 0 93 1t62 1q134 0 199.5 -47t65.5 -127q0 -33 -13 -67.5t-45 -63.5t-87.5 -47.5t-141.5 -18.5h-96v20h86q63 0 96.5 22.5t45 60t11.5 83.5q0 79 -31 122.5t-107 43.5q-41 0 -53.5 -17t-12.5 -69v-496q0 -36 6 -54t22.5 -24t48.5 -8v-20
q-25 2 -64 2.5t-79 0.5q-45 0 -84 -0.5t-64 -2.5v20q33 2 49.5 8t22 24t5.5 54v496q0 37 -5.5 54.5t-22 24t-49.5 7.5v20zM215 353q47 -2 78.5 -4.5t54 -4.5t40.5 -5q83 -8 122.5 -38.5t52.5 -92.5l23 -103q9 -41 19.5 -58.5t30.5 -16.5q14 0 24 7.5t20 20.5l14 -12
q-25 -31 -53 -45.5t-71 -14.5q-48 0 -81 22.5t-45 85.5l-19 100q-8 42 -18.5 74t-28.5 50t-53 18h-108zM514 934l5 -14q-65 -26 -117.5 -66t-81.5 -82h-18q-28 41 -81 81.5t-118 66.5l5 14q64 -12 125.5 -30t97.5 -36q31 18 81 36t102 30z" />
    <glyph glyph-name="rcaron" unicode="&#x159;" horiz-adv-x="459" 
d="M358 531q31 0 51.5 -13t30.5 -33t10 -42q0 -33 -19.5 -55t-51.5 -22q-30 0 -49 16t-19 44q0 25 12.5 42t28.5 27q-11 6 -25 4q-32 -3 -56 -27.5t-37.5 -58t-13.5 -63.5v-247q0 -49 25 -65.5t73 -16.5v-21q-23 1 -66.5 2.5t-90.5 1.5q-39 0 -77.5 -1.5t-57.5 -2.5v21
q37 0 52.5 15t15.5 57v315q0 45 -14.5 66.5t-53.5 21.5v21q32 -3 62 -3q37 0 70.5 3.5t61.5 10.5v-104q12 28 31.5 52t47 39.5t59.5 15.5zM403 814l8 -14q-57 -32 -103.5 -83t-71.5 -105h-18q-24 54 -70.5 105t-104.5 83l8 14q56 -15 110 -38t86 -46q27 23 69.5 46t86.5 38z
" />
    <glyph glyph-name="Sacute" unicode="&#x15a;" horiz-adv-x="569" 
d="M274 720q56 0 86 -12t52 -26q12 -7 19.5 -10.5t14.5 -3.5q16 0 22 44h23q-1 -19 -2.5 -44t-2 -66.5t-0.5 -109.5h-23q-3 51 -22.5 98t-55 77.5t-90.5 30.5q-49 0 -81.5 -29t-32.5 -78q0 -42 21 -70.5t59.5 -55t91.5 -60.5q49 -32 88 -63.5t61.5 -69.5t22.5 -93
q0 -65 -32 -108t-86 -64t-118 -21q-59 0 -93.5 12t-59.5 25q-22 14 -34 14q-16 0 -22 -44h-23q2 23 2.5 54t1 80.5t0.5 125.5h23q4 -64 22.5 -119.5t57 -89.5t102.5 -34q52 0 89 29.5t37 89.5q0 61 -42 102t-110 83q-47 30 -88 61t-65.5 70.5t-24.5 95.5q0 62 30 101.5
t78.5 58.5t103.5 19zM385 931q21 12 42.5 7.5t31.5 -23.5q9 -18 3 -37t-28 -32t-49.5 -21t-64.5 -19t-92 -34l-7 13q47 37 75 65t47.5 48.5t41.5 32.5z" />
    <glyph glyph-name="sacute" unicode="&#x15b;" horiz-adv-x="457" 
d="M217 531q42 0 72 -12t44 -21q34 -25 41 32h22q-2 -29 -3 -68.5t-1 -105.5h-22q-5 37 -19 72t-41 58.5t-71 23.5q-31 0 -51.5 -18t-20.5 -51q0 -30 18 -52.5t46.5 -42t59.5 -42.5q53 -37 89.5 -74.5t36.5 -97.5q0 -46 -25.5 -78.5t-67 -50t-91.5 -17.5q-27 0 -49 5t-39 13
q-13 7 -23.5 13t-21.5 10q-10 5 -17.5 -4t-11.5 -30h-22q2 32 3 78t1 122h22q7 -55 21.5 -96.5t42.5 -65t72 -23.5q27 0 52 18t25 61q0 44 -30 73t-75 62q-34 25 -63.5 49t-48 54t-18.5 71q0 45 23 74.5t60.5 45t80.5 15.5zM341 816q15 -13 16 -33t-15 -41
q-15 -19 -37.5 -36.5t-53.5 -41.5t-74 -65l-11 9q30 52 45.5 88t26.5 62t27 46q16 19 37.5 22t38.5 -10z" />
    <glyph glyph-name="Scircumflex" unicode="&#x15c;" horiz-adv-x="569" 
d="M274 720q56 0 86 -12t52 -26q12 -7 19.5 -10.5t14.5 -3.5q16 0 22 44h23q-1 -19 -2.5 -44t-2 -66.5t-0.5 -109.5h-23q-3 51 -22.5 98t-55 77.5t-90.5 30.5q-49 0 -81.5 -29t-32.5 -78q0 -42 21 -70.5t59.5 -55t91.5 -60.5q49 -32 88 -63.5t61.5 -69.5t22.5 -93
q0 -65 -32 -108t-86 -64t-118 -21q-59 0 -93.5 12t-59.5 25q-22 14 -34 14q-16 0 -22 -44h-23q2 23 2.5 54t1 80.5t0.5 125.5h23q4 -64 22.5 -119.5t57 -89.5t102.5 -34q52 0 89 29.5t37 89.5q0 61 -42 102t-110 83q-47 30 -88 61t-65.5 70.5t-24.5 95.5q0 62 30 101.5
t78.5 58.5t103.5 19zM299 932q28 -42 81 -81.5t118 -66.5l-5 -14q-64 12 -125 30t-98 36q-30 -18 -80.5 -36t-102.5 -30l-5 14q65 26 117.5 66t81.5 82h18z" />
    <glyph glyph-name="scircumflex" unicode="&#x15d;" horiz-adv-x="457" 
d="M217 531q42 0 72 -12t44 -21q34 -25 41 32h22q-2 -29 -3 -68.5t-1 -105.5h-22q-5 37 -19 72t-41 58.5t-71 23.5q-31 0 -51.5 -18t-20.5 -51q0 -30 18 -52.5t46.5 -42t59.5 -42.5q53 -37 89.5 -74.5t36.5 -97.5q0 -46 -25.5 -78.5t-67 -50t-91.5 -17.5q-27 0 -49 5t-39 13
q-13 7 -23.5 13t-21.5 10q-10 5 -17.5 -4t-11.5 -30h-22q2 32 3 78t1 122h22q7 -55 21.5 -96.5t42.5 -65t72 -23.5q27 0 52 18t25 61q0 44 -30 73t-75 62q-34 25 -63.5 49t-48 54t-18.5 71q0 45 23 74.5t60.5 45t80.5 15.5zM241 814q24 -54 70.5 -104.5t104.5 -83.5l-8 -14
q-56 16 -109.5 38.5t-86.5 45.5q-26 -23 -69 -45.5t-87 -38.5l-8 14q57 32 103.5 83t71.5 105h18z" />
    <glyph glyph-name="Scedilla" unicode="&#x15e;" horiz-adv-x="569" 
d="M274 720q56 0 86 -12t52 -26q12 -7 19.5 -10.5t14.5 -3.5q16 0 22 44h23q-1 -19 -2.5 -44t-2 -66.5t-0.5 -109.5h-23q-3 51 -22.5 98t-55 77.5t-90.5 30.5q-49 0 -81.5 -29t-32.5 -78q0 -42 21 -70.5t59.5 -55t91.5 -60.5q49 -32 88 -63.5t61.5 -69.5t22.5 -93
q0 -65 -32 -108t-86 -64t-118 -21q-59 0 -93.5 12t-59.5 25q-22 14 -34 14q-16 0 -22 -44h-23q2 23 2.5 54t1 80.5t0.5 125.5h23q4 -64 22.5 -119.5t57 -89.5t102.5 -34q52 0 89 29.5t37 89.5q0 61 -42 102t-110 83q-47 30 -88 61t-65.5 70.5t-24.5 95.5q0 62 30 101.5
t78.5 58.5t103.5 19zM304 5l-23 -72q16 5 33.5 7.5t37.5 2.5q34 0 52 -14t18 -37q0 -29 -21 -46.5t-53 -25.5t-69 -8q-29 0 -51.5 3.5t-38.5 8.5l5 18q6 -1 19 -2.5t27 -1.5q31 0 61 9t30 33q0 14 -12 20.5t-32 6.5q-8 0 -21 -1.5t-22 -5.5l33 105h27z" />
    <glyph glyph-name="scedilla" unicode="&#x15f;" horiz-adv-x="457" 
d="M217 531q42 0 72 -12t44 -21q34 -25 41 32h22q-2 -29 -3 -68.5t-1 -105.5h-22q-5 37 -19 72t-41 58.5t-71 23.5q-31 0 -51.5 -18t-20.5 -51q0 -30 18 -52.5t46.5 -42t59.5 -42.5q53 -37 89.5 -74.5t36.5 -97.5q0 -46 -25.5 -78.5t-67 -50t-91.5 -17.5q-27 0 -49 5t-39 13
q-13 7 -23.5 13t-21.5 10q-10 5 -17.5 -4t-11.5 -30h-22q2 32 3 78t1 122h22q7 -55 21.5 -96.5t42.5 -65t72 -23.5q27 0 52 18t25 61q0 44 -30 73t-75 62q-34 25 -63.5 49t-48 54t-18.5 71q0 45 23 74.5t60.5 45t80.5 15.5zM224 4l-22 -71q15 5 31.5 7.5t35.5 2.5
q32 0 49 -14t17 -37q0 -29 -19.5 -46.5t-49 -25.5t-62.5 -8q-28 0 -49.5 3.5t-36.5 8.5l5 18q6 -1 17.5 -2.5t24.5 -1.5q26 0 52.5 9t26.5 33q0 27 -37 27q-8 0 -20.5 -1.5t-21.5 -5.5l32 104h27z" />
    <glyph glyph-name="Scaron" unicode="&#x160;" horiz-adv-x="569" 
d="M274 720q56 0 86 -12t52 -26q12 -7 19.5 -10.5t14.5 -3.5q16 0 22 44h23q-1 -19 -2.5 -44t-2 -66.5t-0.5 -109.5h-23q-3 51 -22.5 98t-55 77.5t-90.5 30.5q-49 0 -81.5 -29t-32.5 -78q0 -42 21 -70.5t59.5 -55t91.5 -60.5q49 -32 88 -63.5t61.5 -69.5t22.5 -93
q0 -65 -32 -108t-86 -64t-118 -21q-59 0 -93.5 12t-59.5 25q-22 14 -34 14q-16 0 -22 -44h-23q2 23 2.5 54t1 80.5t0.5 125.5h23q4 -64 22.5 -119.5t57 -89.5t102.5 -34q52 0 89 29.5t37 89.5q0 61 -42 102t-110 83q-47 30 -88 61t-65.5 70.5t-24.5 95.5q0 62 30 101.5
t78.5 58.5t103.5 19zM490 934l5 -14q-65 -26 -117.5 -66t-81.5 -82h-18q-28 41 -81 81.5t-118 66.5l5 14q64 -12 125.5 -30t97.5 -36q31 18 81 36t102 30z" />
    <glyph glyph-name="scaron" unicode="&#x161;" horiz-adv-x="457" 
d="M217 531q42 0 72 -12t44 -21q34 -25 41 32h22q-2 -29 -3 -68.5t-1 -105.5h-22q-5 37 -19 72t-41 58.5t-71 23.5q-31 0 -51.5 -18t-20.5 -51q0 -30 18 -52.5t46.5 -42t59.5 -42.5q53 -37 89.5 -74.5t36.5 -97.5q0 -46 -25.5 -78.5t-67 -50t-91.5 -17.5q-27 0 -49 5t-39 13
q-13 7 -23.5 13t-21.5 10q-10 5 -17.5 -4t-11.5 -30h-22q2 32 3 78t1 122h22q7 -55 21.5 -96.5t42.5 -65t72 -23.5q27 0 52 18t25 61q0 44 -30 73t-75 62q-34 25 -63.5 49t-48 54t-18.5 71q0 45 23 74.5t60.5 45t80.5 15.5zM398 814l8 -14q-57 -32 -103.5 -83t-71.5 -105
h-18q-24 54 -70.5 105t-104.5 83l8 14q56 -15 110 -38t86 -46q27 23 69.5 46t86.5 38z" />
    <glyph glyph-name="uni0162" unicode="&#x162;" horiz-adv-x="652" 
d="M626 708q-4 -46 -5.5 -89.5t-1.5 -66.5t1 -43t2 -35h-23q-14 80 -34 125.5t-52.5 65.5t-85.5 20h-32v-570q0 -41 7.5 -61t30.5 -26.5t67 -7.5v-20q-30 2 -78 2.5t-98 0.5q-52 0 -97.5 -0.5t-73.5 -2.5v20q43 1 66 7.5t31 26.5t8 61v570h-33q-52 0 -85 -20t-53 -65.5
t-33 -125.5h-23q2 15 2.5 35t0.5 43t-1.5 66.5t-5.5 89.5q44 -1 97 -2t106 -1h97h96t106 1t97 2zM337 5l-23 -72q16 5 33.5 7.5t37.5 2.5q34 0 52 -14t18 -37q0 -29 -21 -46.5t-53 -25.5t-69 -8q-29 0 -51.5 3.5t-38.5 8.5l5 18q6 -1 19 -2.5t27 -1.5q31 0 61 9t30 33
q0 14 -12 20.5t-32 6.5q-8 0 -21 -1.5t-22 -5.5l33 105h27z" />
    <glyph glyph-name="uni0163" unicode="&#x163;" horiz-adv-x="352" 
d="M215 681v-165h128v-20h-128v-398q0 -36 13 -51t37 -15q23 0 42 17.5t34 58.5l18 -8q-15 -49 -46.5 -81.5t-88.5 -32.5q-34 0 -57.5 8.5t-40.5 24.5q-22 23 -29.5 55t-7.5 85v337h-88v20h88v139q36 1 67 7t59 19zM219 4l-22 -71q15 5 31.5 7.5t35.5 2.5q32 0 49 -14
t17 -37q0 -29 -19.5 -46.5t-49 -25.5t-62.5 -8q-28 0 -49.5 3.5t-36.5 8.5l5 18q6 -1 17.5 -2.5t24.5 -1.5q26 0 52.5 9t26.5 33q0 27 -37 27q-8 0 -20.5 -1.5t-21.5 -5.5l32 104h27z" />
    <glyph glyph-name="Tcaron" unicode="&#x164;" horiz-adv-x="652" 
d="M626 708q-4 -46 -5.5 -89.5t-1.5 -66.5t1 -43t2 -35h-23q-14 80 -34 125.5t-52.5 65.5t-85.5 20h-32v-570q0 -41 7.5 -61t30.5 -26.5t67 -7.5v-20q-30 2 -78 2.5t-98 0.5q-52 0 -97.5 -0.5t-73.5 -2.5v20q43 1 66 7.5t31 26.5t8 61v570h-33q-52 0 -85 -20t-53 -65.5
t-33 -125.5h-23q2 15 2.5 35t0.5 43t-1.5 66.5t-5.5 89.5q44 -1 97 -2t106 -1h97h96t106 1t97 2zM527 934l5 -14q-65 -26 -117.5 -66t-81.5 -82h-18q-28 41 -81 81.5t-118 66.5l5 14q64 -12 125.5 -30t97.5 -36q31 18 81 36t102 30z" />
    <glyph glyph-name="tcaron" unicode="&#x165;" horiz-adv-x="352" 
d="M215 681v-165h128v-20h-128v-398q0 -36 13 -51t37 -15q23 0 42 17.5t34 58.5l18 -8q-15 -49 -46.5 -81.5t-88.5 -32.5q-34 0 -57.5 8.5t-40.5 24.5q-22 23 -29.5 55t-7.5 85v337h-88v20h88v139q36 1 67 7t59 19zM371 783q2 -5 3.5 -18.5t1.5 -22.5q0 -29 -23.5 -72
t-63.5 -108l-14 4q12 68 16 100t4 45q0 20 -3.5 30t-16.5 10v21q35 -2 56.5 2t39.5 9z" />
    <glyph glyph-name="Tbar" unicode="&#x166;" horiz-adv-x="652" 
d="M626 708q-4 -46 -5.5 -89.5t-1.5 -66.5t1 -43t2 -35h-23q-14 80 -34 125.5t-52.5 65.5t-85.5 20h-32v-570q0 -41 7.5 -61t30.5 -26.5t67 -7.5v-20q-30 2 -78 2.5t-98 0.5q-52 0 -97.5 -0.5t-73.5 -2.5v20q43 1 66 7.5t31 26.5t8 61v570h-33q-52 0 -85 -20t-53 -65.5
t-33 -125.5h-23q2 15 2.5 35t0.5 43t-1.5 66.5t-5.5 89.5q44 -1 97 -2t106 -1h97h96t106 1t97 2zM559.805 364v-20h-448.805v20h448.805z" />
    <glyph glyph-name="tbar" unicode="&#x167;" horiz-adv-x="367" 
d="M345 421v-20h-342v20h342zM217 681v-165h128v-20h-128v-398q0 -36 13 -51t38 -15q22 0 41.5 17.5t33.5 58.5l18 -8q-14 -49 -45.5 -81.5t-88.5 -32.5q-34 0 -58 8.5t-41 24.5q-22 23 -29.5 55t-7.5 85v337h-88v20h88v139q37 1 68 7t58 19z" />
    <glyph glyph-name="Utilde" unicode="&#x168;" horiz-adv-x="686" 
d="M665 708v-20q-32 -3 -48.5 -14.5t-22.5 -36t-6 -69.5v-277q0 -67 -8.5 -120t-32.5 -92q-25 -42 -74.5 -67.5t-120.5 -25.5q-48 0 -94.5 11t-81.5 41q-31 26 -48.5 59t-23.5 79.5t-6 111.5v314q0 37 -5.5 54.5t-22 24t-49.5 7.5v20q25 -1 64 -2t84 -1q41 0 81 1t66 2v-20
q-34 -1 -51.5 -7.5t-23.5 -24t-6 -54.5v-362q0 -67 12 -116t43 -76t90 -27q73 0 113 33t56 92t16 134v280q0 49 -7 75t-27.5 38t-60.5 15v20q19 -1 49.5 -2t56.5 -1q25 0 49.5 1t39.5 2zM270 916q33 0 58.5 -10.5t48.5 -25t46.5 -25.5t51.5 -11q23 0 42.5 12t33.5 43l15 -5
q-11 -62 -46.5 -93.5t-79.5 -31.5q-33 0 -59 11t-48.5 25.5t-46 25.5t-51.5 11q-24 0 -43 -12t-33 -43l-15 5q11 62 46.5 93t79.5 31z" />
    <glyph glyph-name="utilde" unicode="&#x169;" horiz-adv-x="597" 
d="M509 528v-420q0 -45 15 -66.5t53 -21.5v-21q-31 3 -62 3q-37 0 -70.5 -3t-61.5 -11v100q-25 -55 -68.5 -78.5t-93.5 -23.5q-39 0 -65.5 10.5t-42.5 28.5q-17 19 -24 50t-7 80v253q0 45 -14.5 66.5t-53.5 21.5v21q32 -3 62 -3q37 0 70.5 3.5t61.5 10.5v-408q0 -27 4.5 -48
t18.5 -33.5t42 -12.5q47 0 78.5 39.5t31.5 97.5v245q0 45 -14.5 66.5t-53.5 21.5v21q32 -3 62 -3q37 0 70.5 3.5t61.5 10.5zM212 780q29 0 49.5 -10t37.5 -23t34.5 -23t41.5 -10q21 0 40.5 12.5t36.5 40.5l14 -7q-17 -68 -50 -97.5t-72 -29.5q-29 0 -50 10t-38 23.5
t-34.5 23.5t-41.5 10q-21 0 -40.5 -12.5t-36.5 -41.5l-14 7q16 68 50 97.5t73 29.5z" />
    <glyph glyph-name="Umacron" unicode="&#x16a;" horiz-adv-x="686" 
d="M665 708v-20q-32 -3 -48.5 -14.5t-22.5 -36t-6 -69.5v-277q0 -67 -8.5 -120t-32.5 -92q-25 -42 -74.5 -67.5t-120.5 -25.5q-48 0 -94.5 11t-81.5 41q-31 26 -48.5 59t-23.5 79.5t-6 111.5v314q0 37 -5.5 54.5t-22 24t-49.5 7.5v20q25 -1 64 -2t84 -1q41 0 81 1t66 2v-20
q-34 -1 -51.5 -7.5t-23.5 -24t-6 -54.5v-362q0 -67 12 -116t43 -76t90 -27q73 0 113 33t56 92t16 134v280q0 49 -7 75t-27.5 38t-60.5 15v20q19 -1 49.5 -2t56.5 -1q25 0 49.5 1t39.5 2zM548 844v-25h-384v25h384z" />
    <glyph glyph-name="umacron" unicode="&#x16b;" horiz-adv-x="597" 
d="M509 528v-420q0 -45 15 -66.5t53 -21.5v-21q-31 3 -62 3q-37 0 -70.5 -3t-61.5 -11v100q-25 -55 -68.5 -78.5t-93.5 -23.5q-39 0 -65.5 10.5t-42.5 28.5q-17 19 -24 50t-7 80v253q0 45 -14.5 66.5t-53.5 21.5v21q32 -3 62 -3q37 0 70.5 3.5t61.5 10.5v-408q0 -27 4.5 -48
t18.5 -33.5t42 -12.5q47 0 78.5 39.5t31.5 97.5v245q0 45 -14.5 66.5t-53.5 21.5v21q32 -3 62 -3q37 0 70.5 3.5t61.5 10.5zM447 712v-25h-328v25h328z" />
    <glyph glyph-name="Ubreve" unicode="&#x16c;" horiz-adv-x="686" 
d="M665 708v-20q-32 -3 -48.5 -14.5t-22.5 -36t-6 -69.5v-277q0 -67 -8.5 -120t-32.5 -92q-25 -42 -74.5 -67.5t-120.5 -25.5q-48 0 -94.5 11t-81.5 41q-31 26 -48.5 59t-23.5 79.5t-6 111.5v314q0 37 -5.5 54.5t-22 24t-49.5 7.5v20q25 -1 64 -2t84 -1q41 0 81 1t66 2v-20
q-34 -1 -51.5 -7.5t-23.5 -24t-6 -54.5v-362q0 -67 12 -116t43 -76t90 -27q73 0 113 33t56 92t16 134v280q0 49 -7 75t-27.5 38t-60.5 15v20q19 -1 49.5 -2t56.5 -1q25 0 49.5 1t39.5 2zM555 913l12 -11q-15 -28 -43.5 -58t-71 -50t-100.5 -20t-100.5 20t-71 50t-43.5 58
l13 11q25 -21 74.5 -41.5t127.5 -20.5t128 21t75 41z" />
    <glyph glyph-name="ubreve" unicode="&#x16d;" horiz-adv-x="597" 
d="M509 528v-420q0 -45 15 -66.5t53 -21.5v-21q-31 3 -62 3q-37 0 -70.5 -3t-61.5 -11v100q-25 -55 -68.5 -78.5t-93.5 -23.5q-39 0 -65.5 10.5t-42.5 28.5q-17 19 -24 50t-7 80v253q0 45 -14.5 66.5t-53.5 21.5v21q32 -3 62 -3q37 0 70.5 3.5t61.5 10.5v-408q0 -27 4.5 -48
t18.5 -33.5t42 -12.5q47 0 78.5 39.5t31.5 97.5v245q0 45 -14.5 66.5t-53.5 21.5v21q32 -3 62 -3q37 0 70.5 3.5t61.5 10.5zM455 788l17 -9q-13 -35 -37 -71t-61 -59.5t-89 -23.5t-89 23.5t-61 59.5t-37 71l17 9q21 -28 62 -54t108 -26q68 0 108.5 26t61.5 54z" />
    <glyph glyph-name="Uring" unicode="&#x16e;" horiz-adv-x="686" 
d="M665 708v-20q-32 -3 -48.5 -14.5t-22.5 -36t-6 -69.5v-277q0 -67 -8.5 -120t-32.5 -92q-25 -42 -74.5 -67.5t-120.5 -25.5q-48 0 -94.5 11t-81.5 41q-31 26 -48.5 59t-23.5 79.5t-6 111.5v314q0 37 -5.5 54.5t-22 24t-49.5 7.5v20q25 -1 64 -2t84 -1q41 0 81 1t66 2v-20
q-34 -1 -51.5 -7.5t-23.5 -24t-6 -54.5v-362q0 -67 12 -116t43 -76t90 -27q73 0 113 33t56 92t16 134v280q0 49 -7 75t-27.5 38t-60.5 15v20q19 -1 49.5 -2t56.5 -1q25 0 49.5 1t39.5 2zM356 987q42 0 73.5 -25.5t31.5 -69.5q0 -45 -31.5 -70.5t-73.5 -25.5
q-41 0 -72.5 25.5t-31.5 70.5q0 44 31.5 69.5t72.5 25.5zM356 966q-27 0 -51.5 -19t-24.5 -56t24.5 -55.5t51.5 -18.5q28 0 52.5 18.5t24.5 55.5t-24.5 56t-52.5 19z" />
    <glyph glyph-name="uring" unicode="&#x16f;" horiz-adv-x="597" 
d="M509 528v-420q0 -45 15 -66.5t53 -21.5v-21q-31 3 -62 3q-37 0 -70.5 -3t-61.5 -11v100q-25 -55 -68.5 -78.5t-93.5 -23.5q-39 0 -65.5 10.5t-42.5 28.5q-17 19 -24 50t-7 80v253q0 45 -14.5 66.5t-53.5 21.5v21q32 -3 62 -3q37 0 70.5 3.5t61.5 10.5v-408q0 -27 4.5 -48
t18.5 -33.5t42 -12.5q47 0 78.5 39.5t31.5 97.5v245q0 45 -14.5 66.5t-53.5 21.5v21q32 -3 62 -3q37 0 70.5 3.5t61.5 10.5zM286 795q42 0 73.5 -25.5t31.5 -69.5q0 -45 -31.5 -70.5t-73.5 -25.5q-41 0 -72.5 25.5t-31.5 70.5q0 44 31.5 69.5t72.5 25.5zM286 774
q-27 0 -51.5 -19t-24.5 -56t24.5 -55.5t51.5 -18.5q28 0 52.5 18.5t24.5 55.5t-24.5 56t-52.5 19z" />
    <glyph glyph-name="Uhungarumlaut" unicode="&#x170;" horiz-adv-x="686" 
d="M665 708v-20q-32 -3 -48.5 -14.5t-22.5 -36t-6 -69.5v-277q0 -67 -8.5 -120t-32.5 -92q-25 -42 -74.5 -67.5t-120.5 -25.5q-48 0 -94.5 11t-81.5 41q-31 26 -48.5 59t-23.5 79.5t-6 111.5v314q0 37 -5.5 54.5t-22 24t-49.5 7.5v20q25 -1 64 -2t84 -1q41 0 81 1t66 2v-20
q-34 -1 -51.5 -7.5t-23.5 -24t-6 -54.5v-362q0 -67 12 -116t43 -76t90 -27q73 0 113 33t56 92t16 134v280q0 49 -7 75t-27.5 38t-60.5 15v20q19 -1 49.5 -2t56.5 -1q25 0 49.5 1t39.5 2zM520 930q20 16 41 13.5t34 -19.5t9 -36.5t-25 -35.5q-28 -21 -70.5 -36t-96.5 -44
l-9 12q28 30 47 58t35 51t35 37zM317 930q20 16 41 13.5t34 -19.5t9 -36.5t-25 -35.5q-28 -21 -70.5 -36t-96.5 -44l-9 12q28 30 47 58t35 51t35 37z" />
    <glyph glyph-name="uhungarumlaut" unicode="&#x171;" horiz-adv-x="597" 
d="M509 528v-420q0 -45 15 -66.5t53 -21.5v-21q-31 3 -62 3q-37 0 -70.5 -3t-61.5 -11v100q-25 -55 -68.5 -78.5t-93.5 -23.5q-39 0 -65.5 10.5t-42.5 28.5q-17 19 -24 50t-7 80v253q0 45 -14.5 66.5t-53.5 21.5v21q32 -3 62 -3q37 0 70.5 3.5t61.5 10.5v-408q0 -27 4.5 -48
t18.5 -33.5t42 -12.5q47 0 78.5 39.5t31.5 97.5v245q0 45 -14.5 66.5t-53.5 21.5v21q32 -3 62 -3q37 0 70.5 3.5t61.5 10.5zM496 815q16 -13 18.5 -32.5t-12.5 -41.5q-21 -27 -58 -55t-94 -87l-12 7q25 50 38 85.5t22.5 61.5t22.5 45q15 21 36.5 25t38.5 -8zM318 815
q17 -13 19.5 -32.5t-13.5 -41.5q-20 -27 -57 -55t-95 -87l-12 7q25 50 38 85.5t22.5 61.5t23.5 45q14 21 35.5 25t38.5 -8z" />
    <glyph glyph-name="Uogonek" unicode="&#x172;" horiz-adv-x="686" 
d="M665 708v-20q-32 -3 -48.5 -14.5t-22.5 -36t-6 -69.5v-277q0 -67 -8.5 -120t-32.5 -92q-25 -42 -74.5 -67.5t-120.5 -25.5q-48 0 -94.5 11t-81.5 41q-31 26 -48.5 59t-23.5 79.5t-6 111.5v314q0 37 -5.5 54.5t-22 24t-49.5 7.5v20q25 -1 64 -2t84 -1q41 0 81 1t66 2v-20
q-34 -1 -51.5 -7.5t-23.5 -24t-6 -54.5v-362q0 -67 12 -116t43 -76t90 -27q73 0 113 33t56 92t16 134v280q0 49 -7 75t-27.5 38t-60.5 15v20q19 -1 49.5 -2t56.5 -1q25 0 49.5 1t39.5 2zM453 3q-61 -18 -84 -45.5t-23 -51.5q0 -19 10.5 -30t30.5 -11q19 0 36 8.5t27 20.5
l15 -14q-26 -35 -57 -51.5t-72 -16.5q-42 0 -64.5 18t-22.5 49q0 41 43.5 72.5t122.5 51.5h38z" />
    <glyph glyph-name="uogonek" unicode="&#x173;" horiz-adv-x="597" 
d="M509 528v-420q0 -45 15 -66.5t53 -21.5v-21q-31 3 -62 3q-37 0 -70.5 -3t-61.5 -11v100q-25 -55 -68.5 -78.5t-93.5 -23.5q-39 0 -65.5 10.5t-42.5 28.5q-17 19 -24 50t-7 80v253q0 45 -14.5 66.5t-53.5 21.5v21q32 -3 62 -3q37 0 70.5 3.5t61.5 10.5v-408q0 -27 4.5 -48
t18.5 -33.5t42 -12.5q47 0 78.5 39.5t31.5 97.5v245q0 45 -14.5 66.5t-53.5 21.5v21q32 -3 62 -3q37 0 70.5 3.5t61.5 10.5zM564 7q-3 -3 -7 -5t-9 -5q-45 -20 -62.5 -44t-17.5 -47q0 -19 11.5 -30t30.5 -11q18 0 35.5 8.5t27.5 20.5l14 -14q-25 -35 -56.5 -51.5
t-72.5 -16.5t-64 18t-23 49q0 41 40.5 72.5t113.5 51.5z" />
    <glyph glyph-name="Wcircumflex" unicode="&#x174;" horiz-adv-x="947" 
d="M951 708v-20q-20 -7 -44 -31t-40 -77l-181 -583q-6 0 -12.5 0.5t-13.5 0.5q-6 0 -12.5 -0.5t-12.5 -0.5l-212 634q-11 34 -25.5 45t-29.5 12v20q24 -1 58.5 -2t68.5 -1q42 0 79 1t60 2v-20q-31 -1 -48 -6.5t-19.5 -23t9.5 -54.5l144 -443l-20 -32l120 379q22 68 20.5 107
t-23.5 55.5t-63 17.5v20q33 -1 62.5 -2t59.5 -1q23 0 41.5 1t33.5 2zM243 708v-20q-23 -2 -32 -13t-7.5 -28.5t9.5 -42.5l153 -454l-26 -32l132 398l15 -26l-161 -493q-6 0 -12.5 0.5t-13.5 0.5q-6 0 -12.5 -0.5t-12.5 -0.5l-220 627q-13 37 -31.5 50t-33.5 14v20
q26 -1 63 -2t72 -1q37 0 68 1t50 2zM497 932q28 -42 81 -81.5t118 -66.5l-5 -14q-64 12 -125 30t-98 36q-30 -18 -80.5 -36t-102.5 -30l-5 14q65 26 117.5 66t81.5 82h18z" />
    <glyph glyph-name="wcircumflex" unicode="&#x175;" horiz-adv-x="781" 
d="M250 517v-21q-24 0 -41 -3.5t-22.5 -16.5t4.5 -46l98 -298l-11 -8l127 395l21 -10l-163 -512q-12 1 -24.5 1t-24.5 -1l-160 443q-16 40 -31.5 48t-26.5 8v21q28 -3 58 -4.5t66 -1.5q31 0 65.5 2t64.5 4zM781 517v-21q-19 -4 -36.5 -20.5t-31.5 -60.5l-137 -418
q-12 1 -24 1t-25 -1l-147 393l26 129q14 -1 28 -1t28 1l143 -407l-10 5l78 242q22 71 4 102t-69 35v21q16 -1 33 -2t33 -1.5t30 -0.5q21 0 42 1t35 3zM420 814q24 -54 70.5 -104.5t104.5 -83.5l-8 -14q-56 16 -109.5 38.5t-86.5 45.5q-26 -23 -69 -45.5t-87 -38.5l-8 14
q57 32 103.5 83t71.5 105h18z" />
    <glyph glyph-name="Ycircumflex" unicode="&#x176;" horiz-adv-x="612" 
d="M607 708v-20q-20 -6 -42 -30.5t-48 -75.5l-193 -383h-37l-234 432q-19 35 -33 45.5t-25 10.5v21q24 -1 50.5 -2.5t57.5 -1.5q40 0 86 1t86 3v-21q-25 0 -45 -4t-27 -17t5 -38l162 -310l-24 -28l114 226q33 66 34.5 103t-21 52.5t-63.5 16.5v20q33 -1 62.5 -2t58.5 -1
q24 0 42.5 1t33.5 2zM385 340v-234q0 -36 6 -54t22.5 -24t48.5 -8v-20q-25 2 -65 2.5t-80 0.5q-43 0 -82.5 -0.5t-63.5 -2.5v20q33 2 49.5 8t22 24t5.5 54v205l76 -62zM331 932q28 -42 81 -81.5t118 -66.5l-5 -14q-64 12 -125 30t-98 36q-30 -18 -80.5 -36t-102.5 -30l-5 14
q65 26 117.5 66t81.5 82h18z" />
    <glyph glyph-name="ycircumflex" unicode="&#x177;" horiz-adv-x="514" 
d="M506 517v-21q-19 -4 -35.5 -21t-31.5 -60l-148 -406l-31 -47l-206 478q-19 38 -36 47t-28 9v21q29 -3 60.5 -4.5t63.5 -1.5q37 0 71.5 2t64.5 4v-21q-23 0 -41 -3t-23.5 -16.5t7.5 -46.5l125 -305l-8 -4l88 238q25 70 7 102t-67 35v21q24 -2 47.5 -3t44.5 -1t41.5 1
t34.5 3zM291 9l-38 -101q-18 -50 -43 -71q-15 -13 -36.5 -19t-47.5 -6q-23 0 -44.5 8t-36 24t-14.5 42q0 28 19 45t52 17q29 0 47.5 -14.5t18.5 -43.5q0 -19 -11 -34t-31 -23q5 -1 9.5 -1.5t7.5 -0.5q29 0 52 19t37 60l36 99h23zM265 814q24 -54 70.5 -104.5t104.5 -83.5
l-8 -14q-56 16 -109.5 38.5t-86.5 45.5q-26 -23 -69 -45.5t-87 -38.5l-8 14q57 32 103.5 83t71.5 105h18z" />
    <glyph glyph-name="Ydieresis" unicode="&#x178;" horiz-adv-x="612" 
d="M607 708v-20q-20 -6 -42 -30.5t-48 -75.5l-193 -383h-37l-234 432q-19 35 -33 45.5t-25 10.5v21q24 -1 50.5 -2.5t57.5 -1.5q40 0 86 1t86 3v-21q-25 0 -45 -4t-27 -17t5 -38l162 -310l-24 -28l114 226q33 66 34.5 103t-21 52.5t-63.5 16.5v20q33 -1 62.5 -2t58.5 -1
q24 0 42.5 1t33.5 2zM385 340v-234q0 -36 6 -54t22.5 -24t48.5 -8v-20q-25 2 -65 2.5t-80 0.5q-43 0 -82.5 -0.5t-63.5 -2.5v20q33 2 49.5 8t22 24t5.5 54v205l76 -62zM437 907q28 0 49 -21t21 -48q0 -29 -21 -49.5t-49 -20.5q-29 0 -49 20.5t-20 49.5q0 27 20 48t49 21z
M207 907q28 0 48.5 -21t20.5 -48q0 -29 -21 -49.5t-48 -20.5q-29 0 -49.5 20.5t-20.5 49.5q0 27 20.5 48t49.5 21z" />
    <glyph glyph-name="Zacute" unicode="&#x179;" horiz-adv-x="599" 
d="M554 708v-20l-360 -665h134q39 0 71.5 11t58.5 34.5t43 63.5t22 98h23q-3 -33 -3 -86q0 -21 1.5 -61t5.5 -83q-55 2 -124.5 2.5t-124.5 0.5q-62 0 -131 -0.5t-130 -2.5v20l362 665h-137q-53 0 -92 -18.5t-63 -61.5t-33 -119h-23q2 15 2.5 35t0.5 43q0 21 -1.5 61t-5.5 83
q53 -2 117.5 -2.5t115.5 -0.5q65 0 137 0.5t134 2.5zM394 931q21 12 42.5 7.5t31.5 -23.5q9 -18 3 -37t-28 -32t-49.5 -21t-64.5 -19t-92 -34l-7 13q47 37 75 65t47.5 48.5t41.5 32.5z" />
    <glyph glyph-name="zacute" unicode="&#x17a;" horiz-adv-x="474" 
d="M442 521l-263 -506h72q39 0 71.5 16.5t54.5 54.5t26 102h22q0 -70 1 -116t3 -76q-45 2 -93.5 3t-96.5 1q-51 0 -104 -1.5t-102 -3.5l263 506h-74q-41 0 -73.5 -16.5t-52 -54t-24.5 -102.5h-22q0 71 -1 116.5t-3 75.5q45 -2 93.5 -3t96.5 -1q51 0 104 1.5t102 3.5z
M362 816q15 -13 16 -33t-15 -41q-15 -19 -37.5 -36.5t-53.5 -41.5t-74 -65l-11 9q30 52 45.5 88t26.5 62t27 46q16 19 37.5 22t38.5 -10z" />
    <glyph glyph-name="Zdotaccent" unicode="&#x17b;" horiz-adv-x="599" 
d="M554 708v-20l-360 -665h134q39 0 71.5 11t58.5 34.5t43 63.5t22 98h23q-3 -33 -3 -86q0 -21 1.5 -61t5.5 -83q-55 2 -124.5 2.5t-124.5 0.5q-62 0 -131 -0.5t-130 -2.5v20l362 665h-137q-53 0 -92 -18.5t-63 -61.5t-33 -119h-23q2 15 2.5 35t0.5 43q0 21 -1.5 61t-5.5 83
q53 -2 117.5 -2.5t115.5 -0.5q65 0 137 0.5t134 2.5zM299 964q36 0 59 -20t23 -53t-23 -53t-59 -20t-59 20t-23 53t23 53t59 20z" />
    <glyph glyph-name="zdotaccent" unicode="&#x17c;" horiz-adv-x="474" 
d="M442 521l-263 -506h72q39 0 71.5 16.5t54.5 54.5t26 102h22q0 -70 1 -116t3 -76q-45 2 -93.5 3t-96.5 1q-51 0 -104 -1.5t-102 -3.5l263 506h-74q-41 0 -73.5 -16.5t-52 -54t-24.5 -102.5h-22q0 71 -1 116.5t-3 75.5q45 -2 93.5 -3t96.5 -1q51 0 104 1.5t102 3.5z
M253 772q36 0 59 -20t23 -53t-23 -53t-59 -20t-59 20t-23 53t23 53t59 20z" />
    <glyph glyph-name="Zcaron" unicode="&#x17d;" horiz-adv-x="599" 
d="M554 708v-20l-360 -665h134q39 0 71.5 11t58.5 34.5t43 63.5t22 98h23q-3 -33 -3 -86q0 -21 1.5 -61t5.5 -83q-55 2 -124.5 2.5t-124.5 0.5q-62 0 -131 -0.5t-130 -2.5v20l362 665h-137q-53 0 -92 -18.5t-63 -61.5t-33 -119h-23q2 15 2.5 35t0.5 43q0 21 -1.5 61t-5.5 83
q53 -2 117.5 -2.5t115.5 -0.5q65 0 137 0.5t134 2.5zM499 934l5 -14q-65 -26 -117.5 -66t-81.5 -82h-18q-28 41 -81 81.5t-118 66.5l5 14q64 -12 125.5 -30t97.5 -36q31 18 81 36t102 30z" />
    <glyph glyph-name="zcaron" unicode="&#x17e;" horiz-adv-x="474" 
d="M442 521l-263 -506h72q39 0 71.5 16.5t54.5 54.5t26 102h22q0 -70 1 -116t3 -76q-45 2 -93.5 3t-96.5 1q-51 0 -104 -1.5t-102 -3.5l263 506h-74q-41 0 -73.5 -16.5t-52 -54t-24.5 -102.5h-22q0 71 -1 116.5t-3 75.5q45 -2 93.5 -3t96.5 -1q51 0 104 1.5t102 3.5z
M419 814l8 -14q-57 -32 -103.5 -83t-71.5 -105h-18q-24 54 -70.5 105t-104.5 83l8 14q56 -15 110 -38t86 -46q27 23 69.5 46t86.5 38z" />
    <glyph glyph-name="longs" unicode="&#x17f;" horiz-adv-x="345" 
d="M26 0v21q37 0 52.5 15t15.5 57v403h-72v20h72q0 89 13.5 135.5t45.5 80.5q21 22 55.5 36t75.5 14q33 0 57.5 -8.5t42.5 -22.5q15 -12 24.5 -30t9.5 -40q0 -27 -18.5 -46t-46.5 -19q-30 0 -49.5 17.5t-19.5 48.5q0 24 13.5 41.5t38.5 24.5q-3 7 -13 12t-27 5
q-20 0 -34.5 -8t-23.5 -22q-10 -17 -14 -50t-4 -100v-482q0 -49 26.5 -65.5t71.5 -16.5v-21q-25 1 -70 2.5t-96 1.5q-36 0 -72 -1.5t-54 -2.5z" />
    <glyph glyph-name="uni018F" unicode="&#x18f;" horiz-adv-x="732" 
d="M352 -14q-85 0 -155 33t-111 103t-40 177h541l2 -19h-400q-4 -74 15.5 -136.5t60.5 -99.5t100 -37q73 0 120 66t58 216l-2 5q1 13 1.5 28t0.5 29q0 89 -19.5 153t-53.5 105.5t-77 61.5t-91 20q-37 0 -75 -12.5t-65 -38.5q-33 -26 -46 -67t-21 -103h-23q0 90 -1 145t-3 93
h23q5 -46 15 -55t30 4q19 13 46 28t66 26t96 11q102 0 178.5 -42.5t120 -124.5t43.5 -201q0 -118 -42.5 -200t-118 -125t-173.5 -43z" />
    <glyph glyph-name="florin" unicode="&#x192;" horiz-adv-x="520" 
d="M362 782q27 0 52.5 -6t46 -18.5t33 -31t12.5 -43.5q0 -27 -17.5 -46t-48.5 -19t-49.5 16.5t-18.5 45.5q0 50 52 67q-4 7 -17 12.5t-31 5.5q-20 0 -37 -9t-27 -26q-13 -22 -15.5 -68.5t-2.5 -146.5v-414q0 -77 -12 -135t-48 -97q-24 -28 -61.5 -42.5t-86.5 -14.5
q-19 0 -38 4t-34 12t-24 21.5t-9 31.5q0 26 18.5 42.5t48.5 16.5q29 0 46 -15t17 -41q0 -13 -7 -28t-25 -26q13 1 24 4t19 9q11 4 21 12.5t15 20.5q7 16 8.5 41.5t1.5 75.5v522q0 89 13.5 136t45.5 81q22 23 58 36.5t77 13.5zM471 516v-20h-433v20h433z" />
    <glyph glyph-name="Ohorn" unicode="&#x1a0;" horiz-adv-x="775" 
d="M480 702q64 -4 106 4.5t76 26.5l-2 -8q-20 11 -36 31t-16 47q0 28 18 47t48 19q29 0 47 -18.5t18 -47.5q0 -26 -16.5 -49t-46.5 -39q-28 -15 -69.5 -24.5t-96.5 -10.5zM388 722q102 0 179 -43t119.5 -123.5t42.5 -195.5q0 -112 -43.5 -196t-121 -131t-177.5 -47
q-102 0 -179 43t-119.5 124t-42.5 195q0 112 44 196t121 131t177 47zM384 704q-59 0 -102.5 -45t-67.5 -124t-24 -183q0 -106 27 -184.5t73 -121t101 -42.5q59 0 102.5 45t67.5 124.5t24 182.5q0 107 -27 185t-72.5 120.5t-101.5 42.5z" />
    <glyph glyph-name="ohorn" unicode="&#x1a1;" horiz-adv-x="559" 
d="M387 480l-5 20q35 1 60.5 6.5t46.5 13.5l-1 -7q-15 10 -28 27.5t-13 41.5q0 25 16 43.5t45 18.5q26 0 42 -15.5t16 -42.5q0 -25 -14.5 -44.5t-39.5 -31.5q-22 -13 -54 -20t-71 -10zM280 531q69 0 122.5 -27.5t85 -87.5t31.5 -158t-31.5 -158t-85 -87t-122.5 -27t-123 27
t-85 87t-31 158t31 158t85 87.5t123 27.5zM280 511q-47 0 -76.5 -59.5t-29.5 -193.5t29.5 -193t76.5 -59q46 0 76 59t30 193t-30 193.5t-76 59.5z" />
    <glyph glyph-name="Uhorn" unicode="&#x1af;" horiz-adv-x="686" 
d="M352 -14q-48 0 -94.5 11t-81.5 41q-31 26 -48.5 59t-23.5 79.5t-6 111.5v314q0 37 -5.5 54.5t-22 24t-49.5 7.5v20q25 -1 64 -2t84 -1q41 0 81 1t66 2v-20q-34 -1 -51.5 -7.5t-23.5 -24t-6 -54.5v-362q0 -67 12 -116t43 -76t90 -27q73 0 113 33t56 92t16 134v414l4 -9
q-25 0 -50.5 0.5t-49.5 2.5l5 20q17 -1 35 -2t38 -1q32 0 62 4t59 24l-2 -6q-19 11 -35.5 31t-16.5 47q0 28 18 47t48 19q29 0 47 -18.5t18 -47.5q0 -28 -18 -50t-46 -38t-53 -23t-49 -8l9 8v-403q0 -67 -8.5 -120t-32.5 -92q-25 -42 -74.5 -67.5t-120.5 -25.5z" />
    <glyph glyph-name="uhorn" unicode="&#x1b0;" horiz-adv-x="597" 
d="M440 493l-4 20q35 3 60.5 10.5t46.5 20.5l-2 -8q-15 10 -27.5 28t-12.5 41q0 25 16 43.5t45 18.5q25 0 41.5 -15.5t16.5 -40.5t-15.5 -44.5t-38.5 -33.5q-24 -15 -55.5 -25t-70.5 -15zM509 528v-420q0 -45 15 -66.5t53 -21.5v-21q-31 3 -62 3q-37 0 -70.5 -3t-61.5 -11
v100q-25 -55 -68.5 -78.5t-93.5 -23.5q-39 0 -65.5 10.5t-42.5 28.5q-17 19 -24 50t-7 80v253q0 45 -14.5 66.5t-53.5 21.5v21q32 -3 62 -3q37 0 70.5 3.5t61.5 10.5v-408q0 -27 4.5 -48t18.5 -33.5t42 -12.5q47 0 78.5 39.5t31.5 97.5v245q0 45 -14.5 66.5t-53.5 21.5v21
q32 -3 62 -3q37 0 70.5 3.5t61.5 10.5z" />
    <glyph glyph-name="uni01B7" unicode="&#x1b7;" horiz-adv-x="599" 
d="M554 708v-20l-180 -328l-9 36q55 -18 99 -45.5t70.5 -66t26.5 -92.5q0 -59 -34 -106t-95.5 -73.5t-143.5 -26.5q-59 0 -101.5 12.5t-63.5 24.5q-8 5 -17 9.5t-16 4.5q-11 0 -15.5 -11.5t-7.5 -32.5h-23q2 23 2.5 54t1 80.5t0.5 125.5h23q4 -66 26 -121t64 -88.5
t107 -33.5q57 0 92.5 25t52.5 66t17 87q0 86 -48.5 134t-125.5 64v20l155 279h-146q-53 0 -92 -18.5t-63 -61.5t-33 -119h-23q2 15 2.5 35t0.5 39q0 25 -1.5 65t-5.5 83q53 -2 117.5 -2.5t115.5 -0.5q65 0 137 0.5t134 2.5z" />
    <glyph glyph-name="uni01CD" unicode="&#x1cd;" horiz-adv-x="655" 
d="M353 711l243 -627q15 -36 32.5 -49.5t32.5 -14.5v-20q-26 2 -62.5 2.5t-74.5 0.5q-44 0 -82 -0.5t-62 -2.5v20q51 2 65 17.5t-6 66.5l-176 475l18 22l-160 -415q-26 -66 -25 -101.5t24 -49.5t65 -15v-20q-32 2 -62 2.5t-60 0.5q-22 0 -41.5 -0.5t-34.5 -2.5v20
q22 5 43.5 26t41.5 73l229 592q12 -1 26 -1t26 1zM440 288v-20h-298l10 20h288zM526 934l5 -14q-65 -26 -117.5 -66t-81.5 -82h-18q-28 41 -81 81.5t-118 66.5l5 14q64 -12 125.5 -30t97.5 -36q31 18 81 36t102 30z" />
    <glyph glyph-name="uni01CE" unicode="&#x1ce;" horiz-adv-x="511" 
d="M158 -7q-66 0 -96 34t-30 86q0 42 20 69.5t51.5 44.5t66.5 29.5t66 24t51 26t20 37.5v73q0 32 -9.5 52.5t-28 31t-46.5 10.5q-21 0 -44 -6t-38 -23q26 -7 40.5 -26t14.5 -46q0 -31 -20.5 -48.5t-51.5 -17.5q-33 0 -50 21t-17 49t14 46.5t39 33.5q25 17 64 27t85 10
q44 0 78 -9.5t58 -33.5q24 -23 31 -57t7 -83v-274q0 -25 5.5 -35.5t19.5 -10.5q12 0 21 6t18 13l11 -17q-22 -17 -46 -27t-58 -10q-57 0 -76 25.5t-20 58.5q-27 -45 -65 -64.5t-85 -19.5zM225 49q22 0 43 12t39 40v202q-13 -20 -38 -33t-50.5 -28.5t-44 -40.5t-18.5 -69
q0 -43 19.5 -63t49.5 -20zM421 814l8 -14q-57 -32 -103.5 -83t-71.5 -105h-18q-24 54 -70.5 105t-104.5 83l8 14q56 -15 110 -38t86 -46q27 23 69.5 46t86.5 38z" />
    <glyph glyph-name="uni01D3" unicode="&#x1d3;" horiz-adv-x="686" 
d="M665 708v-20q-32 -3 -48.5 -14.5t-22.5 -36t-6 -69.5v-277q0 -67 -8.5 -120t-32.5 -92q-25 -42 -74.5 -67.5t-120.5 -25.5q-48 0 -94.5 11t-81.5 41q-31 26 -48.5 59t-23.5 79.5t-6 111.5v314q0 37 -5.5 54.5t-22 24t-49.5 7.5v20q25 -1 64 -2t84 -1q41 0 81 1t66 2v-20
q-34 -1 -51.5 -7.5t-23.5 -24t-6 -54.5v-362q0 -67 12 -116t43 -76t90 -27q73 0 113 33t56 92t16 134v280q0 49 -7 75t-27.5 38t-60.5 15v20q19 -1 49.5 -2t56.5 -1q25 0 49.5 1t39.5 2zM556 934l5 -14q-65 -26 -117.5 -66t-81.5 -82h-18q-28 41 -81 81.5t-118 66.5l5 14
q64 -12 125.5 -30t97.5 -36q31 18 81 36t102 30z" />
    <glyph glyph-name="uni01D4" unicode="&#x1d4;" horiz-adv-x="597" 
d="M509 528v-420q0 -45 15 -66.5t53 -21.5v-21q-31 3 -62 3q-37 0 -70.5 -3t-61.5 -11v100q-25 -55 -68.5 -78.5t-93.5 -23.5q-39 0 -65.5 10.5t-42.5 28.5q-17 19 -24 50t-7 80v253q0 45 -14.5 66.5t-53.5 21.5v21q32 -3 62 -3q37 0 70.5 3.5t61.5 10.5v-408q0 -27 4.5 -48
t18.5 -33.5t42 -12.5q47 0 78.5 39.5t31.5 97.5v245q0 45 -14.5 66.5t-53.5 21.5v21q32 -3 62 -3q37 0 70.5 3.5t61.5 10.5zM452 814l8 -14q-57 -32 -103.5 -83t-71.5 -105h-18q-24 54 -70.5 105t-104.5 83l8 14q56 -15 110 -38t86 -46q27 23 69.5 46t86.5 38z" />
    <glyph glyph-name="uni01E4" unicode="&#x1e4;" horiz-adv-x="724" 
d="M395 722q67 0 109 -19.5t77 -45.5q12 -10 20 -10q19 0 25 61h23q-2 -38 -3 -93t-1 -145h-23q-7 54 -20 97t-47 73q-26 28 -65.5 43.5t-79.5 15.5q-53 0 -92.5 -27.5t-66 -75t-39.5 -110t-13 -133.5q0 -180 52.5 -263.5t154.5 -83.5q28 0 48.5 7.5t33.5 15.5q16 11 21 23
t5 30v122q0 44 -8 65.5t-29.5 29.5t-63.5 9v20q20 -1 47.5 -1.5t58 -1t55.5 -0.5q39 0 71 1t53 2v-20q-30 -2 -38.5 -16t-8.5 -70v-222h-20q-1 17 -8 37t-21 20q-7 0 -16 -3.5t-31 -15.5q-35 -23 -74.5 -37.5t-86.5 -14.5q-168 0 -257.5 95t-89.5 263q0 115 45 200
t123.5 131.5t179.5 46.5zM401 172v20h323v-20h-323z" />
    <glyph glyph-name="uni01E5" unicode="&#x1e5;" horiz-adv-x="535" 
d="M574 -67v-20h-624v20h624zM216 -188q-59 0 -107 11t-76 32.5t-28 54.5q0 32 28 57t82 38l7 -16q-19 -11 -29 -30t-10 -40q0 -43 39.5 -66.5t105.5 -23.5q45 0 83 12t61 37t23 62q0 31 -22.5 52t-89.5 21h-66q-37 0 -67.5 8t-48.5 26t-18 50q0 39 32 70.5t100 61.5l11 -9
q-25 -13 -44.5 -28t-19.5 -38q0 -32 44 -32h113q76 0 128.5 -29.5t52.5 -98.5q0 -48 -31 -89.5t-93.5 -67t-159.5 -25.5zM225 213q-82 0 -136.5 38.5t-54.5 120.5q0 83 54.5 121t136.5 38q81 0 136 -38t55 -121q0 -82 -55 -120.5t-136 -38.5zM225 231q30 0 47.5 30.5
t17.5 110.5t-17.5 110.5t-47.5 30.5t-47.5 -30.5t-17.5 -110.5t17.5 -110.5t47.5 -30.5zM376 446l-19 7q15 37 49 62.5t72 25.5q29 0 45.5 -16t16.5 -45q0 -30 -16 -44t-35 -14q-17 0 -31 11.5t-16 36t16 61.5l10 -4q-39 -15 -58 -33t-34 -48z" />
    <glyph glyph-name="Gcaron" unicode="&#x1e6;" horiz-adv-x="724" 
d="M395 722q67 0 109 -19.5t77 -45.5q12 -10 20 -10q19 0 25 61h23q-2 -38 -3 -93t-1 -145h-23q-7 54 -20 97t-47 73q-26 28 -65.5 43.5t-79.5 15.5q-53 0 -92.5 -27.5t-66 -75t-39.5 -110t-13 -133.5q0 -180 52.5 -263.5t154.5 -83.5q28 0 48.5 7.5t33.5 15.5q16 11 21 23
t5 30v98q0 44 -8 65.5t-29.5 29.5t-63.5 9v20q20 -1 47.5 -1.5t58 -1t55.5 -0.5q39 0 71 1t53 2v-20q-30 -2 -38.5 -16t-8.5 -70v-198h-20q-1 17 -8 37t-21 20q-7 0 -16 -3.5t-31 -15.5q-35 -23 -74.5 -37.5t-86.5 -14.5q-168 0 -257.5 95t-89.5 263q0 115 45 200
t123.5 131.5t179.5 46.5zM578 934l5 -14q-65 -26 -117.5 -66t-81.5 -82h-18q-28 41 -81 81.5t-118 66.5l5 14q64 -12 125.5 -30t97.5 -36q31 18 81 36t102 30z" />
    <glyph glyph-name="gcaron" unicode="&#x1e7;" horiz-adv-x="545" 
d="M216 -188q-59 0 -107 11t-76 32.5t-28 54.5q0 32 28 57t82 38l7 -16q-19 -11 -29 -30t-10 -40q0 -43 39.5 -66.5t105.5 -23.5q45 0 83 12t61 37t23 62q0 31 -22.5 52t-89.5 21h-66q-37 0 -67.5 8t-48.5 26t-18 50q0 39 32 70.5t100 61.5l11 -9q-25 -13 -44.5 -28
t-19.5 -38q0 -32 44 -32h113q76 0 128.5 -29.5t52.5 -98.5q0 -48 -31 -89.5t-93.5 -67t-159.5 -25.5zM225 213q-82 0 -136.5 38.5t-54.5 120.5q0 83 54.5 121t136.5 38q81 0 136 -38t55 -121q0 -82 -55 -120.5t-136 -38.5zM225 231q30 0 47.5 30.5t17.5 110.5t-17.5 110.5
t-47.5 30.5t-47.5 -30.5t-17.5 -110.5t17.5 -110.5t47.5 -30.5zM376 446l-19 7q15 37 49 62.5t72 25.5q29 0 45.5 -16t16.5 -45q0 -30 -16 -44t-35 -14q-17 0 -31 11.5t-16 36t16 61.5l10 -4q-39 -15 -58 -33t-34 -48zM411 814l8 -14q-57 -32 -103.5 -83t-71.5 -105h-18
q-24 54 -70.5 105t-104.5 83l8 14q56 -15 110 -38t86 -46q27 23 69.5 46t86.5 38z" />
    <glyph glyph-name="uni01E8" unicode="&#x1e8;" horiz-adv-x="695" 
d="M665 708v-20q-33 -6 -67 -25t-70 -62l-189 -232l45 72l239 -360q16 -23 33 -37t44 -24v-20q-31 2 -71 2.5t-73 0.5q-19 0 -47.5 -0.5t-71.5 -2.5v20q40 2 48 11.5t-7 33.5l-146 230q-16 26 -28.5 39t-25.5 17.5t-32 5.5v20q42 2 75 22t66 59l71 89q37 44 45 75t-9 48
t-57 18v20q34 -1 66 -2t70 -1q58 0 92 3zM327 708v-20q-32 -1 -48.5 -7.5t-22.5 -24t-6 -54.5v-496q0 -36 6 -54t22.5 -24t48.5 -8v-20q-25 2 -64 2.5t-79 0.5q-45 0 -84 -0.5t-64 -2.5v20q33 2 49.5 8t22 24t5.5 54v496q0 37 -5.5 54.5t-22 24t-49.5 7.5v20q25 -1 64 -2
t84 -1q40 0 79 1t64 2zM579 934l5 -14q-65 -26 -117.5 -66t-81.5 -82h-18q-28 41 -81 81.5t-118 66.5l5 14q64 -12 125.5 -30t97.5 -36q31 18 81 36t102 30z" />
    <glyph glyph-name="uni01E9" unicode="&#x1e9;" horiz-adv-x="574" 
d="M213 783v-690q0 -42 14 -57t48 -15v-21q-17 1 -52 2.5t-71 1.5q-37 0 -75.5 -1.5t-57.5 -2.5v21q37 0 52.5 15t15.5 57v570q0 45 -14.5 66.5t-53.5 21.5v21q32 -3 62 -3q38 0 71 3.5t61 10.5zM537 517v-20q-30 -6 -58 -22.5t-55 -45.5l-99 -103l11 22l176 -275
q14 -20 26.5 -33.5t31.5 -18.5v-21q-13 1 -41 2.5t-56 1.5q-34 0 -69.5 -1.5t-53.5 -2.5v21q20 0 27.5 9.5t-2.5 24.5l-104 175q-14 22 -27 28.5t-35 6.5v20q25 2 41.5 9t31.5 22l75 75q33 33 33.5 56t-21 35.5t-55.5 14.5v20q27 -1 60 -2.5t56 -1.5q18 0 38.5 0.5t39 1.5
t29.5 2zM460 1056l8 -14q-57 -32 -103.5 -83t-71.5 -105h-18q-24 54 -70.5 105t-104.5 83l8 14q56 -15 110 -38t86 -46q27 23 69.5 46t86.5 38z" />
    <glyph glyph-name="uni01EE" unicode="&#x1ee;" horiz-adv-x="599" 
d="M554 708v-20l-180 -328l-9 36q55 -18 99 -45.5t70.5 -66t26.5 -92.5q0 -59 -34 -106t-95.5 -73.5t-143.5 -26.5q-59 0 -101.5 12.5t-63.5 24.5q-8 5 -17 9.5t-16 4.5q-11 0 -15.5 -11.5t-7.5 -32.5h-23q2 23 2.5 54t1 80.5t0.5 125.5h23q4 -66 26 -121t64 -88.5
t107 -33.5q57 0 92.5 25t52.5 66t17 87q0 86 -48.5 134t-125.5 64v20l155 279h-146q-53 0 -92 -18.5t-63 -61.5t-33 -119h-23q2 15 2.5 35t0.5 39q0 25 -1.5 65t-5.5 83q53 -2 117.5 -2.5t115.5 -0.5q65 0 137 0.5t134 2.5zM499 934l5 -14q-65 -26 -117.5 -66t-81.5 -82h-18
q-28 41 -81 81.5t-118 66.5l5 14q64 -12 125.5 -30t97.5 -36q31 18 81 36t102 30z" />
    <glyph glyph-name="uni01EF" unicode="&#x1ef;" horiz-adv-x="470" 
d="M139 207q68 -1 108 -33t40 -102q0 -58 -24 -101.5t-63.5 -72t-87.5 -43.5t-96 -17v-19q70 0 141 17.5t130 50t95 78.5t36 103q0 48 -24.5 80t-65.5 50t-90 22l33 -21l167 322q-49 -2 -102 -3.5t-107 -1.5q-45 0 -93.5 1t-93.5 3q2 -30 3 -75.5t1 -116.5h22
q5 65 24.5 102.5t52 54t73.5 16.5h74zM415 814l8 -14q-57 -32 -103.5 -83t-71.5 -105h-18q-24 54 -70.5 105t-104.5 83l8 14q56 -15 110 -38t86 -46q27 23 69.5 46t86.5 38z" />
    <glyph glyph-name="uni01F4" unicode="&#x1f4;" horiz-adv-x="724" 
d="M395 722q67 0 109 -19.5t77 -45.5q12 -10 20 -10q19 0 25 61h23q-2 -38 -3 -93t-1 -145h-23q-7 54 -20 97t-47 73q-26 28 -65.5 43.5t-79.5 15.5q-53 0 -92.5 -27.5t-66 -75t-39.5 -110t-13 -133.5q0 -180 52.5 -263.5t154.5 -83.5q28 0 48.5 7.5t33.5 15.5q16 11 21 23
t5 30v98q0 44 -8 65.5t-29.5 29.5t-63.5 9v20q20 -1 47.5 -1.5t58 -1t55.5 -0.5q39 0 71 1t53 2v-20q-30 -2 -38.5 -16t-8.5 -70v-198h-20q-1 17 -8 37t-21 20q-7 0 -16 -3.5t-31 -15.5q-35 -23 -74.5 -37.5t-86.5 -14.5q-168 0 -257.5 95t-89.5 263q0 115 45 200
t123.5 131.5t179.5 46.5zM473 931q21 12 42.5 7.5t31.5 -23.5q9 -18 3 -37t-28 -32t-49.5 -21t-64.5 -19t-92 -34l-7 13q47 37 75 65t47.5 48.5t41.5 32.5z" />
    <glyph glyph-name="uni01F5" unicode="&#x1f5;" horiz-adv-x="545" 
d="M216 -188q-59 0 -107 11t-76 32.5t-28 54.5q0 32 28 57t82 38l7 -16q-19 -11 -29 -30t-10 -40q0 -43 39.5 -66.5t105.5 -23.5q45 0 83 12t61 37t23 62q0 31 -22.5 52t-89.5 21h-66q-37 0 -67.5 8t-48.5 26t-18 50q0 39 32 70.5t100 61.5l11 -9q-25 -13 -44.5 -28
t-19.5 -38q0 -32 44 -32h113q76 0 128.5 -29.5t52.5 -98.5q0 -48 -31 -89.5t-93.5 -67t-159.5 -25.5zM225 213q-82 0 -136.5 38.5t-54.5 120.5q0 83 54.5 121t136.5 38q81 0 136 -38t55 -121q0 -82 -55 -120.5t-136 -38.5zM225 231q30 0 47.5 30.5t17.5 110.5t-17.5 110.5
t-47.5 30.5t-47.5 -30.5t-17.5 -110.5t17.5 -110.5t47.5 -30.5zM376 446l-19 7q15 37 49 62.5t72 25.5q29 0 45.5 -16t16.5 -45q0 -30 -16 -44t-35 -14q-17 0 -31 11.5t-16 36t16 61.5l10 -4q-39 -15 -58 -33t-34 -48zM354 816q15 -13 16 -33t-15 -41q-15 -19 -37.5 -36.5
t-53.5 -41.5t-74 -65l-11 9q30 52 45.5 88t26.5 62t27 46q16 19 37.5 22t38.5 -10z" />
    <glyph glyph-name="Oslashacute" unicode="&#x1fe;" horiz-adv-x="775" 
d="M388 722q102 0 179 -43t119.5 -123.5t42.5 -195.5q0 -112 -43.5 -196t-121 -131t-177.5 -47q-102 0 -179 43t-119.5 124t-42.5 195q0 112 44 196t121 131t177 47zM384 704q-59 0 -102.5 -45t-67.5 -124t-24 -183q0 -106 27 -184.5t73 -121t101 -42.5q59 0 102.5 45
t67.5 124.5t24 182.5q0 107 -27 185t-72.5 120.5t-101.5 42.5zM552 635l15 -20l-345 -539l-18 18zM193 94l18 -18l-107 -153l-21 14zM656 777l19 -13l-101 -149l-15 20zM481 931q21 12 42.5 7.5t31.5 -23.5q9 -18 3 -37t-28 -32t-49.5 -21t-64.5 -19t-92 -34l-7 13
q47 37 75 65t47.5 48.5t41.5 32.5z" />
    <glyph glyph-name="oslashacute" unicode="&#x1ff;" horiz-adv-x="559" 
d="M280 531q69 0 122.5 -27.5t85 -87.5t31.5 -158t-31.5 -158t-85 -87t-122.5 -27t-123 27t-85 87t-31 158t31 158t85 87.5t123 27.5zM280 511q-47 0 -76.5 -59.5t-29.5 -193.5t29.5 -193t76.5 -59q46 0 76 59t30 193t-30 193.5t-76 59.5zM392 466l15 -20l-230 -383l-16 21z
M145 80l15 -21l-91 -132l-20 14zM491 589l19 -13l-89 -130l-15 20zM390 816q15 -13 16 -33t-15 -41q-15 -19 -37.5 -36.5t-53.5 -41.5t-74 -65l-11 9q30 52 45.5 88t26.5 62t27 46q16 19 37.5 22t38.5 -10z" />
    <glyph glyph-name="uni0218" unicode="&#x218;" horiz-adv-x="569" 
d="M274 720q56 0 86 -12t52 -26q12 -7 19.5 -10.5t14.5 -3.5q16 0 22 44h23q-1 -19 -2.5 -44t-2 -66.5t-0.5 -109.5h-23q-3 51 -22.5 98t-55 77.5t-90.5 30.5q-49 0 -81.5 -29t-32.5 -78q0 -42 21 -70.5t59.5 -55t91.5 -60.5q49 -32 88 -63.5t61.5 -69.5t22.5 -93
q0 -65 -32 -108t-86 -64t-118 -21q-59 0 -93.5 12t-59.5 25q-22 14 -34 14q-16 0 -22 -44h-23q2 23 2.5 54t1 80.5t0.5 125.5h23q4 -64 22.5 -119.5t57 -89.5t102.5 -34q52 0 89 29.5t37 89.5q0 61 -42 102t-110 83q-47 30 -88 61t-65.5 70.5t-24.5 95.5q0 62 30 101.5
t78.5 58.5t103.5 19zM291 -59q33 0 54.5 -20.5t21.5 -54.5q0 -42 -23.5 -69.5t-79.5 -38.5l-5 19q31 7 51.5 21t22.5 37q-7 -7 -18.5 -11t-27.5 -4q-30 0 -47.5 15t-17.5 45q0 27 19 44t50 17z" />
    <glyph glyph-name="uni0219" unicode="&#x219;" horiz-adv-x="457" 
d="M217 531q42 0 72 -12t44 -21q34 -25 41 32h22q-2 -29 -3 -68.5t-1 -105.5h-22q-5 37 -19 72t-41 58.5t-71 23.5q-31 0 -51.5 -18t-20.5 -51q0 -30 18 -52.5t46.5 -42t59.5 -42.5q53 -37 89.5 -74.5t36.5 -97.5q0 -46 -25.5 -78.5t-67 -50t-91.5 -17.5q-27 0 -49 5t-39 13
q-13 7 -23.5 13t-21.5 10q-10 5 -17.5 -4t-11.5 -30h-22q2 32 3 78t1 122h22q7 -55 21.5 -96.5t42.5 -65t72 -23.5q27 0 52 18t25 61q0 44 -30 73t-75 62q-34 25 -63.5 49t-48 54t-18.5 71q0 45 23 74.5t60.5 45t80.5 15.5zM227 -59q33 0 54.5 -20.5t21.5 -54.5
q0 -42 -23.5 -69.5t-79.5 -38.5l-5 19q31 7 51.5 21t22.5 37q-7 -7 -18.5 -11t-27.5 -4q-30 0 -47.5 15t-17.5 45q0 27 19 44t50 17z" />
    <glyph glyph-name="uni021A" unicode="&#x21a;" horiz-adv-x="652" 
d="M626 708q-4 -46 -5.5 -89.5t-1.5 -66.5t1 -43t2 -35h-23q-14 80 -34 125.5t-52.5 65.5t-85.5 20h-32v-570q0 -41 7.5 -61t30.5 -26.5t67 -7.5v-20q-30 2 -78 2.5t-98 0.5q-52 0 -97.5 -0.5t-73.5 -2.5v20q43 1 66 7.5t31 26.5t8 61v570h-33q-52 0 -85 -20t-53 -65.5
t-33 -125.5h-23q2 15 2.5 35t0.5 43t-1.5 66.5t-5.5 89.5q44 -1 97 -2t106 -1h97h96t106 1t97 2zM320 -59q33 0 54.5 -20.5t21.5 -54.5q0 -42 -23.5 -69.5t-79.5 -38.5l-5 19q31 7 51.5 21t22.5 37q-7 -7 -18.5 -11t-27.5 -4q-30 0 -47.5 15t-17.5 45q0 27 19 44t50 17z" />
    <glyph glyph-name="uni021B" unicode="&#x21b;" horiz-adv-x="352" 
d="M215 681v-165h128v-20h-128v-398q0 -36 13 -51t37 -15q23 0 42 17.5t34 58.5l18 -8q-15 -49 -46.5 -81.5t-88.5 -32.5q-34 0 -57.5 8.5t-40.5 24.5q-22 23 -29.5 55t-7.5 85v337h-88v20h88v139q36 1 67 7t59 19zM222 -59q33 0 54.5 -20.5t21.5 -54.5q0 -42 -23.5 -69.5
t-79.5 -38.5l-5 19q31 7 51.5 21t22.5 37q-7 -7 -18.5 -11t-27.5 -4q-30 0 -47.5 15t-17.5 45q0 27 19 44t50 17z" />
    <glyph glyph-name="uni021E" unicode="&#x21e;" horiz-adv-x="786" 
d="M458 0v20q33 2 49.5 8t22 24t5.5 54v496q0 37 -5.5 54.5t-22 24t-49.5 7.5v20q27 -1 67 -2t80 -1q44 0 82.5 1t61.5 2v-20q-32 -1 -48.5 -7.5t-22.5 -24t-6 -54.5v-496q0 -36 6 -54t22.5 -24t48.5 -8v-20q-23 2 -61.5 2.5t-82.5 0.5q-40 0 -80 -0.5t-67 -2.5zM36 0v20
q33 2 49.5 8t22 24t5.5 54v496q0 37 -5.5 54.5t-22 24t-49.5 7.5v20q25 -1 64 -2t84 -1q40 0 79 1t64 2v-20q-32 -1 -48.5 -7.5t-22.5 -24t-6 -54.5v-496q0 -36 6 -54t22.5 -24t48.5 -8v-20q-25 2 -64 2.5t-79 0.5q-45 0 -84 -0.5t-64 -2.5zM195 346v20h395v-20h-395z
M595 934l5 -14q-65 -26 -117.5 -66t-81.5 -82h-18q-28 41 -81 81.5t-118 66.5l5 14q64 -12 125.5 -30t97.5 -36q31 18 81 36t102 30z" />
    <glyph glyph-name="uni021F" unicode="&#x21f;" horiz-adv-x="602" 
d="M213 783v-354q25 56 69.5 79t96.5 23q41 0 67 -11t42 -28q17 -19 24.5 -49t7.5 -81v-269q0 -42 15.5 -57t52.5 -15v-21q-18 1 -55 2.5t-73 1.5t-71 -1.5t-53 -2.5v21q32 0 45 15t13 57v303q0 27 -5 48.5t-19.5 34t-43.5 12.5q-48 0 -80.5 -38.5t-32.5 -99.5v-260
q0 -42 13.5 -57t44.5 -15v-21q-17 1 -50.5 2.5t-69.5 1.5t-74.5 -1.5t-57.5 -2.5v21q37 0 52.5 15t15.5 57v570q0 45 -14.5 66.5t-53.5 21.5v21q32 -3 62 -3q38 0 71 3.5t61 10.5zM460 1064l8 -14q-57 -32 -103.5 -83t-71.5 -105h-18q-24 54 -70.5 105t-104.5 83l8 14
q56 -15 110 -38t86 -46q27 23 69.5 46t86.5 38z" />
    <glyph glyph-name="uni0237" unicode="&#x237;" horiz-adv-x="287" 
d="M-24 -188v17q53 2 82.5 43.5t29.5 122.5v413q0 45 -14 66.5t-54 21.5v21q32 -3 62 -3q38 0 71 3.5t61 10.5v-427q0 -80 -16 -137t-55 -95q-25 -25 -66 -41t-101 -16z" />
    <glyph glyph-name="uni0259" unicode="&#x259;" horiz-adv-x="505" 
d="M227 -15q-88 0 -138 53t-50 169h337l1 -19h-222q-2 -49 6 -90.5t25.5 -66.5t45.5 -25q38 0 66 44.5t35 145.5l-4 6q2 13 2.5 28t0.5 30q0 69 -20 114t-52 66t-66 21q-35 0 -71.5 -17.5t-64.5 -69.5l-19 8q11 35 36.5 69.5t65.5 56.5t94 22q68 0 120 -30t81 -89.5
t29 -145.5q0 -91 -30.5 -153t-84.5 -94.5t-123 -32.5z" />
    <glyph glyph-name="uni0292" unicode="&#x292;" horiz-adv-x="470" 
d="M139 207q68 -1 108 -33t40 -102q0 -58 -24 -101.5t-63.5 -72t-87.5 -43.5t-96 -17v-19q70 0 141 17.5t130 50t95 78.5t36 103q0 48 -24.5 80t-65.5 50t-90 22l33 -21l167 322q-49 -2 -102 -3.5t-107 -1.5q-45 0 -93.5 1t-93.5 3q2 -30 3 -75.5t1 -116.5h22
q5 65 24.5 102.5t52 54t73.5 16.5h74z" />
    <glyph glyph-name="uni02BC" unicode="&#x2bc;" horiz-adv-x="250" 
d="M119 722q23 0 39.5 -9.5t27.5 -24.5q11 -16 15.5 -37t4.5 -41q0 -49 -25.5 -91t-78.5 -67l-9 18q29 13 50.5 38.5t24.5 53.5q4 18 0 34q-20 -20 -52 -20q-31 0 -52 19t-21 54q0 32 21.5 52.5t54.5 20.5z" />
    <glyph glyph-name="circumflex" unicode="&#x2c6;" horiz-adv-x="468" 
d="M243 814q24 -54 70.5 -104.5t104.5 -83.5l-8 -14q-56 16 -109.5 38.5t-86.5 45.5q-26 -23 -69 -45.5t-87 -38.5l-8 14q57 32 103.5 83t71.5 105h18z" />
    <glyph glyph-name="caron" unicode="&#x2c7;" horiz-adv-x="468" 
d="M410 814l8 -14q-57 -32 -103.5 -83t-71.5 -105h-18q-24 54 -70.5 105t-104.5 83l8 14q56 -15 110 -38t86 -46q27 23 69.5 46t86.5 38z" />
    <glyph glyph-name="breve" unicode="&#x2d8;" horiz-adv-x="515" 
d="M393 788l17 -9q-13 -35 -37 -71t-61 -59.5t-89 -23.5t-89 23.5t-61 59.5t-37 71l17 9q21 -28 62 -54t108 -26q68 0 108.5 26t61.5 54z" />
    <glyph glyph-name="dotaccent" unicode="&#x2d9;" horiz-adv-x="377" 
d="M108 772q36 0 59 -20t23 -53t-23 -53t-59 -20t-59 20t-23 53t23 53t59 20z" />
    <glyph glyph-name="ring" unicode="&#x2da;" horiz-adv-x="416" 
d="M140 795q42 0 73.5 -25.5t31.5 -69.5q0 -45 -31.5 -70.5t-73.5 -25.5q-41 0 -72.5 25.5t-31.5 70.5q0 44 31.5 69.5t72.5 25.5zM140 774q-27 0 -51.5 -19t-24.5 -56t24.5 -55.5t51.5 -18.5q28 0 52.5 18.5t24.5 55.5t-24.5 56t-52.5 19z" />
    <glyph glyph-name="ogonek" unicode="&#x2db;" horiz-adv-x="415" 
d="M217 7q-3 -3 -7 -5t-9 -5q-45 -20 -62.5 -44t-17.5 -47q0 -19 11.5 -30t30.5 -11q18 0 35.5 8.5t27.5 20.5l14 -14q-25 -35 -56.5 -51.5t-72.5 -16.5t-64 18t-23 49q0 41 40.5 72.5t113.5 51.5z" />
    <glyph glyph-name="tilde" unicode="&#x2dc;" horiz-adv-x="517" 
d="M155 780q29 0 49.5 -10t37.5 -23t34.5 -23t41.5 -10q21 0 40.5 12.5t36.5 40.5l14 -7q-17 -68 -50 -97.5t-72 -29.5q-29 0 -50 10t-38 23.5t-34.5 23.5t-41.5 10q-21 0 -40.5 -12.5t-36.5 -41.5l-14 7q16 68 50 97.5t73 29.5z" />
    <glyph glyph-name="hungarumlaut" unicode="&#x2dd;" horiz-adv-x="600" 
d="M367 815q16 -13 18.5 -32.5t-12.5 -41.5q-21 -27 -58 -55t-94 -87l-12 7q25 50 38 85.5t22.5 61.5t22.5 45q15 21 36.5 25t38.5 -8zM189 815q17 -13 19.5 -32.5t-13.5 -41.5q-20 -27 -57 -55t-95 -87l-12 7q25 50 38 85.5t22.5 61.5t23.5 45q14 21 35.5 25t38.5 -8z" />
    <glyph glyph-name="gravecomb" unicode="&#x300;" 
d="M28 816q17 14 38.5 10.5t37.5 -22.5q16 -20 27 -46t26.5 -62t45.5 -88l-11 -9q-42 41 -73.5 65t-53.5 41.5t-38 36.5q-16 21 -15 41t16 33z" />
    <glyph glyph-name="acutecomb" unicode="&#x301;" 
d="M195 816q15 -13 16 -33t-15 -41q-15 -19 -37.5 -36.5t-53.5 -41.5t-74 -65l-11 9q30 52 45.5 88t26.5 62t27 46q16 19 37.5 22t38.5 -10z" />
    <glyph glyph-name="uni0302" unicode="&#x302;" 
d="M210 814q24 -54 70.5 -104.5t104.5 -83.5l-8 -14q-56 16 -109.5 38.5t-86.5 45.5q-26 -23 -69 -45.5t-87 -38.5l-8 14q57 32 103.5 83t71.5 105h18z" />
    <glyph glyph-name="tildecomb" unicode="&#x303;" 
d="M140 780q29 0 49.5 -10t37.5 -23t34.5 -23t41.5 -10q21 0 40.5 12.5t36.5 40.5l14 -7q-17 -68 -50 -97.5t-72 -29.5q-29 0 -50 10t-38 23.5t-34.5 23.5t-41.5 10q-21 0 -40.5 -12.5t-36.5 -41.5l-14 7q16 68 50 97.5t73 29.5z" />
    <glyph glyph-name="uni0304" unicode="&#x304;" 
d="M345 712v-25h-328v25h328z" />
    <glyph glyph-name="uni0306" unicode="&#x306;" 
d="M384 788l17 -9q-13 -35 -37 -71t-61 -59.5t-89 -23.5t-89 23.5t-61 59.5t-37 71l17 9q21 -28 62 -54t108 -26q68 0 108.5 26t61.5 54z" />
    <glyph glyph-name="uni0307" unicode="&#x307;" 
d="M99 772q36 0 59 -20t23 -53t-23 -53t-59 -20t-59 20t-23 53t23 53t59 20z" />
    <glyph glyph-name="uni0308" unicode="&#x308;" 
d="M306 755q28 0 49 -21t21 -49q0 -29 -21 -49.5t-49 -20.5q-29 0 -49 20.5t-20 49.5q0 28 20 49t49 21zM84 755q28 0 48.5 -21t20.5 -49q0 -29 -21 -49.5t-48 -20.5q-29 0 -49.5 20.5t-20.5 49.5q0 28 20.5 49t49.5 21z" />
    <glyph glyph-name="hookabovecomb" unicode="&#x309;" 
d="M131 595v55q41 17 58.5 38.5t17.5 51.5q0 32 -18 49.5t-48 17.5q-12 0 -26 -3t-20 -10q18 -5 29.5 -17.5t11.5 -31.5q0 -23 -15 -36t-37 -13t-35.5 13.5t-13.5 34.5q0 22 12 37t28 25q14 9 37.5 15t52.5 6q56 0 91.5 -22t35.5 -60q0 -41 -40.5 -66.5t-100.5 -37.5v-46
h-20z" />
    <glyph glyph-name="uni030A" unicode="&#x30a;" 
d="M131 795q42 0 73.5 -25.5t31.5 -69.5q0 -45 -31.5 -70.5t-73.5 -25.5q-41 0 -72.5 25.5t-31.5 70.5q0 44 31.5 69.5t72.5 25.5zM131 774q-27 0 -51.5 -19t-24.5 -56t24.5 -55.5t51.5 -18.5q28 0 52.5 18.5t24.5 55.5t-24.5 56t-52.5 19z" />
    <glyph glyph-name="uni030B" unicode="&#x30b;" 
d="M367 815q16 -13 18.5 -32.5t-12.5 -41.5q-21 -27 -58 -55t-94 -87l-12 7q25 50 38 85.5t22.5 61.5t22.5 45q15 21 36.5 25t38.5 -8zM189 815q17 -13 19.5 -32.5t-13.5 -41.5q-20 -27 -57 -55t-95 -87l-12 7q25 50 38 85.5t22.5 61.5t23.5 45q14 21 35.5 25t38.5 -8z" />
    <glyph glyph-name="uni030C" unicode="&#x30c;" 
d="M377 814l8 -14q-57 -32 -103.5 -83t-71.5 -105h-18q-24 54 -70.5 105t-104.5 83l8 14q56 -15 110 -38t86 -46q27 23 69.5 46t86.5 38z" />
    <glyph glyph-name="dotbelowcomb" unicode="&#x323;" 
d="M99 -185q-31 0 -50 16.5t-19 45.5q0 28 18 46t52 18q32 0 50.5 -17.5t18.5 -45.5q0 -29 -19.5 -46t-50.5 -17z" />
    <glyph glyph-name="uni0326" unicode="&#x326;" 
d="M101 -59q33 0 54.5 -20.5t21.5 -54.5q0 -42 -23.5 -69.5t-79.5 -38.5l-5 19q31 7 51.5 21t22.5 37q-7 -7 -18.5 -11t-27.5 -4q-30 0 -47.5 15t-17.5 45q0 27 19 44t50 17z" />
    <glyph glyph-name="uni0327" unicode="&#x327;" 
d="M107 4l-22 -71q15 5 31.5 7.5t35.5 2.5q32 0 49 -14t17 -37q0 -29 -19.5 -46.5t-49 -25.5t-62.5 -8q-28 0 -49.5 3.5t-36.5 8.5l5 18q6 -1 17.5 -2.5t24.5 -1.5q26 0 52.5 9t26.5 33q0 27 -37 27q-8 0 -20.5 -1.5t-21.5 -5.5l32 104h27z" />
    <glyph glyph-name="uni0328" unicode="&#x328;" 
d="M201 7q-3 -3 -7 -5t-9 -5q-45 -20 -62.5 -44t-17.5 -47q0 -19 11.5 -30t30.5 -11q18 0 35.5 8.5t27.5 20.5l14 -14q-25 -35 -56.5 -51.5t-72.5 -16.5t-64 18t-23 49q0 41 40.5 72.5t113.5 51.5z" />
    <glyph glyph-name="strokeshortoverlaycomb" unicode="&#x335;" horiz-adv-x="414" 
d="M394 628v-20h-374v20h374z" />
    <glyph glyph-name="slashshortoverlaycomb" unicode="&#x337;" horiz-adv-x="559" 
d="M393 466l15 -20l-230 -383l-16 21zM146 80l15 -21l-91 -132l-20 14zM492 589l19 -13l-89 -130l-15 20z" />
    </font>
</defs>
</svg>
