<?xml version="1.0" standalone="no"?>
<!DOCTYPE svg PUBLIC "-//W3C//DTD SVG 1.1//EN" "http://www.w3.org/Graphics/SVG/1.1/DTD/svg11.dtd" >
<svg xmlns="http://www.w3.org/2000/svg" xmlns:xlink="http://www.w3.org/1999/xlink" version="1.1">
<metadata>
Created by FontForge 20170731 at Tue Mar 19 18:39:57 2019
 By Aleksey,,,
Copyright 2017 The Playfair Display Project Authors (https://github.com/clauseggers/Playfair-Display), with Reserved Font Name "Playfair Display".
</metadata>
<defs>
<font id="PlayfairDisplay-Regular" horiz-adv-x="0" >
  <font-face 
    font-family="Playfair Display"
    font-weight="400"
    font-stretch="normal"
    units-per-em="1000"
    panose-1="0 0 0 0 0 0 0 0 0 0"
    ascent="800"
    descent="-200"
    x-height="515"
    cap-height="708"
    bbox="-267 -241 1211 1156.24"
    underline-thickness="20"
    underline-position="-130"
    unicode-range="U+000D-FB02"
  />
<missing-glyph horiz-adv-x="562" 
d="M502 772v-772h-442v772h442zM466 742h-370v-712h370v712z" />
    <glyph glyph-name="IJ" unicode="IJ" horiz-adv-x="647" 
d="M297 708v-20q-34 -1 -51.5 -7.5t-23.5 -24t-6 -54.5v-496q0 -36 6 -54t23.5 -24t51.5 -8v-20q-23 2 -57.5 2.5t-69.5 0.5q-39 0 -73 -0.5t-55 -2.5v20q34 2 51.5 8t23.5 24t6 54v496q0 37 -6 54.5t-23.5 24t-51.5 7.5v20q21 -1 55 -2t73 -1q35 0 69.5 1t57.5 2zM301 -188
v19q45 1 75.5 22t46 69.5t15.5 129.5v550q0 37 -6 54.5t-23.5 24t-51.5 7.5v20q21 -1 55 -2t71 -1t71.5 1t57.5 2v-20q-34 -1 -51.5 -7.5t-23.5 -24t-6 -54.5v-366q0 -41 -1 -89t-4.5 -93t-11.5 -79q-17 -70 -71.5 -116.5t-141.5 -46.5z" />
    <glyph glyph-name="ij" unicode="ij" horiz-adv-x="562" 
d="M483 526v-411q0 -81 -13 -150t-49 -111t-105 -42q-40 0 -60.5 15t-20.5 41q0 22 13 35.5t36 13.5q20 0 33.5 -11.5t13.5 -32.5q0 -15 -8 -26t-26 -19q5 -1 9 -1h8q43 0 61 30t18 97v159q-18 -58 -60 -92.5t-104 -34.5q-35 0 -61 10t-43 28q-19 20 -26 52t-7 79v251
q0 45 -16 66.5t-60 21.5v21q32 -3 62 -3q29 0 55.5 3.5t48.5 10.5v-393q0 -31 4 -57t20 -42t52 -16q62 0 98.5 52.5t36.5 128.5v207q0 45 -16 66.5t-60 21.5v21q32 -3 62 -3q29 0 55.5 3.5t48.5 10.5zM123 765q26 0 45 -19t19 -45t-19 -45t-45 -19t-45 19t-19 45t19 45
t45 19zM427 765q26 0 45 -19t19 -45t-19 -45t-45 -19t-45 19t-19 45t19 45t45 19z" />
    <glyph glyph-name="fi" unicode="fi" horiz-adv-x="619" 
d="M365 782q42 0 77 -8t57 -22q16 -10 25 -23.5t9 -31.5q0 -27 -19 -46t-45 -19t-45 19t-19 45q0 38 33 56q-13 8 -33 11.5t-40 3.5q-52 0 -87 -21t-55 -56q-14 -25 -20.5 -64t-6.5 -112h161q40 0 69 1t52 3.5t45 7.5v-433q0 -42 17.5 -57t58.5 -15v-21q-17 1 -51.5 2.5
t-69.5 1.5q-34 0 -69 -1.5t-52 -2.5v21q41 0 58.5 15t17.5 57v313q0 45 -16 66.5t-60 21.5h-161v-401q0 -43 23 -57.5t63 -14.5v-21q-20 1 -56.5 2.5t-74.5 1.5q-37 0 -70.5 -1.5t-50.5 -2.5v21q41 0 58.5 15t17.5 57v401h-80v20h80q0 64 16.5 115t55.5 88q29 27 75 46
t112 19z" />
    <glyph glyph-name="fl" unicode="fl" horiz-adv-x="621" 
d="M523 784v-691q0 -42 17.5 -57t58.5 -15v-21q-17 1 -51.5 2.5t-69.5 1.5q-34 0 -69 -1.5t-52 -2.5v21q41 0 58.5 15t17.5 57v557q0 32 -7 51t-20 32q-19 20 -47 27t-49 7q-29 0 -48.5 -9.5t-30.5 -21.5q-23 -23 -29 -56.5t-6 -71.5v-94h127v-20h-127v-401q0 -43 23 -57.5
t63 -14.5v-21q-20 1 -56.5 2.5t-74.5 1.5q-37 0 -70.5 -1.5t-50.5 -2.5v21q41 0 58.5 15t17.5 57v401h-80v20h80q0 74 10.5 129.5t53.5 92.5q28 24 63 35t72 11q31 0 61 -6t67 -6q19 0 43.5 3.5t46.5 10.5z" />
    <glyph glyph-name="f_f" unicode="ff" horiz-adv-x="653" 
d="M303 742q53 0 94.5 -25t55.5 -73l-14 -8q-11 37 -44.5 62.5t-87.5 25.5q-57 0 -84 -37.5t-27 -121.5v-51h151v-20h-151v-401q0 -42 17.5 -57t58.5 -15v-21q-17 1 -51 2.5t-69 1.5q-34 0 -69.5 -1.5t-52.5 -2.5v21q41 0 58.5 15t17.5 57v401h-80v20h80q0 56 11 96t34 67
q25 29 64.5 47t87.5 18zM597 782q28 0 49.5 -7.5t37.5 -19.5q15 -12 23 -28t8 -34q0 -23 -15 -38t-38 -15q-22 0 -38.5 14.5t-16.5 39.5q0 21 11.5 34t30.5 17q-3 9 -15.5 15.5t-33.5 6.5q-23 0 -39.5 -10t-25.5 -27q-12 -21 -15 -62.5t-3 -127.5v-26h107v-20h-107v-391
q0 -49 28.5 -65.5t77.5 -16.5v-21q-23 1 -65 2.5t-89 1.5q-34 0 -67.5 -1.5t-50.5 -2.5v21q41 0 58.5 15t17.5 57v401h-80v20h80q0 89 11.5 136.5t39.5 81.5q20 23 51 36.5t68 13.5z" />
    <glyph glyph-name="f_f_i" unicode="ffi" horiz-adv-x="940" 
d="M686 782q42 0 77 -8t57 -22q16 -10 25 -23.5t9 -31.5q0 -27 -19 -46t-45 -19t-45 19t-19 45q0 38 33 56q-13 8 -33 11.5t-40 3.5q-52 0 -87 -21t-55 -56q-9 -17 -15 -39.5t-9 -55t-3 -81.5h161q40 0 69 1t52 3.5t45 7.5v-433q0 -42 17.5 -57t58.5 -15v-21
q-17 1 -51.5 2.5t-69.5 1.5q-34 0 -69 -1.5t-52 -2.5v21q41 0 58.5 15t17.5 57v313q0 45 -16 66.5t-60 21.5h-161v-401q0 -43 23 -57.5t63 -14.5v-21q-20 1 -56.5 2.5t-74.5 1.5q-37 0 -70.5 -1.5t-50.5 -2.5v21q41 0 58.5 15t17.5 57v401h-80v20h80q0 64 16.5 115t55.5 88
q29 27 75 46t112 19zM313 742q57 0 97.5 -21.5t65.5 -63.5l-14 -11q-19 34 -55 56t-82 22q-61 0 -95 -37.5t-34 -121.5v-51h151v-20h-151v-401q0 -42 17.5 -57t58.5 -15v-21q-17 1 -51 2.5t-69 1.5q-34 0 -69.5 -1.5t-52.5 -2.5v21q41 0 58.5 15t17.5 57v401h-80v20h80
q0 56 13 96t36 67q26 29 66.5 47t91.5 18z" />
    <glyph glyph-name="f_f_l" unicode="ffl" horiz-adv-x="942" 
d="M844 784v-691q0 -42 17.5 -57t58.5 -15v-21q-17 1 -51.5 2.5t-69.5 1.5q-34 0 -69 -1.5t-52 -2.5v21q41 0 58.5 15t17.5 57v557q0 32 -7 51t-20 32q-19 20 -47 27t-49 7q-29 0 -48.5 -9.5t-30.5 -21.5q-23 -23 -29 -56.5t-6 -71.5v-94h127v-20h-127v-401q0 -43 23 -57.5
t63 -14.5v-21q-20 1 -56.5 2.5t-74.5 1.5q-37 0 -70.5 -1.5t-50.5 -2.5v21q41 0 58.5 15t17.5 57v401h-80v20h80q0 74 10.5 129.5t53.5 92.5q28 24 63 35t72 11q31 0 61 -6t64 -6q21 0 46 3.5t47 10.5zM313 742q57 0 97.5 -21.5t65.5 -63.5l-14 -11q-19 34 -55 56t-82 22
q-61 0 -95 -37.5t-34 -121.5v-51h151v-20h-151v-401q0 -42 17.5 -57t58.5 -15v-21q-17 1 -51 2.5t-69 1.5q-34 0 -69.5 -1.5t-52.5 -2.5v21q41 0 58.5 15t17.5 57v401h-80v20h80q0 56 13 96t36 67q26 29 66.5 47t91.5 18z" />
    <glyph glyph-name="f_b.liga" unicode="fb" horiz-adv-x="896" 
d="M503 784v-732q-13 -11 -26.5 -22.5t-26.5 -22.5t-27 -23l-17 7q4 14 5.5 28.5t1.5 29.5v601q0 32 -7.5 51t-19.5 32q-18 19 -42.5 26.5t-44.5 7.5q-24 0 -41 -8.5t-28 -19.5q-24 -24 -29 -60t-5 -71v-94h127v-20h-127v-401q0 -43 23 -57.5t63 -14.5v-21q-20 1 -56.5 2.5
t-74.5 1.5q-37 0 -70.5 -1.5t-50.5 -2.5v21q41 0 58.5 15t17.5 57v401h-80v20h80q0 75 10.5 130t53.5 92q26 23 58.5 34.5t68.5 11.5q29 0 56 -5t67 -5q17 0 40.5 2.5t42.5 9.5zM659 529q82 0 136 -67.5t54 -204.5q0 -90 -30.5 -150.5t-81.5 -90.5t-111 -30
q-50 0 -96.5 28.5t-69.5 84.5l20 -11q25 -40 62 -59.5t76 -19.5q67 0 100.5 60.5t33.5 187.5q0 81 -13 135t-40 80.5t-69 26.5q-46 0 -85.5 -41.5t-48.5 -121.5l-12 14q11 85 59.5 132t115.5 47z" />
    <glyph glyph-name="f_f_b.liga" unicode="ffb" horiz-adv-x="1217" 
d="M824 784v-732q-13 -11 -26.5 -22.5t-26.5 -22.5t-27 -23l-17 7q4 14 5.5 28.5t1.5 29.5v601q0 32 -7.5 51t-19.5 32q-18 19 -42.5 26.5t-44.5 7.5q-24 0 -41 -8.5t-28 -19.5q-24 -24 -29 -60t-5 -71v-94h127v-20h-127v-401q0 -43 23 -57.5t63 -14.5v-21q-20 1 -56.5 2.5
t-74.5 1.5q-37 0 -70.5 -1.5t-50.5 -2.5v21q41 0 58.5 15t17.5 57v401h-80v20h80q0 75 10.5 130t53.5 92q26 23 58.5 34.5t68.5 11.5q29 0 56 -5t67 -5q17 0 40.5 2.5t42.5 9.5zM313 742q57 0 97.5 -21.5t65.5 -63.5l-14 -11q-19 34 -55 56t-82 22q-61 0 -95 -37.5
t-34 -121.5v-51h151v-20h-151v-401q0 -42 17.5 -57t58.5 -15v-21q-17 1 -51 2.5t-69 1.5q-34 0 -69.5 -1.5t-52.5 -2.5v21q41 0 58.5 15t17.5 57v401h-80v20h80q0 56 13 96t36 67q26 29 66.5 47t91.5 18zM980 529q82 0 136 -67.5t54 -204.5q0 -90 -31 -150.5t-81.5 -90.5
t-110.5 -30q-50 0 -96.5 28.5t-69.5 84.5l20 -11q25 -40 62 -59.5t76 -19.5q67 0 100.5 60.5t33.5 187.5q0 81 -13 135t-40 80.5t-69 26.5q-46 0 -85.5 -41.5t-48.5 -121.5l-12 14q11 85 59.5 132t115.5 47z" />
    <glyph glyph-name="f_f_h.liga" unicode="ffh" horiz-adv-x="1226" 
d="M824 783v-374q26 68 72.5 94t97.5 26q38 0 63.5 -10t42.5 -28q19 -20 27 -50t8 -81v-267q0 -42 17.5 -57t58.5 -15v-21q-17 1 -52 2.5t-68 1.5t-64.5 -1.5t-47.5 -2.5v21q36 0 51 15t15 57v289q0 31 -5 57t-22.5 42t-53.5 16q-61 0 -100.5 -50.5t-39.5 -130.5v-223
q0 -42 15 -57t51 -15v-21q-16 1 -47.5 2.5t-64.5 1.5t-68 -1.5t-52 -2.5v21q41 0 58.5 15t17.5 57v557q0 32 -7.5 51t-19.5 32q-18 19 -42.5 26.5t-44.5 7.5q-24 0 -41 -8.5t-28 -19.5q-24 -24 -29 -60t-5 -71v-94h127v-20h-127v-401q0 -43 23 -57.5t63 -14.5v-21
q-20 1 -56.5 2.5t-74.5 1.5q-37 0 -70.5 -1.5t-50.5 -2.5v21q41 0 58.5 15t17.5 57v401h-80v20h80q0 75 10.5 130t53.5 92q26 23 58.5 34.5t68.5 11.5q29 0 56 -5t67 -5q17 0 40.5 2t42.5 9zM313 742q57 0 97.5 -21.5t65.5 -63.5l-14 -11q-19 34 -55 56t-82 22
q-61 0 -95 -37.5t-34 -121.5v-51h151v-20h-151v-401q0 -42 17.5 -57t58.5 -15v-21q-17 1 -51 2.5t-69 1.5q-34 0 -69.5 -1.5t-52.5 -2.5v21q41 0 58.5 15t17.5 57v401h-80v20h80q0 56 13 96t36 67q26 29 66.5 47t91.5 18z" />
    <glyph glyph-name="f_f_j.liga" unicode="ffj" horiz-adv-x="920" 
d="M686 782q42 0 77 -8t57 -22q16 -10 25 -23.5t9 -31.5q0 -27 -19 -46t-45 -19t-45 19t-19 45q0 38 33 56q-13 8 -33 11.5t-40 3.5q-52 0 -87 -21t-55 -56q-14 -25 -20.5 -64t-6.5 -112h161q40 0 69 1t52 3.5t45 7.5v-411q0 -69 -9.5 -134t-43.5 -108q-24 -31 -56.5 -46
t-64.5 -15q-13 0 -23.5 3t-18.5 7q-13 8 -19 19t-6 24q0 20 12.5 33.5t34.5 13.5q20 0 32.5 -13t12.5 -32q0 -7 -3 -18t-13 -22q14 2 25 5.5t19 9.5q8 5 13.5 13t9.5 18q3 8 5 17.5t2.5 20.5t0.5 24v471q0 45 -16 66.5t-60 21.5h-161v-391q0 -49 28.5 -65.5t77.5 -16.5v-21
q-23 1 -65 2.5t-89 1.5q-34 0 -67.5 -1.5t-50.5 -2.5v21q41 0 58.5 15t17.5 57v401h-80v20h80q0 64 16.5 115t55.5 88q29 27 75 46t112 19zM313 742q57 0 97.5 -21.5t65.5 -63.5l-14 -11q-19 34 -55 56t-82 22q-61 0 -95 -37.5t-34 -121.5v-51h151v-20h-151v-401
q0 -42 17.5 -57t58.5 -15v-21q-17 1 -51 2.5t-69 1.5q-34 0 -69.5 -1.5t-52.5 -2.5v21q41 0 58.5 15t17.5 57v401h-80v20h80q0 56 13 96t36 67q26 29 66.5 47t91.5 18z" />
    <glyph glyph-name="f_f_k.liga" unicode="ffk" horiz-adv-x="1188" 
d="M824 783v-690q0 -42 15 -57t51 -15v-21q-16 1 -47.5 2.5t-64.5 1.5t-68 -1.5t-52 -2.5v21q41 0 58.5 15t17.5 57v557q0 32 -7.5 51t-19.5 32q-18 19 -42.5 26.5t-44.5 7.5q-24 0 -41 -8.5t-28 -19.5q-24 -24 -29 -60t-5 -71v-94h127v-20h-127v-401q0 -43 23 -57.5
t63 -14.5v-21q-20 1 -56.5 2.5t-74.5 1.5q-37 0 -70.5 -1.5t-50.5 -2.5v21q41 0 58.5 15t17.5 57v401h-80v20h80q0 75 10.5 130t53.5 92q26 23 58.5 34.5t68.5 11.5q29 0 56 -5t67 -5q17 0 40.5 2t42.5 9zM313 742q57 0 97.5 -21.5t65.5 -63.5l-14 -11q-19 34 -55 56t-82 22
q-61 0 -95 -37.5t-34 -121.5v-51h151v-20h-151v-401q0 -42 17.5 -57t58.5 -15v-21q-17 1 -51 2.5t-69 1.5q-34 0 -69.5 -1.5t-52.5 -2.5v21q41 0 58.5 15t17.5 57v401h-80v20h80q0 56 13 96t36 67q26 29 66.5 47t91.5 18zM1142 515v-20q-25 -2 -47 -13.5t-43 -33.5
l-141 -148l14 28l186 -255q17 -23 32.5 -36t37.5 -16v-21q-11 1 -34.5 2.5t-46.5 1.5q-31 0 -63 -1.5t-48 -2.5v21q20 0 28 10t-3 24l-115 168q-19 27 -34.5 35t-44.5 9v20q32 4 52 13.5t38 28.5l74 77q32 33 32 52.5t-20.5 28t-53.5 8.5v20q26 -1 58.5 -2.5t54.5 -1.5
q17 0 33 0.5t30 1.5t24 2z" />
    <glyph glyph-name="f_h.liga" unicode="fh" horiz-adv-x="905" 
d="M503 783v-374q26 68 72.5 94t97.5 26q38 0 63.5 -10t42.5 -28q19 -20 27 -50t8 -81v-267q0 -42 17.5 -57t58.5 -15v-21q-17 1 -52 2.5t-68 1.5t-64.5 -1.5t-47.5 -2.5v21q36 0 51 15t15 57v289q0 31 -5 57t-22.5 42t-53.5 16q-61 0 -100.5 -50.5t-39.5 -130.5v-223
q0 -42 15 -57t51 -15v-21q-16 1 -47.5 2.5t-64.5 1.5t-68 -1.5t-52 -2.5v21q41 0 58.5 15t17.5 57v557q0 32 -7.5 51t-19.5 32q-18 19 -42.5 26.5t-44.5 7.5q-24 0 -41 -8.5t-28 -19.5q-24 -24 -29 -60t-5 -71v-94h127v-20h-127v-401q0 -43 23 -57.5t63 -14.5v-21
q-20 1 -56.5 2.5t-74.5 1.5q-37 0 -70.5 -1.5t-50.5 -2.5v21q41 0 58.5 15t17.5 57v401h-80v20h80q0 75 10.5 130t53.5 92q26 23 58.5 34.5t68.5 11.5q29 0 56 -5t67 -5q17 0 40.5 2t42.5 9z" />
    <glyph glyph-name="f_idieresis.liga" unicode="f&#xef;" horiz-adv-x="619" 
d="M285 782q36 0 65.5 -11.5t47 -33.5t17.5 -53l-32 6q-4 38 -30.5 56.5t-66.5 18.5q-36 0 -58 -19t-27 -57q-2 -16 -3.5 -47t-1.5 -65.5v-62.5h161q40 0 69 1t52 3.5t45 7.5v-433q0 -42 17.5 -57t58.5 -15v-21q-17 1 -51.5 2.5t-69.5 1.5q-34 0 -69 -1.5t-52 -2.5v21
q41 0 58.5 15t17.5 57v313q0 45 -16 66.5t-60 21.5h-161v-401q0 -43 23 -57.5t63 -14.5v-21q-20 1 -56.5 2.5t-74.5 1.5q-37 0 -70.5 -1.5t-50.5 -2.5v21q41 0 58.5 15t17.5 57v401h-80v20h80q0 91 11.5 138t39.5 80q24 29 58 39.5t70 10.5zM569 743q23 0 40.5 -17.5
t17.5 -40.5q0 -24 -17.5 -41t-40.5 -17q-24 0 -41 17t-17 41q0 23 17 40.5t41 17.5zM357 743q23 0 40.5 -17.5t17.5 -40.5q0 -24 -17.5 -41t-40.5 -17q-24 0 -41 17t-17 41q0 23 17 40.5t41 17.5z" />
    <glyph glyph-name="f_igrave.liga" unicode="f&#xec;" horiz-adv-x="619" 
d="M276 782q26 0 48.5 -8.5t44.5 -28.5l9 -27q-28 26 -51 37.5t-50 11.5q-43 0 -65 -42q-8 -16 -12 -43t-4 -74v-94h161q40 0 69 1t52 3.5t45 7.5v-433q0 -42 17.5 -57t58.5 -15v-21q-17 1 -51.5 2.5t-69.5 1.5q-34 0 -69 -1.5t-52 -2.5v21q41 0 58.5 15t17.5 57v313
q0 45 -16 66.5t-60 21.5h-161v-401q0 -43 23 -57.5t63 -14.5v-21q-20 1 -56.5 2.5t-74.5 1.5q-37 0 -70.5 -1.5t-50.5 -2.5v21q41 0 58.5 15t17.5 57v401h-80v20h80q0 74 9 129.5t45 92.5q24 25 54.5 35.5t61.5 10.5zM346 813q12 9 28.5 7t31.5 -22q15 -19 28 -45t31.5 -61
t49.5 -84l-11 -9q-39 42 -69 68.5t-51.5 45.5t-37.5 38q-15 20 -13.5 36t13.5 26z" />
    <glyph glyph-name="f_j.liga" unicode="fj" horiz-adv-x="599" 
d="M365 782q42 0 77 -8t57 -22q16 -10 25 -23.5t9 -31.5q0 -27 -19 -46t-45 -19t-45 19t-19 45q0 38 33 56q-13 8 -33 11.5t-40 3.5q-52 0 -87 -21t-55 -56q-14 -25 -20.5 -64t-6.5 -112h161q40 0 69 1t52 3.5t45 7.5v-411q0 -69 -9.5 -134t-43.5 -108q-24 -31 -56.5 -46
t-64.5 -15q-13 0 -24 3t-19 7q-13 8 -18.5 19t-5.5 24q0 20 12.5 33.5t34.5 13.5q20 0 32.5 -13t12.5 -32q0 -7 -3 -18t-13 -22q13 2 23 5t18 8t14.5 13t10.5 18q3 8 5 17.5t3 21.5t1 25v471q0 45 -16 66.5t-60 21.5h-161v-391q0 -49 28.5 -65.5t77.5 -16.5v-21
q-23 1 -65 2.5t-89 1.5q-34 0 -67.5 -1.5t-50.5 -2.5v21q41 0 58.5 15t17.5 57v401h-80v20h80q0 64 16.5 115t55.5 88q29 27 75 46t112 19z" />
    <glyph glyph-name="f_k.liga" unicode="fk" horiz-adv-x="867" 
d="M503 783v-690q0 -42 15 -57t51 -15v-21q-16 1 -47.5 2.5t-64.5 1.5t-68 -1.5t-52 -2.5v21q41 0 58.5 15t17.5 57v557q0 32 -7.5 51t-19.5 32q-18 19 -42.5 26.5t-44.5 7.5q-24 0 -41 -8.5t-28 -19.5q-24 -24 -29 -60t-5 -71v-94h127v-20h-127v-401q0 -43 23 -57.5
t63 -14.5v-21q-20 1 -56.5 2.5t-74.5 1.5q-37 0 -70.5 -1.5t-50.5 -2.5v21q41 0 58.5 15t17.5 57v401h-80v20h80q0 75 10.5 130t53.5 92q26 23 58.5 34.5t68.5 11.5q29 0 56 -5t67 -5q17 0 40.5 2t42.5 9zM821 515v-20q-25 -2 -47 -13.5t-43 -33.5l-141 -148l14 28l186 -255
q17 -23 32.5 -36t37.5 -16v-21q-11 1 -34.5 2.5t-46.5 1.5q-31 0 -63 -1.5t-48 -2.5v21q20 0 28 10t-3 24l-115 168q-19 27 -34.5 35t-44.5 9v20q32 4 52 13.5t38 28.5l74 77q32 33 32 52.5t-20.5 28t-53.5 8.5v20q26 -1 58.5 -2.5t54.5 -1.5q17 0 33 0.5t30 1.5t24 2z" />
    <glyph glyph-name=".notdef" horiz-adv-x="562" 
d="M502 772v-772h-442v772h442zM466 742h-370v-712h370v712z" />
    <glyph glyph-name=".null" 
 />
    <glyph glyph-name="nonmarkingreturn" horiz-adv-x="333" 
 />
    <glyph glyph-name="CR" unicode="&#xd;" 
 />
    <glyph glyph-name="space" unicode=" " horiz-adv-x="249" 
 />
    <glyph glyph-name="exclam" unicode="!" horiz-adv-x="262" 
d="M131 782q19 0 32.5 -13t13.5 -43q0 -39 -5.5 -97t-13 -128.5t-13 -148t-5.5 -156.5v0h-18q0 79 -5.5 156.5t-13 148t-13 128.5t-5.5 97q0 30 13.5 43t32.5 13zM131 114q26 0 45 -19t19 -45t-19 -45t-45 -19t-45 19t-19 45t19 45t45 19z" />
    <glyph glyph-name="quotedbl" unicode="&#x22;" horiz-adv-x="298" 
d="M95 730q15 0 25.5 -12t10.5 -34q0 -33 -4 -61.5t-10.5 -64t-14.5 -90.5h-14q-7 52 -14 87.5t-11 65t-4 62.5q0 22 10.5 34t25.5 13zM204 730q15 0 25.5 -12t10.5 -34q0 -33 -4 -61.5t-10.5 -64t-14.5 -90.5h-14q-7 52 -14 87.5t-11 65t-4 62.5q0 22 10.5 34t25.5 13z" />
    <glyph glyph-name="numbersign" unicode="#" horiz-adv-x="637" 
d="M471 602l-97 -501h-20l97 501h20zM553 267l-4 -20h-501l4 20h501zM284 602l-97 -501h-20l97 501h20zM589 454l-3 -20h-501l3 20h501z" />
    <glyph glyph-name="dollar" unicode="$" horiz-adv-x="523" 
d="M247 719q50 0 76 -11.5t46 -25.5q12 -7 19.5 -10.5t14.5 -3.5q16 0 22 44h23q-1 -17 -2.5 -40.5t-2 -62t-0.5 -101.5h-23q-3 48 -21 92t-52.5 72t-90.5 28q-53 0 -87.5 -32t-34.5 -84q0 -34 13.5 -59t37 -45.5t53.5 -39t64 -39.5q52 -32 92.5 -63.5t64 -69.5t23.5 -92
q0 -64 -29 -106t-77 -63t-106 -21q-53 0 -84 12t-53 25q-12 8 -20 11t-14 3q-16 0 -22 -44h-23q2 21 2.5 49.5t1 74.5t0.5 116h23q4 -60 22.5 -112t57 -83.5t102.5 -31.5q49 0 89.5 31.5t40.5 101.5q0 30 -11 55t-32 46t-49.5 41t-63.5 41q-47 29 -88 59t-65.5 69.5
t-24.5 95.5q0 59 26.5 97.5t69.5 57t92 18.5zM232 840v-972h-20v972h20zM316 840v-972h-20v972h20z" />
    <glyph glyph-name="percent" unicode="%" horiz-adv-x="742" 
d="M184 761q67 0 108 -43t41 -120q0 -76 -42 -122t-107 -46q-67 0 -108 43t-41 120q0 75 42.5 121.5t106.5 46.5zM554 299q-77 0 -77 -149q0 -73 22 -109.5t59 -36.5q76 0 76 148q0 74 -21 110.5t-59 36.5zM556 317q67 0 108 -43t41 -120q0 -76 -42 -122t-107 -46
q-67 0 -108 43t-41 120q0 75 42.5 121.5t106.5 46.5zM182 743q-77 0 -77 -149q0 -73 22 -109.5t59 -36.5q76 0 76 148q0 74 -21 110.5t-59 36.5zM660 824l19 -13l-585 -866l-19 13z" />
    <glyph glyph-name="ampersand" unicode="&#x26;" horiz-adv-x="837" 
d="M307 702q38 0 63 -8.5t41 -21.5q20 -16 28.5 -34.5t8.5 -34.5q0 -25 -17.5 -39t-38.5 -14q-20 0 -36 13t-16 37q0 22 15 37.5t38 17.5q-4 13 -24.5 22.5t-51.5 9.5q-51 0 -83.5 -30.5t-32.5 -88.5q0 -28 10.5 -57t40.5 -57q17 3 35 4.5t27 1.5q40 0 40 -23q0 -9 -7.5 -14
t-20.5 -5q-19 0 -40 8.5t-33 13.5q-58 -17 -94 -55.5t-36 -108.5q0 -69 36 -117t96.5 -73.5t135.5 -25.5q53 0 100.5 12.5t84 36.5t57.5 57.5t21 76.5q0 19 -8 48.5t-33 58t-77 44.5l12 10q73 -22 104 -70.5t31 -108.5t-36 -115t-104 -89.5t-165 -34.5q-86 0 -160 30
t-119 86t-45 133q0 54 21 92.5t52 63.5t62 38.5t50 18.5q-50 22 -75.5 57t-25.5 72q0 24 11 46.5t32 40.5t52.5 28t73.5 10zM671 722q62 0 104 -35.5t42 -99.5q0 -51 -27.5 -85.5t-67.5 -54.5q-23 -11 -60.5 -24t-80 -26t-81 -25.5t-62.5 -21.5q-37 -14 -62.5 -34.5
t-25.5 -52.5q0 -26 15 -44t36.5 -27t40.5 -9q14 0 35.5 5.5t24.5 16.5q-16 3 -31.5 14.5t-15.5 36.5q0 24 16 38t39 14q24 0 38.5 -15t14.5 -39q0 -28 -18.5 -47.5t-46 -29t-54.5 -9.5q-28 0 -57 12t-48 37.5t-19 67.5q0 52 35 87.5t103 58.5q30 10 73 22t88.5 26t82.5 31
q50 23 68 47t18 49q0 43 -34.5 72t-81.5 29q-12 0 -20 -2t-10 -7q14 -7 21 -20t7 -26q0 -21 -16.5 -35t-39.5 -14q-19 0 -36 12.5t-17 37.5q0 26 17.5 41t43 21.5t49.5 6.5z" />
    <glyph glyph-name="quotesingle" unicode="'" horiz-adv-x="189" 
d="M95 730q15 0 25.5 -12t10.5 -34q0 -33 -4 -61.5t-10.5 -64t-14.5 -90.5h-14q-7 52 -14 87.5t-11 65t-4 62.5q0 22 10.5 34t25.5 13z" />
    <glyph glyph-name="parenleft" unicode="(" horiz-adv-x="294" 
d="M264 806q-101 -92 -160.5 -215.5t-59.5 -278.5t59.5 -278.5t160.5 -215.5l14 13q-84 98 -117 214.5t-33 266.5t33 266.5t117 214.5z" />
    <glyph glyph-name="parenright" unicode=")" horiz-adv-x="294" 
d="M30 806q101 -92 160.5 -215.5t59.5 -278.5t-59.5 -278.5t-160.5 -215.5l-14 13q84 98 117 214.5t33 266.5t-33 266.5t-117 214.5z" />
    <glyph glyph-name="asterisk" unicode="*" horiz-adv-x="492" 
d="M363 629q26 15 42.5 10.5t23.5 -16.5q7 -11 2 -27t-31 -31q-25 -14 -61.5 -22.5t-92.5 -25.5l-1 3q40 38 67 66.5t51 42.5zM247 520q53 -16 91 -25t63 -23q26 -15 30.5 -31.5t-3.5 -28.5q-6 -11 -22 -15t-42 11q-25 14 -51 41.5t-68 67.5zM248 518q13 -53 24 -91t12 -66
q-1 -30 -13 -42t-26 -12q-13 0 -24 11.5t-11 42.5q0 29 11 65t24 92h3zM245 519l2 -3q-40 -37 -67 -66t-51 -43q-26 -15 -42.5 -10.5t-23.5 16.5q-7 11 -2 26.5t31 31.5q25 14 61.5 23t91.5 25zM128 628q25 -14 51 -41.5t67 -67.5l-1 -3q-52 16 -90.5 25.5t-63.5 22.5
q-25 15 -29.5 31.5t2.5 28.5q6 11 22 15t42 -11zM246 729q14 0 25 -12t11 -42q0 -28 -10.5 -64.5t-24.5 -92.5h-3q-13 53 -24 91t-11 66q0 30 12 42t25 12z" />
    <glyph glyph-name="plus" unicode="+" horiz-adv-x="587" 
d="M312 606v-236h232v-30h-232v-235h-36v235h-233v30h233v236h36z" />
    <glyph glyph-name="comma" unicode="," horiz-adv-x="261" 
d="M126 114q22 0 36 -9t23 -23q11 -16 14 -35t3 -31q0 -49 -25 -89t-78 -65l-9 18q31 13 53.5 41t22.5 57q0 12 -3 21q-16 -13 -37 -13q-26 0 -45 17t-19 47q0 28 19 46t45 18z" />
    <glyph glyph-name="hyphen" unicode="-" horiz-adv-x="499" 
d="M430 298v-58h-361v58h361z" />
    <glyph glyph-name="period" unicode="." horiz-adv-x="252" 
d="M126 114q26 0 45 -19t19 -45t-19 -45t-45 -19t-45 19t-19 45t19 45t45 19z" />
    <glyph glyph-name="slash" unicode="/" horiz-adv-x="372" 
d="M339 722l-272 -736h-33l272 736h33z" />
    <glyph glyph-name="zero" unicode="0" horiz-adv-x="600" 
d="M305 529q71 0 125.5 -32.5t85.5 -91.5t31 -139t-32 -143.5t-88.5 -100t-132.5 -36.5q-69 0 -124 32.5t-86.5 92t-31.5 139.5q0 79 31.5 142t88.5 100t133 37zM296 511q-64 0 -105.5 -68t-41.5 -190q0 -90 21 -144.5t56.5 -79.5t76.5 -25q65 0 106 68.5t41 190.5
q0 90 -21 144.5t-56 79t-77 24.5z" />
    <glyph glyph-name="one" unicode="1" horiz-adv-x="370" 
d="M253 526v-423q0 -48 22 -65t74 -17v-21q-20 1 -58.5 2.5t-79.5 1.5q-46 0 -88.5 -1.5t-65.5 -2.5v21q50 0 78 16.5t28 65.5v242q0 48 -10 71t-35.5 30t-70.5 7v22q72 2 120 13t86 38z" />
    <glyph glyph-name="two" unicode="2" horiz-adv-x="479" 
d="M244 529q69 0 109.5 -32.5t40.5 -93.5q0 -50 -28 -93.5t-70 -82.5t-84 -76t-69 -74h203q41 0 52 11.5t15 39.5h17q0 -53 1 -81.5t3 -51.5q-13 3 -58.5 4t-90.5 1h-234v17q30 33 72 70.5t81.5 82t66 97t26.5 114.5q0 57 -26.5 82.5t-73.5 25.5q-40 0 -74 -23.5t-60 -70.5
l-16 9q23 47 69.5 86t127.5 39z" />
    <glyph glyph-name="three" unicode="3" horiz-adv-x="451" 
d="M227 529q62 0 103 -30.5t41 -83.5q0 -39 -21.5 -71.5t-55.5 -56t-72 -37.5q47 -1 89 -17.5t69 -49.5t27 -85q0 -57 -33 -103t-87.5 -78.5t-120 -50t-129.5 -17.5v18q51 1 100 16.5t88.5 44.5t63 72t23.5 98q0 59 -28.5 97.5t-77.5 42.5q-15 -6 -26.5 -10.5t-20.5 -4.5
q-16 0 -16 13q0 9 8 14t18 5q8 0 16.5 -1.5t18.5 -2.5q41 31 59 68.5t18 75.5q0 47 -23.5 68.5t-63.5 21.5q-41 0 -75.5 -22t-57.5 -67l-17 8q15 33 39 61.5t59.5 46t84.5 17.5z" />
    <glyph glyph-name="four" unicode="4" horiz-adv-x="494" 
d="M342 529l4 -26l-281 -398l-1 16h306q41 0 52 11.5t15 39.5h17q0 -49 1 -75t3 -48q-9 2 -33 3t-55 1.5t-61 0.5h-292v21zM358 529v-670h-80v564l64 106h16z" />
    <glyph glyph-name="five" unicode="5" horiz-adv-x="415" 
d="M334 565q0 -57 1 -89t3 -57q-13 3 -55 4t-84 1h-106l-12 -193q22 11 49 20.5t68 9.5q91 0 134 -44t43 -110q0 -58 -29 -105t-77.5 -80.5t-106.5 -51.5t-117 -18v18q59 1 112.5 26t88 75.5t34.5 125.5q0 63 -32.5 98.5t-93.5 35.5q-26 0 -43.5 -4.5t-38.5 -12.5l-10 6
l19 298q11 -2 25.5 -3t28.5 -1h113q41 0 52 11.5t15 39.5h19z" />
    <glyph glyph-name="six" unicode="6" horiz-adv-x="517" 
d="M394 723l4 -20q-41 -13 -84.5 -37.5t-80 -71.5t-59 -124.5t-22.5 -197.5q0 -105 18 -163t45 -80.5t54 -22.5q44 0 78.5 47.5t34.5 159.5q0 108 -32 152t-76 44q-22 0 -48 -10t-48 -33.5t-32 -66.5l-10 -6q7 56 35 87.5t63.5 44.5t64.5 13q47 0 88 -25.5t66.5 -74
t25.5 -118.5q0 -75 -30 -127.5t-80 -79.5t-110 -27q-95 0 -149.5 74.5t-54.5 209.5q0 91 22 161t58.5 121.5t81 86.5t91 55.5t86.5 28.5z" />
    <glyph glyph-name="seven" unicode="7" horiz-adv-x="406" 
d="M27 519q14 -3 59 -4t90 -1h222v-21q-21 -51 -50.5 -105t-58 -115.5t-47 -133t-17.5 -157.5q0 -16 1 -30t2 -26t1 -23q0 -22 -13 -36.5t-34 -14.5q-23 0 -34 17t-11 39q0 68 17.5 131t45.5 122.5t61.5 116t66 110t58.5 105.5l-28 -63h-243q-41 0 -52 -11t-15 -40h-17
q0 53 -1 85t-3 55z" />
    <glyph glyph-name="eight" unicode="8" horiz-adv-x="520" 
d="M268 722q68 0 116.5 -34.5t48.5 -102.5q0 -61 -40 -108t-103 -87l-8 14q38 32 54.5 75.5t16.5 92.5q0 59 -24.5 95.5t-71.5 36.5q-40 0 -67 -28.5t-27 -78.5q0 -47 22 -82.5t57 -64.5t74 -56.5t74 -58t57 -69t22 -89.5q0 -57 -28 -100t-76.5 -67t-111.5 -24
q-53 0 -99 18.5t-74 56t-28 93.5q0 77 51 132t123 88l8 -14q-52 -35 -73 -84.5t-21 -106.5q0 -43 11.5 -80.5t38 -61t69.5 -23.5q50 0 87.5 33.5t37.5 97.5q0 49 -21.5 86t-55.5 68.5t-72.5 60.5t-72.5 60t-55.5 69t-21.5 87q0 47 24.5 82t66 54.5t92.5 19.5z" />
    <glyph glyph-name="nine" unicode="9" horiz-adv-x="509" 
d="M257 529q95 0 149.5 -69t54.5 -195q0 -82 -22 -146t-58.5 -111.5t-81 -79.5t-90.5 -50.5t-87 -25.5l-4 20q41 12 84.5 34t80 64t59 113t22.5 180q0 98 -18 151t-44.5 74t-54.5 21q-44 0 -78.5 -47.5t-34.5 -159.5q0 -108 32 -152t76 -44q22 0 48 10t48.5 34t31.5 66l10 6
q-7 -56 -35 -87.5t-63 -44.5t-65 -13q-46 0 -87.5 25.5t-67 74t-25.5 118.5q0 75 30 127.5t80 79.5t110 27z" />
    <glyph glyph-name="colon" unicode=":" horiz-adv-x="266" 
d="M133 528q26 0 45 -19t19 -45t-19 -45t-45 -19t-45 19t-19 45t19 45t45 19zM133 114q26 0 45 -19t19 -45t-19 -45t-45 -19t-45 19t-19 45t19 45t45 19z" />
    <glyph glyph-name="semicolon" unicode=";" horiz-adv-x="285" 
d="M137 114q22 0 36 -9t23 -23q11 -16 14 -35t3 -31q0 -49 -25 -89t-78 -65l-9 18q31 13 53.5 41t22.5 57q0 12 -3 21q-16 -13 -37 -13q-26 0 -45 17t-19 47q0 28 19 46t45 18zM144 528q26 0 45 -19t19 -45t-19 -45t-45 -19t-45 19t-19 45t19 45t45 19z" />
    <glyph glyph-name="less" unicode="&#x3c;" horiz-adv-x="608" 
d="M517 582l17 -36l-409 -191l409 -191l-17 -36l-487 227z" />
    <glyph glyph-name="equal" unicode="=" horiz-adv-x="647" 
d="M574 440v-30h-501v30h501zM574 300v-30h-501v30h501z" />
    <glyph glyph-name="greater" unicode="&#x3e;" horiz-adv-x="608" 
d="M91 582l-17 -36l409 -191l-409 -191l17 -36l487 227z" />
    <glyph glyph-name="question" unicode="?" horiz-adv-x="459" 
d="M215 782q94 0 152 -48t58 -132q0 -85 -62 -140.5t-163 -81.5v-146h-20v155q67 25 100 55t44.5 65t11.5 74q0 95 -39 137t-101 42q-24 0 -52.5 -7t-45.5 -29q19 -4 30.5 -17t11.5 -34q0 -25 -16 -39.5t-39 -14.5t-38 15t-15 38q0 21 13 39.5t34 32.5t54.5 25t81.5 11z
M191 114q26 0 45 -19t19 -45t-19 -45t-45 -19t-45 19t-19 45t19 45t45 19z" />
    <glyph glyph-name="at" unicode="@" horiz-adv-x="878" 
d="M532 668q87 0 157.5 -28t112.5 -88.5t42 -158.5q0 -84 -27 -152t-70.5 -116t-94 -73.5t-98.5 -25.5q-40 0 -56 17t-16 41.5t6 47.5t9 34l61 298q23 0 47 3t43 11l-84 -367q-10 -34 -4.5 -47t27.5 -13q29 0 69 22.5t78.5 66t64 107.5t25.5 147q0 93 -40 149t-106 81.5
t-145 25.5q-92 0 -175.5 -40.5t-148.5 -110.5t-102.5 -161t-37.5 -193q0 -103 39 -166.5t107 -92.5t154 -29q54 0 105.5 12.5t100.5 41.5l7 -13q-37 -26 -92 -42.5t-122 -16.5q-93 0 -165 32t-113 99t-41 173q0 101 37 195t103.5 168.5t154 118t188.5 43.5zM478 478
q23 0 40.5 -9t27 -28.5t6.5 -53.5l-8 -4q0 26 -7 42t-21 23t-34 7q-33 0 -61.5 -27t-50 -71.5t-33.5 -97.5t-12 -106q0 -49 13.5 -73t38.5 -24q39 0 79.5 61t65.5 168l8 -16q-22 -83 -48 -137t-59.5 -80t-79.5 -26q-57 0 -80 35t-23 86q0 57 21 115.5t55.5 107t76.5 78.5
t85 30z" />
    <glyph glyph-name="A" unicode="A" horiz-adv-x="630" 
d="M323 713l244 -629q15 -38 34 -50.5t35 -13.5v-20q-20 2 -49 2.5t-58 0.5q-39 0 -73 -0.5t-55 -2.5v20q51 2 65 17.5t-6 66.5l-186 497l16 13l-174 -452q-21 -54 -20 -84.5t23 -43.5t64 -14v-20q-28 2 -58.5 2.5t-56.5 0.5q-25 0 -42.5 -0.5t-32.5 -2.5v20q20 5 41 23.5
t38 63.5l235 606h8h8zM445 288v-20h-298l10 20h288z" />
    <glyph glyph-name="B" unicode="B" horiz-adv-x="623" 
d="M42 708q21 -1 55 -2t67 -1q47 0 90 1t61 1q105 0 158 -44t53 -113q0 -35 -14.5 -68.5t-48 -61t-89.5 -44.5v-2q79 -10 123.5 -37.5t62.5 -64.5t18 -78q0 -85 -63.5 -139.5t-176.5 -54.5q-22 0 -66 1.5t-106 1.5q-35 0 -69 -0.5t-55 -2.5v20q34 2 51.5 8t23.5 24t6 54v496
q0 37 -6 54.5t-23.5 24t-51.5 7.5v20zM290 688q-46 0 -60 -17t-14 -69v-496q0 -52 14.5 -67.5t60.5 -15.5q98 0 142.5 45.5t44.5 129.5q0 77 -41.5 119t-136.5 42h-103v8.5v8.5h86q59 0 91 22.5t44 60t12 80.5q0 74 -32.5 111.5t-107.5 37.5z" />
    <glyph glyph-name="C" unicode="C" horiz-adv-x="688" 
d="M371 722q66 0 108.5 -19.5t75.5 -45.5q20 -15 30.5 -3.5t14.5 54.5h23q-2 -37 -3 -90t-1 -140h-23q-7 43 -13 68.5t-14.5 43.5t-22.5 36q-31 41 -78 59.5t-99 18.5q-49 0 -88.5 -24.5t-68 -70.5t-44 -111t-15.5 -146q0 -84 17 -148.5t47.5 -108.5t72 -66.5t89.5 -22.5
q45 0 94 18t77 58q22 29 30.5 63t15.5 95h23q0 -91 1 -146.5t3 -93.5h-23q-4 43 -13.5 54t-31.5 -3q-37 -26 -78.5 -45.5t-106.5 -19.5q-95 0 -166.5 43t-111 124t-39.5 195q0 112 41 196t112.5 131t164.5 47z" />
    <glyph glyph-name="D" unicode="D" horiz-adv-x="723" 
d="M315 708q179 0 266 -89.5t87 -256.5q0 -109 -42.5 -190.5t-123.5 -126.5t-196 -45q-22 0 -65 1.5t-75 1.5q-35 0 -69 -0.5t-55 -2.5v20q34 2 51.5 8t23.5 24t6 54v496q0 37 -6 54.5t-23.5 24t-51.5 7.5v20q21 -1 55 -2.5t67 -0.5q35 1 79 2t72 1zM290 690q-46 0 -60 -17
t-14 -69v-500q0 -52 14.5 -69t60.5 -17q109 0 169 39.5t84 115.5t24 185q0 168 -61.5 250t-216.5 82z" />
    <glyph glyph-name="E" unicode="E" horiz-adv-x="609" 
d="M541 708q-4 -35 -5.5 -68t-1.5 -50q0 -18 1 -34.5t2 -27.5h-23q-6 59 -17 93.5t-37.5 49t-79.5 14.5h-83q-34 0 -51.5 -5.5t-23.5 -23t-6 -54.5v-496q0 -36 6 -54t23.5 -23.5t51.5 -5.5h73q63 0 95.5 17t47 55.5t21.5 104.5h23q-3 -27 -3 -72q0 -19 1.5 -54.5t5.5 -73.5
q-51 2 -115 2.5t-114 0.5h-79.5t-105.5 -0.5t-105 -2.5v20q34 2 51.5 8t23.5 24t6 54v496q0 37 -6 54.5t-23.5 24t-51.5 7.5v20q49 -1 105 -2t105.5 -1h79.5q46 0 104.5 0.5t104.5 2.5zM369 366v-10v-10h-183v10v10h183zM398 498q-4 -57 -3.5 -87t0.5 -55t1 -55t5 -87h-23
q-4 32 -9.5 62.5t-24 50t-62.5 19.5v20q44 0 61.5 23t22.5 54t9 55h23z" />
    <glyph glyph-name="F" unicode="F" horiz-adv-x="569" 
d="M541 708q-4 -38 -5.5 -73.5t-1.5 -54.5q0 -24 1 -45t2 -37h-23q-7 70 -19 110.5t-42 58.5t-93 18h-63q-34 0 -51.5 -5.5t-23.5 -23t-6 -54.5v-496q0 -36 7.5 -54t29.5 -24t64 -8v-20q-26 2 -66 2.5t-81 0.5q-39 0 -73 -0.5t-55 -2.5v20q34 2 51.5 8t23.5 24t6 54v496
q0 37 -6 54.5t-23.5 24t-51.5 7.5v20q49 -1 105 -2t105.5 -1h79.5q46 0 104.5 0.5t104.5 2.5zM386 356v-10v-10h-200v10v10h200zM405 488q-4 -57 -3.5 -87t0.5 -55t1 -55t5 -87h-23q-4 32 -9.5 62.5t-24 50t-62.5 19.5v20q44 0 61.5 23t22.5 54t9 55h23z" />
    <glyph glyph-name="G" unicode="G" horiz-adv-x="703" 
d="M376 722q65 0 105 -19.5t75 -45.5q13 -10 20 -10q19 0 25 61h23q-2 -37 -3 -90t-1 -140h-23q-7 42 -17 81t-33 67q-29 37 -76 57.5t-97 20.5t-90.5 -24.5t-69.5 -70.5t-44.5 -110.5t-15.5 -145.5q0 -180 58 -263.5t180 -83.5q36 0 62.5 10.5t41.5 20.5q19 13 24 24.5
t5 30.5v96q0 41 -8 61t-29.5 27t-63.5 8v20q18 -1 42 -1.5t50.5 -1t48.5 -0.5q33 0 59.5 1t44.5 2v-20q-33 -2 -42 -16t-9 -70v-198h-20q-1 17 -7.5 37t-19.5 20q-6 0 -12 -3t-21 -14q-33 -25 -70 -39.5t-86 -14.5q-155 0 -241.5 94.5t-86.5 261.5q0 117 42 202t114.5 131.5
t165.5 46.5z" />
    <glyph glyph-name="H" unicode="H" horiz-adv-x="757" 
d="M460 0v20q34 2 51.5 8t23.5 24t6 54v496q0 37 -6 54.5t-23.5 24t-51.5 7.5v20q23 -1 58 -2t69 -1q39 0 73 1t55 2v-20q-34 -1 -51.5 -7.5t-23.5 -24t-6 -54.5v-496q0 -36 6 -54t23.5 -24t51.5 -8v-20q-21 2 -55 2.5t-73 0.5q-34 0 -69 -0.5t-58 -2.5zM42 0v20
q34 2 51.5 8t23.5 24t6 54v496q0 37 -6 54.5t-23.5 24t-51.5 7.5v20q21 -1 55 -2t73 -1q35 0 69.5 1t57.5 2v-20q-34 -1 -51.5 -7.5t-23.5 -24t-6 -54.5v-496q0 -36 6 -54t23.5 -24t51.5 -8v-20q-23 2 -57.5 2.5t-69.5 0.5q-39 0 -73 -0.5t-55 -2.5zM181 346v20h395v-20
h-395z" />
    <glyph glyph-name="I" unicode="I" horiz-adv-x="339" 
d="M297 708v-20q-34 -1 -51.5 -7.5t-23.5 -24t-6 -54.5v-496q0 -36 6 -54t23.5 -24t51.5 -8v-20q-23 2 -57.5 2.5t-69.5 0.5q-39 0 -73 -0.5t-55 -2.5v20q34 2 51.5 8t23.5 24t6 54v496q0 37 -6 54.5t-23.5 24t-51.5 7.5v20q21 -1 55 -2t73 -1q35 0 69.5 1t57.5 2z" />
    <glyph glyph-name="J" unicode="J" horiz-adv-x="326" 
d="M-20 -188v19q45 1 75.5 22t46 69.5t15.5 129.5v550q0 37 -6 54.5t-23.5 24t-51.5 7.5v20q21 -1 55 -2t71 -1t71.5 1t57.5 2v-20q-34 -1 -51.5 -7.5t-23.5 -24t-6 -54.5v-366q0 -41 -1 -89t-4.5 -93t-11.5 -79q-17 -70 -71.5 -116.5t-141.5 -46.5z" />
    <glyph glyph-name="K" unicode="K" horiz-adv-x="655" 
d="M615 708v-20q-31 -4 -60 -20t-58 -53l-193 -247l22 49l240 -336q17 -25 37 -39t51 -22v-20q-24 2 -59.5 2.5t-60.5 0.5q-17 0 -41.5 -0.5t-61.5 -2.5v20q34 2 43 12t-7 33l-146 220q-20 31 -35.5 46.5t-32 20.5t-41.5 6v20q42 1 70.5 16.5t47.5 39.5l96 122q33 42 45 71
t-1 44.5t-55 16.5v20q29 -1 59 -2t56 -1q55 0 85 3zM297 708v-20q-34 -1 -51.5 -7.5t-23.5 -24t-6 -54.5v-496q0 -36 6 -54t23.5 -24t51.5 -8v-20q-23 2 -57.5 2.5t-69.5 0.5q-39 0 -73 -0.5t-55 -2.5v20q34 2 51.5 8t23.5 24t6 54v496q0 37 -6 54.5t-23.5 24t-51.5 7.5v20
q21 -1 55 -2t73 -1q35 0 69.5 1t57.5 2z" />
    <glyph glyph-name="L" unicode="L" horiz-adv-x="588" 
d="M297 708v-20q-34 -1 -51.5 -7.5t-23.5 -24t-6 -54.5v-496q0 -36 6 -54t23.5 -23.5t51.5 -5.5h73q63 0 95.5 18t47 59t21.5 110h23q-3 -31 -3 -82q0 -19 1.5 -54.5t5.5 -73.5q-51 2 -115 2.5t-114 0.5h-79.5t-105.5 -0.5t-105 -2.5v20q34 2 51.5 8t23.5 24t6 54v496
q0 37 -6 54.5t-23.5 24t-51.5 7.5v20q21 -1 55 -2t73 -1q35 0 69.5 1t57.5 2z" />
    <glyph glyph-name="M" unicode="M" horiz-adv-x="871" 
d="M829 708v-20q-34 -1 -51.5 -7.5t-23.5 -24t-6 -54.5v-496q0 -36 6 -54t23.5 -24t51.5 -8v-20q-23 2 -57.5 2.5t-69.5 0.5q-39 0 -73 -0.5t-55 -2.5v20q34 2 51.5 8t23.5 24t6 54v550l4 -3l-245 -658h-16l-252 649v-528q0 -36 6.5 -56.5t26 -29t58.5 -10.5v-20
q-18 2 -47 2.5t-55 0.5q-25 0 -50.5 -0.5t-42.5 -2.5v20q34 2 51.5 10.5t23.5 29t6 56.5v486q0 37 -6 54.5t-23.5 24t-51.5 7.5v20q17 -1 42.5 -2t50.5 -1q22 0 45.5 1t39.5 2l227 -598l-17 -8l225 603h23.5h23.5q35 0 69.5 1t57.5 2z" />
    <glyph glyph-name="N" unicode="N" horiz-adv-x="706" 
d="M670 708v-20q-34 -1 -51.5 -10t-23.5 -29t-6 -57v-597h-11.5h-11.5l-420 649v-528q0 -36 6.5 -56.5t26 -29t58.5 -10.5v-20q-18 2 -47 2.5t-55 0.5q-25 0 -50.5 -0.5t-42.5 -2.5v20q34 2 51.5 10.5t23.5 29t6 56.5v486q0 37 -6 54.5t-23.5 24t-51.5 7.5v20q17 -1 42.5 -2
t50.5 -1q22 0 42 1t36 2l353 -544v428q0 37 -6.5 57t-26 29t-58.5 10v20q18 -1 47.5 -2t54.5 -1q26 0 51.5 1t41.5 2z" />
    <glyph glyph-name="O" unicode="O" horiz-adv-x="741" 
d="M371 722q95 0 166.5 -43t111 -123.5t39.5 -195.5q0 -112 -40.5 -196t-112.5 -131t-165 -47q-95 0 -166.5 43t-111 124t-39.5 195q0 112 41 196t112.5 131t164.5 47zM367 704q-65 0 -113 -45t-74.5 -124t-26.5 -183q0 -106 29.5 -184.5t80 -121t111.5 -42.5q65 0 113 45
t74.5 124.5t26.5 182.5q0 107 -29.5 185t-79.5 120.5t-112 42.5z" />
    <glyph glyph-name="P" unicode="P" horiz-adv-x="585" 
d="M42 708q21 -1 55 -2t67 -1q47 0 90 1t61 1q121 0 181 -55t60 -142q0 -36 -12 -75.5t-41.5 -73t-80.5 -54.5t-129 -21h-96v20h86q71 0 108.5 27t51 71t13.5 95q0 95 -37.5 142t-128.5 47q-46 0 -60 -17t-14 -69v-496q0 -36 7.5 -54t29.5 -24t64 -8v-20q-26 2 -66 2.5
t-81 0.5q-39 0 -73 -0.5t-55 -2.5v20q34 2 51.5 8t23.5 24t6 54v496q0 37 -6 54.5t-23.5 24t-51.5 7.5v20z" />
    <glyph glyph-name="Q" unicode="Q" horiz-adv-x="741" 
d="M748 -23l15 -6q-12 -41 -27.5 -68.5t-35.5 -45.5q-19 -17 -51.5 -31t-83.5 -14q-53 0 -102.5 17.5t-102.5 42.5t-117 46q-7 2 -13 4t-11 3q-19 -7 -41 -11t-42 -4t-33 5t-13 15q0 21 54 21q35 0 75 -8q36 10 62 22.5t53.5 23.5t66.5 14l1 -16q-30 -3 -52 -11.5t-44 -18.5
t-52 -19q50 -10 109 -21t114 -19t94 -8q72 0 113.5 21t63.5 66zM371 722q95 0 166.5 -43t111 -123.5t39.5 -195.5q0 -112 -40.5 -196t-112.5 -131t-165 -47q-95 0 -166.5 43t-111 124t-39.5 195q0 112 41 196t112.5 131t164.5 47zM367 704q-65 0 -113 -45t-74.5 -124
t-26.5 -183q0 -106 29.5 -184.5t80 -121t111.5 -42.5q65 0 113 45t74.5 124.5t26.5 182.5q0 107 -29.5 185t-79.5 120.5t-112 42.5z" />
    <glyph glyph-name="R" unicode="R" horiz-adv-x="648" 
d="M42 708q21 -1 55 -2t67 -1q47 0 90 1t61 1q121 0 181 -50t60 -124q0 -30 -12 -64t-41.5 -64t-80.5 -49.5t-129 -19.5h-96v20h86q71 0 108.5 22.5t51 60t13.5 83.5q0 79 -37.5 122.5t-128.5 43.5q-46 0 -60 -17t-14 -69v-496q0 -36 6 -54t23.5 -24t51.5 -8v-20
q-23 2 -57.5 2.5t-69.5 0.5q-39 0 -73 -0.5t-55 -2.5v20q34 2 51.5 8t23.5 24t6 54v496q0 37 -6 54.5t-23.5 24t-51.5 7.5v20zM201 353q54 -2 85 -4.5t50.5 -4.5t37.5 -5q67 -11 96.5 -40.5t43.5 -91.5l25 -102q10 -44 20.5 -63.5t32.5 -18.5q17 1 28.5 11t24.5 27l15 -11
q-21 -31 -43.5 -47.5t-63.5 -16.5q-37 0 -65 22t-42 86l-22 100q-9 43 -20.5 74.5t-32 49.5t-60.5 18h-108z" />
    <glyph glyph-name="S" unicode="S" horiz-adv-x="540" 
d="M256 719q50 0 76 -11.5t46 -25.5q12 -7 19.5 -10.5t14.5 -3.5q16 0 22 44h23q-1 -17 -2.5 -40.5t-2 -62t-0.5 -101.5h-23q-3 48 -21 92t-52.5 72t-90.5 28q-53 0 -87.5 -32t-34.5 -84q0 -45 23 -75.5t61.5 -55t83.5 -52.5q52 -32 92.5 -63.5t64 -69.5t23.5 -92
q0 -64 -29 -106t-77 -63t-106 -21q-53 0 -84 12t-53 25q-22 14 -34 14q-16 0 -22 -44h-23q2 21 2.5 49.5t1 74.5t0.5 116h23q4 -60 22.5 -112t57 -83.5t102.5 -31.5q49 0 89.5 31.5t40.5 101.5q0 61 -43 101t-113 82q-47 29 -88 59t-65.5 69.5t-24.5 95.5q0 59 26.5 97.5
t69.5 57t92 18.5z" />
    <glyph glyph-name="T" unicode="T" horiz-adv-x="621" 
d="M592 708q-4 -38 -5.5 -73.5t-1.5 -54.5q0 -24 1 -45t2 -37h-23q-7 70 -19 110.5t-42 58.5t-93 18h-54v-569q0 -40 7.5 -60t29.5 -27t64 -9v-20q-26 2 -66 2.5t-81 0.5q-45 0 -84.5 -0.5t-63.5 -2.5v20q42 2 64 9t29.5 27t7.5 60v569h-54q-62 0 -92.5 -18t-42.5 -58.5
t-19 -110.5h-23q2 16 2.5 37t0.5 45q0 19 -1.5 54.5t-5.5 73.5q42 -1 91.5 -2t99.5 -1h91h90.5t99.5 1t91 2z" />
    <glyph glyph-name="U" unicode="U" horiz-adv-x="682" 
d="M655 708v-20q-34 -1 -51.5 -10t-23.5 -29t-6 -57v-301q0 -70 -9 -122t-32 -90q-25 -42 -73 -67.5t-110 -25.5q-48 0 -91.5 11.5t-76.5 42.5q-29 28 -45.5 59t-22.5 76t-6 113v314q0 37 -6 54.5t-23.5 24t-51.5 7.5v20q21 -1 55 -2t73 -1q35 0 69.5 1t57.5 2v-20
q-34 -1 -51.5 -7.5t-23.5 -24t-6 -54.5v-331q0 -68 10 -125t43.5 -91t104.5 -34q76 0 117.5 33.5t58 92.5t16.5 133v312q0 37 -8.5 57t-28.5 29t-54 10v20q18 -1 47.5 -2t54.5 -1q26 0 51.5 1t41.5 2z" />
    <glyph glyph-name="V" unicode="V" horiz-adv-x="630" 
d="M637 708v-20q-19 -4 -40.5 -23t-38.5 -64l-235 -606h-4h-4h-4h-4l-244 629q-15 38 -34 50.5t-35 13.5v20q20 -1 49.5 -2t57.5 -1q39 0 73 1t55 2v-20q-51 -2 -64.5 -17.5t5.5 -66.5l186 -493l-16 -17l174 452q21 54 20 84.5t-23 43.5t-64 14v20q29 -1 59 -2t56 -1t43 1
t32 2z" />
    <glyph glyph-name="W" unicode="W" horiz-adv-x="905" 
d="M907 708v-20q-19 -4 -42 -22.5t-37 -64.5l-189 -606h-4h-4h-4h-4l-212 629q-13 39 -29 51t-30 13v20q18 -1 45 -2t52 -1q39 0 73 1t55 2v-20q-30 -1 -47.5 -6t-20 -22t9.5 -56l149 -461l-14 -12l132 415q18 55 16.5 85.5t-22.5 43t-63 13.5v20q29 -1 59 -2t56 -1t43 1
t32 2zM208 708v-20q-26 -2 -37.5 -10t-11 -25.5t10.5 -48.5l155 -473l-25 -25l140 447l15 -24l-165 -534h-4h-4h-4h-4l-212 629q-13 39 -33 51t-36 13v20q20 -1 49.5 -2t57.5 -1q33 0 61.5 1t46.5 2z" />
    <glyph glyph-name="X" unicode="X" horiz-adv-x="634" 
d="M244 708v-21q-50 0 -61 -10.5t3 -33.5l374 -572q19 -29 32 -38.5t35 -11.5v-21q-13 1 -36.5 2.5t-49.5 1.5q-40 0 -80.5 -1.5t-60.5 -2.5v21q50 0 64 6t0 28l-380 582q-19 29 -31.5 39t-35.5 11v21q13 -1 37 -2.5t49 -1.5q41 0 77 1.5t64 2.5zM299 365l4.5 -13l4.5 -13
l-123 -183q-36 -54 -37.5 -83t22.5 -40.5t66 -12.5v-20q-19 1 -44 1.5t-49 1t-42 0.5q-55 0 -85 -3v20q31 5 58 28t55 64zM606 708v-20q-31 -4 -58 -27.5t-55 -64.5l-161 -240l-3 13l-3 13l114 170q54 81 41.5 108t-75.5 28v20q29 -1 59 -2t56 -1q55 0 85 3z" />
    <glyph glyph-name="Y" unicode="Y" horiz-adv-x="591" 
d="M588 708v-20q-19 -4 -38 -24.5t-42 -64.5l-202 -400h-17l-234 432q-20 37 -33.5 46.5t-24.5 9.5v21q20 -1 41.5 -2t46.5 -1q33 0 70.5 0.5t69.5 2.5v-21q-25 0 -44 -6t-25 -22t9 -45l169 -324l-8 -6l133 265q28 55 27.5 85t-23.5 41.5t-65 12.5v20q29 -1 59 -2t56 -1
t43 1t32 2zM351 304v-198q0 -36 6 -54t23.5 -24t51.5 -8v-20q-23 2 -57.5 2.5t-69.5 0.5q-39 0 -73 -0.5t-55 -2.5v20q34 2 51.5 8t23.5 24t6 54v205l54 -62z" />
    <glyph glyph-name="Z" unicode="Z" horiz-adv-x="594" 
d="M550 708v-20l-399 -665h196q47 0 76.5 10t47 31.5t26.5 57.5t14 88h23q-3 -31 -3 -82q0 -19 1.5 -54.5t5.5 -73.5q-55 2 -124.5 2.5t-124.5 0.5q-59 0 -124.5 -0.5t-122.5 -2.5v20l402 665h-195q-62 0 -95 -18t-47.5 -58.5t-21.5 -110.5h-23q2 16 2.5 37t0.5 45
q0 19 -1.5 54.5t-5.5 73.5q56 -2 125 -2.5t124 -0.5q57 0 122.5 0.5t120.5 2.5z" />
    <glyph glyph-name="bracketleft" unicode="[" horiz-adv-x="296" 
d="M263 772v-19h-81v-915h81v-19h-171v953h171z" />
    <glyph glyph-name="backslash" unicode="\" horiz-adv-x="372" 
d="M33 722l272 -736h33l-272 736h-33z" />
    <glyph glyph-name="bracketright" unicode="]" horiz-adv-x="296" 
d="M33 772v-19h81v-915h-81v-19h171v953h-171z" />
    <glyph glyph-name="asciicircum" unicode="^" horiz-adv-x="536" 
d="M277 528q23 -56 72.5 -108t114.5 -84l-8 -14q-60 22 -116.5 54.5t-91.5 65.5q-28 -33 -74 -65.5t-94 -54.5l-8 14q65 32 114.5 84t72.5 108h18z" />
    <glyph glyph-name="underscore" unicode="_" horiz-adv-x="591" 
d="M522 -115v-40h-453v40h453z" />
    <glyph glyph-name="grave" unicode="`" horiz-adv-x="283" 
d="M64 813q12 9 28.5 7t31.5 -22q15 -19 28 -45t31.5 -61t49.5 -84l-11 -9q-39 42 -69 68.5t-51.5 45.5t-37.5 38q-15 20 -13.5 36t13.5 26z" />
    <glyph glyph-name="a" unicode="a" horiz-adv-x="498" 
d="M163 -7q-65 0 -94.5 32.5t-29.5 86.5q0 42 20.5 69.5t52.5 45t67.5 30t67.5 24.5t52.5 27t20.5 38v62q0 42 -12.5 64t-33.5 29.5t-47 7.5q-25 0 -53.5 -7t-45.5 -29q19 -4 33 -20t14 -41t-16 -39.5t-41 -14.5q-29 0 -42.5 18.5t-13.5 41.5q0 26 13 42t33 30
q23 16 59.5 27.5t82.5 11.5q41 0 70 -9.5t48 -27.5q26 -24 34 -58.5t8 -82.5v-278q0 -24 7 -35.5t24 -11.5q14 0 24.5 6t20.5 15l11 -17q-21 -16 -40 -26.5t-51 -10.5q-52 0 -69 27t-17 62q-32 -53 -72.5 -71t-84.5 -18zM207 33q30 0 59 17.5t54 58.5v196q-15 -22 -46.5 -35
t-65 -28.5t-57.5 -42t-24 -75.5q0 -46 23 -68.5t57 -22.5z" />
    <glyph glyph-name="b" unicode="b" horiz-adv-x="563" 
d="M326 529q82 0 136 -67.5t54 -204.5q0 -90 -30.5 -150.5t-81.5 -90.5t-111 -30q-50 0 -96.5 28.5t-69.5 84.5l20 -11q25 -40 62 -59.5t76 -19.5q67 0 100.5 60.5t33.5 187.5q0 81 -13 135t-40 80.5t-69 26.5q-46 0 -85.5 -41.5t-48.5 -121.5l-12 14q11 85 59.5 132
t115.5 47zM170 783v-731q-13 -11 -26.5 -22.5t-26.5 -22.5t-27 -23l-17 7q4 14 5.5 28.5t1.5 29.5v614q0 45 -16 66.5t-60 21.5v21q32 -3 62 -3q29 0 55.5 3.5t48.5 10.5z" />
    <glyph glyph-name="c" unicode="c" horiz-adv-x="486" 
d="M279 529q32 0 62 -8t54 -24q23 -15 35 -34.5t12 -42.5q0 -27 -15 -41.5t-38 -14.5q-22 0 -38.5 13t-16.5 37q0 23 12.5 37t29.5 18q-10 18 -35.5 30t-54.5 12q-25 0 -50 -12t-46 -39.5t-34 -75t-13 -118.5q0 -88 20 -140t52.5 -74.5t71.5 -22.5t79 23t66 80l19 -7
q-10 -32 -33 -64.5t-60 -53.5t-91 -21q-62 0 -112 32t-79.5 91.5t-29.5 141.5t29.5 144.5t82.5 98t121 35.5z" />
    <glyph glyph-name="d" unicode="d" horiz-adv-x="581" 
d="M484 784v-675q0 -45 16.5 -66.5t59.5 -21.5v-21q-31 3 -62 3q-29 0 -55.5 -3t-48.5 -11v675q0 45 -16 66.5t-60 21.5v21q32 -3 62 -3q29 0 55.5 3.5t48.5 10.5zM274 529q44 0 82.5 -21t51.5 -72l-13 -10q-14 42 -43.5 61t-69.5 19q-59 0 -98.5 -61t-38.5 -188
q0 -81 15.5 -134.5t46 -80t74.5 -26.5q42 0 76 36t41 106l12 -14q-8 -76 -48.5 -117t-109.5 -41q-62 0 -108.5 30t-71 90t-24.5 151t31.5 151.5t83 90.5t111.5 30z" />
    <glyph glyph-name="e" unicode="e" horiz-adv-x="506" 
d="M272 529q88 0 137.5 -53.5t49.5 -166.5h-353l-1 19h258q2 49 -8 90.5t-31.5 66.5t-55.5 25q-46 0 -81.5 -46t-42.5 -146l3 -4q-2 -15 -3 -33t-1 -36q0 -68 22 -117t57.5 -74.5t73.5 -25.5q45 0 83 22t64 78l20 -8q-11 -33 -36 -64t-63 -50.5t-88 -19.5q-72 0 -123.5 33
t-79 91.5t-27.5 134.5q0 88 28 151.5t79 98t119 34.5z" />
    <glyph glyph-name="f" unicode="f" horiz-adv-x="332" 
d="M276 782q28 0 49.5 -7.5t37.5 -19.5q15 -12 23 -28t8 -34q0 -23 -15 -38t-38 -15q-22 0 -38.5 14.5t-16.5 39.5q0 21 11.5 34t30.5 17q-3 9 -15.5 15.5t-33.5 6.5q-23 0 -39.5 -10t-25.5 -27q-12 -21 -15 -62.5t-3 -127.5v-26h107v-20h-107v-391q0 -49 28.5 -65.5
t77.5 -16.5v-21q-23 1 -65 2.5t-89 1.5q-34 0 -67.5 -1.5t-50.5 -2.5v21q41 0 58.5 15t17.5 57v401h-80v20h80q0 89 11.5 136.5t39.5 81.5q20 23 51 36.5t68 13.5z" />
    <glyph glyph-name="g" unicode="g" horiz-adv-x="528" 
d="M213 -188q-53 0 -100 11t-75.5 34.5t-28.5 59.5q0 35 28 60t76 38l6 -16q-22 -7 -35 -28t-13 -47q0 -46 42.5 -70.5t110.5 -24.5q45 0 88 11.5t71 38.5t28 71q0 33 -23.5 54.5t-92.5 21.5h-74q-32 0 -62 5t-49 21t-19 49q0 34 28 65.5t103 64.5l12 -9q-34 -18 -59 -36.5
t-25 -43.5q0 -32 48 -32h125q62 0 109.5 -27.5t47.5 -90.5q0 -47 -30 -88t-89.5 -66.5t-147.5 -25.5zM218 213q-74 0 -124.5 38t-50.5 120q0 83 50.5 120.5t124.5 37.5t124.5 -37.5t50.5 -120.5q0 -82 -50.5 -120t-124.5 -38zM218 231q38 0 59.5 30t21.5 110t-21.5 110
t-59.5 30q-37 0 -59 -30t-22 -110t22 -110t59 -30zM362 446l-18 7q14 34 48 60t71 26q26 0 42 -14.5t16 -43.5q0 -31 -16.5 -43.5t-33.5 -12.5q-15 0 -28 10.5t-15 33.5t14 59l13 -3q-42 -16 -60 -33.5t-33 -45.5z" />
    <glyph glyph-name="h" unicode="h" horiz-adv-x="588" 
d="M186 783v-374q26 68 72.5 94t97.5 26q38 0 63.5 -10t42.5 -28q19 -20 27 -50t8 -81v-267q0 -42 17.5 -57t58.5 -15v-21q-17 1 -52 2.5t-68 1.5t-64.5 -1.5t-47.5 -2.5v21q36 0 51 15t15 57v289q0 31 -5 57t-22.5 42t-53.5 16q-61 0 -100.5 -50.5t-39.5 -130.5v-223
q0 -42 15 -57t51 -15v-21q-16 1 -47.5 2.5t-64.5 1.5t-68 -1.5t-52 -2.5v21q41 0 58.5 15t17.5 57v570q0 45 -16 66.5t-60 21.5v21q32 -3 62 -3q29 0 55.5 3.5t48.5 10.5z" />
    <glyph glyph-name="i" unicode="i" horiz-adv-x="293" 
d="M143 765q26 0 45 -19t19 -45t-19 -45t-45 -19t-45 19t-19 45t19 45t45 19zM195 526v-433q0 -42 17.5 -57t58.5 -15v-21q-17 1 -51.5 2.5t-69.5 1.5q-34 0 -69 -1.5t-52 -2.5v21q41 0 58.5 15t17.5 57v313q0 45 -16 66.5t-60 21.5v21q32 -3 62 -3q29 0 55.5 3.5t48.5 10.5
z" />
    <glyph glyph-name="j" unicode="j" horiz-adv-x="267" 
d="M-26 -188v15q62 3 93 53.5t31 138.5v387q0 45 -16 66.5t-60 21.5v21q32 -3 62 -3q29 0 55.5 3.5t48.5 10.5v-411q0 -75 -16.5 -138t-55.5 -104q-25 -27 -61.5 -44t-80.5 -17zM134 765q26 0 45 -19t19 -45t-19 -45t-45 -19t-45 19t-19 45t19 45t45 19z" />
    <glyph glyph-name="k" unicode="k" horiz-adv-x="550" 
d="M186 784v-691q0 -42 15 -57t51 -15v-21q-16 1 -47.5 2.5t-63.5 1.5q-34 0 -69 -1.5t-52 -2.5v21q41 0 58.5 15t17.5 57v571q0 45 -16 66.5t-60 21.5v21q32 -3 62 -3q29 0 55.5 3.5t48.5 10.5zM504 515v-20q-25 -2 -47 -13.5t-43 -33.5l-141 -148l14 28l186 -255
q17 -23 32.5 -36t37.5 -16v-21q-11 1 -34.5 2.5t-46.5 1.5q-31 0 -63 -1.5t-48 -2.5v21q20 0 28 10t-3 24l-115 168q-19 27 -34.5 35t-44.5 9v20q32 4 52 13.5t38 28.5l74 77q32 33 32 52.5t-20.5 28t-53.5 8.5v20q26 -1 58.5 -2.5t54.5 -1.5q17 0 33 0.5t30 1.5t24 2z" />
    <glyph glyph-name="l" unicode="l" horiz-adv-x="286" 
d="M188 784v-691q0 -42 17.5 -57t58.5 -15v-21q-17 1 -51.5 2.5t-69.5 1.5q-34 0 -69 -1.5t-52 -2.5v21q41 0 58.5 15t17.5 57v571q0 45 -16 66.5t-60 21.5v21q32 -3 62 -3q29 0 55.5 3.5t48.5 10.5z" />
    <glyph glyph-name="m" unicode="m" horiz-adv-x="888" 
d="M359 529q35 0 61 -10t43 -28q19 -20 26 -52t7 -79v-267q0 -42 17.5 -57t58.5 -15v-21q-17 1 -52 2.5t-68 1.5t-64.5 -1.5t-47.5 -2.5v21q36 0 51 15t15 57v289q0 31 -4 57t-20 42t-52 16q-39 0 -69.5 -24t-48 -65.5t-17.5 -92.5v-222q0 -42 15 -57t51 -15v-21
q-16 1 -47.5 2.5t-64.5 1.5t-68 -1.5t-52 -2.5v21q41 0 58.5 15t17.5 57v313q0 45 -16 66.5t-60 21.5v21q32 -3 62 -3q29 0 55.5 3.5t48.5 10.5v-118q26 65 71 93t93 28zM660 529q35 0 61 -10t43 -28q19 -20 26 -52t7 -79v-267q0 -42 17.5 -57t58.5 -15v-21q-17 1 -52 2.5
t-68 1.5t-64.5 -1.5t-47.5 -2.5v21q36 0 51 15t15 57v289q0 31 -4 57t-20 42t-52 16q-58 0 -96.5 -52t-38.5 -129l-3 93q27 69 73 94.5t94 25.5z" />
    <glyph glyph-name="n" unicode="n" horiz-adv-x="597" 
d="M365 529q38 0 63.5 -10t42.5 -28q19 -20 27 -50t8 -81v-267q0 -42 17.5 -57t58.5 -15v-21q-17 1 -52 2.5t-68 1.5t-64.5 -1.5t-47.5 -2.5v21q36 0 51 15t15 57v289q0 31 -5 57t-22.5 42t-53.5 16q-63 0 -101.5 -52.5t-38.5 -129.5v-222q0 -42 15 -57t51 -15v-21
q-16 1 -47.5 2.5t-64.5 1.5t-68 -1.5t-52 -2.5v21q41 0 58.5 15t17.5 57v313q0 45 -16 66.5t-60 21.5v21q32 -3 62 -3q29 0 55.5 3.5t48.5 10.5v-118q26 68 72.5 94.5t97.5 26.5z" />
    <glyph glyph-name="o" unicode="o" horiz-adv-x="548" 
d="M274 529q64 0 115 -28t81.5 -88t30.5 -156t-30.5 -155.5t-81.5 -87.5t-115 -28q-63 0 -114.5 28t-82 87.5t-30.5 155.5t30.5 156t82 88t114.5 28zM274 509q-57 0 -93.5 -59t-36.5 -193t36.5 -192.5t93.5 -58.5t93.5 58.5t36.5 192.5t-36.5 193t-93.5 59z" />
    <glyph glyph-name="p" unicode="p" horiz-adv-x="581" 
d="M188 526v-614q0 -43 25.5 -57.5t70.5 -14.5v-21q-22 1 -61 2.5t-83 1.5q-31 0 -61.5 -1.5t-46.5 -2.5v21q36 0 51 13t15 49v504q0 45 -16 66.5t-60 21.5v21q32 -3 62 -3q29 0 55.5 3.5t48.5 10.5zM348 529q79 0 132.5 -63.5t53.5 -184.5q0 -72 -23.5 -140t-73.5 -111.5
t-132 -43.5q-47 0 -81.5 22t-46.5 53l10 14q14 -28 40.5 -47t66.5 -19q56 0 87 35t43.5 93.5t12.5 129.5q0 80 -13 131t-39 76t-64 25q-49 0 -89 -40.5t-51 -122.5l-12 14q11 85 60.5 132t118.5 47z" />
    <glyph glyph-name="q" unicode="q" horiz-adv-x="563" 
d="M261 529q62 0 100 -26.5t59 -87.5l-20 11q-19 41 -53 60.5t-78 19.5q-59 0 -92 -61t-33 -188q0 -80 16 -134t47 -80.5t75 -26.5q42 0 77 41t41 121l12 -14q-7 -85 -51.5 -131.5t-107.5 -46.5q-57 0 -104 29.5t-74.5 90t-27.5 151.5t28.5 151.5t77 90.5t108.5 30zM473 531
l17 -7q-4 -13 -5.5 -28t-1.5 -30v-564q0 -36 15 -49t51 -13v-21q-16 1 -46 2.5t-62 1.5q-43 0 -82.5 -1.5t-61.5 -2.5v21q45 0 70.5 14.5t25.5 57.5v535q14 14 27 28t26.5 28t26.5 28z" />
    <glyph glyph-name="r" unicode="r" horiz-adv-x="445" 
d="M340 529q27 0 47.5 -11t32 -28.5t11.5 -39.5q0 -25 -15.5 -44t-41.5 -19q-21 0 -37 13.5t-16 38.5q0 19 10.5 32.5t23.5 21.5q-7 10 -21 10q-42 0 -73 -31.5t-48.5 -75.5t-17.5 -81v-212q0 -49 28.5 -65.5t77.5 -16.5v-21q-23 1 -65 2.5t-89 1.5q-34 0 -67.5 -1.5
t-50.5 -2.5v21q41 0 58.5 15t17.5 57v313q0 45 -16 66.5t-60 21.5v21q32 -3 62 -3q29 0 55.5 3.5t48.5 10.5v-125q11 29 31.5 58.5t49.5 49.5t64 20z" />
    <glyph glyph-name="s" unicode="s" horiz-adv-x="447" 
d="M208 529q40 0 68 -13t41 -24q33 -27 40 36h23q-2 -28 -3 -66.5t-1 -103.5h-23q-6 37 -20.5 72t-42.5 57.5t-73 22.5q-35 0 -58.5 -19.5t-23.5 -57.5q0 -30 18 -51.5t47 -40t63 -40.5q57 -37 97 -75t40 -100q0 -46 -24 -77t-62.5 -47t-84.5 -16q-22 0 -41.5 3.5
t-37.5 10.5q-10 5 -20.5 12t-20.5 15t-18 -0.5t-12 -33.5h-23q2 32 3 78t1 122h23q7 -56 20 -98t41 -65.5t78 -23.5q30 0 59.5 21t29.5 74q0 44 -32 72t-81 59q-36 23 -67.5 46t-51 52t-19.5 70q0 45 20.5 73.5t54.5 42t73 13.5z" />
    <glyph glyph-name="t" unicode="t" horiz-adv-x="354" 
d="M190 681v-167h148v-20h-148v-387q0 -47 17 -66t47 -19t52 24.5t38 82.5l20 -5q-10 -58 -39.5 -98t-90.5 -40q-34 0 -56 8.5t-39 24.5q-22 23 -30.5 55t-8.5 85v335h-96v20h96v153q25 1 48 4t42 10z" />
    <glyph glyph-name="u" unicode="u" horiz-adv-x="581" 
d="M483 526v-418q0 -45 16.5 -66.5t59.5 -21.5v-21q-31 3 -62 3q-29 0 -55.5 -3t-48.5 -11v118q-25 -65 -70.5 -92.5t-93.5 -27.5q-35 0 -61 10t-43 28q-19 20 -26 52t-7 79v251q0 45 -16 66.5t-60 21.5v21q32 -3 62 -3q29 0 55.5 3.5t48.5 10.5v-393q0 -31 4 -57t20 -42
t52 -16q59 0 97 52.5t38 128.5v207q0 45 -16 66.5t-60 21.5v21q32 -3 62 -3q29 0 55.5 3.5t48.5 10.5z" />
    <glyph glyph-name="v" unicode="v" horiz-adv-x="489" 
d="M486 515v-20q-19 -2 -35 -17t-30 -53l-164 -430h-8h-9l-184 443q-16 39 -31.5 47.5t-26.5 8.5v21q20 -1 41.5 -2.5t46.5 -1.5q31 0 65.5 1t64.5 3v-21q-25 0 -44.5 -3.5t-25 -19.5t9.5 -55l125 -309l-6 -5l114 299q19 50 4.5 70t-67.5 24v20q26 -1 43.5 -2t40.5 -1
t41.5 1t34.5 2z" />
    <glyph glyph-name="w" unicode="w" horiz-adv-x="770" 
d="M218 515v-21q-25 0 -44 -3.5t-25 -20.5t9 -60l104 -298l-7 1l147 406l20 -8l-183 -516h-8h-9l-164 443q-16 40 -31.5 48t-26.5 8v21q20 -3 41.5 -4.5t46.5 -1.5q31 0 65.5 2t64.5 4zM767 515v-20q-19 -2 -35.5 -16.5t-29.5 -53.5l-145 -430h-8h-9l-161 409l23 115h11.5
h11.5l156 -413l-8 -6l99 301q17 50 2.5 70t-67.5 24v20q18 -1 31 -1.5t25.5 -1t27.5 -0.5q23 0 41.5 1t34.5 2z" />
    <glyph glyph-name="x" unicode="x" horiz-adv-x="519" 
d="M212 515v-21q-19 0 -32 -9t-3 -25l267 -389q17 -25 30 -35.5t32 -14.5v-21q-10 1 -30.5 2.5t-40.5 1.5q-31 0 -66.5 -1.5t-51.5 -2.5v21q20 0 33 9.5t2 24.5l-267 389q-20 29 -32 38.5t-30 11.5v21q10 -1 31 -2.5t40 -1.5q32 0 67 1.5t51 2.5zM239 261l4.5 -13.5
l4.5 -13.5l-83 -108q-26 -34 -27.5 -57t18.5 -34.5t55 -14.5v-20q-17 1 -38 1.5t-40.5 1t-35.5 0.5q-44 0 -76 -3v20q19 2 39.5 17.5t48.5 52.5zM486 515v-20q-19 -2 -41.5 -19.5t-46.5 -50.5l-115 -159l-4 13l-4 13l78 109q33 47 29.5 68.5t-56.5 25.5v20q26 -1 43.5 -2
t40.5 -1q45 0 76 3z" />
    <glyph glyph-name="y" unicode="y" horiz-adv-x="504" 
d="M494 515v-20q-19 -2 -35 -17t-30 -53l-164 -430h-17l-184 443q-19 39 -37.5 47.5t-30.5 8.5v21q22 -3 46 -4.5t52 -1.5q31 0 65.5 2t64.5 4v-21q-25 0 -44.5 -3.5t-24.5 -21t12 -59.5l123 -305l-6 -2l114 298q19 50 4 70t-68 24v20q26 -1 43.5 -2t40.5 -1t41.5 1t34.5 2z
M265 -5l-34 -87q-19 -49 -43 -70q-16 -15 -38 -20.5t-40 -5.5q-19 0 -34.5 7t-24.5 20.5t-9 32.5q0 24 14 38.5t39 14.5q21 0 36 -12t15 -35q0 -17 -8 -28t-19 -17q2 -1 3.5 -1h2.5q27 0 48 18.5t37 59.5l36 93z" />
    <glyph glyph-name="z" unicode="z" horiz-adv-x="476" 
d="M439 520l-289 -505h110q40 0 69.5 16t47.5 51.5t22 93.5h23q0 -64 1 -108t3 -72q-44 2 -91.5 3t-94.5 1q-50 0 -102 -1.5t-100 -3.5l289 505h-110q-44 0 -73.5 -16t-45 -51.5t-20.5 -93.5h-23q0 65 -1 108.5t-3 71.5q44 -2 91.5 -3t94.5 -1q50 0 102 1.5t100 3.5z" />
    <glyph glyph-name="braceleft" unicode="{" horiz-adv-x="304" 
d="M278 782v-19q-33 -1 -50 -14.5t-23.5 -58t-6.5 -139.5q0 -90 -20 -141t-52.5 -75.5t-70.5 -35.5q38 -11 70.5 -36t52.5 -75.5t20 -140.5q0 -74 3.5 -117t12 -64.5t24.5 -28t40 -6.5v-19q-63 0 -100.5 20.5t-53.5 71.5t-16 143q0 94 -6.5 145.5t-22.5 73.5t-47 24h-5v18h5
q31 2 47 23.5t22.5 73.5t6.5 146q0 88 16 138.5t53.5 71.5t100.5 21z" />
    <glyph glyph-name="bar" unicode="|" horiz-adv-x="222" 
d="M131 858v-1053h-40v1053h40z" />
    <glyph glyph-name="braceright" unicode="}" horiz-adv-x="304" 
d="M26 782v-19q33 -1 50 -14.5t23.5 -58t6.5 -139.5q0 -90 20 -141t52.5 -75.5t70.5 -35.5q-38 -11 -70.5 -36t-52.5 -75.5t-20 -140.5q0 -74 -3.5 -117t-12 -64.5t-24.5 -28t-40 -6.5v-19q63 0 100.5 20.5t53.5 71.5t16 143q0 94 6.5 145.5t22.5 73.5t47 24h5v18h-5
q-31 2 -47 23.5t-22.5 73.5t-6.5 146q0 88 -16 138.5t-53.5 71.5t-100.5 21z" />
    <glyph glyph-name="asciitilde" unicode="~" horiz-adv-x="649" 
d="M215 365q37 0 68.5 -11.5t61 -27t60 -27t64.5 -11.5q30 0 53.5 13t36.5 45l17 -5q-6 -49 -47 -77.5t-94 -28.5q-37 0 -68.5 11.5t-61 27t-59.5 27t-65 11.5q-30 0 -53 -13t-37 -45l-17 5q6 50 47 78t94 28z" />
    <glyph glyph-name="uni00A0" unicode="&#xa0;" horiz-adv-x="249" 
 />
    <glyph glyph-name="exclamdown" unicode="&#xa1;" horiz-adv-x="249" 
d="M133 318q0 -67 5.5 -133t13 -125.5t13 -109t5.5 -82.5q0 -30 -13 -43t-33 -13q-19 0 -32.5 13t-13.5 43q0 33 5.5 82.5t13 109t13 125.5t5.5 133h18zM125 529q26 0 45 -19t19 -45t-19 -45t-45 -19t-45 19t-19 45t19 45t45 19z" />
    <glyph glyph-name="cent" unicode="&#xa2;" horiz-adv-x="474" 
d="M243 -181v190h22v-190h-22zM243 520v188h22v-188h-22zM267 529q32 0 62 -8t54 -24q23 -15 35 -34.5t12 -42.5q0 -27 -15 -41.5t-38 -14.5q-22 0 -38.5 13t-16.5 37q0 23 12.5 37t29.5 18q-10 18 -35.5 30t-54.5 12q-25 0 -50 -12t-46 -39.5t-34 -75t-13 -118.5
q0 -88 20 -140t52.5 -74.5t71.5 -22.5t79 23t66 80l19 -7q-10 -32 -33 -64.5t-60 -53.5t-91 -21q-62 0 -112 32t-79.5 91.5t-29.5 141.5t29.5 144.5t82.5 98t121 35.5z" />
    <glyph glyph-name="sterling" unicode="&#xa3;" horiz-adv-x="602" 
d="M358 736q32 0 55 -7.5t39 -19.5q15 -12 22.5 -26.5t7.5 -28.5q0 -22 -14 -35.5t-33 -13.5q-17 0 -31.5 12.5t-14.5 32.5q0 34 33 47q-2 10 -21.5 17t-40.5 7q-48 0 -75 -21.5t-38.5 -58t-14.5 -82.5t-3 -94v-148q0 -48 -7.5 -86t-22 -72t-35.5 -71q20 9 40.5 14.5
t45.5 5.5q35 0 67.5 -11.5t66 -22.5t71.5 -11q36 0 52 17.5t16 39.5q0 35 -23.5 57t-61.5 29l4 16q48 -7 88 -38.5t40 -86.5q0 -42 -27.5 -76.5t-81.5 -34.5q-39 0 -72.5 17t-65 37.5t-64.5 31.5q-10 4 -22.5 6t-26.5 2q-28 0 -55 -10q-23 -40 -50.5 -62t-53.5 -22
q-7 0 -11.5 1.5t-4.5 8.5q0 10 13.5 25t34 29.5t42.5 22.5q5 23 7.5 47.5t3 57.5t0.5 80v181q0 82 20 149.5t68.5 107.5t133.5 40zM374 317v-20h-315v20h315zM374 417v-20h-315v20h315z" />
    <glyph glyph-name="currency" unicode="&#xa4;" horiz-adv-x="535" 
d="M432 492l28 -28l-45 -45q20 -25 31 -55t11 -64t-11 -64.5t-31 -54.5l44 -43l-28 -29l-44 44q-25 -19 -55 -30.5t-64 -11.5q-69 0 -119 41l-43 -43l-29 29l43 43q-19 24 -30.5 54.5t-11.5 64.5q0 67 43 120l-44 44l28 28l44 -44q24 20 54.5 31t64.5 11t64 -11.5t55 -31.5z
M268 453q-41 0 -75 -21t-54 -55.5t-20 -76.5q0 -41 20.5 -76t54.5 -55.5t74 -20.5q41 0 74.5 20.5t53.5 55.5t20 76t-20 76t-53.5 56t-74.5 21z" />
    <glyph glyph-name="yen" unicode="&#xa5;" horiz-adv-x="647" 
d="M521 296v-20h-373v20h373zM521 196v-20h-373v20h373zM618 708v-20q-19 -4 -38 -24.5t-42 -64.5l-202 -400h-17l-234 432q-20 37 -33.5 46.5t-24.5 9.5v21q20 -1 41.5 -2t46.5 -1q33 0 70.5 0.5t69.5 2.5v-21q-25 0 -44 -6t-25 -22t9 -45l169 -324l-8 -6l133 265
q28 55 27.5 85t-23.5 41.5t-65 12.5v20q29 -1 59 -2t56 -1t43 1t32 2zM381 304v-198q0 -36 6 -54t23.5 -24t51.5 -8v-20q-23 2 -57.5 2.5t-69.5 0.5q-39 0 -73 -0.5t-55 -2.5v20q34 2 51.5 8t23.5 24t6 54v205l54 -62z" />
    <glyph glyph-name="brokenbar" unicode="&#xa6;" horiz-adv-x="224" 
d="M132 326v-521h-40v521h40zM132 858v-474h-40v474h40z" />
    <glyph glyph-name="section" unicode="&#xa7;" horiz-adv-x="508" 
d="M261 782q30 0 52 -5.5t37 -11.5q36 -15 56.5 -39.5t20.5 -50.5q0 -22 -13.5 -38t-39.5 -16q-22 0 -38.5 14.5t-16.5 38.5q0 17 10 32t33 21q-10 22 -42.5 29t-54.5 7q-41 0 -65.5 -15.5t-34.5 -38t-10 -45.5q0 -39 25.5 -71.5t63.5 -60.5t77 -55q48 -33 81 -61.5
t49.5 -60t16.5 -73.5q0 -49 -28 -94.5t-101 -82.5l-9 10q44 23 64 53.5t20 63.5q0 34 -20 62t-53 54t-71 52q-52 36 -94 68t-66.5 69.5t-24.5 87.5q0 47 21.5 82t61.5 55t93 20zM168 491l11 -12q-44 -21 -64 -52.5t-20 -64.5t20 -61.5t53 -54.5t71 -52q52 -35 94 -67.5
t66.5 -70t24.5 -87.5q0 -46 -21.5 -81.5t-61 -55.5t-93.5 -20q-30 0 -52 5.5t-37 11.5q-36 15 -56.5 39.5t-20.5 50.5q0 22 14 38t39 16q23 0 39 -14.5t16 -38.5q0 -17 -10 -32t-33 -21q6 -14 23.5 -22t38.5 -11t36 -3q41 0 64.5 15.5t34 38.5t10.5 45q0 40 -25 72t-63.5 60
t-77.5 55q-48 33 -80.5 61.5t-49.5 60.5t-17 73q0 50 27 96t100 83z" />
    <glyph glyph-name="dieresis" unicode="&#xa8;" horiz-adv-x="428" 
d="M320 743q23 0 40.5 -17.5t17.5 -40.5q0 -24 -17.5 -41t-40.5 -17q-24 0 -41 17t-17 41q0 23 17 40.5t41 17.5zM108 743q23 0 40.5 -17.5t17.5 -40.5q0 -24 -17.5 -41t-40.5 -17q-24 0 -41 17t-17 41q0 23 17 40.5t41 17.5z" />
    <glyph glyph-name="copyright" unicode="&#xa9;" horiz-adv-x="894" 
d="M447 782q83 0 155 -31t126.5 -85.5t85.5 -126.5t31 -155q0 -82 -31 -154.5t-85.5 -127t-126.5 -85.5t-155 -31q-82 0 -154.5 31t-127 85.5t-85.5 127t-31 154.5q0 83 31 155t85.5 126.5t127 85.5t154.5 31zM464 656q34 0 65.5 -9t54.5 -26q20 -13 31 -32t11 -42
q0 -27 -15 -41.5t-38 -14.5q-22 0 -38.5 14.5t-16.5 39.5q0 21 11.5 34t30.5 17q-10 18 -35.5 30t-54.5 12q-22 0 -44 -9t-42 -30q-16 -18 -29 -46t-20.5 -68.5t-7.5 -94.5q0 -86 20 -137.5t52.5 -74t70.5 -22.5q27 0 53.5 10t51 32.5t41.5 60.5l19 -7q-10 -32 -33 -64.5
t-60 -53.5t-90 -21q-62 0 -112.5 32t-80 91.5t-29.5 141.5t29.5 144.5t82.5 98t122 35.5zM447 750q-74 0 -139 -28.5t-114 -79t-77 -116.5t-28 -142t28 -142t77 -116.5t114 -79t139 -28.5t139 28.5t114 79t77 116.5t28 142t-28 142t-77 116.5t-114 79t-139 28.5z" />
    <glyph glyph-name="ordfeminine" unicode="&#xaa;" horiz-adv-x="463" 
d="M225 722q65 0 93.5 -30t28.5 -97v-163q0 -21 6 -29t19 -8q24 0 41 17l11 -15q-16 -16 -38 -26.5t-52 -10.5q-37 0 -51 12.5t-16 34.5q-25 -25 -55 -36t-62 -11q-34 0 -63.5 19t-29.5 59q0 43 37 65.5t93 43.5q28 11 54 24t26 32v18q0 45 -18 63.5t-50 18.5
q-16 0 -36.5 -5t-37.5 -16q14 -4 24 -16t10 -31t-13.5 -31.5t-30.5 -12.5q-22 0 -35 12.5t-13 32.5q0 22 14 37.5t34 25.5q23 11 49 17t61 6zM267 572q-4 -8 -15 -15.5t-41 -21.5q-37 -16 -54.5 -34.5t-17.5 -44.5q0 -27 15 -44t40 -17q38 0 73 32v145z" />
    <glyph glyph-name="guillemotleft" unicode="&#xab;" horiz-adv-x="502" 
d="M262 529l17 -7q-24 -65 -51 -112.5t-56.5 -83t-64.5 -65.5q35 -30 64.5 -67t56.5 -86t51 -115l-17 -7q-41 92 -95.5 159.5t-134.5 111.5v1q80 44 134.5 111.5t95.5 159.5zM437 529l17 -7q-24 -65 -51 -112.5t-56.5 -83t-64.5 -65.5q35 -30 64.5 -67t56.5 -86t51 -115
l-17 -7q-41 92 -95.5 159.5t-134.5 111.5v1q80 44 134.5 111.5t95.5 159.5z" />
    <glyph glyph-name="logicalnot" unicode="&#xac;" horiz-adv-x="656" 
d="M583 370v-205h-36v175h-465v30h501z" />
    <glyph glyph-name="uni00AD" unicode="&#xad;" horiz-adv-x="499" 
 />
    <glyph glyph-name="registered" unicode="&#xae;" horiz-adv-x="678" 
d="M339 782q77 0 140.5 -37.5t101 -101t37.5 -140.5t-37.5 -140.5t-101 -101t-140.5 -37.5t-140.5 37.5t-101 101t-37.5 140.5t37.5 140.5t101 101t140.5 37.5zM270 520q34 0 48.5 -1t22 -2.5t18.5 -3.5q47 -4 64.5 -18.5t22.5 -40.5l12 -57q3 -13 5.5 -23t12.5 -10
q8 0 12 8l10 -7q-6 -12 -16.5 -16.5t-27.5 -4.5q-26 0 -38 10t-17 31l-17 74q-4 20 -12.5 30t-30 13t-67.5 3zM339 750q-66 0 -119.5 -33.5t-85.5 -89.5t-32 -124q0 -67 32 -123.5t85.5 -90t119.5 -33.5t120 33.5t85.5 90t31.5 123.5q0 68 -31.5 124t-85.5 89.5t-120 33.5z
M348 676q57 0 86.5 -20.5t29.5 -58.5q0 -20 -11 -39.5t-41 -33t-87 -16.5l-60 -3v8v8h53q53 0 68.5 19t15.5 47q0 38 -15.5 56t-54.5 18q-24 0 -31 -6.5t-7 -26.5v-224q0 -23 4.5 -29t18.5 -8v-15q-10 0 -23.5 0.5t-27.5 0.5q-16 0 -29.5 -0.5t-22.5 -0.5v15q14 2 18.5 8
t4.5 29v219q0 24 -4.5 30.5t-18.5 7.5v15q9 -1 22 -1h26q28 0 52 0.5t34 0.5z" />
    <glyph glyph-name="macron" unicode="&#xaf;" horiz-adv-x="412" 
d="M362 712v-25h-312v25h312z" />
    <glyph glyph-name="degree" unicode="&#xb0;" horiz-adv-x="333" 
d="M166 820q49 0 85.5 -32t36.5 -88t-36.5 -88.5t-85.5 -32.5q-48 0 -84.5 32.5t-36.5 88.5t36.5 88t84.5 32zM166 803q-34 0 -65 -26.5t-31 -77.5q0 -52 31 -77.5t65 -25.5t65.5 25.5t31.5 77.5q0 51 -31.5 77.5t-65.5 26.5z" />
    <glyph glyph-name="plusminus" unicode="&#xb1;" horiz-adv-x="597" 
d="M554 30v-30h-501v30h501zM312 606v-236h232v-30h-232v-235h-36v235h-233v30h233v236h36z" />
    <glyph glyph-name="uni00B2" unicode="&#xb2;" horiz-adv-x="338" 
d="M174 755q44 0 72 -18.5t28 -56.5q0 -31 -17.5 -56t-43.5 -46.5t-53.5 -42t-47.5 -41.5h132q24 0 32 9t15 25l17 -3q-7 -26 -10.5 -48.5t-4.5 -41.5q-9 2 -18.5 2.5t-19.5 0.5h-220v20q22 19 52 40.5t58.5 47.5t47 56t18.5 65q0 29 -17 41.5t-48 12.5q-61 0 -95 -54l-15 8
q17 31 51 55.5t87 24.5z" />
    <glyph glyph-name="uni00B3" unicode="&#xb3;" horiz-adv-x="324" 
d="M168 756q45 0 73 -19t28 -54q0 -34 -26.5 -58.5t-66.5 -35.5q46 -1 81 -23.5t35 -66.5q0 -35 -23 -63t-61.5 -47.5t-84.5 -30t-91 -10.5v17q52 2 97 20t73.5 48t28.5 66q0 35 -20 56.5t-53 22.5q-11 -5 -19.5 -9.5t-16.5 -4.5q-16 0 -16 12q0 11 13 13t31 1q34 14 45 36
t11 38q0 26 -18.5 42t-49.5 16q-29 0 -53.5 -13.5t-41.5 -40.5l-15 8q17 31 51 55.5t89 24.5z" />
    <glyph glyph-name="acute" unicode="&#xb4;" horiz-adv-x="283" 
d="M219 813q12 -10 13.5 -26t-13.5 -36q-15 -19 -37 -38t-51.5 -45.5t-69.5 -68.5l-11 9q31 49 49.5 84t31.5 61t28 45q15 20 31.5 22t28.5 -7z" />
    <glyph glyph-name="paragraph" unicode="&#xb6;" horiz-adv-x="645" 
d="M393 709q59 0 110.5 -2.5t100.5 1.5v-19q-49 -2 -63 -18.5t-14 -49.5v-696q0 -36 6 -54t23.5 -24t51.5 -8v-20q-23 2 -57.5 2.5t-69.5 0.5q-45 0 -84.5 -0.5t-63.5 -2.5v20q63 2 82 22.5t19 73.5v52q-147 0 -234.5 49t-126 133.5t-38.5 190.5q0 102 42.5 181t122.5 123.5
t193 44.5zM435 656q-3 0 -10 -40t-13.5 -105.5t-7.5 -144.5q-77 0 -140.5 -3t-101.5 -6.5t-38 -5.5t38 -5.5t101.5 -6t140.5 -2.5q1 -81 7.5 -146.5t13.5 -104t10 -38.5v32.5v86.5v118.5v129.5v119v87.5v34.5z" />
    <glyph glyph-name="periodcentered" unicode="&#xb7;" horiz-adv-x="264" 
d="M132 332q26 0 45 -19t19 -45t-19 -45t-45 -19t-45 19t-19 45t19 45t45 19z" />
    <glyph glyph-name="cedilla" unicode="&#xb8;" horiz-adv-x="296" 
d="M152 6l-26 -78q13 3 28 5t31 2q28 0 44.5 -12t16.5 -35q0 -28 -18.5 -44.5t-44.5 -24t-50 -7.5q-28 0 -48.5 3.5t-34.5 7.5l4 18q5 -1 15.5 -2t22.5 -1q29 0 59.5 9t30.5 36q0 28 -42 28q-8 0 -23 -1.5t-26 -5.5l34 102h27z" />
    <glyph glyph-name="uni00B9" unicode="&#xb9;" horiz-adv-x="263" 
d="M178 753v-246q0 -29 15.5 -39t51.5 -10v-21q-14 1 -41 1.5t-56 0.5q-32 0 -61.5 -0.5t-45.5 -1.5v21q35 0 54.5 10t19.5 39v129q0 44 -17 54.5t-64 10.5v21q50 1 83.5 8t60.5 23z" />
    <glyph glyph-name="ordmasculine" unicode="&#xba;" horiz-adv-x="454" 
d="M227 722q44 0 84.5 -20.5t66.5 -60.5t26 -100q0 -59 -26 -99.5t-66.5 -61t-84.5 -20.5t-84.5 20.5t-66.5 61t-26 99.5q0 60 26 100t66.5 60.5t84.5 20.5zM227 704q-38 0 -66 -38t-28 -125t28 -125t66 -38t66 38t28 125t-28 125t-66 38z" />
    <glyph glyph-name="guillemotright" unicode="&#xbb;" horiz-adv-x="501" 
d="M240 528q41 -92 96 -159.5t134 -111.5v-1q-79 -44 -134 -111.5t-96 -159.5l-17 7q25 66 51.5 113t56.5 82.5t64 65.5q-34 30 -64 67t-56.5 86.5t-51.5 114.5zM65 528q41 -92 96 -159.5t134 -111.5v-1q-79 -44 -134 -111.5t-96 -159.5l-17 7q25 66 51.5 113t56.5 82.5
t64 65.5q-34 30 -64 67t-56.5 86.5t-51.5 114.5z" />
    <glyph glyph-name="onequarter" unicode="&#xbc;" horiz-adv-x="693" 
d="M649 824l19 -13l-585 -866l-19 13zM194 753v-246q0 -29 15.5 -39t51.5 -10v-21q-14 1 -41 1.5t-56 0.5q-32 0 -61.5 -0.5t-45.5 -1.5v21q35 0 54.5 10t19.5 39v129q0 44 -17 54.5t-64 10.5v21q50 1 83.5 8t60.5 23zM528 303l8 -15l-208 -241l-4 12h233q24 0 32 9t15 25
l17 -3q-4 -16 -7 -28.5t-4.5 -24t-2.5 -22.5q-9 2 -18.5 2.5t-19.5 0.5h-270v21zM549 303v-402h-56v350l35 52h21z" />
    <glyph glyph-name="onehalf" unicode="&#xbd;" horiz-adv-x="700" 
d="M633 824l19 -13l-585 -866l-19 13zM202 753v-246q0 -29 15.5 -39t51.5 -10v-21q-14 1 -41 1.5t-56 0.5q-32 0 -61.5 -0.5t-45.5 -1.5v21q35 0 54.5 10t19.5 39v129q0 44 -17 54.5t-64 10.5v21q50 1 83.5 8t60.5 23zM527 318q44 0 72 -18.5t28 -56.5q0 -31 -17.5 -56
t-43.5 -46.5t-53.5 -42t-47.5 -41.5h132q24 0 32 9t15 25l17 -3q-7 -26 -10.5 -48.5t-4.5 -41.5q-9 2 -18.5 2.5t-19.5 0.5h-220v20q22 19 52 40.5t58.5 47.5t47 56t18.5 65q0 29 -17 41.5t-48 12.5q-61 0 -95 -54l-15 8q17 31 51 55.5t87 24.5z" />
    <glyph glyph-name="threequarters" unicode="&#xbe;" horiz-adv-x="744" 
d="M696 824l19 -13l-585 -866l-19 13zM191 756q45 0 73 -19t28 -54q0 -34 -26.5 -58.5t-66.5 -35.5q46 -1 81 -23.5t35 -66.5q0 -35 -23 -63t-61.5 -47.5t-84.5 -30t-91 -10.5v17q52 2 97 20t73.5 48t28.5 66q0 35 -20 56.5t-53 22.5q-11 -5 -19.5 -9.5t-16.5 -4.5
q-16 0 -16 12q0 11 13 13t31 1q34 14 45 36t11 38q0 26 -18.5 42t-49.5 16q-29 0 -53.5 -13.5t-41.5 -40.5l-15 8q17 31 51 55.5t89 24.5zM575 303l8 -15l-208 -241l-4 12h233q24 0 32 9t15 25l17 -3q-4 -16 -7 -28.5t-4.5 -24t-2.5 -22.5q-9 2 -18.5 2.5t-19.5 0.5h-270v21
zM596 303v-402h-56v350l35 52h21z" />
    <glyph glyph-name="questiondown" unicode="&#xbf;" horiz-adv-x="453" 
d="M276 320v-135q-66 -23 -99.5 -51.5t-45 -62t-11.5 -70.5q0 -89 39 -129t101 -40q24 0 52.5 5t45.5 21q-19 4 -30.5 16.5t-11.5 34.5q0 26 16.5 40t38.5 14q23 0 38 -15t15 -38q0 -21 -12.5 -38.5t-34.5 -30.5q-20 -12 -53 -20.5t-83 -8.5q-94 0 -152 45.5t-58 124.5
q0 81 62.5 135t162.5 77v126h20zM265 530q26 0 45 -19t19 -45t-19 -45t-45 -19t-45 19t-19 45t19 45t45 19z" />
    <glyph glyph-name="Agrave" unicode="&#xc0;" horiz-adv-x="630" 
d="M323 713l244 -629q15 -38 34 -50.5t35 -13.5v-20q-20 2 -49 2.5t-58 0.5q-39 0 -73 -0.5t-55 -2.5v20q51 2 65 17.5t-6 66.5l-186 497l16 13l-174 -452q-21 -54 -20 -84.5t23 -43.5t64 -14v-20q-28 2 -58.5 2.5t-56.5 0.5q-25 0 -42.5 -0.5t-32.5 -2.5v20q20 5 41 23.5
t38 63.5l235 606h8h8zM445 288v-20h-298l10 20h288zM213 926q21 -13 42 -33t50.5 -46.5t75.5 -61.5l-7 -13q-51 26 -88.5 40.5t-64 25t-48.5 23.5q-21 14 -25 29.5t4 28.5t24.5 16.5t36.5 -9.5z" />
    <glyph glyph-name="Aacute" unicode="&#xc1;" horiz-adv-x="630" 
d="M323 713l244 -629q15 -38 34 -50.5t35 -13.5v-20q-20 2 -49 2.5t-58 0.5q-39 0 -73 -0.5t-55 -2.5v20q51 2 65 17.5t-6 66.5l-186 497l16 13l-174 -452q-21 -54 -20 -84.5t23 -43.5t64 -14v-20q-28 2 -58.5 2.5t-56.5 0.5q-25 0 -42.5 -0.5t-32.5 -2.5v20q20 5 41 23.5
t38 63.5l235 606h8h8zM445 288v-20h-298l10 20h288zM421 926q20 13 36.5 9.5t24.5 -16.5t4 -28.5t-25 -29.5q-21 -13 -48.5 -23.5t-64 -25t-88.5 -40.5l-7 13q46 35 75.5 61.5t50.5 46.5t42 33z" />
    <glyph glyph-name="Acircumflex" unicode="&#xc2;" horiz-adv-x="630" 
d="M323 713l244 -629q15 -38 34 -50.5t35 -13.5v-20q-20 2 -49 2.5t-58 0.5q-39 0 -73 -0.5t-55 -2.5v20q51 2 65 17.5t-6 66.5l-186 497l16 13l-174 -452q-21 -54 -20 -84.5t23 -43.5t64 -14v-20q-28 2 -58.5 2.5t-56.5 0.5q-25 0 -42.5 -0.5t-32.5 -2.5v20q20 5 41 23.5
t38 63.5l235 606h8h8zM445 288v-20h-298l10 20h288zM323 916q23 -38 72.5 -73.5t114.5 -58.5l-5 -14q-60 13 -118 32t-93 38q-28 -19 -75.5 -38t-95.5 -32l-5 14q65 23 114.5 58.5t72.5 73.5h18z" />
    <glyph glyph-name="Atilde" unicode="&#xc3;" horiz-adv-x="630" 
d="M323 713l244 -629q15 -38 34 -50.5t35 -13.5v-20q-20 2 -49 2.5t-58 0.5q-39 0 -73 -0.5t-55 -2.5v20q51 2 65 17.5t-6 66.5l-186 497l16 13l-174 -452q-21 -54 -20 -84.5t23 -43.5t64 -14v-20q-28 2 -58.5 2.5t-56.5 0.5q-25 0 -42.5 -0.5t-32.5 -2.5v20q20 5 41 23.5
t38 63.5l235 606h8h8zM445 288v-20h-298l10 20h288zM233 902q28 0 52 -11.5t47 -27t46 -27t49 -11.5q20 0 36.5 12t25.5 44l15 -3q-4 -49 -36.5 -77.5t-74.5 -28.5q-28 0 -52 11.5t-47 27t-46 27t-49 11.5q-21 0 -37 -12t-25 -44l-15 3q5 50 37 78t74 28z" />
    <glyph glyph-name="Adieresis" unicode="&#xc4;" horiz-adv-x="630" 
d="M323 713l244 -629q15 -38 34 -50.5t35 -13.5v-20q-20 2 -49 2.5t-58 0.5q-39 0 -73 -0.5t-55 -2.5v20q51 2 65 17.5t-6 66.5l-186 497l16 13l-174 -452q-21 -54 -20 -84.5t23 -43.5t64 -14v-20q-28 2 -58.5 2.5t-56.5 0.5q-25 0 -42.5 -0.5t-32.5 -2.5v20q20 5 41 23.5
t38 63.5l235 606h8h8zM445 288v-20h-298l10 20h288zM420 888q23 0 40.5 -17.5t17.5 -40.5q0 -24 -17.5 -41t-40.5 -17q-24 0 -41 17t-17 41q0 23 17 40.5t41 17.5zM208 888q23 0 40.5 -17.5t17.5 -40.5q0 -24 -17.5 -41t-40.5 -17q-24 0 -41 17t-17 41q0 23 17 40.5t41 17.5
z" />
    <glyph glyph-name="Aring" unicode="&#xc5;" horiz-adv-x="630" 
d="M323 713l244 -629q15 -38 34 -50.5t35 -13.5v-20q-20 2 -49 2.5t-58 0.5q-39 0 -73 -0.5t-55 -2.5v20q51 2 65 17.5t-6 66.5l-186 497l16 13l-174 -452q-21 -54 -20 -84.5t23 -43.5t64 -14v-20q-28 2 -58.5 2.5t-56.5 0.5q-25 0 -42.5 -0.5t-32.5 -2.5v20q20 5 41 23.5
t38 63.5l235 606h8h8zM445 288v-20h-298l10 20h288zM314 925q39 0 68 -24.5t29 -66.5q0 -43 -29 -67.5t-68 -24.5q-38 0 -67 24.5t-29 67.5q0 42 29 66.5t67 24.5zM314 904q-24 0 -46 -18t-22 -53t22 -52.5t46 -17.5q25 0 47 17.5t22 52.5t-22 53t-47 18z" />
    <glyph glyph-name="AE" unicode="&#xc6;" horiz-adv-x="854" 
d="M500 772l-403 -668q-28 -46 -14 -64t65 -20v-20q-15 2 -39.5 2.5t-51.5 0.5q-17 0 -35.5 -0.5t-31.5 -2.5v20q16 1 32 15t37 49l417 688h24zM786 708q-4 -35 -5.5 -68t-1.5 -50q0 -18 1 -34.5t2 -27.5h-23q-5 59 -13.5 93.5t-29 49t-61.5 14.5h-63q-34 0 -51.5 -5.5
t-23.5 -23t-6 -54.5v-496q0 -36 6 -54t23.5 -23.5t51.5 -5.5h73q49 0 71 17t30 55.5t13 104.5h23q-3 -27 -3 -72q0 -19 1.5 -54.5t5.5 -73.5q-46 2 -104.5 2.5t-104.5 0.5h-65.5t-86.5 -0.5t-88 -2.5v20q26 2 39 8t17.5 24t4.5 54v496q0 37 -6 54.5t-23.5 24t-51.5 7.5v20
q45 -1 95 -2t94 -1h71q41 0 94 0.5t95 2.5zM451 366v-20h-220l10 20h210zM651 366v-10v-10h-170v10v10h170zM680 478q-4 -49 -3.5 -74.5t0.5 -47.5t1 -47t5 -75h-23q-3 27 -7.5 53t-19 42.5t-49.5 16.5v20q35 0 49 19.5t17.5 46t6.5 46.5h23z" />
    <glyph glyph-name="Ccedilla" unicode="&#xc7;" horiz-adv-x="688" 
d="M371 722q66 0 108.5 -19.5t75.5 -45.5q20 -15 30.5 -3.5t14.5 54.5h23q-2 -37 -3 -90t-1 -140h-23q-7 43 -13 68.5t-14.5 43.5t-22.5 36q-31 41 -78 59.5t-99 18.5q-49 0 -88.5 -24.5t-68 -70.5t-44 -111t-15.5 -146q0 -84 17 -148.5t47.5 -108.5t72 -66.5t89.5 -22.5
q45 0 94 18t77 58q22 29 30.5 63t15.5 95h23q0 -91 1 -146.5t3 -93.5h-23q-4 43 -13.5 54t-31.5 -3q-37 -26 -78.5 -45.5t-106.5 -19.5q-95 0 -166.5 43t-111 124t-39.5 195q0 112 41 196t112.5 131t164.5 47zM385 5l-26 -77q13 3 28 5t31 2q28 0 44.5 -12t16.5 -35
q0 -28 -18.5 -44.5t-44.5 -24t-50 -7.5q-28 0 -48.5 3.5t-34.5 7.5l4 18q5 -1 15.5 -2t22.5 -1q29 0 59.5 9t30.5 36q0 14 -11 21t-31 7q-8 0 -23 -1.5t-26 -5.5l34 101h27z" />
    <glyph glyph-name="Egrave" unicode="&#xc8;" horiz-adv-x="609" 
d="M541 708q-4 -35 -5.5 -68t-1.5 -50q0 -18 1 -34.5t2 -27.5h-23q-6 59 -17 93.5t-37.5 49t-79.5 14.5h-83q-34 0 -51.5 -5.5t-23.5 -23t-6 -54.5v-496q0 -36 6 -54t23.5 -23.5t51.5 -5.5h73q63 0 95.5 17t47 55.5t21.5 104.5h23q-3 -27 -3 -72q0 -19 1.5 -54.5t5.5 -73.5
q-51 2 -115 2.5t-114 0.5h-79.5t-105.5 -0.5t-105 -2.5v20q34 2 51.5 8t23.5 24t6 54v496q0 37 -6 54.5t-23.5 24t-51.5 7.5v20q49 -1 105 -2t105.5 -1h79.5q46 0 104.5 0.5t104.5 2.5zM369 366v-10v-10h-183v10v10h183zM398 498q-4 -57 -3.5 -87t0.5 -55t1 -55t5 -87h-23
q-4 32 -9.5 62.5t-24 50t-62.5 19.5v20q44 0 61.5 23t22.5 54t9 55h23zM205 926q21 -13 42 -33t50.5 -46.5t75.5 -61.5l-7 -13q-51 26 -88.5 40.5t-64 25t-48.5 23.5q-21 14 -25 29.5t4 28.5t24.5 16.5t36.5 -9.5z" />
    <glyph glyph-name="Eacute" unicode="&#xc9;" horiz-adv-x="609" 
d="M541 708q-4 -35 -5.5 -68t-1.5 -50q0 -18 1 -34.5t2 -27.5h-23q-6 59 -17 93.5t-37.5 49t-79.5 14.5h-83q-34 0 -51.5 -5.5t-23.5 -23t-6 -54.5v-496q0 -36 6 -54t23.5 -23.5t51.5 -5.5h73q63 0 95.5 17t47 55.5t21.5 104.5h23q-3 -27 -3 -72q0 -19 1.5 -54.5t5.5 -73.5
q-51 2 -115 2.5t-114 0.5h-79.5t-105.5 -0.5t-105 -2.5v20q34 2 51.5 8t23.5 24t6 54v496q0 37 -6 54.5t-23.5 24t-51.5 7.5v20q49 -1 105 -2t105.5 -1h79.5q46 0 104.5 0.5t104.5 2.5zM369 366v-10v-10h-183v10v10h183zM398 498q-4 -57 -3.5 -87t0.5 -55t1 -55t5 -87h-23
q-4 32 -9.5 62.5t-24 50t-62.5 19.5v20q44 0 61.5 23t22.5 54t9 55h23zM413 926q20 13 36.5 9.5t24.5 -16.5t4 -28.5t-25 -29.5q-21 -13 -48.5 -23.5t-64 -25t-88.5 -40.5l-7 13q46 35 75.5 61.5t50.5 46.5t42 33z" />
    <glyph glyph-name="Ecircumflex" unicode="&#xca;" horiz-adv-x="609" 
d="M541 708q-4 -35 -5.5 -68t-1.5 -50q0 -18 1 -34.5t2 -27.5h-23q-6 59 -17 93.5t-37.5 49t-79.5 14.5h-83q-34 0 -51.5 -5.5t-23.5 -23t-6 -54.5v-496q0 -36 6 -54t23.5 -23.5t51.5 -5.5h73q63 0 95.5 17t47 55.5t21.5 104.5h23q-3 -27 -3 -72q0 -19 1.5 -54.5t5.5 -73.5
q-51 2 -115 2.5t-114 0.5h-79.5t-105.5 -0.5t-105 -2.5v20q34 2 51.5 8t23.5 24t6 54v496q0 37 -6 54.5t-23.5 24t-51.5 7.5v20q49 -1 105 -2t105.5 -1h79.5q46 0 104.5 0.5t104.5 2.5zM369 366v-10v-10h-183v10v10h183zM398 498q-4 -57 -3.5 -87t0.5 -55t1 -55t5 -87h-23
q-4 32 -9.5 62.5t-24 50t-62.5 19.5v20q44 0 61.5 23t22.5 54t9 55h23zM315 916q23 -38 72.5 -73.5t114.5 -58.5l-5 -14q-60 13 -118 32t-93 38q-28 -19 -75.5 -38t-95.5 -32l-5 14q65 23 114.5 58.5t72.5 73.5h18z" />
    <glyph glyph-name="Edieresis" unicode="&#xcb;" horiz-adv-x="609" 
d="M541 708q-4 -35 -5.5 -68t-1.5 -50q0 -18 1 -34.5t2 -27.5h-23q-6 59 -17 93.5t-37.5 49t-79.5 14.5h-83q-34 0 -51.5 -5.5t-23.5 -23t-6 -54.5v-496q0 -36 6 -54t23.5 -23.5t51.5 -5.5h73q63 0 95.5 17t47 55.5t21.5 104.5h23q-3 -27 -3 -72q0 -19 1.5 -54.5t5.5 -73.5
q-51 2 -115 2.5t-114 0.5h-79.5t-105.5 -0.5t-105 -2.5v20q34 2 51.5 8t23.5 24t6 54v496q0 37 -6 54.5t-23.5 24t-51.5 7.5v20q49 -1 105 -2t105.5 -1h79.5q46 0 104.5 0.5t104.5 2.5zM369 366v-10v-10h-183v10v10h183zM398 498q-4 -57 -3.5 -87t0.5 -55t1 -55t5 -87h-23
q-4 32 -9.5 62.5t-24 50t-62.5 19.5v20q44 0 61.5 23t22.5 54t9 55h23zM412 888q23 0 40.5 -17.5t17.5 -40.5q0 -24 -17.5 -41t-40.5 -17q-24 0 -41 17t-17 41q0 23 17 40.5t41 17.5zM200 888q23 0 40.5 -17.5t17.5 -40.5q0 -24 -17.5 -41t-40.5 -17q-24 0 -41 17t-17 41
q0 23 17 40.5t41 17.5z" />
    <glyph glyph-name="Igrave" unicode="&#xcc;" horiz-adv-x="339" 
d="M297 708v-20q-34 -1 -51.5 -7.5t-23.5 -24t-6 -54.5v-496q0 -36 6 -54t23.5 -24t51.5 -8v-20q-23 2 -57.5 2.5t-69.5 0.5q-39 0 -73 -0.5t-55 -2.5v20q34 2 51.5 8t23.5 24t6 54v496q0 37 -6 54.5t-23.5 24t-51.5 7.5v20q21 -1 55 -2t73 -1q35 0 69.5 1t57.5 2zM69 926
q21 -13 42 -33t50.5 -46.5t75.5 -61.5l-7 -13q-51 26 -88.5 40.5t-64 25t-48.5 23.5q-21 14 -25 29.5t4 28.5t24.5 16.5t36.5 -9.5z" />
    <glyph glyph-name="Iacute" unicode="&#xcd;" horiz-adv-x="339" 
d="M297 708v-20q-34 -1 -51.5 -7.5t-23.5 -24t-6 -54.5v-496q0 -36 6 -54t23.5 -24t51.5 -8v-20q-23 2 -57.5 2.5t-69.5 0.5q-39 0 -73 -0.5t-55 -2.5v20q34 2 51.5 8t23.5 24t6 54v496q0 37 -6 54.5t-23.5 24t-51.5 7.5v20q21 -1 55 -2t73 -1q35 0 69.5 1t57.5 2zM277 926
q20 13 36.5 9.5t24.5 -16.5t4 -28.5t-25 -29.5q-21 -13 -48.5 -23.5t-64 -25t-88.5 -40.5l-7 13q46 35 75.5 61.5t50.5 46.5t42 33z" />
    <glyph glyph-name="Icircumflex" unicode="&#xce;" horiz-adv-x="339" 
d="M297 708v-20q-34 -1 -51.5 -7.5t-23.5 -24t-6 -54.5v-496q0 -36 6 -54t23.5 -24t51.5 -8v-20q-23 2 -57.5 2.5t-69.5 0.5q-39 0 -73 -0.5t-55 -2.5v20q34 2 51.5 8t23.5 24t6 54v496q0 37 -6 54.5t-23.5 24t-51.5 7.5v20q21 -1 55 -2t73 -1q35 0 69.5 1t57.5 2zM179 916
q23 -38 72.5 -73.5t114.5 -58.5l-5 -14q-60 13 -118 32t-93 38q-28 -19 -75.5 -38t-95.5 -32l-5 14q65 23 114.5 58.5t72.5 73.5h18z" />
    <glyph glyph-name="Idieresis" unicode="&#xcf;" horiz-adv-x="339" 
d="M297 708v-20q-34 -1 -51.5 -7.5t-23.5 -24t-6 -54.5v-496q0 -36 6 -54t23.5 -24t51.5 -8v-20q-23 2 -57.5 2.5t-69.5 0.5q-39 0 -73 -0.5t-55 -2.5v20q34 2 51.5 8t23.5 24t6 54v496q0 37 -6 54.5t-23.5 24t-51.5 7.5v20q21 -1 55 -2t73 -1q35 0 69.5 1t57.5 2zM276 888
q23 0 40.5 -17.5t17.5 -40.5q0 -24 -17.5 -41t-40.5 -17q-24 0 -41 17t-17 41q0 23 17 40.5t41 17.5zM64 888q23 0 40.5 -17.5t17.5 -40.5q0 -24 -17.5 -41t-40.5 -17q-24 0 -41 17t-17 41q0 23 17 40.5t41 17.5z" />
    <glyph glyph-name="Eth" unicode="&#xd0;" horiz-adv-x="723" 
d="M315 708q179 0 266 -89.5t87 -256.5q0 -109 -42.5 -190.5t-123.5 -126.5t-196 -45q-22 0 -65 1.5t-75 1.5q-35 0 -69 -0.5t-55 -2.5v20q34 2 51.5 8t23.5 24t6 54v496q0 37 -6 54.5t-23.5 24t-51.5 7.5v20q21 -1 55 -2.5t67 -0.5q35 1 79 2t72 1zM290 690q-46 0 -60 -17
t-14 -69v-500q0 -52 14.5 -69t60.5 -17q109 0 169 39.5t84 115.5t24 185q0 168 -61.5 250t-216.5 82zM363 366v-20h-354v20h354z" />
    <glyph glyph-name="Ntilde" unicode="&#xd1;" horiz-adv-x="706" 
d="M670 708v-20q-34 -1 -51.5 -10t-23.5 -29t-6 -57v-597h-11.5h-11.5l-420 649v-528q0 -36 6.5 -56.5t26 -29t58.5 -10.5v-20q-18 2 -47 2.5t-55 0.5q-25 0 -50.5 -0.5t-42.5 -2.5v20q34 2 51.5 10.5t23.5 29t6 56.5v486q0 37 -6 54.5t-23.5 24t-51.5 7.5v20q17 -1 42.5 -2
t50.5 -1q22 0 42 1t36 2l353 -544v428q0 37 -6.5 57t-26 29t-58.5 10v20q18 -1 47.5 -2t54.5 -1q26 0 51.5 1t41.5 2zM293 902q28 0 52 -11.5t47 -27t46 -27t49 -11.5q20 0 36.5 12t25.5 44l15 -3q-4 -49 -36.5 -77.5t-74.5 -28.5q-28 0 -52 11.5t-47 27t-46 27t-49 11.5
q-21 0 -37 -12t-25 -44l-15 3q5 50 37 78t74 28z" />
    <glyph glyph-name="Ograve" unicode="&#xd2;" horiz-adv-x="741" 
d="M371 722q95 0 166.5 -43t111 -123.5t39.5 -195.5q0 -112 -40.5 -196t-112.5 -131t-165 -47q-95 0 -166.5 43t-111 124t-39.5 195q0 112 41 196t112.5 131t164.5 47zM367 704q-65 0 -113 -45t-74.5 -124t-26.5 -183q0 -106 29.5 -184.5t80 -121t111.5 -42.5q65 0 113 45
t74.5 124.5t26.5 182.5q0 107 -29.5 185t-79.5 120.5t-112 42.5zM268 926q21 -13 42 -33t50.5 -46.5t75.5 -61.5l-7 -13q-51 26 -88.5 40.5t-64 25t-48.5 23.5q-21 14 -25 29.5t4 28.5t24.5 16.5t36.5 -9.5z" />
    <glyph glyph-name="Oacute" unicode="&#xd3;" horiz-adv-x="741" 
d="M371 722q95 0 166.5 -43t111 -123.5t39.5 -195.5q0 -112 -40.5 -196t-112.5 -131t-165 -47q-95 0 -166.5 43t-111 124t-39.5 195q0 112 41 196t112.5 131t164.5 47zM367 704q-65 0 -113 -45t-74.5 -124t-26.5 -183q0 -106 29.5 -184.5t80 -121t111.5 -42.5q65 0 113 45
t74.5 124.5t26.5 182.5q0 107 -29.5 185t-79.5 120.5t-112 42.5zM476 926q20 13 36.5 9.5t24.5 -16.5t4 -28.5t-25 -29.5q-21 -13 -48.5 -23.5t-64 -25t-88.5 -40.5l-7 13q46 35 75.5 61.5t50.5 46.5t42 33z" />
    <glyph glyph-name="Ocircumflex" unicode="&#xd4;" horiz-adv-x="741" 
d="M371 722q95 0 166.5 -43t111 -123.5t39.5 -195.5q0 -112 -40.5 -196t-112.5 -131t-165 -47q-95 0 -166.5 43t-111 124t-39.5 195q0 112 41 196t112.5 131t164.5 47zM367 704q-65 0 -113 -45t-74.5 -124t-26.5 -183q0 -106 29.5 -184.5t80 -121t111.5 -42.5q65 0 113 45
t74.5 124.5t26.5 182.5q0 107 -29.5 185t-79.5 120.5t-112 42.5zM378 916q23 -38 72.5 -73.5t114.5 -58.5l-5 -14q-60 13 -118 32t-93 38q-28 -19 -75.5 -38t-95.5 -32l-5 14q65 23 114.5 58.5t72.5 73.5h18z" />
    <glyph glyph-name="Otilde" unicode="&#xd5;" horiz-adv-x="741" 
d="M371 722q95 0 166.5 -43t111 -123.5t39.5 -195.5q0 -112 -40.5 -196t-112.5 -131t-165 -47q-95 0 -166.5 43t-111 124t-39.5 195q0 112 41 196t112.5 131t164.5 47zM367 704q-65 0 -113 -45t-74.5 -124t-26.5 -183q0 -106 29.5 -184.5t80 -121t111.5 -42.5q65 0 113 45
t74.5 124.5t26.5 182.5q0 107 -29.5 185t-79.5 120.5t-112 42.5zM288 902q28 0 52 -11.5t47 -27t46 -27t49 -11.5q20 0 36.5 12t25.5 44l15 -3q-4 -49 -36.5 -77.5t-74.5 -28.5q-28 0 -52 11.5t-47 27t-46 27t-49 11.5q-21 0 -37 -12t-25 -44l-15 3q5 50 37 78t74 28z" />
    <glyph glyph-name="Odieresis" unicode="&#xd6;" horiz-adv-x="741" 
d="M371 722q95 0 166.5 -43t111 -123.5t39.5 -195.5q0 -112 -40.5 -196t-112.5 -131t-165 -47q-95 0 -166.5 43t-111 124t-39.5 195q0 112 41 196t112.5 131t164.5 47zM367 704q-65 0 -113 -45t-74.5 -124t-26.5 -183q0 -106 29.5 -184.5t80 -121t111.5 -42.5q65 0 113 45
t74.5 124.5t26.5 182.5q0 107 -29.5 185t-79.5 120.5t-112 42.5zM475 888q23 0 40.5 -17.5t17.5 -40.5q0 -24 -17.5 -41t-40.5 -17q-24 0 -41 17t-17 41q0 23 17 40.5t41 17.5zM263 888q23 0 40.5 -17.5t17.5 -40.5q0 -24 -17.5 -41t-40.5 -17q-24 0 -41 17t-17 41
q0 23 17 40.5t41 17.5z" />
    <glyph glyph-name="multiply" unicode="&#xd7;" horiz-adv-x="510" 
d="M81 552l175 -175l173 173l22 -22l-173 -172l173 -173l-22 -22l-173 173l-174 -174l-22 22l174 173l-175 175z" />
    <glyph glyph-name="Oslash" unicode="&#xd8;" horiz-adv-x="741" 
d="M371 722q95 0 166.5 -43t111 -123.5t39.5 -195.5q0 -112 -40.5 -196t-112.5 -131t-165 -47q-95 0 -166.5 43t-111 124t-39.5 195q0 112 41 196t112.5 131t164.5 47zM367 704q-65 0 -113 -45t-74.5 -124t-26.5 -183q0 -106 29.5 -184.5t80 -121t111.5 -42.5q65 0 113 45
t74.5 124.5t26.5 182.5q0 107 -29.5 185t-79.5 120.5t-112 42.5zM539 632l15 -20l-350 -535l-18 18zM178 95l18 -18l-102 -150l-21 14zM643 773l19 -13l-101 -148l-15 20z" />
    <glyph glyph-name="Ugrave" unicode="&#xd9;" horiz-adv-x="682" 
d="M655 708v-20q-34 -1 -51.5 -10t-23.5 -29t-6 -57v-301q0 -70 -9 -122t-32 -90q-25 -42 -73 -67.5t-110 -25.5q-48 0 -91.5 11.5t-76.5 42.5q-29 28 -45.5 59t-22.5 76t-6 113v314q0 37 -6 54.5t-23.5 24t-51.5 7.5v20q21 -1 55 -2t73 -1q35 0 69.5 1t57.5 2v-20
q-34 -1 -51.5 -7.5t-23.5 -24t-6 -54.5v-331q0 -68 10 -125t43.5 -91t104.5 -34q76 0 117.5 33.5t58 92.5t16.5 133v312q0 37 -8.5 57t-28.5 29t-54 10v20q18 -1 47.5 -2t54.5 -1q26 0 51.5 1t41.5 2zM251 926q21 -13 42 -33t50.5 -46.5t75.5 -61.5l-7 -13
q-51 26 -88.5 40.5t-64 25t-48.5 23.5q-21 14 -25 29.5t4 28.5t24.5 16.5t36.5 -9.5z" />
    <glyph glyph-name="Uacute" unicode="&#xda;" horiz-adv-x="682" 
d="M655 708v-20q-34 -1 -51.5 -10t-23.5 -29t-6 -57v-301q0 -70 -9 -122t-32 -90q-25 -42 -73 -67.5t-110 -25.5q-48 0 -91.5 11.5t-76.5 42.5q-29 28 -45.5 59t-22.5 76t-6 113v314q0 37 -6 54.5t-23.5 24t-51.5 7.5v20q21 -1 55 -2t73 -1q35 0 69.5 1t57.5 2v-20
q-34 -1 -51.5 -7.5t-23.5 -24t-6 -54.5v-331q0 -68 10 -125t43.5 -91t104.5 -34q76 0 117.5 33.5t58 92.5t16.5 133v312q0 37 -8.5 57t-28.5 29t-54 10v20q18 -1 47.5 -2t54.5 -1q26 0 51.5 1t41.5 2zM459 926q20 13 36.5 9.5t24.5 -16.5t4 -28.5t-25 -29.5
q-21 -13 -48.5 -23.5t-64 -25t-88.5 -40.5l-7 13q46 35 75.5 61.5t50.5 46.5t42 33z" />
    <glyph glyph-name="Ucircumflex" unicode="&#xdb;" horiz-adv-x="682" 
d="M655 708v-20q-34 -1 -51.5 -10t-23.5 -29t-6 -57v-301q0 -70 -9 -122t-32 -90q-25 -42 -73 -67.5t-110 -25.5q-48 0 -91.5 11.5t-76.5 42.5q-29 28 -45.5 59t-22.5 76t-6 113v314q0 37 -6 54.5t-23.5 24t-51.5 7.5v20q21 -1 55 -2t73 -1q35 0 69.5 1t57.5 2v-20
q-34 -1 -51.5 -7.5t-23.5 -24t-6 -54.5v-331q0 -68 10 -125t43.5 -91t104.5 -34q76 0 117.5 33.5t58 92.5t16.5 133v312q0 37 -8.5 57t-28.5 29t-54 10v20q18 -1 47.5 -2t54.5 -1q26 0 51.5 1t41.5 2zM361 916q23 -38 72.5 -73.5t114.5 -58.5l-5 -14q-60 13 -118 32t-93 38
q-28 -19 -75.5 -38t-95.5 -32l-5 14q65 23 114.5 58.5t72.5 73.5h18z" />
    <glyph glyph-name="Udieresis" unicode="&#xdc;" horiz-adv-x="682" 
d="M655 708v-20q-34 -1 -51.5 -10t-23.5 -29t-6 -57v-301q0 -70 -9 -122t-32 -90q-25 -42 -73 -67.5t-110 -25.5q-48 0 -91.5 11.5t-76.5 42.5q-29 28 -45.5 59t-22.5 76t-6 113v314q0 37 -6 54.5t-23.5 24t-51.5 7.5v20q21 -1 55 -2t73 -1q35 0 69.5 1t57.5 2v-20
q-34 -1 -51.5 -7.5t-23.5 -24t-6 -54.5v-331q0 -68 10 -125t43.5 -91t104.5 -34q76 0 117.5 33.5t58 92.5t16.5 133v312q0 37 -8.5 57t-28.5 29t-54 10v20q18 -1 47.5 -2t54.5 -1q26 0 51.5 1t41.5 2zM458 888q23 0 40.5 -17.5t17.5 -40.5q0 -24 -17.5 -41t-40.5 -17
q-24 0 -41 17t-17 41q0 23 17 40.5t41 17.5zM246 888q23 0 40.5 -17.5t17.5 -40.5q0 -24 -17.5 -41t-40.5 -17q-24 0 -41 17t-17 41q0 23 17 40.5t41 17.5z" />
    <glyph glyph-name="Yacute" unicode="&#xdd;" horiz-adv-x="591" 
d="M588 708v-20q-19 -4 -38 -24.5t-42 -64.5l-202 -400h-17l-234 432q-20 37 -33.5 46.5t-24.5 9.5v21q20 -1 41.5 -2t46.5 -1q33 0 70.5 0.5t69.5 2.5v-21q-25 0 -44 -6t-25 -22t9 -45l169 -324l-8 -6l133 265q28 55 27.5 85t-23.5 41.5t-65 12.5v20q29 -1 59 -2t56 -1
t43 1t32 2zM351 304v-198q0 -36 6 -54t23.5 -24t51.5 -8v-20q-23 2 -57.5 2.5t-69.5 0.5q-39 0 -73 -0.5t-55 -2.5v20q34 2 51.5 8t23.5 24t6 54v205l54 -62zM411 926q20 13 36.5 9.5t24.5 -16.5t4 -28.5t-25 -29.5q-21 -13 -48.5 -23.5t-64 -25t-88.5 -40.5l-7 13
q46 35 75.5 61.5t50.5 46.5t42 33z" />
    <glyph glyph-name="Thorn" unicode="&#xde;" horiz-adv-x="580" 
d="M308 559q121 0 181 -56t60 -139q0 -38 -12 -77.5t-41.5 -73.5t-80.5 -54.5t-129 -20.5h-96v10v10h86q71 0 108.5 27.5t51 73.5t13.5 99q0 89 -37.5 135.5t-128.5 46.5q-31 0 -69 -1t-55 -1l-2 19q47 0 90 1t61 1zM297 708v-20q-34 -1 -51.5 -7.5t-23.5 -24t-6 -54.5v-496
q0 -36 6 -54t23.5 -24t51.5 -8v-20q-23 2 -57.5 2.5t-69.5 0.5q-39 0 -73 -0.5t-55 -2.5v20q34 2 51.5 8t23.5 24t6 54v496q0 37 -6 54.5t-23.5 24t-51.5 7.5v20q21 -1 55 -2t73 -1q35 0 69.5 1t57.5 2z" />
    <glyph glyph-name="germandbls" unicode="&#xdf;" horiz-adv-x="584" 
d="M294 782q86 0 131.5 -38.5t45.5 -104.5q0 -39 -18.5 -73t-46 -61t-56 -45.5t-49.5 -26.5q64 -14 118.5 -50t88.5 -89t34 -119q0 -59 -25.5 -101.5t-66.5 -65t-89 -22.5q-27 0 -55 9t-47.5 28t-19.5 49q0 24 13.5 39t38.5 15q23 0 38 -13t15 -36q0 -18 -10.5 -31.5
t-32.5 -20.5q3 -9 18 -16.5t34 -7.5q23 0 46 14.5t38.5 48.5t15.5 92q0 42 -10 84t-30 78.5t-51.5 64.5t-74.5 41q-8 -5 -18 -10t-19 -5q-7 0 -13.5 4.5t-6.5 12.5q0 19 23 19q7 0 16.5 -2t19.5 -6q50 39 71 86.5t21 111.5q0 63 -25 97.5t-73 34.5q-18 0 -40.5 -10
t-39 -40.5t-16.5 -92.5v-635q-22 8 -48.5 11t-55.5 3q-15 0 -30.5 -0.5t-31.5 -2.5v21q44 0 60 21.5t16 66.5v429q0 90 25 143.5t69.5 77t102.5 23.5z" />
    <glyph glyph-name="agrave" unicode="&#xe0;" horiz-adv-x="498" 
d="M163 -7q-65 0 -94.5 32.5t-29.5 86.5q0 42 20.5 69.5t52.5 45t67.5 30t67.5 24.5t52.5 27t20.5 38v62q0 42 -12.5 64t-33.5 29.5t-47 7.5q-25 0 -53.5 -7t-45.5 -29q19 -4 33 -20t14 -41t-16 -39.5t-41 -14.5q-29 0 -42.5 18.5t-13.5 41.5q0 26 13 42t33 30
q23 16 59.5 27.5t82.5 11.5q41 0 70 -9.5t48 -27.5q26 -24 34 -58.5t8 -82.5v-278q0 -24 7 -35.5t24 -11.5q14 0 24.5 6t20.5 15l11 -17q-21 -16 -40 -26.5t-51 -10.5q-52 0 -69 27t-17 62q-32 -53 -72.5 -71t-84.5 -18zM207 33q30 0 59 17.5t54 58.5v196q-15 -22 -46.5 -35
t-65 -28.5t-57.5 -42t-24 -75.5q0 -46 23 -68.5t57 -22.5zM123 813q12 9 28.5 7t31.5 -22q15 -19 28 -45t31.5 -61t49.5 -84l-11 -9q-39 42 -69 68.5t-51.5 45.5t-37.5 38q-15 20 -13.5 36t13.5 26z" />
    <glyph glyph-name="aacute" unicode="&#xe1;" horiz-adv-x="498" 
d="M163 -7q-65 0 -94.5 32.5t-29.5 86.5q0 42 20.5 69.5t52.5 45t67.5 30t67.5 24.5t52.5 27t20.5 38v62q0 42 -12.5 64t-33.5 29.5t-47 7.5q-25 0 -53.5 -7t-45.5 -29q19 -4 33 -20t14 -41t-16 -39.5t-41 -14.5q-29 0 -42.5 18.5t-13.5 41.5q0 26 13 42t33 30
q23 16 59.5 27.5t82.5 11.5q41 0 70 -9.5t48 -27.5q26 -24 34 -58.5t8 -82.5v-278q0 -24 7 -35.5t24 -11.5q14 0 24.5 6t20.5 15l11 -17q-21 -16 -40 -26.5t-51 -10.5q-52 0 -69 27t-17 62q-32 -53 -72.5 -71t-84.5 -18zM207 33q30 0 59 17.5t54 58.5v196q-15 -22 -46.5 -35
t-65 -28.5t-57.5 -42t-24 -75.5q0 -46 23 -68.5t57 -22.5zM353 813q12 -10 13.5 -26t-13.5 -36q-15 -19 -37 -38t-51.5 -45.5t-69.5 -68.5l-11 9q31 49 49.5 84t31.5 61t28 45q15 20 31.5 22t28.5 -7z" />
    <glyph glyph-name="acircumflex" unicode="&#xe2;" horiz-adv-x="498" 
d="M163 -7q-65 0 -94.5 32.5t-29.5 86.5q0 42 20.5 69.5t52.5 45t67.5 30t67.5 24.5t52.5 27t20.5 38v62q0 42 -12.5 64t-33.5 29.5t-47 7.5q-25 0 -53.5 -7t-45.5 -29q19 -4 33 -20t14 -41t-16 -39.5t-41 -14.5q-29 0 -42.5 18.5t-13.5 41.5q0 26 13 42t33 30
q23 16 59.5 27.5t82.5 11.5q41 0 70 -9.5t48 -27.5q26 -24 34 -58.5t8 -82.5v-278q0 -24 7 -35.5t24 -11.5q14 0 24.5 6t20.5 15l11 -17q-21 -16 -40 -26.5t-51 -10.5q-52 0 -69 27t-17 62q-32 -53 -72.5 -71t-84.5 -18zM207 33q30 0 59 17.5t54 58.5v196q-15 -22 -46.5 -35
t-65 -28.5t-57.5 -42t-24 -75.5q0 -46 23 -68.5t57 -22.5zM255 802q20 -50 64.5 -96.5t102.5 -75.5l-8 -14q-54 19 -105 46t-83 54q-25 -27 -65.5 -54t-82.5 -46l-8 14q58 29 102.5 75.5t64.5 96.5h18z" />
    <glyph glyph-name="atilde" unicode="&#xe3;" horiz-adv-x="498" 
d="M163 -7q-65 0 -94.5 32.5t-29.5 86.5q0 42 20.5 69.5t52.5 45t67.5 30t67.5 24.5t52.5 27t20.5 38v62q0 42 -12.5 64t-33.5 29.5t-47 7.5q-25 0 -53.5 -7t-45.5 -29q19 -4 33 -20t14 -41t-16 -39.5t-41 -14.5q-29 0 -42.5 18.5t-13.5 41.5q0 26 13 42t33 30
q23 16 59.5 27.5t82.5 11.5q41 0 70 -9.5t48 -27.5q26 -24 34 -58.5t8 -82.5v-278q0 -24 7 -35.5t24 -11.5q14 0 24.5 6t20.5 15l11 -17q-21 -16 -40 -26.5t-51 -10.5q-52 0 -69 27t-17 62q-32 -53 -72.5 -71t-84.5 -18zM207 33q30 0 59 17.5t54 58.5v196q-15 -22 -46.5 -35
t-65 -28.5t-57.5 -42t-24 -75.5q0 -46 23 -68.5t57 -22.5zM172 768q27 0 46 -10t34.5 -23t32 -23t38.5 -10q21 0 40.5 12.5t36.5 40.5l14 -7q-16 -55 -48 -79t-70 -24q-27 0 -46.5 10t-35 23.5t-32 23.5t-38.5 10q-21 0 -40.5 -12.5t-36.5 -41.5l-14 7q16 56 48.5 79.5
t70.5 23.5z" />
    <glyph glyph-name="adieresis" unicode="&#xe4;" horiz-adv-x="498" 
d="M163 -7q-65 0 -94.5 32.5t-29.5 86.5q0 42 20.5 69.5t52.5 45t67.5 30t67.5 24.5t52.5 27t20.5 38v62q0 42 -12.5 64t-33.5 29.5t-47 7.5q-25 0 -53.5 -7t-45.5 -29q19 -4 33 -20t14 -41t-16 -39.5t-41 -14.5q-29 0 -42.5 18.5t-13.5 41.5q0 26 13 42t33 30
q23 16 59.5 27.5t82.5 11.5q41 0 70 -9.5t48 -27.5q26 -24 34 -58.5t8 -82.5v-278q0 -24 7 -35.5t24 -11.5q14 0 24.5 6t20.5 15l11 -17q-21 -16 -40 -26.5t-51 -10.5q-52 0 -69 27t-17 62q-32 -53 -72.5 -71t-84.5 -18zM207 33q30 0 59 17.5t54 58.5v196q-15 -22 -46.5 -35
t-65 -28.5t-57.5 -42t-24 -75.5q0 -46 23 -68.5t57 -22.5zM353 743q23 0 40.5 -17.5t17.5 -40.5q0 -24 -17.5 -41t-40.5 -17q-24 0 -41 17t-17 41q0 23 17 40.5t41 17.5zM141 743q23 0 40.5 -17.5t17.5 -40.5q0 -24 -17.5 -41t-40.5 -17q-24 0 -41 17t-17 41q0 23 17 40.5
t41 17.5z" />
    <glyph glyph-name="aring" unicode="&#xe5;" horiz-adv-x="498" 
d="M163 -7q-65 0 -94.5 32.5t-29.5 86.5q0 42 20.5 69.5t52.5 45t67.5 30t67.5 24.5t52.5 27t20.5 38v62q0 42 -12.5 64t-33.5 29.5t-47 7.5q-25 0 -53.5 -7t-45.5 -29q19 -4 33 -20t14 -41t-16 -39.5t-41 -14.5q-29 0 -42.5 18.5t-13.5 41.5q0 26 13 42t33 30
q23 16 59.5 27.5t82.5 11.5q41 0 70 -9.5t48 -27.5q26 -24 34 -58.5t8 -82.5v-278q0 -24 7 -35.5t24 -11.5q14 0 24.5 6t20.5 15l11 -17q-21 -16 -40 -26.5t-51 -10.5q-52 0 -69 27t-17 62q-32 -53 -72.5 -71t-84.5 -18zM207 33q30 0 59 17.5t54 58.5v196q-15 -22 -46.5 -35
t-65 -28.5t-57.5 -42t-24 -75.5q0 -46 23 -68.5t57 -22.5zM246 791q39 0 68 -24.5t29 -66.5q0 -43 -29 -67.5t-68 -24.5q-38 0 -67 24.5t-29 67.5q0 42 29 66.5t67 24.5zM246 770q-24 0 -46 -18t-22 -53t22 -52.5t46 -17.5q25 0 47 17.5t22 52.5t-22 53t-47 18z" />
    <glyph glyph-name="ae" unicode="&#xe6;" horiz-adv-x="745" 
d="M163 -7q-65 0 -94.5 32.5t-29.5 86.5q0 42 20.5 69.5t52.5 45t67.5 30t67.5 24.5t52.5 27t20.5 38v62q0 42 -12.5 64t-33.5 29.5t-47 7.5q-25 0 -53.5 -7t-45.5 -29q19 -4 33 -20t14 -41t-16 -39.5t-41 -14.5q-29 0 -42.5 18.5t-13.5 41.5q0 26 13 42t33 30
q23 16 59.5 27.5t82.5 11.5q41 0 70 -9.5t48 -27.5q25 -24 32.5 -59t7.5 -83l-61 -227q-29 -57 -60.5 -85t-63 -36.5t-60.5 -8.5zM207 33q30 0 59 17.5t54 58.5v196q-15 -22 -46.5 -35t-65 -28.5t-57.5 -42t-24 -75.5q0 -46 23 -68.5t57 -22.5zM529 -14q-66 0 -112 31
t-70 89t-24 139q0 93 24.5 156.5t70 95.5t107.5 32q83 0 130 -53.5t47 -166.5h-323l-1 19h228q2 49 -7 90.5t-28.5 66.5t-49.5 25q-42 0 -74 -46t-38 -146l3 -4q-2 -15 -3 -33t-1 -36q0 -68 20.5 -117t52.5 -74.5t68 -25.5q39 0 71.5 22t55.5 78l20 -8q-10 -33 -32.5 -64
t-56 -50.5t-78.5 -19.5z" />
    <glyph glyph-name="ccedilla" unicode="&#xe7;" horiz-adv-x="486" 
d="M279 529q32 0 62 -8t54 -24q23 -15 35 -34.5t12 -42.5q0 -27 -15 -41.5t-38 -14.5q-22 0 -38.5 13t-16.5 37q0 23 12.5 37t29.5 18q-10 18 -35.5 30t-54.5 12q-25 0 -50 -12t-46 -39.5t-34 -75t-13 -118.5q0 -88 20 -140t52.5 -74.5t71.5 -22.5t79 23t66 80l19 -7
q-10 -32 -33 -64.5t-60 -53.5t-91 -21q-62 0 -112 32t-79.5 91.5t-29.5 141.5t29.5 144.5t82.5 98t121 35.5zM265 6l-26 -78q13 3 28 5t31 2q28 0 44.5 -12t16.5 -35q0 -28 -18.5 -44.5t-44.5 -24t-50 -7.5q-28 0 -48.5 3.5t-34.5 7.5l4 18q5 -1 15.5 -2t22.5 -1
q29 0 59.5 9t30.5 36q0 28 -42 28q-8 0 -23 -1.5t-26 -5.5l34 102h27z" />
    <glyph glyph-name="egrave" unicode="&#xe8;" horiz-adv-x="506" 
d="M272 529q88 0 137.5 -53.5t49.5 -166.5h-353l-1 19h258q2 49 -8 90.5t-31.5 66.5t-55.5 25q-46 0 -81.5 -46t-42.5 -146l3 -4q-2 -15 -3 -33t-1 -36q0 -68 22 -117t57.5 -74.5t73.5 -25.5q45 0 83 22t64 78l20 -8q-11 -33 -36 -64t-63 -50.5t-88 -19.5q-72 0 -123.5 33
t-79 91.5t-27.5 134.5q0 88 28 151.5t79 98t119 34.5zM148 813q12 9 28.5 7t31.5 -22q15 -19 28 -45t31.5 -61t49.5 -84l-11 -9q-39 42 -69 68.5t-51.5 45.5t-37.5 38q-15 20 -13.5 36t13.5 26z" />
    <glyph glyph-name="eacute" unicode="&#xe9;" horiz-adv-x="506" 
d="M272 529q88 0 137.5 -53.5t49.5 -166.5h-353l-1 19h258q2 49 -8 90.5t-31.5 66.5t-55.5 25q-46 0 -81.5 -46t-42.5 -146l3 -4q-2 -15 -3 -33t-1 -36q0 -68 22 -117t57.5 -74.5t73.5 -25.5q45 0 83 22t64 78l20 -8q-11 -33 -36 -64t-63 -50.5t-88 -19.5q-72 0 -123.5 33
t-79 91.5t-27.5 134.5q0 88 28 151.5t79 98t119 34.5zM378 813q12 -10 13.5 -26t-13.5 -36q-15 -19 -37 -38t-51.5 -45.5t-69.5 -68.5l-11 9q31 49 49.5 84t31.5 61t28 45q15 20 31.5 22t28.5 -7z" />
    <glyph glyph-name="ecircumflex" unicode="&#xea;" horiz-adv-x="506" 
d="M272 529q88 0 137.5 -53.5t49.5 -166.5h-353l-1 19h258q2 49 -8 90.5t-31.5 66.5t-55.5 25q-46 0 -81.5 -46t-42.5 -146l3 -4q-2 -15 -3 -33t-1 -36q0 -68 22 -117t57.5 -74.5t73.5 -25.5q45 0 83 22t64 78l20 -8q-11 -33 -36 -64t-63 -50.5t-88 -19.5q-72 0 -123.5 33
t-79 91.5t-27.5 134.5q0 88 28 151.5t79 98t119 34.5zM280 802q20 -50 64.5 -96.5t102.5 -75.5l-8 -14q-54 19 -105 46t-83 54q-25 -27 -65.5 -54t-82.5 -46l-8 14q58 29 102.5 75.5t64.5 96.5h18z" />
    <glyph glyph-name="edieresis" unicode="&#xeb;" horiz-adv-x="506" 
d="M272 529q88 0 137.5 -53.5t49.5 -166.5h-353l-1 19h258q2 49 -8 90.5t-31.5 66.5t-55.5 25q-46 0 -81.5 -46t-42.5 -146l3 -4q-2 -15 -3 -33t-1 -36q0 -68 22 -117t57.5 -74.5t73.5 -25.5q45 0 83 22t64 78l20 -8q-11 -33 -36 -64t-63 -50.5t-88 -19.5q-72 0 -123.5 33
t-79 91.5t-27.5 134.5q0 88 28 151.5t79 98t119 34.5zM378 743q23 0 40.5 -17.5t17.5 -40.5q0 -24 -17.5 -41t-40.5 -17q-24 0 -41 17t-17 41q0 23 17 40.5t41 17.5zM166 743q23 0 40.5 -17.5t17.5 -40.5q0 -24 -17.5 -41t-40.5 -17q-24 0 -41 17t-17 41q0 23 17 40.5
t41 17.5z" />
    <glyph glyph-name="igrave" unicode="&#xec;" horiz-adv-x="293" 
d="M195 526v-433q0 -42 17.5 -57t58.5 -15v-21q-17 1 -51.5 2.5t-69.5 1.5q-34 0 -69 -1.5t-52 -2.5v21q41 0 58.5 15t17.5 57v313q0 45 -16 66.5t-60 21.5v21q32 -3 62 -3q29 0 55.5 3.5t48.5 10.5zM18 813q12 9 28.5 7t31.5 -22q15 -19 28 -45t31.5 -61t49.5 -84l-11 -9
q-39 42 -69 68.5t-51.5 45.5t-37.5 38q-15 20 -13.5 36t13.5 26z" />
    <glyph glyph-name="iacute" unicode="&#xed;" horiz-adv-x="293" 
d="M195 526v-433q0 -42 17.5 -57t58.5 -15v-21q-17 1 -51.5 2.5t-69.5 1.5q-34 0 -69 -1.5t-52 -2.5v21q41 0 58.5 15t17.5 57v313q0 45 -16 66.5t-60 21.5v21q32 -3 62 -3q29 0 55.5 3.5t48.5 10.5zM248 813q12 -10 13.5 -26t-13.5 -36q-15 -19 -37 -38t-51.5 -45.5
t-69.5 -68.5l-11 9q31 49 49.5 84t31.5 61t28 45q15 20 31.5 22t28.5 -7z" />
    <glyph glyph-name="icircumflex" unicode="&#xee;" horiz-adv-x="293" 
d="M195 526v-433q0 -42 17.5 -57t58.5 -15v-21q-17 1 -51.5 2.5t-69.5 1.5q-34 0 -69 -1.5t-52 -2.5v21q41 0 58.5 15t17.5 57v313q0 45 -16 66.5t-60 21.5v21q32 -3 62 -3q29 0 55.5 3.5t48.5 10.5zM150 802q20 -50 64.5 -96.5t102.5 -75.5l-8 -14q-54 19 -105 46t-83 54
q-25 -27 -65.5 -54t-82.5 -46l-8 14q58 29 102.5 75.5t64.5 96.5h18z" />
    <glyph glyph-name="idieresis" unicode="&#xef;" horiz-adv-x="293" 
d="M195 526v-433q0 -42 17.5 -57t58.5 -15v-21q-17 1 -51.5 2.5t-69.5 1.5q-34 0 -69 -1.5t-52 -2.5v21q41 0 58.5 15t17.5 57v313q0 45 -16 66.5t-60 21.5v21q32 -3 62 -3q29 0 55.5 3.5t48.5 10.5zM248 743q23 0 40.5 -17.5t17.5 -40.5q0 -24 -17.5 -41t-40.5 -17
q-24 0 -41 17t-17 41q0 23 17 40.5t41 17.5zM36 743q23 0 40.5 -17.5t17.5 -40.5q0 -24 -17.5 -41t-40.5 -17q-24 0 -41 17t-17 41q0 23 17 40.5t41 17.5z" />
    <glyph glyph-name="eth" unicode="&#xf0;" horiz-adv-x="554" 
d="M138 782q97 -38 178.5 -99t131.5 -154t50 -227q0 -107 -32.5 -177.5t-84.5 -104.5t-111 -34q-65 0 -116 30t-79.5 90t-28.5 149q0 66 24.5 129t73 104t120.5 41q76 0 114.5 -44.5t45.5 -138.5l-21 -4q-4 72 -25.5 107.5t-50 47t-56.5 11.5q-35 0 -64.5 -24t-46.5 -80
t-17 -151q0 -90 17 -144t45 -78.5t60 -24.5q35 0 66.5 26t51.5 90.5t20 179.5t-23 193t-62 129t-88 84t-100 57zM279 693l17 -14l-199 -97l-9 18zM435 769l9 -18l-148 -72l-17 14z" />
    <glyph glyph-name="ntilde" unicode="&#xf1;" horiz-adv-x="597" 
d="M365 529q38 0 63.5 -10t42.5 -28q19 -20 27 -50t8 -81v-267q0 -42 17.5 -57t58.5 -15v-21q-17 1 -52 2.5t-68 1.5t-64.5 -1.5t-47.5 -2.5v21q36 0 51 15t15 57v289q0 31 -5 57t-22.5 42t-53.5 16q-63 0 -101.5 -52.5t-38.5 -129.5v-222q0 -42 15 -57t51 -15v-21
q-16 1 -47.5 2.5t-64.5 1.5t-68 -1.5t-52 -2.5v21q41 0 58.5 15t17.5 57v313q0 45 -16 66.5t-60 21.5v21q32 -3 62 -3q29 0 55.5 3.5t48.5 10.5v-118q26 68 72.5 94.5t97.5 26.5zM232 768q27 0 46 -10t34.5 -23t32 -23t38.5 -10q21 0 40.5 12.5t36.5 40.5l14 -7
q-16 -55 -48 -79t-70 -24q-27 0 -46.5 10t-35 23.5t-32 23.5t-38.5 10q-21 0 -40.5 -12.5t-36.5 -41.5l-14 7q16 56 48.5 79.5t70.5 23.5z" />
    <glyph glyph-name="ograve" unicode="&#xf2;" horiz-adv-x="548" 
d="M274 529q64 0 115 -28t81.5 -88t30.5 -156t-30.5 -155.5t-81.5 -87.5t-115 -28q-63 0 -114.5 28t-82 87.5t-30.5 155.5t30.5 156t82 88t114.5 28zM274 509q-57 0 -93.5 -59t-36.5 -193t36.5 -192.5t93.5 -58.5t93.5 58.5t36.5 192.5t-36.5 193t-93.5 59zM154 813
q12 9 28.5 7t31.5 -22q15 -19 28 -45t31.5 -61t49.5 -84l-11 -9q-39 42 -69 68.5t-51.5 45.5t-37.5 38q-15 20 -13.5 36t13.5 26z" />
    <glyph glyph-name="oacute" unicode="&#xf3;" horiz-adv-x="548" 
d="M274 529q64 0 115 -28t81.5 -88t30.5 -156t-30.5 -155.5t-81.5 -87.5t-115 -28q-63 0 -114.5 28t-82 87.5t-30.5 155.5t30.5 156t82 88t114.5 28zM274 509q-57 0 -93.5 -59t-36.5 -193t36.5 -192.5t93.5 -58.5t93.5 58.5t36.5 192.5t-36.5 193t-93.5 59zM384 813
q12 -10 13.5 -26t-13.5 -36q-15 -19 -37 -38t-51.5 -45.5t-69.5 -68.5l-11 9q31 49 49.5 84t31.5 61t28 45q15 20 31.5 22t28.5 -7z" />
    <glyph glyph-name="ocircumflex" unicode="&#xf4;" horiz-adv-x="548" 
d="M274 529q64 0 115 -28t81.5 -88t30.5 -156t-30.5 -155.5t-81.5 -87.5t-115 -28q-63 0 -114.5 28t-82 87.5t-30.5 155.5t30.5 156t82 88t114.5 28zM274 509q-57 0 -93.5 -59t-36.5 -193t36.5 -192.5t93.5 -58.5t93.5 58.5t36.5 192.5t-36.5 193t-93.5 59zM286 802
q20 -50 64.5 -96.5t102.5 -75.5l-8 -14q-54 19 -105 46t-83 54q-25 -27 -65.5 -54t-82.5 -46l-8 14q58 29 102.5 75.5t64.5 96.5h18z" />
    <glyph glyph-name="otilde" unicode="&#xf5;" horiz-adv-x="548" 
d="M274 529q64 0 115 -28t81.5 -88t30.5 -156t-30.5 -155.5t-81.5 -87.5t-115 -28q-63 0 -114.5 28t-82 87.5t-30.5 155.5t30.5 156t82 88t114.5 28zM274 509q-57 0 -93.5 -59t-36.5 -193t36.5 -192.5t93.5 -58.5t93.5 58.5t36.5 192.5t-36.5 193t-93.5 59zM203 768
q27 0 46 -10t34.5 -23t32 -23t38.5 -10q21 0 40.5 12.5t36.5 40.5l14 -7q-16 -55 -48 -79t-70 -24q-27 0 -46.5 10t-35 23.5t-32 23.5t-38.5 10q-21 0 -40.5 -12.5t-36.5 -41.5l-14 7q16 56 48.5 79.5t70.5 23.5z" />
    <glyph glyph-name="odieresis" unicode="&#xf6;" horiz-adv-x="548" 
d="M274 529q64 0 115 -28t81.5 -88t30.5 -156t-30.5 -155.5t-81.5 -87.5t-115 -28q-63 0 -114.5 28t-82 87.5t-30.5 155.5t30.5 156t82 88t114.5 28zM274 509q-57 0 -93.5 -59t-36.5 -193t36.5 -192.5t93.5 -58.5t93.5 58.5t36.5 192.5t-36.5 193t-93.5 59zM384 743
q23 0 40.5 -17.5t17.5 -40.5q0 -24 -17.5 -41t-40.5 -17q-24 0 -41 17t-17 41q0 23 17 40.5t41 17.5zM172 743q23 0 40.5 -17.5t17.5 -40.5q0 -24 -17.5 -41t-40.5 -17q-24 0 -41 17t-17 41q0 23 17 40.5t41 17.5z" />
    <glyph glyph-name="divide" unicode="&#xf7;" horiz-adv-x="649" 
d="M324 266q23 0 39.5 -16t16.5 -39t-16.5 -39.5t-39.5 -16.5q-22 0 -38.5 16.5t-16.5 39.5t16.5 39t38.5 16zM324 554q23 0 39.5 -16t16.5 -39t-16.5 -39t-39.5 -16q-22 0 -38.5 16t-16.5 39t16.5 39t38.5 16zM574 370v-30h-501v30h501z" />
    <glyph glyph-name="oslash" unicode="&#xf8;" horiz-adv-x="548" 
d="M274 529q64 0 115 -28t81.5 -88t30.5 -156t-30.5 -155.5t-81.5 -87.5t-115 -28q-63 0 -114.5 28t-82 87.5t-30.5 155.5t30.5 156t82 88t114.5 28zM274 509q-57 0 -93.5 -59t-36.5 -193t36.5 -192.5t93.5 -58.5t93.5 58.5t36.5 192.5t-36.5 193t-93.5 59zM392 466l15 -20
l-240 -383l-16 21zM141 84l16 -21l-93 -136l-21 14zM485 587l19 -13l-87 -128l-15 20z" />
    <glyph glyph-name="ugrave" unicode="&#xf9;" horiz-adv-x="581" 
d="M483 526v-418q0 -45 16.5 -66.5t59.5 -21.5v-21q-31 3 -62 3q-29 0 -55.5 -3t-48.5 -11v118q-25 -65 -70.5 -92.5t-93.5 -27.5q-35 0 -61 10t-43 28q-19 20 -26 52t-7 79v251q0 45 -16 66.5t-60 21.5v21q32 -3 62 -3q29 0 55.5 3.5t48.5 10.5v-393q0 -31 4 -57t20 -42
t52 -16q59 0 97 52.5t38 128.5v207q0 45 -16 66.5t-60 21.5v21q32 -3 62 -3q29 0 55.5 3.5t48.5 10.5zM157 813q12 9 28.5 7t31.5 -22q15 -19 28 -45t31.5 -61t49.5 -84l-11 -9q-39 42 -69 68.5t-51.5 45.5t-37.5 38q-15 20 -13.5 36t13.5 26z" />
    <glyph glyph-name="uacute" unicode="&#xfa;" horiz-adv-x="581" 
d="M483 526v-418q0 -45 16.5 -66.5t59.5 -21.5v-21q-31 3 -62 3q-29 0 -55.5 -3t-48.5 -11v118q-25 -65 -70.5 -92.5t-93.5 -27.5q-35 0 -61 10t-43 28q-19 20 -26 52t-7 79v251q0 45 -16 66.5t-60 21.5v21q32 -3 62 -3q29 0 55.5 3.5t48.5 10.5v-393q0 -31 4 -57t20 -42
t52 -16q59 0 97 52.5t38 128.5v207q0 45 -16 66.5t-60 21.5v21q32 -3 62 -3q29 0 55.5 3.5t48.5 10.5zM387 813q12 -10 13.5 -26t-13.5 -36q-15 -19 -37 -38t-51.5 -45.5t-69.5 -68.5l-11 9q31 49 49.5 84t31.5 61t28 45q15 20 31.5 22t28.5 -7z" />
    <glyph glyph-name="ucircumflex" unicode="&#xfb;" horiz-adv-x="581" 
d="M483 526v-418q0 -45 16.5 -66.5t59.5 -21.5v-21q-31 3 -62 3q-29 0 -55.5 -3t-48.5 -11v118q-25 -65 -70.5 -92.5t-93.5 -27.5q-35 0 -61 10t-43 28q-19 20 -26 52t-7 79v251q0 45 -16 66.5t-60 21.5v21q32 -3 62 -3q29 0 55.5 3.5t48.5 10.5v-393q0 -31 4 -57t20 -42
t52 -16q59 0 97 52.5t38 128.5v207q0 45 -16 66.5t-60 21.5v21q32 -3 62 -3q29 0 55.5 3.5t48.5 10.5zM289 802q20 -50 64.5 -96.5t102.5 -75.5l-8 -14q-54 19 -105 46t-83 54q-25 -27 -65.5 -54t-82.5 -46l-8 14q58 29 102.5 75.5t64.5 96.5h18z" />
    <glyph glyph-name="udieresis" unicode="&#xfc;" horiz-adv-x="581" 
d="M483 526v-418q0 -45 16.5 -66.5t59.5 -21.5v-21q-31 3 -62 3q-29 0 -55.5 -3t-48.5 -11v118q-25 -65 -70.5 -92.5t-93.5 -27.5q-35 0 -61 10t-43 28q-19 20 -26 52t-7 79v251q0 45 -16 66.5t-60 21.5v21q32 -3 62 -3q29 0 55.5 3.5t48.5 10.5v-393q0 -31 4 -57t20 -42
t52 -16q59 0 97 52.5t38 128.5v207q0 45 -16 66.5t-60 21.5v21q32 -3 62 -3q29 0 55.5 3.5t48.5 10.5zM387 743q23 0 40.5 -17.5t17.5 -40.5q0 -24 -17.5 -41t-40.5 -17q-24 0 -41 17t-17 41q0 23 17 40.5t41 17.5zM175 743q23 0 40.5 -17.5t17.5 -40.5q0 -24 -17.5 -41
t-40.5 -17q-24 0 -41 17t-17 41q0 23 17 40.5t41 17.5z" />
    <glyph glyph-name="yacute" unicode="&#xfd;" horiz-adv-x="504" 
d="M494 515v-20q-19 -2 -35 -17t-30 -53l-164 -430h-17l-184 443q-19 39 -37.5 47.5t-30.5 8.5v21q22 -3 46 -4.5t52 -1.5q31 0 65.5 2t64.5 4v-21q-25 0 -44.5 -3.5t-24.5 -21t12 -59.5l123 -305l-6 -2l114 298q19 50 4 70t-68 24v20q26 -1 43.5 -2t40.5 -1t41.5 1t34.5 2z
M265 -5l-34 -87q-19 -49 -43 -70q-16 -15 -38 -20.5t-40 -5.5q-19 0 -34.5 7t-24.5 20.5t-9 32.5q0 24 14 38.5t39 14.5q21 0 36 -12t15 -35q0 -17 -8 -28t-19 -17q2 -1 3.5 -1h2.5q27 0 48 18.5t37 59.5l36 93zM361 813q12 -10 13.5 -26t-13.5 -36q-15 -19 -37 -38
t-51.5 -45.5t-69.5 -68.5l-11 9q31 49 49.5 84t31.5 61t28 45q15 20 31.5 22t28.5 -7z" />
    <glyph glyph-name="thorn" unicode="&#xfe;" horiz-adv-x="559" 
d="M166 783v-871q0 -43 25.5 -57.5t70.5 -14.5v-21q-22 1 -61 2.5t-83 1.5q-31 0 -61.5 -1.5t-46.5 -2.5v21q36 0 51 13t15 49v761q0 45 -16 66.5t-60 21.5v21q32 -3 62 -3q29 0 55.5 3.5t48.5 10.5zM326 529q79 0 132.5 -63.5t53.5 -184.5q0 -72 -23.5 -140t-73.5 -111.5
t-132 -43.5q-47 0 -81.5 22t-46.5 53l10 14q14 -28 40.5 -47t66.5 -19q56 0 87 35t43.5 93.5t12.5 129.5q0 80 -13 131t-39 76t-64 25q-49 0 -89 -40.5t-51 -122.5l-12 14q11 85 60.5 132t118.5 47z" />
    <glyph glyph-name="ydieresis" unicode="&#xff;" horiz-adv-x="504" 
d="M494 515v-20q-19 -2 -35 -17t-30 -53l-164 -430h-17l-184 443q-19 39 -37.5 47.5t-30.5 8.5v21q22 -3 46 -4.5t52 -1.5q31 0 65.5 2t64.5 4v-21q-25 0 -44.5 -3.5t-24.5 -21t12 -59.5l123 -305l-6 -2l114 298q19 50 4 70t-68 24v20q26 -1 43.5 -2t40.5 -1t41.5 1t34.5 2z
M265 -5l-34 -87q-19 -49 -43 -70q-16 -15 -38 -20.5t-40 -5.5q-19 0 -34.5 7t-24.5 20.5t-9 32.5q0 24 14 38.5t39 14.5q21 0 36 -12t15 -35q0 -17 -8 -28t-19 -17q2 -1 3.5 -1h2.5q27 0 48 18.5t37 59.5l36 93zM361 743q23 0 40.5 -17.5t17.5 -40.5q0 -24 -17.5 -41
t-40.5 -17q-24 0 -41 17t-17 41q0 23 17 40.5t41 17.5zM149 743q23 0 40.5 -17.5t17.5 -40.5q0 -24 -17.5 -41t-40.5 -17q-24 0 -41 17t-17 41q0 23 17 40.5t41 17.5z" />
    <glyph glyph-name="Amacron" unicode="&#x100;" horiz-adv-x="630" 
d="M323 713l244 -629q15 -38 34 -50.5t35 -13.5v-20q-20 2 -49 2.5t-58 0.5q-39 0 -73 -0.5t-55 -2.5v20q51 2 65 17.5t-6 66.5l-186 497l16 13l-174 -452q-21 -54 -20 -84.5t23 -43.5t64 -14v-20q-28 2 -58.5 2.5t-56.5 0.5q-25 0 -42.5 -0.5t-32.5 -2.5v20q20 5 41 23.5
t38 63.5l235 606h8h8zM445 288v-20h-298l10 20h288zM490 844v-25h-352v25h352z" />
    <glyph glyph-name="amacron" unicode="&#x101;" horiz-adv-x="498" 
d="M163 -7q-65 0 -94.5 32.5t-29.5 86.5q0 42 20.5 69.5t52.5 45t67.5 30t67.5 24.5t52.5 27t20.5 38v62q0 42 -12.5 64t-33.5 29.5t-47 7.5q-25 0 -53.5 -7t-45.5 -29q19 -4 33 -20t14 -41t-16 -39.5t-41 -14.5q-29 0 -42.5 18.5t-13.5 41.5q0 26 13 42t33 30
q23 16 59.5 27.5t82.5 11.5q41 0 70 -9.5t48 -27.5q26 -24 34 -58.5t8 -82.5v-278q0 -24 7 -35.5t24 -11.5q14 0 24.5 6t20.5 15l11 -17q-21 -16 -40 -26.5t-51 -10.5q-52 0 -69 27t-17 62q-32 -53 -72.5 -71t-84.5 -18zM207 33q30 0 59 17.5t54 58.5v196q-15 -22 -46.5 -35
t-65 -28.5t-57.5 -42t-24 -75.5q0 -46 23 -68.5t57 -22.5zM399 712v-25h-312v25h312z" />
    <glyph glyph-name="Abreve" unicode="&#x102;" horiz-adv-x="630" 
d="M323 713l244 -629q15 -38 34 -50.5t35 -13.5v-20q-20 2 -49 2.5t-58 0.5q-39 0 -73 -0.5t-55 -2.5v20q51 2 65 17.5t-6 66.5l-186 497l16 13l-174 -452q-21 -54 -20 -84.5t23 -43.5t64 -14v-20q-28 2 -58.5 2.5t-56.5 0.5q-25 0 -42.5 -0.5t-32.5 -2.5v20q20 5 41 23.5
t38 63.5l235 606h8h8zM445 288v-20h-298l10 20h288zM501 909l12 -11q-16 -26 -43 -53t-66 -45t-90 -18t-90 18t-66 45t-43 53l13 10q23 -22 68.5 -43t117.5 -21t118 21.5t69 43.5z" />
    <glyph glyph-name="abreve" unicode="&#x103;" horiz-adv-x="498" 
d="M163 -7q-65 0 -94.5 32.5t-29.5 86.5q0 42 20.5 69.5t52.5 45t67.5 30t67.5 24.5t52.5 27t20.5 38v62q0 42 -12.5 64t-33.5 29.5t-47 7.5q-25 0 -53.5 -7t-45.5 -29q19 -4 33 -20t14 -41t-16 -39.5t-41 -14.5q-29 0 -42.5 18.5t-13.5 41.5q0 26 13 42t33 30
q23 16 59.5 27.5t82.5 11.5q41 0 70 -9.5t48 -27.5q26 -24 34 -58.5t8 -82.5v-278q0 -24 7 -35.5t24 -11.5q14 0 24.5 6t20.5 15l11 -17q-21 -16 -40 -26.5t-51 -10.5q-52 0 -69 27t-17 62q-32 -53 -72.5 -71t-84.5 -18zM207 33q30 0 59 17.5t54 58.5v196q-15 -22 -46.5 -35
t-65 -28.5t-57.5 -42t-24 -75.5q0 -46 23 -68.5t57 -22.5zM407 788l17 -9q-14 -33 -38.5 -67t-59.5 -56.5t-81 -22.5t-81 22.5t-59.5 56.5t-38.5 67l17 9q20 -34 59 -65t103 -31q65 0 103.5 31t58.5 65z" />
    <glyph glyph-name="Aogonek" unicode="&#x104;" horiz-adv-x="630" 
d="M323 713l244 -629q15 -38 34 -50.5t35 -13.5v-20q-20 2 -49 2.5t-58 0.5q-39 0 -73 -0.5t-55 -2.5v20q51 2 65 17.5t-6 66.5l-186 497l16 13l-174 -452q-21 -54 -20 -84.5t23 -43.5t64 -14v-20q-28 2 -58.5 2.5t-56.5 0.5q-25 0 -42.5 -0.5t-32.5 -2.5v20q20 5 41 23.5
t38 63.5l235 606h8h8zM445 288v-20h-298l10 20h288zM624 3q-59 -16 -81 -44.5t-22 -54.5q0 -19 11.5 -31.5t31.5 -12.5q19 0 35 10t26 23l15 -13q-23 -35 -51.5 -51.5t-61.5 -16.5q-36 0 -57.5 18t-21.5 47q0 39 36 71.5t102 54.5h38z" />
    <glyph glyph-name="aogonek" unicode="&#x105;" horiz-adv-x="498" 
d="M163 -7q-65 0 -94.5 32.5t-29.5 86.5q0 42 20.5 69.5t52.5 45t67.5 30t67.5 24.5t52.5 27t20.5 38v62q0 42 -12.5 64t-33.5 29.5t-47 7.5q-25 0 -53.5 -7t-45.5 -29q19 -4 33 -20t14 -41t-16 -39.5t-41 -14.5q-29 0 -42.5 18.5t-13.5 41.5q0 26 13 42t33 30
q23 16 59.5 27.5t82.5 11.5q41 0 70 -9.5t48 -27.5q26 -24 34 -58.5t8 -82.5v-278q0 -24 7 -35.5t24 -11.5q14 0 24.5 6t20.5 15l11 -17q-21 -16 -40 -26.5t-51 -10.5q-52 0 -69 27t-17 62q-32 -53 -72.5 -71t-84.5 -18zM207 33q30 0 59 17.5t54 58.5v196q-15 -22 -46.5 -35
t-65 -28.5t-57.5 -42t-24 -75.5q0 -46 23 -68.5t57 -22.5zM454 3q-2 -2 -5 -3t-5 -2q-49 -21 -68 -45.5t-19 -48.5q0 -19 11.5 -31.5t31.5 -12.5q19 0 35 10t26 23l15 -13q-23 -35 -51.5 -51.5t-61.5 -16.5q-36 0 -57.5 18t-21.5 47q0 39 36 71.5t102 54.5h32z" />
    <glyph glyph-name="Cacute" unicode="&#x106;" horiz-adv-x="688" 
d="M371 722q66 0 108.5 -19.5t75.5 -45.5q20 -15 30.5 -3.5t14.5 54.5h23q-2 -37 -3 -90t-1 -140h-23q-7 43 -13 68.5t-14.5 43.5t-22.5 36q-31 41 -78 59.5t-99 18.5q-49 0 -88.5 -24.5t-68 -70.5t-44 -111t-15.5 -146q0 -84 17 -148.5t47.5 -108.5t72 -66.5t89.5 -22.5
q45 0 94 18t77 58q22 29 30.5 63t15.5 95h23q0 -91 1 -146.5t3 -93.5h-23q-4 43 -13.5 54t-31.5 -3q-37 -26 -78.5 -45.5t-106.5 -19.5q-95 0 -166.5 43t-111 124t-39.5 195q0 112 41 196t112.5 131t164.5 47zM471 926q20 13 36.5 9.5t24.5 -16.5t4 -28.5t-25 -29.5
q-21 -13 -48.5 -23.5t-64 -25t-88.5 -40.5l-7 13q46 35 75.5 61.5t50.5 46.5t42 33z" />
    <glyph glyph-name="cacute" unicode="&#x107;" horiz-adv-x="486" 
d="M279 529q32 0 62 -8t54 -24q23 -15 35 -34.5t12 -42.5q0 -27 -15 -41.5t-38 -14.5q-22 0 -38.5 13t-16.5 37q0 23 12.5 37t29.5 18q-10 18 -35.5 30t-54.5 12q-25 0 -50 -12t-46 -39.5t-34 -75t-13 -118.5q0 -88 20 -140t52.5 -74.5t71.5 -22.5t79 23t66 80l19 -7
q-10 -32 -33 -64.5t-60 -53.5t-91 -21q-62 0 -112 32t-79.5 91.5t-29.5 141.5t29.5 144.5t82.5 98t121 35.5zM370 813q12 -10 13.5 -26t-13.5 -36q-15 -19 -37 -38t-51.5 -45.5t-69.5 -68.5l-11 9q31 49 49.5 84t31.5 61t28 45q15 20 31.5 22t28.5 -7z" />
    <glyph glyph-name="Ccircumflex" unicode="&#x108;" horiz-adv-x="688" 
d="M371 722q66 0 108.5 -19.5t75.5 -45.5q20 -15 30.5 -3.5t14.5 54.5h23q-2 -37 -3 -90t-1 -140h-23q-7 43 -13 68.5t-14.5 43.5t-22.5 36q-31 41 -78 59.5t-99 18.5q-49 0 -88.5 -24.5t-68 -70.5t-44 -111t-15.5 -146q0 -84 17 -148.5t47.5 -108.5t72 -66.5t89.5 -22.5
q45 0 94 18t77 58q22 29 30.5 63t15.5 95h23q0 -91 1 -146.5t3 -93.5h-23q-4 43 -13.5 54t-31.5 -3q-37 -26 -78.5 -45.5t-106.5 -19.5q-95 0 -166.5 43t-111 124t-39.5 195q0 112 41 196t112.5 131t164.5 47zM373 916q23 -38 72.5 -73.5t114.5 -58.5l-5 -14q-60 13 -118 32
t-93 38q-28 -19 -75.5 -38t-95.5 -32l-5 14q65 23 114.5 58.5t72.5 73.5h18z" />
    <glyph glyph-name="ccircumflex" unicode="&#x109;" horiz-adv-x="486" 
d="M279 529q32 0 62 -8t54 -24q23 -15 35 -34.5t12 -42.5q0 -27 -15 -41.5t-38 -14.5q-22 0 -38.5 13t-16.5 37q0 23 12.5 37t29.5 18q-10 18 -35.5 30t-54.5 12q-25 0 -50 -12t-46 -39.5t-34 -75t-13 -118.5q0 -88 20 -140t52.5 -74.5t71.5 -22.5t79 23t66 80l19 -7
q-10 -32 -33 -64.5t-60 -53.5t-91 -21q-62 0 -112 32t-79.5 91.5t-29.5 141.5t29.5 144.5t82.5 98t121 35.5zM272 802q20 -50 64.5 -96.5t102.5 -75.5l-8 -14q-54 19 -105 46t-83 54q-25 -27 -65.5 -54t-82.5 -46l-8 14q58 29 102.5 75.5t64.5 96.5h18z" />
    <glyph glyph-name="Cdotaccent" unicode="&#x10a;" horiz-adv-x="688" 
d="M371 722q66 0 108.5 -19.5t75.5 -45.5q20 -15 30.5 -3.5t14.5 54.5h23q-2 -37 -3 -90t-1 -140h-23q-7 43 -13 68.5t-14.5 43.5t-22.5 36q-31 41 -78 59.5t-99 18.5q-49 0 -88.5 -24.5t-68 -70.5t-44 -111t-15.5 -146q0 -84 17 -148.5t47.5 -108.5t72 -66.5t89.5 -22.5
q45 0 94 18t77 58q22 29 30.5 63t15.5 95h23q0 -91 1 -146.5t3 -93.5h-23q-4 43 -13.5 54t-31.5 -3q-37 -26 -78.5 -45.5t-106.5 -19.5q-95 0 -166.5 43t-111 124t-39.5 195q0 112 41 196t112.5 131t164.5 47zM364 900q26 0 45 -19t19 -45t-19 -45t-45 -19t-45 19t-19 45
t19 45t45 19z" />
    <glyph glyph-name="cdotaccent" unicode="&#x10b;" horiz-adv-x="486" 
d="M279 529q32 0 62 -8t54 -24q23 -15 35 -34.5t12 -42.5q0 -27 -15 -41.5t-38 -14.5q-22 0 -38.5 13t-16.5 37q0 23 12.5 37t29.5 18q-10 18 -35.5 30t-54.5 12q-25 0 -50 -12t-46 -39.5t-34 -75t-13 -118.5q0 -88 20 -140t52.5 -74.5t71.5 -22.5t79 23t66 80l19 -7
q-10 -32 -33 -64.5t-60 -53.5t-91 -21q-62 0 -112 32t-79.5 91.5t-29.5 141.5t29.5 144.5t82.5 98t121 35.5zM277 765q26 0 45 -19t19 -45t-19 -45t-45 -19t-45 19t-19 45t19 45t45 19z" />
    <glyph glyph-name="Ccaron" unicode="&#x10c;" horiz-adv-x="688" 
d="M371 722q66 0 108.5 -19.5t75.5 -45.5q20 -15 30.5 -3.5t14.5 54.5h23q-2 -37 -3 -90t-1 -140h-23q-7 43 -13 68.5t-14.5 43.5t-22.5 36q-31 41 -78 59.5t-99 18.5q-49 0 -88.5 -24.5t-68 -70.5t-44 -111t-15.5 -146q0 -84 17 -148.5t47.5 -108.5t72 -66.5t89.5 -22.5
q45 0 94 18t77 58q22 29 30.5 63t15.5 95h23q0 -91 1 -146.5t3 -93.5h-23q-4 43 -13.5 54t-31.5 -3q-37 -26 -78.5 -45.5t-106.5 -19.5q-95 0 -166.5 43t-111 124t-39.5 195q0 112 41 196t112.5 131t164.5 47zM552 926l5 -14q-65 -22 -114.5 -58t-72.5 -74h-18
q-23 38 -72.5 74t-114.5 58l5 14q60 -13 118.5 -32t92.5 -38q29 19 76 38t95 32z" />
    <glyph glyph-name="ccaron" unicode="&#x10d;" horiz-adv-x="486" 
d="M279 529q32 0 62 -8t54 -24q23 -15 35 -34.5t12 -42.5q0 -27 -15 -41.5t-38 -14.5q-22 0 -38.5 13t-16.5 37q0 23 12.5 37t29.5 18q-10 18 -35.5 30t-54.5 12q-25 0 -50 -12t-46 -39.5t-34 -75t-13 -118.5q0 -88 20 -140t52.5 -74.5t71.5 -22.5t79 23t66 80l19 -7
q-10 -32 -33 -64.5t-60 -53.5t-91 -21q-62 0 -112 32t-79.5 91.5t-29.5 141.5t29.5 144.5t82.5 98t121 35.5zM421 802l8 -14q-58 -28 -102.5 -75t-64.5 -97h-18q-20 50 -64.5 97t-102.5 75l8 14q54 -19 105.5 -46t82.5 -54q26 27 66 54t82 46z" />
    <glyph glyph-name="Dcaron" unicode="&#x10e;" horiz-adv-x="723" 
d="M315 708q179 0 266 -89.5t87 -256.5q0 -109 -42.5 -190.5t-123.5 -126.5t-196 -45q-22 0 -65 1.5t-75 1.5q-35 0 -69 -0.5t-55 -2.5v20q34 2 51.5 8t23.5 24t6 54v496q0 37 -6 54.5t-23.5 24t-51.5 7.5v20q21 -1 55 -2.5t67 -0.5q35 1 79 2t72 1zM290 690q-46 0 -60 -17
t-14 -69v-500q0 -52 14.5 -69t60.5 -17q109 0 169 39.5t84 115.5t24 185q0 168 -61.5 250t-216.5 82zM503 926l5 -14q-65 -22 -114.5 -58t-72.5 -74h-18q-23 38 -72.5 74t-114.5 58l5 14q60 -13 118.5 -32t92.5 -38q29 19 76 38t95 32z" />
    <glyph glyph-name="dcaron" unicode="&#x10f;" horiz-adv-x="581" 
d="M484 784v-675q0 -45 16.5 -66.5t59.5 -21.5v-21q-31 3 -62 3q-29 0 -55.5 -3t-48.5 -11v675q0 45 -16 66.5t-60 21.5v21q32 -3 62 -3q29 0 55.5 3.5t48.5 10.5zM274 529q44 0 82.5 -21t51.5 -72l-13 -10q-14 42 -43.5 61t-69.5 19q-59 0 -98.5 -61t-38.5 -188
q0 -81 15.5 -134.5t46 -80t74.5 -26.5q42 0 76 36t41 106l12 -14q-8 -76 -48.5 -117t-109.5 -41q-62 0 -108.5 30t-71 90t-24.5 151t31.5 151.5t83 90.5t111.5 30zM619 784q2 -5 3.5 -18.5t1.5 -22.5q0 -29 -18 -72t-49 -108l-14 4q12 68 16 100t4 45q0 20 -3.5 30t-16.5 10
v21q27 -2 44.5 2t31.5 9z" />
    <glyph glyph-name="Dcroat" unicode="&#x110;" horiz-adv-x="723" 
d="M315 708q179 0 266 -89.5t87 -256.5q0 -109 -42.5 -190.5t-123.5 -126.5t-196 -45q-22 0 -65 1.5t-75 1.5q-35 0 -69 -0.5t-55 -2.5v20q34 2 51.5 8t23.5 24t6 54v496q0 37 -6 54.5t-23.5 24t-51.5 7.5v20q21 -1 55 -2.5t67 -0.5q35 1 79 2t72 1zM290 690q-46 0 -60 -17
t-14 -69v-500q0 -52 14.5 -69t60.5 -17q109 0 169 39.5t84 115.5t24 185q0 168 -61.5 250t-216.5 82zM363 366v-20h-354v20h354z" />
    <glyph glyph-name="dcroat" unicode="&#x111;" horiz-adv-x="581" 
d="M484 784v-675q0 -45 16.5 -66.5t59.5 -21.5v-21q-31 3 -62 3q-29 0 -55.5 -3t-48.5 -11v675q0 45 -16 66.5t-60 21.5v21q32 -3 62 -3q29 0 55.5 3.5t48.5 10.5zM274 529q44 0 82.5 -21t51.5 -72l-13 -10q-14 42 -43.5 61t-69.5 19q-59 0 -98.5 -61t-38.5 -188
q0 -81 15.5 -134.5t46 -80t74.5 -26.5q42 0 76 36t41 106l12 -14q-8 -76 -48.5 -117t-109.5 -41q-62 0 -108.5 30t-71 90t-24.5 151t31.5 151.5t83 90.5t111.5 30zM572 628v-20h-354v20h354z" />
    <glyph glyph-name="Emacron" unicode="&#x112;" horiz-adv-x="609" 
d="M541 708q-4 -35 -5.5 -68t-1.5 -50q0 -18 1 -34.5t2 -27.5h-23q-6 59 -17 93.5t-37.5 49t-79.5 14.5h-83q-34 0 -51.5 -5.5t-23.5 -23t-6 -54.5v-496q0 -36 6 -54t23.5 -23.5t51.5 -5.5h73q63 0 95.5 17t47 55.5t21.5 104.5h23q-3 -27 -3 -72q0 -19 1.5 -54.5t5.5 -73.5
q-51 2 -115 2.5t-114 0.5h-79.5t-105.5 -0.5t-105 -2.5v20q34 2 51.5 8t23.5 24t6 54v496q0 37 -6 54.5t-23.5 24t-51.5 7.5v20q49 -1 105 -2t105.5 -1h79.5q46 0 104.5 0.5t104.5 2.5zM369 366v-10v-10h-183v10v10h183zM398 498q-4 -57 -3.5 -87t0.5 -55t1 -55t5 -87h-23
q-4 32 -9.5 62.5t-24 50t-62.5 19.5v20q44 0 61.5 23t22.5 54t9 55h23zM482 844v-25h-352v25h352z" />
    <glyph glyph-name="emacron" unicode="&#x113;" horiz-adv-x="506" 
d="M272 529q88 0 137.5 -53.5t49.5 -166.5h-353l-1 19h258q2 49 -8 90.5t-31.5 66.5t-55.5 25q-46 0 -81.5 -46t-42.5 -146l3 -4q-2 -15 -3 -33t-1 -36q0 -68 22 -117t57.5 -74.5t73.5 -25.5q45 0 83 22t64 78l20 -8q-11 -33 -36 -64t-63 -50.5t-88 -19.5q-72 0 -123.5 33
t-79 91.5t-27.5 134.5q0 88 28 151.5t79 98t119 34.5zM424 712v-25h-312v25h312z" />
    <glyph glyph-name="Ebreve" unicode="&#x114;" horiz-adv-x="609" 
d="M541 708q-4 -35 -5.5 -68t-1.5 -50q0 -18 1 -34.5t2 -27.5h-23q-6 59 -17 93.5t-37.5 49t-79.5 14.5h-83q-34 0 -51.5 -5.5t-23.5 -23t-6 -54.5v-496q0 -36 6 -54t23.5 -23.5t51.5 -5.5h73q63 0 95.5 17t47 55.5t21.5 104.5h23q-3 -27 -3 -72q0 -19 1.5 -54.5t5.5 -73.5
q-51 2 -115 2.5t-114 0.5h-79.5t-105.5 -0.5t-105 -2.5v20q34 2 51.5 8t23.5 24t6 54v496q0 37 -6 54.5t-23.5 24t-51.5 7.5v20q49 -1 105 -2t105.5 -1h79.5q46 0 104.5 0.5t104.5 2.5zM369 366v-10v-10h-183v10v10h183zM398 498q-4 -57 -3.5 -87t0.5 -55t1 -55t5 -87h-23
q-4 32 -9.5 62.5t-24 50t-62.5 19.5v20q44 0 61.5 23t22.5 54t9 55h23zM493 909l12 -11q-16 -26 -43 -53t-66 -45t-90 -18t-90 18t-66 45t-43 53l13 10q23 -22 68.5 -43t117.5 -21t118 21.5t69 43.5z" />
    <glyph glyph-name="ebreve" unicode="&#x115;" horiz-adv-x="506" 
d="M272 529q88 0 137.5 -53.5t49.5 -166.5h-353l-1 19h258q2 49 -8 90.5t-31.5 66.5t-55.5 25q-46 0 -81.5 -46t-42.5 -146l3 -4q-2 -15 -3 -33t-1 -36q0 -68 22 -117t57.5 -74.5t73.5 -25.5q45 0 83 22t64 78l20 -8q-11 -33 -36 -64t-63 -50.5t-88 -19.5q-72 0 -123.5 33
t-79 91.5t-27.5 134.5q0 88 28 151.5t79 98t119 34.5zM432 788l17 -9q-14 -33 -38.5 -67t-59.5 -56.5t-81 -22.5t-81 22.5t-59.5 56.5t-38.5 67l17 9q20 -34 59 -65t103 -31q65 0 103.5 31t58.5 65z" />
    <glyph glyph-name="Edotaccent" unicode="&#x116;" horiz-adv-x="609" 
d="M541 708q-4 -35 -5.5 -68t-1.5 -50q0 -18 1 -34.5t2 -27.5h-23q-6 59 -17 93.5t-37.5 49t-79.5 14.5h-83q-34 0 -51.5 -5.5t-23.5 -23t-6 -54.5v-496q0 -36 6 -54t23.5 -23.5t51.5 -5.5h73q63 0 95.5 17t47 55.5t21.5 104.5h23q-3 -27 -3 -72q0 -19 1.5 -54.5t5.5 -73.5
q-51 2 -115 2.5t-114 0.5h-79.5t-105.5 -0.5t-105 -2.5v20q34 2 51.5 8t23.5 24t6 54v496q0 37 -6 54.5t-23.5 24t-51.5 7.5v20q49 -1 105 -2t105.5 -1h79.5q46 0 104.5 0.5t104.5 2.5zM369 366v-10v-10h-183v10v10h183zM398 498q-4 -57 -3.5 -87t0.5 -55t1 -55t5 -87h-23
q-4 32 -9.5 62.5t-24 50t-62.5 19.5v20q44 0 61.5 23t22.5 54t9 55h23zM306 900q26 0 45 -19t19 -45t-19 -45t-45 -19t-45 19t-19 45t19 45t45 19z" />
    <glyph glyph-name="edotaccent" unicode="&#x117;" horiz-adv-x="506" 
d="M272 529q88 0 137.5 -53.5t49.5 -166.5h-353l-1 19h258q2 49 -8 90.5t-31.5 66.5t-55.5 25q-46 0 -81.5 -46t-42.5 -146l3 -4q-2 -15 -3 -33t-1 -36q0 -68 22 -117t57.5 -74.5t73.5 -25.5q45 0 83 22t64 78l20 -8q-11 -33 -36 -64t-63 -50.5t-88 -19.5q-72 0 -123.5 33
t-79 91.5t-27.5 134.5q0 88 28 151.5t79 98t119 34.5zM271 765q26 0 45 -19t19 -45t-19 -45t-45 -19t-45 19t-19 45t19 45t45 19z" />
    <glyph glyph-name="Eogonek" unicode="&#x118;" horiz-adv-x="609" 
d="M541 708q-4 -35 -5.5 -68t-1.5 -50q0 -18 1 -34.5t2 -27.5h-23q-6 59 -17 93.5t-37.5 49t-79.5 14.5h-83q-34 0 -51.5 -5.5t-23.5 -23t-6 -54.5v-496q0 -36 6 -54t23.5 -23.5t51.5 -5.5h73q63 0 95.5 17t47 55.5t21.5 104.5h23q-3 -27 -3 -72q0 -19 1.5 -54.5t5.5 -73.5
q-51 2 -115 2.5t-114 0.5h-79.5t-105.5 -0.5t-105 -2.5v20q34 2 51.5 8t23.5 24t6 54v496q0 37 -6 54.5t-23.5 24t-51.5 7.5v20q49 -1 105 -2t105.5 -1h79.5q46 0 104.5 0.5t104.5 2.5zM369 366v-10v-10h-183v10v10h183zM398 498q-4 -57 -3.5 -87t0.5 -55t1 -55t5 -87h-23
q-4 32 -9.5 62.5t-24 50t-62.5 19.5v20q44 0 61.5 23t22.5 54t9 55h23zM561 3q-59 -16 -81 -44.5t-22 -54.5q0 -19 11.5 -31.5t31.5 -12.5q19 0 35 10t26 23l15 -13q-23 -35 -51.5 -51.5t-61.5 -16.5q-36 0 -57.5 18t-21.5 47q0 39 36 71.5t102 54.5h38z" />
    <glyph glyph-name="eogonek" unicode="&#x119;" horiz-adv-x="506" 
d="M272 529q88 0 137.5 -53.5t49.5 -166.5h-353l-1 19h258q2 49 -8 90.5t-31.5 66.5t-55.5 25q-46 0 -81.5 -46t-42.5 -146l3 -4q-2 -15 -3 -33t-1 -36q0 -68 22 -117t57.5 -74.5t73.5 -25.5q45 0 83 22t64 78l20 -8q-11 -33 -36 -64t-63 -50.5t-88 -19.5q-72 0 -123.5 33
t-79 91.5t-27.5 134.5q0 88 28 151.5t79 98t119 34.5zM355 3q-2 -2 -5 -3t-5 -2q-49 -21 -68 -45.5t-19 -48.5q0 -19 11.5 -31.5t31.5 -12.5q19 0 35 10t26 23l15 -13q-23 -35 -51.5 -51.5t-61.5 -16.5q-36 0 -57.5 18t-21.5 47q0 39 36 71.5t102 54.5h32z" />
    <glyph glyph-name="Ecaron" unicode="&#x11a;" horiz-adv-x="609" 
d="M541 708q-4 -35 -5.5 -68t-1.5 -50q0 -18 1 -34.5t2 -27.5h-23q-6 59 -17 93.5t-37.5 49t-79.5 14.5h-83q-34 0 -51.5 -5.5t-23.5 -23t-6 -54.5v-496q0 -36 6 -54t23.5 -23.5t51.5 -5.5h73q63 0 95.5 17t47 55.5t21.5 104.5h23q-3 -27 -3 -72q0 -19 1.5 -54.5t5.5 -73.5
q-51 2 -115 2.5t-114 0.5h-79.5t-105.5 -0.5t-105 -2.5v20q34 2 51.5 8t23.5 24t6 54v496q0 37 -6 54.5t-23.5 24t-51.5 7.5v20q49 -1 105 -2t105.5 -1h79.5q46 0 104.5 0.5t104.5 2.5zM369 366v-10v-10h-183v10v10h183zM398 498q-4 -57 -3.5 -87t0.5 -55t1 -55t5 -87h-23
q-4 32 -9.5 62.5t-24 50t-62.5 19.5v20q44 0 61.5 23t22.5 54t9 55h23zM494 926l5 -14q-65 -22 -114.5 -58t-72.5 -74h-18q-23 38 -72.5 74t-114.5 58l5 14q60 -13 118.5 -32t92.5 -38q29 19 76 38t95 32z" />
    <glyph glyph-name="ecaron" unicode="&#x11b;" horiz-adv-x="506" 
d="M272 529q88 0 137.5 -53.5t49.5 -166.5h-353l-1 19h258q2 49 -8 90.5t-31.5 66.5t-55.5 25q-46 0 -81.5 -46t-42.5 -146l3 -4q-2 -15 -3 -33t-1 -36q0 -68 22 -117t57.5 -74.5t73.5 -25.5q45 0 83 22t64 78l20 -8q-11 -33 -36 -64t-63 -50.5t-88 -19.5q-72 0 -123.5 33
t-79 91.5t-27.5 134.5q0 88 28 151.5t79 98t119 34.5zM429 802l8 -14q-58 -28 -102.5 -75t-64.5 -97h-18q-20 50 -64.5 97t-102.5 75l8 14q54 -19 105.5 -46t82.5 -54q26 27 66 54t82 46z" />
    <glyph glyph-name="Gcircumflex" unicode="&#x11c;" horiz-adv-x="703" 
d="M376 722q65 0 105 -19.5t75 -45.5q13 -10 20 -10q19 0 25 61h23q-2 -37 -3 -90t-1 -140h-23q-7 42 -17 81t-33 67q-29 37 -76 57.5t-97 20.5t-90.5 -24.5t-69.5 -70.5t-44.5 -110.5t-15.5 -145.5q0 -180 58 -263.5t180 -83.5q36 0 62.5 10.5t41.5 20.5q19 13 24 24.5
t5 30.5v96q0 41 -8 61t-29.5 27t-63.5 8v20q18 -1 42 -1.5t50.5 -1t48.5 -0.5q33 0 59.5 1t44.5 2v-20q-33 -2 -42 -16t-9 -70v-198h-20q-1 17 -7.5 37t-19.5 20q-6 0 -12 -3t-21 -14q-33 -25 -70 -39.5t-86 -14.5q-155 0 -241.5 94.5t-86.5 261.5q0 117 42 202t114.5 131.5
t165.5 46.5zM370 916q23 -38 72.5 -73.5t114.5 -58.5l-5 -14q-60 13 -118 32t-93 38q-28 -19 -75.5 -38t-95.5 -32l-5 14q65 23 114.5 58.5t72.5 73.5h18z" />
    <glyph glyph-name="gcircumflex" unicode="&#x11d;" horiz-adv-x="528" 
d="M213 -188q-53 0 -100 11t-75.5 34.5t-28.5 59.5q0 35 28 60t76 38l6 -16q-22 -7 -35 -28t-13 -47q0 -46 42.5 -70.5t110.5 -24.5q45 0 88 11.5t71 38.5t28 71q0 33 -23.5 54.5t-92.5 21.5h-74q-32 0 -62 5t-49 21t-19 49q0 34 28 65.5t103 64.5l12 -9q-34 -18 -59 -36.5
t-25 -43.5q0 -32 48 -32h125q62 0 109.5 -27.5t47.5 -90.5q0 -47 -30 -88t-89.5 -66.5t-147.5 -25.5zM218 213q-74 0 -124.5 38t-50.5 120q0 83 50.5 120.5t124.5 37.5t124.5 -37.5t50.5 -120.5q0 -82 -50.5 -120t-124.5 -38zM218 231q38 0 59.5 30t21.5 110t-21.5 110
t-59.5 30q-37 0 -59 -30t-22 -110t22 -110t59 -30zM362 446l-18 7q14 34 48 60t71 26q26 0 42 -14.5t16 -43.5q0 -31 -16.5 -43.5t-33.5 -12.5q-15 0 -28 10.5t-15 33.5t14 59l13 -3q-42 -16 -60 -33.5t-33 -45.5zM248 802q20 -50 64.5 -96.5t102.5 -75.5l-8 -14
q-54 19 -105 46t-83 54q-25 -27 -65.5 -54t-82.5 -46l-8 14q58 29 102.5 75.5t64.5 96.5h18z" />
    <glyph glyph-name="Gbreve" unicode="&#x11e;" horiz-adv-x="703" 
d="M376 722q65 0 105 -19.5t75 -45.5q13 -10 20 -10q19 0 25 61h23q-2 -37 -3 -90t-1 -140h-23q-7 42 -17 81t-33 67q-29 37 -76 57.5t-97 20.5t-90.5 -24.5t-69.5 -70.5t-44.5 -110.5t-15.5 -145.5q0 -180 58 -263.5t180 -83.5q36 0 62.5 10.5t41.5 20.5q19 13 24 24.5
t5 30.5v96q0 41 -8 61t-29.5 27t-63.5 8v20q18 -1 42 -1.5t50.5 -1t48.5 -0.5q33 0 59.5 1t44.5 2v-20q-33 -2 -42 -16t-9 -70v-198h-20q-1 17 -7.5 37t-19.5 20q-6 0 -12 -3t-21 -14q-33 -25 -70 -39.5t-86 -14.5q-155 0 -241.5 94.5t-86.5 261.5q0 117 42 202t114.5 131.5
t165.5 46.5zM548 909l12 -11q-16 -26 -43 -53t-66 -45t-90 -18t-90 18t-66 45t-43 53l13 10q23 -22 68.5 -43t117.5 -21t118 21.5t69 43.5z" />
    <glyph glyph-name="gbreve" unicode="&#x11f;" horiz-adv-x="528" 
d="M213 -188q-53 0 -100 11t-75.5 34.5t-28.5 59.5q0 35 28 60t76 38l6 -16q-22 -7 -35 -28t-13 -47q0 -46 42.5 -70.5t110.5 -24.5q45 0 88 11.5t71 38.5t28 71q0 33 -23.5 54.5t-92.5 21.5h-74q-32 0 -62 5t-49 21t-19 49q0 34 28 65.5t103 64.5l12 -9q-34 -18 -59 -36.5
t-25 -43.5q0 -32 48 -32h125q62 0 109.5 -27.5t47.5 -90.5q0 -47 -30 -88t-89.5 -66.5t-147.5 -25.5zM218 213q-74 0 -124.5 38t-50.5 120q0 83 50.5 120.5t124.5 37.5t124.5 -37.5t50.5 -120.5q0 -82 -50.5 -120t-124.5 -38zM218 231q38 0 59.5 30t21.5 110t-21.5 110
t-59.5 30q-37 0 -59 -30t-22 -110t22 -110t59 -30zM362 446l-18 7q14 34 48 60t71 26q26 0 42 -14.5t16 -43.5q0 -31 -16.5 -43.5t-33.5 -12.5q-15 0 -28 10.5t-15 33.5t14 59l13 -3q-42 -16 -60 -33.5t-33 -45.5zM400 788l17 -9q-14 -33 -38.5 -67t-59.5 -56.5t-81 -22.5
t-81 22.5t-59.5 56.5t-38.5 67l17 9q20 -34 59 -65t103 -31q65 0 103.5 31t58.5 65z" />
    <glyph glyph-name="Gdotaccent" unicode="&#x120;" horiz-adv-x="703" 
d="M376 722q65 0 105 -19.5t75 -45.5q13 -10 20 -10q19 0 25 61h23q-2 -37 -3 -90t-1 -140h-23q-7 42 -17 81t-33 67q-29 37 -76 57.5t-97 20.5t-90.5 -24.5t-69.5 -70.5t-44.5 -110.5t-15.5 -145.5q0 -180 58 -263.5t180 -83.5q36 0 62.5 10.5t41.5 20.5q19 13 24 24.5
t5 30.5v96q0 41 -8 61t-29.5 27t-63.5 8v20q18 -1 42 -1.5t50.5 -1t48.5 -0.5q33 0 59.5 1t44.5 2v-20q-33 -2 -42 -16t-9 -70v-198h-20q-1 17 -7.5 37t-19.5 20q-6 0 -12 -3t-21 -14q-33 -25 -70 -39.5t-86 -14.5q-155 0 -241.5 94.5t-86.5 261.5q0 117 42 202t114.5 131.5
t165.5 46.5zM361 900q26 0 45 -19t19 -45t-19 -45t-45 -19t-45 19t-19 45t19 45t45 19z" />
    <glyph glyph-name="gdotaccent" unicode="&#x121;" horiz-adv-x="528" 
d="M213 -188q-53 0 -100 11t-75.5 34.5t-28.5 59.5q0 35 28 60t76 38l6 -16q-22 -7 -35 -28t-13 -47q0 -46 42.5 -70.5t110.5 -24.5q45 0 88 11.5t71 38.5t28 71q0 33 -23.5 54.5t-92.5 21.5h-74q-32 0 -62 5t-49 21t-19 49q0 34 28 65.5t103 64.5l12 -9q-34 -18 -59 -36.5
t-25 -43.5q0 -32 48 -32h125q62 0 109.5 -27.5t47.5 -90.5q0 -47 -30 -88t-89.5 -66.5t-147.5 -25.5zM218 213q-74 0 -124.5 38t-50.5 120q0 83 50.5 120.5t124.5 37.5t124.5 -37.5t50.5 -120.5q0 -82 -50.5 -120t-124.5 -38zM218 231q38 0 59.5 30t21.5 110t-21.5 110
t-59.5 30q-37 0 -59 -30t-22 -110t22 -110t59 -30zM362 446l-18 7q14 34 48 60t71 26q26 0 42 -14.5t16 -43.5q0 -31 -16.5 -43.5t-33.5 -12.5q-15 0 -28 10.5t-15 33.5t14 59l13 -3q-42 -16 -60 -33.5t-33 -45.5zM239 765q26 0 45 -19t19 -45t-19 -45t-45 -19t-45 19
t-19 45t19 45t45 19z" />
    <glyph glyph-name="uni0122" unicode="&#x122;" horiz-adv-x="703" 
d="M376 722q65 0 105 -19.5t75 -45.5q13 -10 20 -10q19 0 25 61h23q-2 -37 -3 -90t-1 -140h-23q-7 42 -17 81t-33 67q-29 37 -76 57.5t-97 20.5t-90.5 -24.5t-69.5 -70.5t-44.5 -110.5t-15.5 -145.5q0 -180 58 -263.5t180 -83.5q36 0 62.5 10.5t41.5 20.5q19 13 24 24.5
t5 30.5v96q0 41 -8 61t-29.5 27t-63.5 8v20q18 -1 42 -1.5t50.5 -1t48.5 -0.5q33 0 59.5 1t44.5 2v-20q-33 -2 -42 -16t-9 -70v-198h-20q-1 17 -7.5 37t-19.5 20q-6 0 -12 -3t-21 -14q-33 -25 -70 -39.5t-86 -14.5q-155 0 -241.5 94.5t-86.5 261.5q0 117 42 202t114.5 131.5
t165.5 46.5zM370 -69q29 0 47 -20.5t18 -49.5q0 -36 -17 -60.5t-65 -41.5l-7 18q23 7 43 23t19 40q-7 -7 -18 -11.5t-24 -4.5q-22 0 -37 14t-15 40q0 23 16.5 38t39.5 15z" />
    <glyph glyph-name="uni0123" unicode="&#x123;" horiz-adv-x="505" 
d="M213 -188q-53 0 -100 11t-75.5 34.5t-28.5 59.5q0 35 28 60t76 38l6 -16q-22 -7 -35 -28t-13 -47q0 -46 42.5 -70.5t110.5 -24.5q45 0 88 11.5t71 38.5t28 71q0 33 -23.5 54.5t-92.5 21.5h-74q-32 0 -62 5t-49 21t-19 49q0 34 28 65.5t103 64.5l12 -9q-34 -18 -59 -36.5
t-25 -43.5q0 -32 48 -32h125q62 0 109.5 -27.5t47.5 -90.5q0 -47 -30 -88t-89.5 -66.5t-147.5 -25.5zM218 213q-74 0 -124.5 38t-50.5 120q0 83 50.5 120.5t124.5 37.5t124.5 -37.5t50.5 -120.5q0 -82 -50.5 -120t-124.5 -38zM218 231q38 0 59.5 30t21.5 110t-21.5 110
t-59.5 30q-37 0 -59 -30t-22 -110t22 -110t59 -30zM362 446l-18 7q14 34 48 60t71 26q26 0 42 -14.5t16 -43.5q0 -31 -16.5 -43.5t-33.5 -12.5q-15 0 -28 10.5t-15 33.5t14 59l13 -3q-42 -16 -60 -33.5t-33 -45.5zM232 638q-29 0 -47 20.5t-18 49.5q0 36 17 60.5t65 41.5
l7 -18q-23 -7 -43 -23t-19 -40q7 7 18 11.5t24 4.5q22 0 37 -14t15 -40q0 -23 -16.5 -38t-39.5 -15z" />
    <glyph glyph-name="Hcircumflex" unicode="&#x124;" horiz-adv-x="757" 
d="M460 0v20q34 2 51.5 8t23.5 24t6 54v496q0 37 -6 54.5t-23.5 24t-51.5 7.5v20q23 -1 58 -2t69 -1q39 0 73 1t55 2v-20q-34 -1 -51.5 -7.5t-23.5 -24t-6 -54.5v-496q0 -36 6 -54t23.5 -24t51.5 -8v-20q-21 2 -55 2.5t-73 0.5q-34 0 -69 -0.5t-58 -2.5zM42 0v20
q34 2 51.5 8t23.5 24t6 54v496q0 37 -6 54.5t-23.5 24t-51.5 7.5v20q21 -1 55 -2t73 -1q35 0 69.5 1t57.5 2v-20q-34 -1 -51.5 -7.5t-23.5 -24t-6 -54.5v-496q0 -36 6 -54t23.5 -24t51.5 -8v-20q-23 2 -57.5 2.5t-69.5 0.5q-39 0 -73 -0.5t-55 -2.5zM181 346v20h395v-20
h-395zM390 916q23 -38 72.5 -73.5t114.5 -58.5l-5 -14q-60 13 -118 32t-93 38q-28 -19 -75.5 -38t-95.5 -32l-5 14q65 23 114.5 58.5t72.5 73.5h18z" />
    <glyph glyph-name="hcircumflex" unicode="&#x125;" horiz-adv-x="588" 
d="M186 783v-374q26 68 72.5 94t97.5 26q38 0 63.5 -10t42.5 -28q19 -20 27 -50t8 -81v-267q0 -42 17.5 -57t58.5 -15v-21q-17 1 -52 2.5t-68 1.5t-64.5 -1.5t-47.5 -2.5v21q36 0 51 15t15 57v289q0 31 -5 57t-22.5 42t-53.5 16q-61 0 -100.5 -50.5t-39.5 -130.5v-223
q0 -42 15 -57t51 -15v-21q-16 1 -47.5 2.5t-64.5 1.5t-68 -1.5t-52 -2.5v21q41 0 58.5 15t17.5 57v570q0 45 -16 66.5t-60 21.5v21q32 -3 62 -3q29 0 55.5 3.5t48.5 10.5zM291 980q23 -38 72.5 -73.5t114.5 -58.5l-5 -14q-60 13 -118 32t-93 38q-28 -19 -75.5 -38t-95.5 -32
l-5 14q65 23 114.5 58.5t72.5 73.5h18z" />
    <glyph glyph-name="Hbar" unicode="&#x126;" horiz-adv-x="757" 
d="M460 0v20q34 2 51.5 8t23.5 24t6 54v496q0 37 -6 54.5t-23.5 24t-51.5 7.5v20q23 -1 58 -2t69 -1q39 0 73 1t55 2v-20q-34 -1 -51.5 -7.5t-23.5 -24t-6 -54.5v-496q0 -36 6 -54t23.5 -24t51.5 -8v-20q-21 2 -55 2.5t-73 0.5q-34 0 -69 -0.5t-58 -2.5zM42 0v20
q34 2 51.5 8t23.5 24t6 54v496q0 37 -6 54.5t-23.5 24t-51.5 7.5v20q21 -1 55 -2t73 -1q35 0 69.5 1t57.5 2v-20q-34 -1 -51.5 -7.5t-23.5 -24t-6 -54.5v-496q0 -36 6 -54t23.5 -24t51.5 -8v-20q-23 2 -57.5 2.5t-69.5 0.5q-39 0 -73 -0.5t-55 -2.5zM181 346v20h395v-20
h-395zM715 533v-20h-673v20h673z" />
    <glyph glyph-name="hbar" unicode="&#x127;" horiz-adv-x="588" 
d="M186 783v-374q26 68 72.5 94t97.5 26q38 0 63.5 -10t42.5 -28q19 -20 27 -50t8 -81v-267q0 -42 17.5 -57t58.5 -15v-21q-17 1 -52 2.5t-68 1.5t-64.5 -1.5t-47.5 -2.5v21q36 0 51 15t15 57v289q0 31 -5 57t-22.5 42t-53.5 16q-61 0 -100.5 -50.5t-39.5 -130.5v-223
q0 -42 15 -57t51 -15v-21q-16 1 -47.5 2.5t-64.5 1.5t-68 -1.5t-52 -2.5v21q41 0 58.5 15t17.5 57v570q0 45 -16 66.5t-60 21.5v21q32 -3 62 -3q29 0 55.5 3.5t48.5 10.5zM363 628v-20h-354v20h354z" />
    <glyph glyph-name="Itilde" unicode="&#x128;" horiz-adv-x="339" 
d="M297 708v-20q-34 -1 -51.5 -7.5t-23.5 -24t-6 -54.5v-496q0 -36 6 -54t23.5 -24t51.5 -8v-20q-23 2 -57.5 2.5t-69.5 0.5q-39 0 -73 -0.5t-55 -2.5v20q34 2 51.5 8t23.5 24t6 54v496q0 37 -6 54.5t-23.5 24t-51.5 7.5v20q21 -1 55 -2t73 -1q35 0 69.5 1t57.5 2zM89 902
q28 0 52 -11.5t47 -27t46 -27t49 -11.5q20 0 36.5 12t25.5 44l15 -3q-4 -49 -36.5 -77.5t-74.5 -28.5q-28 0 -52 11.5t-47 27t-46 27t-49 11.5q-21 0 -37 -12t-25 -44l-15 3q5 50 37 78t74 28z" />
    <glyph glyph-name="itilde" unicode="&#x129;" horiz-adv-x="293" 
d="M195 526v-433q0 -42 17.5 -57t58.5 -15v-21q-17 1 -51.5 2.5t-69.5 1.5q-34 0 -69 -1.5t-52 -2.5v21q41 0 58.5 15t17.5 57v313q0 45 -16 66.5t-60 21.5v21q32 -3 62 -3q29 0 55.5 3.5t48.5 10.5zM67 768q27 0 46 -10t34.5 -23t32 -23t38.5 -10q21 0 40.5 12.5t36.5 40.5
l14 -7q-16 -55 -48 -79t-70 -24q-27 0 -46.5 10t-35 23.5t-32 23.5t-38.5 10q-21 0 -40.5 -12.5t-36.5 -41.5l-14 7q16 56 48.5 79.5t70.5 23.5z" />
    <glyph glyph-name="Imacron" unicode="&#x12a;" horiz-adv-x="339" 
d="M297 708v-20q-34 -1 -51.5 -7.5t-23.5 -24t-6 -54.5v-496q0 -36 6 -54t23.5 -24t51.5 -8v-20q-23 2 -57.5 2.5t-69.5 0.5q-39 0 -73 -0.5t-55 -2.5v20q34 2 51.5 8t23.5 24t6 54v496q0 37 -6 54.5t-23.5 24t-51.5 7.5v20q21 -1 55 -2t73 -1q35 0 69.5 1t57.5 2zM346 844
v-25h-352v25h352z" />
    <glyph glyph-name="imacron" unicode="&#x12b;" horiz-adv-x="293" 
d="M281 712v-25h-292v25h292zM195 526v-433q0 -42 17.5 -57t58.5 -15v-21q-17 1 -51.5 2.5t-69.5 1.5q-34 0 -69 -1.5t-52 -2.5v21q41 0 58.5 15t17.5 57v313q0 45 -16 66.5t-60 21.5v21q32 -3 62 -3q29 0 55.5 3.5t48.5 10.5z" />
    <glyph glyph-name="Ibreve" unicode="&#x12c;" horiz-adv-x="339" 
d="M297 708v-20q-34 -1 -51.5 -7.5t-23.5 -24t-6 -54.5v-496q0 -36 6 -54t23.5 -24t51.5 -8v-20q-23 2 -57.5 2.5t-69.5 0.5q-39 0 -73 -0.5t-55 -2.5v20q34 2 51.5 8t23.5 24t6 54v496q0 37 -6 54.5t-23.5 24t-51.5 7.5v20q21 -1 55 -2t73 -1q35 0 69.5 1t57.5 2zM357 909
l12 -11q-16 -26 -43 -53t-66 -45t-90 -18t-90 18t-66 45t-43 53l13 10q23 -22 68.5 -43t117.5 -21t118 21.5t69 43.5z" />
    <glyph glyph-name="ibreve" unicode="&#x12d;" horiz-adv-x="293" 
d="M195 526v-433q0 -42 17.5 -57t58.5 -15v-21q-17 1 -51.5 2.5t-69.5 1.5q-34 0 -69 -1.5t-52 -2.5v21q41 0 58.5 15t17.5 57v313q0 45 -16 66.5t-60 21.5v21q32 -3 62 -3q29 0 55.5 3.5t48.5 10.5zM302 788l17 -9q-14 -33 -38.5 -67t-59.5 -56.5t-81 -22.5t-81 22.5
t-59.5 56.5t-38.5 67l17 9q20 -34 59 -65t103 -31q65 0 103.5 31t58.5 65z" />
    <glyph glyph-name="Iogonek" unicode="&#x12e;" horiz-adv-x="339" 
d="M297 708v-20q-34 -1 -51.5 -7.5t-23.5 -24t-6 -54.5v-496q0 -36 6 -54t23.5 -24t51.5 -8v-20q-23 2 -57.5 2.5t-69.5 0.5q-39 0 -73 -0.5t-55 -2.5v20q34 2 51.5 8t23.5 24t6 54v496q0 37 -6 54.5t-23.5 24t-51.5 7.5v20q21 -1 55 -2t73 -1q35 0 69.5 1t57.5 2zM297 3
q-59 -16 -81 -44.5t-22 -54.5q0 -19 11.5 -31.5t31.5 -12.5q19 0 35 10t26 23l15 -13q-23 -35 -51.5 -51.5t-61.5 -16.5q-36 0 -57.5 18t-21.5 47q0 39 36 71.5t102 54.5h38z" />
    <glyph glyph-name="iogonek" unicode="&#x12f;" horiz-adv-x="293" 
d="M141 765q26 0 45 -19t19 -45t-19 -45t-45 -19t-45 19t-19 45t19 45t45 19zM195 526v-433q0 -42 17.5 -57t58.5 -15v-21q-17 1 -51.5 2.5t-69.5 1.5q-34 0 -69 -1.5t-52 -2.5v21q41 0 58.5 15t17.5 57v313q0 45 -16 66.5t-60 21.5v21q32 -3 62 -3q29 0 55.5 3.5t48.5 10.5
zM260 3q-2 -2 -5 -3t-5 -2q-49 -21 -68 -45.5t-19 -48.5q0 -19 11.5 -31.5t31.5 -12.5q19 0 35 10t26 23l15 -13q-23 -35 -51.5 -51.5t-61.5 -16.5q-36 0 -57.5 18t-21.5 47q0 39 36 71.5t102 54.5h32z" />
    <glyph glyph-name="Idotaccent" unicode="&#x130;" horiz-adv-x="339" 
d="M297 708v-20q-34 -1 -51.5 -7.5t-23.5 -24t-6 -54.5v-496q0 -36 6 -54t23.5 -24t51.5 -8v-20q-23 2 -57.5 2.5t-69.5 0.5q-39 0 -73 -0.5t-55 -2.5v20q34 2 51.5 8t23.5 24t6 54v496q0 37 -6 54.5t-23.5 24t-51.5 7.5v20q21 -1 55 -2t73 -1q35 0 69.5 1t57.5 2zM170 959
q26 0 45 -19t19 -45t-19 -45t-45 -19t-45 19t-19 45t19 45t45 19z" />
    <glyph glyph-name="dotlessi" unicode="&#x131;" horiz-adv-x="293" 
d="M195 526v-433q0 -42 17.5 -57t58.5 -15v-21q-17 1 -51.5 2.5t-69.5 1.5q-34 0 -69 -1.5t-52 -2.5v21q41 0 58.5 15t17.5 57v313q0 45 -16 66.5t-60 21.5v21q32 -3 62 -3q29 0 55.5 3.5t48.5 10.5z" />
    <glyph glyph-name="Jcircumflex" unicode="&#x134;" horiz-adv-x="326" 
d="M-20 -188v19q45 1 75.5 22t46 69.5t15.5 129.5v550q0 37 -6 54.5t-23.5 24t-51.5 7.5v20q21 -1 55 -2t71 -1t71.5 1t57.5 2v-20q-34 -1 -51.5 -7.5t-23.5 -24t-6 -54.5v-366q0 -41 -1 -89t-4.5 -93t-11.5 -79q-17 -70 -71.5 -116.5t-141.5 -46.5zM173 916
q23 -38 72.5 -73.5t114.5 -58.5l-5 -14q-60 13 -118 32t-93 38q-28 -19 -75.5 -38t-95.5 -32l-5 14q65 23 114.5 58.5t72.5 73.5h18z" />
    <glyph glyph-name="jcircumflex" unicode="&#x135;" horiz-adv-x="267" 
d="M-26 -188v15q62 3 93 53.5t31 138.5v387q0 45 -16 66.5t-60 21.5v21q32 -3 62 -3q29 0 55.5 3.5t48.5 10.5v-411q0 -75 -16.5 -138t-55.5 -104q-25 -27 -61.5 -44t-80.5 -17zM143 802q20 -50 64.5 -96.5t102.5 -75.5l-8 -14q-54 19 -105 46t-83 54q-25 -27 -65.5 -54
t-82.5 -46l-8 14q58 29 102.5 75.5t64.5 96.5h18z" />
    <glyph glyph-name="uni0136" unicode="&#x136;" horiz-adv-x="655" 
d="M615 708v-20q-31 -4 -60 -20t-58 -53l-193 -247l22 49l240 -336q17 -25 37 -39t51 -22v-20q-24 2 -59.5 2.5t-60.5 0.5q-17 0 -41.5 -0.5t-61.5 -2.5v20q34 2 43 12t-7 33l-146 220q-20 31 -35.5 46.5t-32 20.5t-41.5 6v20q42 1 70.5 16.5t47.5 39.5l96 122q33 42 45 71
t-1 44.5t-55 16.5v20q29 -1 59 -2t56 -1q55 0 85 3zM297 708v-20q-34 -1 -51.5 -7.5t-23.5 -24t-6 -54.5v-496q0 -36 6 -54t23.5 -24t51.5 -8v-20q-23 2 -57.5 2.5t-69.5 0.5q-39 0 -73 -0.5t-55 -2.5v20q34 2 51.5 8t23.5 24t6 54v496q0 37 -6 54.5t-23.5 24t-51.5 7.5v20
q21 -1 55 -2t73 -1q35 0 69.5 1t57.5 2zM339 -69q29 0 47 -20.5t18 -49.5q0 -36 -17 -60.5t-65 -41.5l-7 18q23 7 43 23t19 40q-7 -7 -18 -11.5t-24 -4.5q-22 0 -37 14t-15 40q0 23 16.5 38t39.5 15z" />
    <glyph glyph-name="uni0137" unicode="&#x137;" horiz-adv-x="550" 
d="M186 784v-691q0 -42 15 -57t51 -15v-21q-16 1 -47.5 2.5t-63.5 1.5q-34 0 -69 -1.5t-52 -2.5v21q41 0 58.5 15t17.5 57v571q0 45 -16 66.5t-60 21.5v21q32 -3 62 -3q29 0 55.5 3.5t48.5 10.5zM504 515v-20q-25 -2 -47 -13.5t-43 -33.5l-141 -148l14 28l186 -255
q17 -23 32.5 -36t37.5 -16v-21q-11 1 -34.5 2.5t-46.5 1.5q-31 0 -63 -1.5t-48 -2.5v21q20 0 28 10t-3 24l-115 168q-19 27 -34.5 35t-44.5 9v20q32 4 52 13.5t38 28.5l74 77q32 33 32 52.5t-20.5 28t-53.5 8.5v20q26 -1 58.5 -2.5t54.5 -1.5q17 0 33 0.5t30 1.5t24 2z
M274 -69q29 0 47 -20.5t18 -49.5q0 -36 -17 -60.5t-65 -41.5l-7 18q23 7 43 23t19 40q-7 -7 -18 -11.5t-24 -4.5q-22 0 -37 14t-15 40q0 23 16.5 38t39.5 15z" />
    <glyph glyph-name="kgreenlandic" unicode="&#x138;" horiz-adv-x="563" 
d="M523 515v-20q-25 -2 -44.5 -10t-45.5 -37l-146 -160l194 -212q18 -19 36 -35.5t35 -19.5v-21q-11 1 -34.5 2.5t-46.5 1.5q-31 0 -63 -1.5t-48 -2.5v21q20 0 28.5 10.5t-3.5 23.5l-134 148q-16 20 -30 30.5t-30 10.5v20q29 5 46.5 15.5t35.5 29.5l119 131q22 24 11 39.5
t-50 15.5v20q26 -1 53.5 -2t49.5 -1t38 1t29 2zM195 526v-433q0 -42 15 -57t51 -15v-21q-16 1 -47.5 2.5t-63.5 1.5q-34 0 -69 -1.5t-52 -2.5v21q41 0 58.5 15t17.5 57v313q0 45 -16 66.5t-60 21.5v21q32 -3 62 -3q29 0 55.5 3.5t48.5 10.5z" />
    <glyph glyph-name="Lacute" unicode="&#x139;" horiz-adv-x="588" 
d="M297 708v-20q-34 -1 -51.5 -7.5t-23.5 -24t-6 -54.5v-496q0 -36 6 -54t23.5 -23.5t51.5 -5.5h73q63 0 95.5 18t47 59t21.5 110h23q-3 -31 -3 -82q0 -19 1.5 -54.5t5.5 -73.5q-51 2 -115 2.5t-114 0.5h-79.5t-105.5 -0.5t-105 -2.5v20q34 2 51.5 8t23.5 24t6 54v496
q0 37 -6 54.5t-23.5 24t-51.5 7.5v20q21 -1 55 -2t73 -1q35 0 69.5 1t57.5 2zM277 926q20 13 36.5 9.5t24.5 -16.5t4 -28.5t-25 -29.5q-21 -13 -48.5 -23.5t-64 -25t-88.5 -40.5l-7 13q46 35 75.5 61.5t50.5 46.5t42 33z" />
    <glyph glyph-name="lacute" unicode="&#x13a;" horiz-adv-x="286" 
d="M188 784v-691q0 -42 17.5 -57t58.5 -15v-21q-17 1 -51.5 2.5t-69.5 1.5q-34 0 -69 -1.5t-52 -2.5v21q41 0 58.5 15t17.5 57v571q0 45 -16 66.5t-60 21.5v21q32 -3 62 -3q29 0 55.5 3.5t48.5 10.5zM250 976q20 13 36.5 9.5t24.5 -16.5t4 -28.5t-25 -29.5
q-21 -13 -48.5 -23.5t-64 -25t-88.5 -40.5l-7 13q46 35 75.5 61.5t50.5 46.5t42 33z" />
    <glyph glyph-name="uni013B" unicode="&#x13b;" horiz-adv-x="588" 
d="M297 708v-20q-34 -1 -51.5 -7.5t-23.5 -24t-6 -54.5v-496q0 -36 6 -54t23.5 -23.5t51.5 -5.5h73q63 0 95.5 18t47 59t21.5 110h23q-3 -31 -3 -82q0 -19 1.5 -54.5t5.5 -73.5q-51 2 -115 2.5t-114 0.5h-79.5t-105.5 -0.5t-105 -2.5v20q34 2 51.5 8t23.5 24t6 54v496
q0 37 -6 54.5t-23.5 24t-51.5 7.5v20q21 -1 55 -2t73 -1q35 0 69.5 1t57.5 2zM325 -69q29 0 47 -20.5t18 -49.5q0 -36 -17 -60.5t-65 -41.5l-7 18q23 7 43 23t19 40q-7 -7 -18 -11.5t-24 -4.5q-22 0 -37 14t-15 40q0 23 16.5 38t39.5 15z" />
    <glyph glyph-name="uni013C" unicode="&#x13c;" horiz-adv-x="286" 
d="M188 784v-691q0 -42 17.5 -57t58.5 -15v-21q-17 1 -51.5 2.5t-69.5 1.5q-34 0 -69 -1.5t-52 -2.5v21q41 0 58.5 15t17.5 57v571q0 45 -16 66.5t-60 21.5v21q32 -3 62 -3q29 0 55.5 3.5t48.5 10.5zM136 -69q29 0 47 -20.5t18 -49.5q0 -36 -17 -60.5t-65 -41.5l-7 18
q23 7 43 23t19 40q-7 -7 -18 -11.5t-24 -4.5q-22 0 -37 14t-15 40q0 23 16.5 38t39.5 15z" />
    <glyph glyph-name="Lcaron" unicode="&#x13d;" horiz-adv-x="588" 
d="M297 708v-20q-34 -1 -51.5 -7.5t-23.5 -24t-6 -54.5v-496q0 -36 6 -54t23.5 -23.5t51.5 -5.5h73q63 0 95.5 18t47 59t21.5 110h23q-3 -31 -3 -82q0 -19 1.5 -54.5t5.5 -73.5q-51 2 -115 2.5t-114 0.5h-79.5t-105.5 -0.5t-105 -2.5v20q34 2 51.5 8t23.5 24t6 54v496
q0 37 -6 54.5t-23.5 24t-51.5 7.5v20q21 -1 55 -2t73 -1q35 0 69.5 1t57.5 2zM471 714q2 -5 3.5 -16t1.5 -20q0 -32 -23.5 -80t-63.5 -120l-14 4q12 77 16 113.5t4 51.5q0 20 -5.5 30t-24.5 10v21q38 -4 61.5 -1.5t44.5 7.5z" />
    <glyph glyph-name="lcaron" unicode="&#x13e;" horiz-adv-x="286" 
d="M188 784v-691q0 -42 17.5 -57t58.5 -15v-21q-17 1 -51.5 2.5t-69.5 1.5q-34 0 -69 -1.5t-52 -2.5v21q41 0 58.5 15t17.5 57v571q0 45 -16 66.5t-60 21.5v21q32 -3 62 -3q29 0 55.5 3.5t48.5 10.5zM349 784q2 -5 3.5 -18.5t1.5 -22.5q0 -29 -18 -72t-49 -108l-14 4
q12 68 16 100t4 45q0 20 -3.5 30t-16.5 10v21q27 -2 44.5 2t31.5 9z" />
    <glyph glyph-name="Ldot" unicode="&#x13f;" horiz-adv-x="588" 
d="M297 708v-20q-34 -1 -51.5 -7.5t-23.5 -24t-6 -54.5v-496q0 -36 6 -54t23.5 -23.5t51.5 -5.5h73q63 0 95.5 18t47 59t21.5 110h23q-3 -31 -3 -82q0 -19 1.5 -54.5t5.5 -73.5q-51 2 -115 2.5t-114 0.5h-79.5t-105.5 -0.5t-105 -2.5v20q34 2 51.5 8t23.5 24t6 54v496
q0 37 -6 54.5t-23.5 24t-51.5 7.5v20q21 -1 55 -2t73 -1q35 0 69.5 1t57.5 2zM470 498q26 0 45 -19t19 -45t-19 -45t-45 -19t-45 19t-19 45t19 45t45 19z" />
    <glyph glyph-name="ldot" unicode="&#x140;" horiz-adv-x="426" 
d="M188 784v-691q0 -42 17.5 -57t58.5 -15v-21q-17 1 -51.5 2.5t-69.5 1.5q-34 0 -69 -1.5t-52 -2.5v21q41 0 58.5 15t17.5 57v571q0 45 -16 66.5t-60 21.5v21q32 -3 62 -3q29 0 55.5 3.5t48.5 10.5zM356 359q26 0 45 -19t19 -45t-19 -45t-45 -19t-45 19t-19 45t19 45t45 19
z" />
    <glyph glyph-name="Lslash" unicode="&#x141;" horiz-adv-x="588" 
d="M297 708v-20q-34 -1 -51.5 -7.5t-23.5 -24t-6 -54.5v-496q0 -36 6 -54t23.5 -23.5t51.5 -5.5h73q63 0 95.5 18t47 59t21.5 110h23q-3 -31 -3 -82q0 -19 1.5 -54.5t5.5 -73.5q-51 2 -115 2.5t-114 0.5h-79.5t-105.5 -0.5t-105 -2.5v20q34 2 51.5 8t23.5 24t6 54v496
q0 37 -6 54.5t-23.5 24t-51.5 7.5v20q21 -1 55 -2t73 -1q35 0 69.5 1t57.5 2zM453 473v-23l-284 -165v23zM169 318v-23l-147 -85v23z" />
    <glyph glyph-name="lslash" unicode="&#x142;" horiz-adv-x="286" 
d="M188 784v-691q0 -42 17.5 -57t58.5 -15v-21q-17 1 -51.5 2.5t-69.5 1.5q-34 0 -69 -1.5t-52 -2.5v21q41 0 58.5 15t17.5 57v571q0 45 -16 66.5t-60 21.5v21q32 -3 62 -3q29 0 55.5 3.5t48.5 10.5zM300 529v-30l-157 -137v30zM143 402v-30l-159 -138v30z" />
    <glyph glyph-name="Nacute" unicode="&#x143;" horiz-adv-x="706" 
d="M670 708v-20q-34 -1 -51.5 -10t-23.5 -29t-6 -57v-597h-11.5h-11.5l-420 649v-528q0 -36 6.5 -56.5t26 -29t58.5 -10.5v-20q-18 2 -47 2.5t-55 0.5q-25 0 -50.5 -0.5t-42.5 -2.5v20q34 2 51.5 10.5t23.5 29t6 56.5v486q0 37 -6 54.5t-23.5 24t-51.5 7.5v20q17 -1 42.5 -2
t50.5 -1q22 0 42 1t36 2l353 -544v428q0 37 -6.5 57t-26 29t-58.5 10v20q18 -1 47.5 -2t54.5 -1q26 0 51.5 1t41.5 2zM481 926q20 13 36.5 9.5t24.5 -16.5t4 -28.5t-25 -29.5q-21 -13 -48.5 -23.5t-64 -25t-88.5 -40.5l-7 13q46 35 75.5 61.5t50.5 46.5t42 33z" />
    <glyph glyph-name="nacute" unicode="&#x144;" horiz-adv-x="597" 
d="M365 529q38 0 63.5 -10t42.5 -28q19 -20 27 -50t8 -81v-267q0 -42 17.5 -57t58.5 -15v-21q-17 1 -52 2.5t-68 1.5t-64.5 -1.5t-47.5 -2.5v21q36 0 51 15t15 57v289q0 31 -5 57t-22.5 42t-53.5 16q-63 0 -101.5 -52.5t-38.5 -129.5v-222q0 -42 15 -57t51 -15v-21
q-16 1 -47.5 2.5t-64.5 1.5t-68 -1.5t-52 -2.5v21q41 0 58.5 15t17.5 57v313q0 45 -16 66.5t-60 21.5v21q32 -3 62 -3q29 0 55.5 3.5t48.5 10.5v-118q26 68 72.5 94.5t97.5 26.5zM413 813q12 -10 13.5 -26t-13.5 -36q-15 -19 -37 -38t-51.5 -45.5t-69.5 -68.5l-11 9
q31 49 49.5 84t31.5 61t28 45q15 20 31.5 22t28.5 -7z" />
    <glyph glyph-name="uni0145" unicode="&#x145;" horiz-adv-x="706" 
d="M670 708v-20q-34 -1 -51.5 -10t-23.5 -29t-6 -57v-597h-11.5h-11.5l-420 649v-528q0 -36 6.5 -56.5t26 -29t58.5 -10.5v-20q-18 2 -47 2.5t-55 0.5q-25 0 -50.5 -0.5t-42.5 -2.5v20q34 2 51.5 10.5t23.5 29t6 56.5v486q0 37 -6 54.5t-23.5 24t-51.5 7.5v20q17 -1 42.5 -2
t50.5 -1q22 0 42 1t36 2l353 -544v428q0 37 -6.5 57t-26 29t-58.5 10v20q18 -1 47.5 -2t54.5 -1q26 0 51.5 1t41.5 2zM360 -69q29 0 47 -20.5t18 -49.5q0 -36 -17 -60.5t-65 -41.5l-7 18q23 7 43 23t19 40q-7 -7 -18 -11.5t-24 -4.5q-22 0 -37 14t-15 40q0 23 16.5 38
t39.5 15z" />
    <glyph glyph-name="uni0146" unicode="&#x146;" horiz-adv-x="597" 
d="M365 529q38 0 63.5 -10t42.5 -28q19 -20 27 -50t8 -81v-267q0 -42 17.5 -57t58.5 -15v-21q-17 1 -52 2.5t-68 1.5t-64.5 -1.5t-47.5 -2.5v21q36 0 51 15t15 57v289q0 31 -5 57t-22.5 42t-53.5 16q-63 0 -101.5 -52.5t-38.5 -129.5v-222q0 -42 15 -57t51 -15v-21
q-16 1 -47.5 2.5t-64.5 1.5t-68 -1.5t-52 -2.5v21q41 0 58.5 15t17.5 57v313q0 45 -16 66.5t-60 21.5v21q32 -3 62 -3q29 0 55.5 3.5t48.5 10.5v-118q26 68 72.5 94.5t97.5 26.5zM309 -69q29 0 47 -20.5t18 -49.5q0 -36 -17 -60.5t-65 -41.5l-7 18q23 7 43 23t19 40
q-7 -7 -18 -11.5t-24 -4.5q-22 0 -37 14t-15 40q0 23 16.5 38t39.5 15z" />
    <glyph glyph-name="Ncaron" unicode="&#x147;" horiz-adv-x="706" 
d="M670 708v-20q-34 -1 -51.5 -10t-23.5 -29t-6 -57v-597h-11.5h-11.5l-420 649v-528q0 -36 6.5 -56.5t26 -29t58.5 -10.5v-20q-18 2 -47 2.5t-55 0.5q-25 0 -50.5 -0.5t-42.5 -2.5v20q34 2 51.5 10.5t23.5 29t6 56.5v486q0 37 -6 54.5t-23.5 24t-51.5 7.5v20q17 -1 42.5 -2
t50.5 -1q22 0 42 1t36 2l353 -544v428q0 37 -6.5 57t-26 29t-58.5 10v20q18 -1 47.5 -2t54.5 -1q26 0 51.5 1t41.5 2zM562 926l5 -14q-65 -22 -114.5 -58t-72.5 -74h-18q-23 38 -72.5 74t-114.5 58l5 14q60 -13 118.5 -32t92.5 -38q29 19 76 38t95 32z" />
    <glyph glyph-name="ncaron" unicode="&#x148;" horiz-adv-x="597" 
d="M365 529q38 0 63.5 -10t42.5 -28q19 -20 27 -50t8 -81v-267q0 -42 17.5 -57t58.5 -15v-21q-17 1 -52 2.5t-68 1.5t-64.5 -1.5t-47.5 -2.5v21q36 0 51 15t15 57v289q0 31 -5 57t-22.5 42t-53.5 16q-63 0 -101.5 -52.5t-38.5 -129.5v-222q0 -42 15 -57t51 -15v-21
q-16 1 -47.5 2.5t-64.5 1.5t-68 -1.5t-52 -2.5v21q41 0 58.5 15t17.5 57v313q0 45 -16 66.5t-60 21.5v21q32 -3 62 -3q29 0 55.5 3.5t48.5 10.5v-118q26 68 72.5 94.5t97.5 26.5zM464 802l8 -14q-58 -28 -102.5 -75t-64.5 -97h-18q-20 50 -64.5 97t-102.5 75l8 14
q54 -19 105.5 -46t82.5 -54q26 27 66 54t82 46z" />
    <glyph glyph-name="napostrophe" unicode="&#x149;" horiz-adv-x="597" 
d="M365 529q38 0 63.5 -10t42.5 -28q19 -20 27 -50t8 -81v-267q0 -42 17.5 -57t58.5 -15v-21q-17 1 -52 2.5t-68 1.5t-64.5 -1.5t-47.5 -2.5v21q36 0 51 15t15 57v289q0 31 -5 57t-22.5 42t-53.5 16q-63 0 -101.5 -52.5t-38.5 -129.5v-222q0 -42 15 -57t51 -15v-21
q-16 1 -47.5 2.5t-64.5 1.5t-68 -1.5t-52 -2.5v21q41 0 58.5 15t17.5 57v313q0 45 -16 66.5t-60 21.5v21q32 -3 62 -3q29 0 55.5 3.5t48.5 10.5v-118q26 68 72.5 94.5t97.5 26.5zM32 760q22 0 36 -9t23 -23q11 -16 14 -35t3 -31q0 -49 -25 -89t-78 -65l-9 18q31 13 53.5 41
t22.5 57q0 12 -3 21q-16 -13 -37 -13q-26 0 -45 17t-19 47q0 28 19 46t45 18z" />
    <glyph glyph-name="Eng" unicode="&#x14a;" horiz-adv-x="705" 
d="M670 708v-20q-34 -1 -51.5 -7.5t-23.5 -24t-6 -54.5v-326l-15 -281h-4h-4l-420 649v-538q0 -36 6 -54t23.5 -24t51.5 -8v-20q-18 2 -42 2.5t-50 0.5q-25 0 -50.5 -0.5t-42.5 -2.5v20q34 2 51.5 8t23.5 24t6 54v496q0 37 -6 54.5t-23.5 24t-51.5 7.5v20q17 -1 42.5 -2
t50.5 -1t49 1t43 2l339 -524v418q0 37 -6 54.5t-23.5 24t-51.5 7.5v20q18 -1 42.5 -2t49.5 -1q26 0 51.5 1t41.5 2zM589 445v-354q0 -115 -19 -175t-51 -82t-72 -22q-35 0 -62.5 14t-27.5 48q0 23 14 36.5t33 13.5q20 0 35 -13.5t15 -33.5q0 -13 -7.5 -26t-18.5 -20
q5 -1 11 -1.5t12 -0.5q62 0 88.5 60t26.5 163v393h11.5h11.5z" />
    <glyph glyph-name="eng" unicode="&#x14b;" horiz-adv-x="579" 
d="M365 528q38 0 63.5 -10t42.5 -28q19 -20 27 -50t8 -81v-244q0 -69 -9.5 -134t-43.5 -108q-24 -31 -56.5 -46t-64.5 -15q-17 0 -30 4.5t-21 11.5t-12 17t-4 20q0 20 12.5 33.5t34.5 13.5q20 0 32.5 -13t12.5 -32q0 -7 -3 -18t-13 -22q19 2 32.5 8t22.5 17q5 6 9 14t6 18
q2 7 3 15t1.5 17t0.5 19v446q0 31 -5 57t-22.5 42t-53.5 16q-63 0 -101.5 -52t-38.5 -129v-222q0 -42 15 -57t51 -15v-21q-16 1 -47.5 2.5t-64.5 1.5t-68 -1.5t-52 -2.5v21q41 0 58.5 15t17.5 57v313q0 45 -16 66.5t-60 21.5v21q32 -3 62 -3q29 0 55.5 3.5t48.5 10.5v-118
q26 68 72.5 94t97.5 26z" />
    <glyph glyph-name="Omacron" unicode="&#x14c;" horiz-adv-x="741" 
d="M371 722q95 0 166.5 -43t111 -123.5t39.5 -195.5q0 -112 -40.5 -196t-112.5 -131t-165 -47q-95 0 -166.5 43t-111 124t-39.5 195q0 112 41 196t112.5 131t164.5 47zM367 704q-65 0 -113 -45t-74.5 -124t-26.5 -183q0 -106 29.5 -184.5t80 -121t111.5 -42.5q65 0 113 45
t74.5 124.5t26.5 182.5q0 107 -29.5 185t-79.5 120.5t-112 42.5zM545 844v-25h-352v25h352z" />
    <glyph glyph-name="omacron" unicode="&#x14d;" horiz-adv-x="548" 
d="M274 529q64 0 115 -28t81.5 -88t30.5 -156t-30.5 -155.5t-81.5 -87.5t-115 -28q-63 0 -114.5 28t-82 87.5t-30.5 155.5t30.5 156t82 88t114.5 28zM274 509q-57 0 -93.5 -59t-36.5 -193t36.5 -192.5t93.5 -58.5t93.5 58.5t36.5 192.5t-36.5 193t-93.5 59zM430 712v-25
h-312v25h312z" />
    <glyph glyph-name="Obreve" unicode="&#x14e;" horiz-adv-x="741" 
d="M371 722q95 0 166.5 -43t111 -123.5t39.5 -195.5q0 -112 -40.5 -196t-112.5 -131t-165 -47q-95 0 -166.5 43t-111 124t-39.5 195q0 112 41 196t112.5 131t164.5 47zM367 704q-65 0 -113 -45t-74.5 -124t-26.5 -183q0 -106 29.5 -184.5t80 -121t111.5 -42.5q65 0 113 45
t74.5 124.5t26.5 182.5q0 107 -29.5 185t-79.5 120.5t-112 42.5zM556 909l12 -11q-16 -26 -43 -53t-66 -45t-90 -18t-90 18t-66 45t-43 53l13 10q23 -22 68.5 -43t117.5 -21t118 21.5t69 43.5z" />
    <glyph glyph-name="obreve" unicode="&#x14f;" horiz-adv-x="548" 
d="M274 529q64 0 115 -28t81.5 -88t30.5 -156t-30.5 -155.5t-81.5 -87.5t-115 -28q-63 0 -114.5 28t-82 87.5t-30.5 155.5t30.5 156t82 88t114.5 28zM274 509q-57 0 -93.5 -59t-36.5 -193t36.5 -192.5t93.5 -58.5t93.5 58.5t36.5 192.5t-36.5 193t-93.5 59zM438 788l17 -9
q-14 -33 -38.5 -67t-59.5 -56.5t-81 -22.5t-81 22.5t-59.5 56.5t-38.5 67l17 9q20 -34 59 -65t103 -31q65 0 103.5 31t58.5 65z" />
    <glyph glyph-name="Ohungarumlaut" unicode="&#x150;" horiz-adv-x="741" 
d="M371 722q95 0 166.5 -43t111 -123.5t39.5 -195.5q0 -112 -40.5 -196t-112.5 -131t-165 -47q-95 0 -166.5 43t-111 124t-39.5 195q0 112 41 196t112.5 131t164.5 47zM367 704q-65 0 -113 -45t-74.5 -124t-26.5 -183q0 -106 29.5 -184.5t80 -121t111.5 -42.5q65 0 113 45
t74.5 124.5t26.5 182.5q0 107 -29.5 185t-79.5 120.5t-112 42.5zM525 922q18 16 34.5 14.5t26.5 -12.5q11 -12 9 -28t-21 -33q-29 -24 -72 -43t-85 -48l-9 12q24 24 43.5 49.5t37 49t36.5 39.5zM338 922q18 16 34.5 14.5t26.5 -12.5q11 -12 9 -28t-21 -33q-29 -24 -72 -43
t-85 -48l-9 12q24 24 43.5 49.5t37 49t36.5 39.5z" />
    <glyph glyph-name="ohungarumlaut" unicode="&#x151;" horiz-adv-x="548" 
d="M274 529q64 0 115 -28t81.5 -88t30.5 -156t-30.5 -155.5t-81.5 -87.5t-115 -28q-63 0 -114.5 28t-82 87.5t-30.5 155.5t30.5 156t82 88t114.5 28zM274 509q-57 0 -93.5 -59t-36.5 -193t36.5 -192.5t93.5 -58.5t93.5 58.5t36.5 192.5t-36.5 193t-93.5 59zM492 813
q12 -10 13.5 -26t-13.5 -36q-23 -29 -61 -59t-97 -93l-11 9q31 49 49.5 84t31.5 61t28 45q15 20 31.5 22t28.5 -7zM314 813q12 -10 13.5 -26t-13.5 -36q-23 -29 -61 -59t-97 -93l-11 9q31 49 49.5 84t31.5 61t28 45q15 20 31.5 22t28.5 -7z" />
    <glyph glyph-name="OE" unicode="&#x152;" horiz-adv-x="928" 
d="M371 722q48 0 88 -15q60 -1 119 -1.5t93 -0.5q41 0 94 0.5t95 2.5q-4 -35 -5.5 -68t-1.5 -50q0 -18 1 -34.5t2 -27.5h-23q-6 59 -17 93.5t-37.5 49t-79.5 14.5h-33q-34 0 -51.5 -5.5t-23.5 -23t-6 -54.5v-496q0 -36 6 -54t23.5 -23.5t51.5 -5.5h23q63 0 95.5 17t47 55.5
t21.5 104.5h23q-3 -27 -3 -72q0 -19 1.5 -54.5t5.5 -73.5q-46 2 -104.5 2.5t-104.5 0.5h-97t-122 -2q-19 -7 -39.5 -11t-42.5 -4q-95 0 -166.5 43t-111 124t-39.5 195q0 112 41 196t112.5 131t164.5 47zM367 704q-65 0 -113 -45t-74.5 -124t-26.5 -183q0 -106 29.5 -184.5
t80 -121t111.5 -42.5q26 0 53.5 10.5t46 33t18.5 58.5v496q0 37 -17 59t-45.5 32.5t-62.5 10.5zM725 366v-20h-170v20h170zM744 478q-4 -49 -3.5 -74.5t0.5 -47.5t1 -47t5 -75h-23q-4 27 -9.5 53t-24 42.5t-62.5 16.5v20q44 0 61.5 19.5t22.5 46t9 46.5h23z" />
    <glyph glyph-name="oe" unicode="&#x153;" horiz-adv-x="835" 
d="M265 528q55 0 99.5 -28t71 -87.5t26.5 -155.5t-26.5 -155.5t-71 -87.5t-99.5 -28q-60 0 -109.5 28t-78.5 87.5t-29 155.5t29 155.5t78.5 87.5t109.5 28zM265 508q-52 0 -86 -58.5t-34 -192.5t34 -192.5t86 -58.5q53 0 86.5 58.5t33.5 192.5t-33.5 192.5t-86.5 58.5z
M611 529q83 0 130 -53.5t47 -166.5h-323l-1 19h228q2 49 -7 90.5t-28.5 66.5t-49.5 25q-46 0 -81.5 -46t-42.5 -146l3 -4q-2 -15 -3 -33t-1 -36q0 -68 22 -117t57.5 -74.5t73.5 -25.5q42 0 77 22t60 78l20 -8q-10 -33 -34 -64t-60 -50.5t-83 -19.5q-66 0 -113 33t-72 91.5
t-25 134.5q0 88 25.5 151.5t72 98t108.5 34.5z" />
    <glyph glyph-name="Racute" unicode="&#x154;" horiz-adv-x="648" 
d="M42 708q21 -1 55 -2t67 -1q47 0 90 1t61 1q121 0 181 -50t60 -124q0 -30 -12 -64t-41.5 -64t-80.5 -49.5t-129 -19.5h-96v20h86q71 0 108.5 22.5t51 60t13.5 83.5q0 79 -37.5 122.5t-128.5 43.5q-46 0 -60 -17t-14 -69v-496q0 -36 6 -54t23.5 -24t51.5 -8v-20
q-23 2 -57.5 2.5t-69.5 0.5q-39 0 -73 -0.5t-55 -2.5v20q34 2 51.5 8t23.5 24t6 54v496q0 37 -6 54.5t-23.5 24t-51.5 7.5v20zM201 353q54 -2 85 -4.5t50.5 -4.5t37.5 -5q67 -11 96.5 -40.5t43.5 -91.5l25 -102q10 -44 20.5 -63.5t32.5 -18.5q17 1 28.5 11t24.5 27l15 -11
q-21 -31 -43.5 -47.5t-63.5 -16.5q-37 0 -65 22t-42 86l-22 100q-9 43 -20.5 74.5t-32 49.5t-60.5 18h-108zM403 926q20 13 36.5 9.5t24.5 -16.5t4 -28.5t-25 -29.5q-21 -13 -48.5 -23.5t-64 -25t-88.5 -40.5l-7 13q46 35 75.5 61.5t50.5 46.5t42 33z" />
    <glyph glyph-name="racute" unicode="&#x155;" horiz-adv-x="445" 
d="M340 529q27 0 47.5 -11t32 -28.5t11.5 -39.5q0 -25 -15.5 -44t-41.5 -19q-21 0 -37 13.5t-16 38.5q0 19 10.5 32.5t23.5 21.5q-7 10 -21 10q-42 0 -73 -31.5t-48.5 -75.5t-17.5 -81v-212q0 -49 28.5 -65.5t77.5 -16.5v-21q-23 1 -65 2.5t-89 1.5q-34 0 -67.5 -1.5
t-50.5 -2.5v21q41 0 58.5 15t17.5 57v313q0 45 -16 66.5t-60 21.5v21q32 -3 62 -3q29 0 55.5 3.5t48.5 10.5v-125q11 29 31.5 58.5t49.5 49.5t64 20zM343 813q12 -10 13.5 -26t-13.5 -36q-15 -19 -37 -38t-51.5 -45.5t-69.5 -68.5l-11 9q31 49 49.5 84t31.5 61t28 45
q15 20 31.5 22t28.5 -7z" />
    <glyph glyph-name="uni0156" unicode="&#x156;" horiz-adv-x="648" 
d="M42 708q21 -1 55 -2t67 -1q47 0 90 1t61 1q121 0 181 -50t60 -124q0 -30 -12 -64t-41.5 -64t-80.5 -49.5t-129 -19.5h-96v20h86q71 0 108.5 22.5t51 60t13.5 83.5q0 79 -37.5 122.5t-128.5 43.5q-46 0 -60 -17t-14 -69v-496q0 -36 6 -54t23.5 -24t51.5 -8v-20
q-23 2 -57.5 2.5t-69.5 0.5q-39 0 -73 -0.5t-55 -2.5v20q34 2 51.5 8t23.5 24t6 54v496q0 37 -6 54.5t-23.5 24t-51.5 7.5v20zM201 353q54 -2 85 -4.5t50.5 -4.5t37.5 -5q67 -11 96.5 -40.5t43.5 -91.5l25 -102q10 -44 20.5 -63.5t32.5 -18.5q17 1 28.5 11t24.5 27l15 -11
q-21 -31 -43.5 -47.5t-63.5 -16.5q-37 0 -65 22t-42 86l-22 100q-9 43 -20.5 74.5t-32 49.5t-60.5 18h-108zM330 -69q29 0 47 -20.5t18 -49.5q0 -36 -17 -60.5t-65 -41.5l-7 18q23 7 43 23t19 40q-7 -7 -18 -11.5t-24 -4.5q-22 0 -37 14t-15 40q0 23 16.5 38t39.5 15z" />
    <glyph glyph-name="uni0157" unicode="&#x157;" horiz-adv-x="445" 
d="M340 529q27 0 47.5 -11t32 -28.5t11.5 -39.5q0 -25 -15.5 -44t-41.5 -19q-21 0 -37 13.5t-16 38.5q0 19 10.5 32.5t23.5 21.5q-7 10 -21 10q-42 0 -73 -31.5t-48.5 -75.5t-17.5 -81v-212q0 -49 28.5 -65.5t77.5 -16.5v-21q-23 1 -65 2.5t-89 1.5q-34 0 -67.5 -1.5
t-50.5 -2.5v21q41 0 58.5 15t17.5 57v313q0 45 -16 66.5t-60 21.5v21q32 -3 62 -3q29 0 55.5 3.5t48.5 10.5v-125q11 29 31.5 58.5t49.5 49.5t64 20zM162 -69q29 0 47 -20.5t18 -49.5q0 -36 -17 -60.5t-65 -41.5l-7 18q23 7 43 23t19 40q-7 -7 -18 -11.5t-24 -4.5
q-22 0 -37 14t-15 40q0 23 16.5 38t39.5 15z" />
    <glyph glyph-name="Rcaron" unicode="&#x158;" horiz-adv-x="648" 
d="M42 708q21 -1 55 -2t67 -1q47 0 90 1t61 1q121 0 181 -50t60 -124q0 -30 -12 -64t-41.5 -64t-80.5 -49.5t-129 -19.5h-96v20h86q71 0 108.5 22.5t51 60t13.5 83.5q0 79 -37.5 122.5t-128.5 43.5q-46 0 -60 -17t-14 -69v-496q0 -36 6 -54t23.5 -24t51.5 -8v-20
q-23 2 -57.5 2.5t-69.5 0.5q-39 0 -73 -0.5t-55 -2.5v20q34 2 51.5 8t23.5 24t6 54v496q0 37 -6 54.5t-23.5 24t-51.5 7.5v20zM201 353q54 -2 85 -4.5t50.5 -4.5t37.5 -5q67 -11 96.5 -40.5t43.5 -91.5l25 -102q10 -44 20.5 -63.5t32.5 -18.5q17 1 28.5 11t24.5 27l15 -11
q-21 -31 -43.5 -47.5t-63.5 -16.5q-37 0 -65 22t-42 86l-22 100q-9 43 -20.5 74.5t-32 49.5t-60.5 18h-108zM484 926l5 -14q-65 -22 -114.5 -58t-72.5 -74h-18q-23 38 -72.5 74t-114.5 58l5 14q60 -13 118.5 -32t92.5 -38q29 19 76 38t95 32z" />
    <glyph glyph-name="rcaron" unicode="&#x159;" horiz-adv-x="445" 
d="M340 529q27 0 47.5 -11t32 -28.5t11.5 -39.5q0 -25 -15.5 -44t-41.5 -19q-21 0 -37 13.5t-16 38.5q0 19 10.5 32.5t23.5 21.5q-7 10 -21 10q-42 0 -73 -31.5t-48.5 -75.5t-17.5 -81v-212q0 -49 28.5 -65.5t77.5 -16.5v-21q-23 1 -65 2.5t-89 1.5q-34 0 -67.5 -1.5
t-50.5 -2.5v21q41 0 58.5 15t17.5 57v313q0 45 -16 66.5t-60 21.5v21q32 -3 62 -3q29 0 55.5 3.5t48.5 10.5v-125q11 29 31.5 58.5t49.5 49.5t64 20zM394 802l8 -14q-58 -28 -102.5 -75t-64.5 -97h-18q-20 50 -64.5 97t-102.5 75l8 14q54 -19 105.5 -46t82.5 -54
q26 27 66 54t82 46z" />
    <glyph glyph-name="Sacute" unicode="&#x15a;" horiz-adv-x="540" 
d="M256 719q50 0 76 -11.5t46 -25.5q12 -7 19.5 -10.5t14.5 -3.5q16 0 22 44h23q-1 -17 -2.5 -40.5t-2 -62t-0.5 -101.5h-23q-3 48 -21 92t-52.5 72t-90.5 28q-53 0 -87.5 -32t-34.5 -84q0 -45 23 -75.5t61.5 -55t83.5 -52.5q52 -32 92.5 -63.5t64 -69.5t23.5 -92
q0 -64 -29 -106t-77 -63t-106 -21q-53 0 -84 12t-53 25q-22 14 -34 14q-16 0 -22 -44h-23q2 21 2.5 49.5t1 74.5t0.5 116h23q4 -60 22.5 -112t57 -83.5t102.5 -31.5q49 0 89.5 31.5t40.5 101.5q0 61 -43 101t-113 82q-47 29 -88 59t-65.5 69.5t-24.5 95.5q0 59 26.5 97.5
t69.5 57t92 18.5zM382 926q20 13 36.5 9.5t24.5 -16.5t4 -28.5t-25 -29.5q-21 -13 -48.5 -23.5t-64 -25t-88.5 -40.5l-7 13q46 35 75.5 61.5t50.5 46.5t42 33z" />
    <glyph glyph-name="sacute" unicode="&#x15b;" horiz-adv-x="447" 
d="M208 529q40 0 68 -13t41 -24q33 -27 40 36h23q-2 -28 -3 -66.5t-1 -103.5h-23q-6 37 -20.5 72t-42.5 57.5t-73 22.5q-35 0 -58.5 -19.5t-23.5 -57.5q0 -30 18 -51.5t47 -40t63 -40.5q57 -37 97 -75t40 -100q0 -46 -24 -77t-62.5 -47t-84.5 -16q-22 0 -41.5 3.5
t-37.5 10.5q-10 5 -20.5 12t-20.5 15t-18 -0.5t-12 -33.5h-23q2 32 3 78t1 122h23q7 -56 20 -98t41 -65.5t78 -23.5q30 0 59.5 21t29.5 74q0 44 -32 72t-81 59q-36 23 -67.5 46t-51 52t-19.5 70q0 45 20.5 73.5t54.5 42t73 13.5zM336 813q12 -10 13.5 -26t-13.5 -36
q-15 -19 -37 -38t-51.5 -45.5t-69.5 -68.5l-11 9q31 49 49.5 84t31.5 61t28 45q15 20 31.5 22t28.5 -7z" />
    <glyph glyph-name="Scircumflex" unicode="&#x15c;" horiz-adv-x="540" 
d="M256 719q50 0 76 -11.5t46 -25.5q12 -7 19.5 -10.5t14.5 -3.5q16 0 22 44h23q-1 -17 -2.5 -40.5t-2 -62t-0.5 -101.5h-23q-3 48 -21 92t-52.5 72t-90.5 28q-53 0 -87.5 -32t-34.5 -84q0 -45 23 -75.5t61.5 -55t83.5 -52.5q52 -32 92.5 -63.5t64 -69.5t23.5 -92
q0 -64 -29 -106t-77 -63t-106 -21q-53 0 -84 12t-53 25q-22 14 -34 14q-16 0 -22 -44h-23q2 21 2.5 49.5t1 74.5t0.5 116h23q4 -60 22.5 -112t57 -83.5t102.5 -31.5q49 0 89.5 31.5t40.5 101.5q0 61 -43 101t-113 82q-47 29 -88 59t-65.5 69.5t-24.5 95.5q0 59 26.5 97.5
t69.5 57t92 18.5zM284 916q23 -38 72.5 -73.5t114.5 -58.5l-5 -14q-60 13 -118 32t-93 38q-28 -19 -75.5 -38t-95.5 -32l-5 14q65 23 114.5 58.5t72.5 73.5h18z" />
    <glyph glyph-name="scircumflex" unicode="&#x15d;" horiz-adv-x="447" 
d="M208 529q40 0 68 -13t41 -24q33 -27 40 36h23q-2 -28 -3 -66.5t-1 -103.5h-23q-6 37 -20.5 72t-42.5 57.5t-73 22.5q-35 0 -58.5 -19.5t-23.5 -57.5q0 -30 18 -51.5t47 -40t63 -40.5q57 -37 97 -75t40 -100q0 -46 -24 -77t-62.5 -47t-84.5 -16q-22 0 -41.5 3.5
t-37.5 10.5q-10 5 -20.5 12t-20.5 15t-18 -0.5t-12 -33.5h-23q2 32 3 78t1 122h23q7 -56 20 -98t41 -65.5t78 -23.5q30 0 59.5 21t29.5 74q0 44 -32 72t-81 59q-36 23 -67.5 46t-51 52t-19.5 70q0 45 20.5 73.5t54.5 42t73 13.5zM238 802q20 -50 64.5 -96.5t102.5 -75.5
l-8 -14q-54 19 -105 46t-83 54q-25 -27 -65.5 -54t-82.5 -46l-8 14q58 29 102.5 75.5t64.5 96.5h18z" />
    <glyph glyph-name="Scedilla" unicode="&#x15e;" horiz-adv-x="540" 
d="M256 719q50 0 76 -11.5t46 -25.5q12 -7 19.5 -10.5t14.5 -3.5q16 0 22 44h23q-1 -17 -2.5 -40.5t-2 -62t-0.5 -101.5h-23q-3 48 -21 92t-52.5 72t-90.5 28q-53 0 -87.5 -32t-34.5 -84q0 -45 23 -75.5t61.5 -55t83.5 -52.5q52 -32 92.5 -63.5t64 -69.5t23.5 -92
q0 -64 -29 -106t-77 -63t-106 -21q-53 0 -84 12t-53 25q-22 14 -34 14q-16 0 -22 -44h-23q2 21 2.5 49.5t1 74.5t0.5 116h23q4 -60 22.5 -112t57 -83.5t102.5 -31.5q49 0 89.5 31.5t40.5 101.5q0 61 -43 101t-113 82q-47 29 -88 59t-65.5 69.5t-24.5 95.5q0 59 26.5 97.5
t69.5 57t92 18.5zM297 5l-26 -77q13 3 28 5t31 2q28 0 44.5 -12t16.5 -35q0 -28 -18.5 -44.5t-44.5 -24t-50 -7.5q-28 0 -48.5 3.5t-34.5 7.5l4 18q5 -1 15.5 -2t22.5 -1q29 0 59.5 9t30.5 36q0 14 -11 21t-31 7q-8 0 -23 -1.5t-26 -5.5l34 101h27z" />
    <glyph glyph-name="scedilla" unicode="&#x15f;" horiz-adv-x="447" 
d="M208 529q40 0 68 -13t41 -24q33 -27 40 36h23q-2 -28 -3 -66.5t-1 -103.5h-23q-6 37 -20.5 72t-42.5 57.5t-73 22.5q-35 0 -58.5 -19.5t-23.5 -57.5q0 -30 18 -51.5t47 -40t63 -40.5q57 -37 97 -75t40 -100q0 -46 -24 -77t-62.5 -47t-84.5 -16q-22 0 -41.5 3.5
t-37.5 10.5q-10 5 -20.5 12t-20.5 15t-18 -0.5t-12 -33.5h-23q2 32 3 78t1 122h23q7 -56 20 -98t41 -65.5t78 -23.5q30 0 59.5 21t29.5 74q0 44 -32 72t-81 59q-36 23 -67.5 46t-51 52t-19.5 70q0 45 20.5 73.5t54.5 42t73 13.5zM226 6l-26 -78q13 3 28 5t31 2
q28 0 44.5 -12t16.5 -35q0 -28 -18.5 -44.5t-44.5 -24t-50 -7.5q-28 0 -48.5 3.5t-34.5 7.5l4 18q5 -1 15.5 -2t22.5 -1q29 0 59.5 9t30.5 36q0 28 -42 28q-8 0 -23 -1.5t-26 -5.5l34 102h27z" />
    <glyph glyph-name="Scaron" unicode="&#x160;" horiz-adv-x="540" 
d="M256 719q50 0 76 -11.5t46 -25.5q12 -7 19.5 -10.5t14.5 -3.5q16 0 22 44h23q-1 -17 -2.5 -40.5t-2 -62t-0.5 -101.5h-23q-3 48 -21 92t-52.5 72t-90.5 28q-53 0 -87.5 -32t-34.5 -84q0 -45 23 -75.5t61.5 -55t83.5 -52.5q52 -32 92.5 -63.5t64 -69.5t23.5 -92
q0 -64 -29 -106t-77 -63t-106 -21q-53 0 -84 12t-53 25q-22 14 -34 14q-16 0 -22 -44h-23q2 21 2.5 49.5t1 74.5t0.5 116h23q4 -60 22.5 -112t57 -83.5t102.5 -31.5q49 0 89.5 31.5t40.5 101.5q0 61 -43 101t-113 82q-47 29 -88 59t-65.5 69.5t-24.5 95.5q0 59 26.5 97.5
t69.5 57t92 18.5zM463 926l5 -14q-65 -22 -114.5 -58t-72.5 -74h-18q-23 38 -72.5 74t-114.5 58l5 14q60 -13 118.5 -32t92.5 -38q29 19 76 38t95 32z" />
    <glyph glyph-name="scaron" unicode="&#x161;" horiz-adv-x="447" 
d="M208 529q40 0 68 -13t41 -24q33 -27 40 36h23q-2 -28 -3 -66.5t-1 -103.5h-23q-6 37 -20.5 72t-42.5 57.5t-73 22.5q-35 0 -58.5 -19.5t-23.5 -57.5q0 -30 18 -51.5t47 -40t63 -40.5q57 -37 97 -75t40 -100q0 -46 -24 -77t-62.5 -47t-84.5 -16q-22 0 -41.5 3.5
t-37.5 10.5q-10 5 -20.5 12t-20.5 15t-18 -0.5t-12 -33.5h-23q2 32 3 78t1 122h23q7 -56 20 -98t41 -65.5t78 -23.5q30 0 59.5 21t29.5 74q0 44 -32 72t-81 59q-36 23 -67.5 46t-51 52t-19.5 70q0 45 20.5 73.5t54.5 42t73 13.5zM387 802l8 -14q-58 -28 -102.5 -75
t-64.5 -97h-18q-20 50 -64.5 97t-102.5 75l8 14q54 -19 105.5 -46t82.5 -54q26 27 66 54t82 46z" />
    <glyph glyph-name="uni0162" unicode="&#x162;" horiz-adv-x="621" 
d="M592 708q-4 -38 -5.5 -73.5t-1.5 -54.5q0 -24 1 -45t2 -37h-23q-7 70 -19 110.5t-42 58.5t-93 18h-54v-569q0 -40 7.5 -60t29.5 -27t64 -9v-20q-26 2 -66 2.5t-81 0.5q-45 0 -84.5 -0.5t-63.5 -2.5v20q42 2 64 9t29.5 27t7.5 60v569h-54q-62 0 -92.5 -18t-42.5 -58.5
t-19 -110.5h-23q2 16 2.5 37t0.5 45q0 19 -1.5 54.5t-5.5 73.5q42 -1 91.5 -2t99.5 -1h91h90.5t99.5 1t91 2zM322 5l-26 -77q13 3 28 5t31 2q28 0 44.5 -12t16.5 -35q0 -28 -18.5 -44.5t-44.5 -24t-50 -7.5q-28 0 -48.5 3.5t-34.5 7.5l4 18q5 -1 15.5 -2t22.5 -1
q29 0 59.5 9t30.5 36q0 14 -11 21t-31 7q-8 0 -23 -1.5t-26 -5.5l34 101h27z" />
    <glyph glyph-name="uni0163" unicode="&#x163;" horiz-adv-x="354" 
d="M190 681v-167h148v-20h-148v-387q0 -47 17 -66t47 -19t52 24.5t38 82.5l20 -5q-10 -58 -39.5 -98t-90.5 -40q-34 0 -56 8.5t-39 24.5q-22 23 -30.5 55t-8.5 85v335h-96v20h96v153q25 1 48 4t42 10zM231 6l-26 -78q13 3 28 5t31 2q28 0 44.5 -12t16.5 -35
q0 -28 -18.5 -44.5t-44.5 -24t-50 -7.5q-28 0 -48.5 3.5t-34.5 7.5l4 18q5 -1 15.5 -2t22.5 -1q29 0 59.5 9t30.5 36q0 28 -42 28q-8 0 -23 -1.5t-26 -5.5l34 102h27z" />
    <glyph glyph-name="Tcaron" unicode="&#x164;" horiz-adv-x="621" 
d="M592 708q-4 -38 -5.5 -73.5t-1.5 -54.5q0 -24 1 -45t2 -37h-23q-7 70 -19 110.5t-42 58.5t-93 18h-54v-569q0 -40 7.5 -60t29.5 -27t64 -9v-20q-26 2 -66 2.5t-81 0.5q-45 0 -84.5 -0.5t-63.5 -2.5v20q42 2 64 9t29.5 27t7.5 60v569h-54q-62 0 -92.5 -18t-42.5 -58.5
t-19 -110.5h-23q2 16 2.5 37t0.5 45q0 19 -1.5 54.5t-5.5 73.5q42 -1 91.5 -2t99.5 -1h91h90.5t99.5 1t91 2zM499 926l5 -14q-65 -22 -114.5 -58t-72.5 -74h-18q-23 38 -72.5 74t-114.5 58l5 14q60 -13 118.5 -32t92.5 -38q29 19 76 38t95 32z" />
    <glyph glyph-name="tcaron" unicode="&#x165;" horiz-adv-x="354" 
d="M190 681v-167h148v-20h-148v-387q0 -47 17 -66t47 -19t52 24.5t38 82.5l20 -5q-10 -58 -39.5 -98t-90.5 -40q-34 0 -56 8.5t-39 24.5q-22 23 -30.5 55t-8.5 85v335h-96v20h96v153q25 1 48 4t42 10zM334 783q2 -5 3.5 -18.5t1.5 -22.5q0 -29 -18 -72t-49 -108l-14 4
q12 68 16 100t4 45q0 20 -3.5 30t-16.5 10v21q27 -2 44.5 2t31.5 9z" />
    <glyph glyph-name="Tbar" unicode="&#x166;" horiz-adv-x="621" 
d="M592 708q-4 -38 -5.5 -73.5t-1.5 -54.5q0 -24 1 -45t2 -37h-23q-7 70 -19 110.5t-42 58.5t-93 18h-54v-569q0 -40 7.5 -60t29.5 -27t64 -9v-20q-26 2 -66 2.5t-81 0.5q-45 0 -84.5 -0.5t-63.5 -2.5v20q42 2 64 9t29.5 27t7.5 60v569h-54q-62 0 -92.5 -18t-42.5 -58.5
t-19 -110.5h-23q2 16 2.5 37t0.5 45q0 19 -1.5 54.5t-5.5 73.5q42 -1 91.5 -2t99.5 -1h91h90.5t99.5 1t91 2zM523.805 364v-20h-424.805v20h424.805z" />
    <glyph glyph-name="tbar" unicode="&#x167;" horiz-adv-x="376" 
d="M341 421v-20h-334v20h334zM193 681v-167h148v-20h-148v-387q0 -47 17 -66t47 -19t52 24.5t38 82.5l20 -5q-10 -58 -39.5 -98t-90.5 -40q-34 0 -56 8.5t-39 24.5q-22 23 -30.5 55t-8.5 85v335h-96v20h96v153q25 1 48 4t42 10z" />
    <glyph glyph-name="Utilde" unicode="&#x168;" horiz-adv-x="682" 
d="M655 708v-20q-34 -1 -51.5 -10t-23.5 -29t-6 -57v-301q0 -70 -9 -122t-32 -90q-25 -42 -73 -67.5t-110 -25.5q-48 0 -91.5 11.5t-76.5 42.5q-29 28 -45.5 59t-22.5 76t-6 113v314q0 37 -6 54.5t-23.5 24t-51.5 7.5v20q21 -1 55 -2t73 -1q35 0 69.5 1t57.5 2v-20
q-34 -1 -51.5 -7.5t-23.5 -24t-6 -54.5v-331q0 -68 10 -125t43.5 -91t104.5 -34q76 0 117.5 33.5t58 92.5t16.5 133v312q0 37 -8.5 57t-28.5 29t-54 10v20q18 -1 47.5 -2t54.5 -1q26 0 51.5 1t41.5 2zM271 902q28 0 52 -11.5t47 -27t46 -27t49 -11.5q20 0 36.5 12t25.5 44
l15 -3q-4 -49 -36.5 -77.5t-74.5 -28.5q-28 0 -52 11.5t-47 27t-46 27t-49 11.5q-21 0 -37 -12t-25 -44l-15 3q5 50 37 78t74 28z" />
    <glyph glyph-name="utilde" unicode="&#x169;" horiz-adv-x="581" 
d="M483 526v-418q0 -45 16.5 -66.5t59.5 -21.5v-21q-31 3 -62 3q-29 0 -55.5 -3t-48.5 -11v118q-25 -65 -70.5 -92.5t-93.5 -27.5q-35 0 -61 10t-43 28q-19 20 -26 52t-7 79v251q0 45 -16 66.5t-60 21.5v21q32 -3 62 -3q29 0 55.5 3.5t48.5 10.5v-393q0 -31 4 -57t20 -42
t52 -16q59 0 97 52.5t38 128.5v207q0 45 -16 66.5t-60 21.5v21q32 -3 62 -3q29 0 55.5 3.5t48.5 10.5zM206 768q27 0 46 -10t34.5 -23t32 -23t38.5 -10q21 0 40.5 12.5t36.5 40.5l14 -7q-16 -55 -48 -79t-70 -24q-27 0 -46.5 10t-35 23.5t-32 23.5t-38.5 10
q-21 0 -40.5 -12.5t-36.5 -41.5l-14 7q16 56 48.5 79.5t70.5 23.5z" />
    <glyph glyph-name="Umacron" unicode="&#x16a;" horiz-adv-x="682" 
d="M655 708v-20q-34 -1 -51.5 -10t-23.5 -29t-6 -57v-301q0 -70 -9 -122t-32 -90q-25 -42 -73 -67.5t-110 -25.5q-48 0 -91.5 11.5t-76.5 42.5q-29 28 -45.5 59t-22.5 76t-6 113v314q0 37 -6 54.5t-23.5 24t-51.5 7.5v20q21 -1 55 -2t73 -1q35 0 69.5 1t57.5 2v-20
q-34 -1 -51.5 -7.5t-23.5 -24t-6 -54.5v-331q0 -68 10 -125t43.5 -91t104.5 -34q76 0 117.5 33.5t58 92.5t16.5 133v312q0 37 -8.5 57t-28.5 29t-54 10v20q18 -1 47.5 -2t54.5 -1q26 0 51.5 1t41.5 2zM528 844v-25h-352v25h352z" />
    <glyph glyph-name="umacron" unicode="&#x16b;" horiz-adv-x="581" 
d="M483 526v-418q0 -45 16.5 -66.5t59.5 -21.5v-21q-31 3 -62 3q-29 0 -55.5 -3t-48.5 -11v118q-25 -65 -70.5 -92.5t-93.5 -27.5q-35 0 -61 10t-43 28q-19 20 -26 52t-7 79v251q0 45 -16 66.5t-60 21.5v21q32 -3 62 -3q29 0 55.5 3.5t48.5 10.5v-393q0 -31 4 -57t20 -42
t52 -16q59 0 97 52.5t38 128.5v207q0 45 -16 66.5t-60 21.5v21q32 -3 62 -3q29 0 55.5 3.5t48.5 10.5zM433 712v-25h-312v25h312z" />
    <glyph glyph-name="Ubreve" unicode="&#x16c;" horiz-adv-x="682" 
d="M655 708v-20q-34 -1 -51.5 -10t-23.5 -29t-6 -57v-301q0 -70 -9 -122t-32 -90q-25 -42 -73 -67.5t-110 -25.5q-48 0 -91.5 11.5t-76.5 42.5q-29 28 -45.5 59t-22.5 76t-6 113v314q0 37 -6 54.5t-23.5 24t-51.5 7.5v20q21 -1 55 -2t73 -1q35 0 69.5 1t57.5 2v-20
q-34 -1 -51.5 -7.5t-23.5 -24t-6 -54.5v-331q0 -68 10 -125t43.5 -91t104.5 -34q76 0 117.5 33.5t58 92.5t16.5 133v312q0 37 -8.5 57t-28.5 29t-54 10v20q18 -1 47.5 -2t54.5 -1q26 0 51.5 1t41.5 2zM539 909l12 -11q-16 -26 -43 -53t-66 -45t-90 -18t-90 18t-66 45t-43 53
l13 10q23 -22 68.5 -43t117.5 -21t118 21.5t69 43.5z" />
    <glyph glyph-name="ubreve" unicode="&#x16d;" horiz-adv-x="581" 
d="M483 526v-418q0 -45 16.5 -66.5t59.5 -21.5v-21q-31 3 -62 3q-29 0 -55.5 -3t-48.5 -11v118q-25 -65 -70.5 -92.5t-93.5 -27.5q-35 0 -61 10t-43 28q-19 20 -26 52t-7 79v251q0 45 -16 66.5t-60 21.5v21q32 -3 62 -3q29 0 55.5 3.5t48.5 10.5v-393q0 -31 4 -57t20 -42
t52 -16q59 0 97 52.5t38 128.5v207q0 45 -16 66.5t-60 21.5v21q32 -3 62 -3q29 0 55.5 3.5t48.5 10.5zM441 788l17 -9q-14 -33 -38.5 -67t-59.5 -56.5t-81 -22.5t-81 22.5t-59.5 56.5t-38.5 67l17 9q20 -34 59 -65t103 -31q65 0 103.5 31t58.5 65z" />
    <glyph glyph-name="Uring" unicode="&#x16e;" horiz-adv-x="682" 
d="M655 708v-20q-34 -1 -51.5 -10t-23.5 -29t-6 -57v-301q0 -70 -9 -122t-32 -90q-25 -42 -73 -67.5t-110 -25.5q-48 0 -91.5 11.5t-76.5 42.5q-29 28 -45.5 59t-22.5 76t-6 113v314q0 37 -6 54.5t-23.5 24t-51.5 7.5v20q21 -1 55 -2t73 -1q35 0 69.5 1t57.5 2v-20
q-34 -1 -51.5 -7.5t-23.5 -24t-6 -54.5v-331q0 -68 10 -125t43.5 -91t104.5 -34q76 0 117.5 33.5t58 92.5t16.5 133v312q0 37 -8.5 57t-28.5 29t-54 10v20q18 -1 47.5 -2t54.5 -1q26 0 51.5 1t41.5 2zM352 985q39 0 68 -24.5t29 -66.5q0 -43 -29 -67.5t-68 -24.5
q-38 0 -67 24.5t-29 67.5q0 42 29 66.5t67 24.5zM352 964q-24 0 -46 -18t-22 -53t22 -52.5t46 -17.5q25 0 47 17.5t22 52.5t-22 53t-47 18z" />
    <glyph glyph-name="uring" unicode="&#x16f;" horiz-adv-x="581" 
d="M483 526v-418q0 -45 16.5 -66.5t59.5 -21.5v-21q-31 3 -62 3q-29 0 -55.5 -3t-48.5 -11v118q-25 -65 -70.5 -92.5t-93.5 -27.5q-35 0 -61 10t-43 28q-19 20 -26 52t-7 79v251q0 45 -16 66.5t-60 21.5v21q32 -3 62 -3q29 0 55.5 3.5t48.5 10.5v-393q0 -31 4 -57t20 -42
t52 -16q59 0 97 52.5t38 128.5v207q0 45 -16 66.5t-60 21.5v21q32 -3 62 -3q29 0 55.5 3.5t48.5 10.5zM280 791q39 0 68 -24.5t29 -66.5q0 -43 -29 -67.5t-68 -24.5q-38 0 -67 24.5t-29 67.5q0 42 29 66.5t67 24.5zM280 770q-24 0 -46 -18t-22 -53t22 -52.5t46 -17.5
q25 0 47 17.5t22 52.5t-22 53t-47 18z" />
    <glyph glyph-name="Uhungarumlaut" unicode="&#x170;" horiz-adv-x="682" 
d="M655 708v-20q-34 -1 -51.5 -10t-23.5 -29t-6 -57v-301q0 -70 -9 -122t-32 -90q-25 -42 -73 -67.5t-110 -25.5q-48 0 -91.5 11.5t-76.5 42.5q-29 28 -45.5 59t-22.5 76t-6 113v314q0 37 -6 54.5t-23.5 24t-51.5 7.5v20q21 -1 55 -2t73 -1q35 0 69.5 1t57.5 2v-20
q-34 -1 -51.5 -7.5t-23.5 -24t-6 -54.5v-331q0 -68 10 -125t43.5 -91t104.5 -34q76 0 117.5 33.5t58 92.5t16.5 133v312q0 37 -8.5 57t-28.5 29t-54 10v20q18 -1 47.5 -2t54.5 -1q26 0 51.5 1t41.5 2zM508 922q18 16 34.5 14.5t26.5 -12.5q11 -12 9 -28t-21 -33
q-29 -24 -72 -43t-85 -48l-9 12q24 24 43.5 49.5t37 49t36.5 39.5zM321 922q18 16 34.5 14.5t26.5 -12.5q11 -12 9 -28t-21 -33q-29 -24 -72 -43t-85 -48l-9 12q24 24 43.5 49.5t37 49t36.5 39.5z" />
    <glyph glyph-name="uhungarumlaut" unicode="&#x171;" horiz-adv-x="581" 
d="M483 526v-418q0 -45 16.5 -66.5t59.5 -21.5v-21q-31 3 -62 3q-29 0 -55.5 -3t-48.5 -11v118q-25 -65 -70.5 -92.5t-93.5 -27.5q-35 0 -61 10t-43 28q-19 20 -26 52t-7 79v251q0 45 -16 66.5t-60 21.5v21q32 -3 62 -3q29 0 55.5 3.5t48.5 10.5v-393q0 -31 4 -57t20 -42
t52 -16q59 0 97 52.5t38 128.5v207q0 45 -16 66.5t-60 21.5v21q32 -3 62 -3q29 0 55.5 3.5t48.5 10.5zM495 813q12 -10 13.5 -26t-13.5 -36q-23 -29 -61 -59t-97 -93l-11 9q31 49 49.5 84t31.5 61t28 45q15 20 31.5 22t28.5 -7zM317 813q12 -10 13.5 -26t-13.5 -36
q-23 -29 -61 -59t-97 -93l-11 9q31 49 49.5 84t31.5 61t28 45q15 20 31.5 22t28.5 -7z" />
    <glyph glyph-name="Uogonek" unicode="&#x172;" horiz-adv-x="682" 
d="M655 708v-20q-34 -1 -51.5 -10t-23.5 -29t-6 -57v-301q0 -70 -9 -122t-32 -90q-25 -42 -73 -67.5t-110 -25.5q-48 0 -91.5 11.5t-76.5 42.5q-29 28 -45.5 59t-22.5 76t-6 113v314q0 37 -6 54.5t-23.5 24t-51.5 7.5v20q21 -1 55 -2t73 -1q35 0 69.5 1t57.5 2v-20
q-34 -1 -51.5 -7.5t-23.5 -24t-6 -54.5v-331q0 -68 10 -125t43.5 -91t104.5 -34q76 0 117.5 33.5t58 92.5t16.5 133v312q0 37 -8.5 57t-28.5 29t-54 10v20q18 -1 47.5 -2t54.5 -1q26 0 51.5 1t41.5 2zM440 3q-59 -16 -81 -44.5t-22 -54.5q0 -19 11.5 -31.5t31.5 -12.5
q19 0 35 10t26 23l15 -13q-23 -35 -51.5 -51.5t-61.5 -16.5q-36 0 -57.5 18t-21.5 47q0 39 36 71.5t102 54.5h38z" />
    <glyph glyph-name="uogonek" unicode="&#x173;" horiz-adv-x="581" 
d="M483 526v-418q0 -45 16.5 -66.5t59.5 -21.5v-21q-31 3 -62 3q-29 0 -55.5 -3t-48.5 -11v118q-25 -65 -70.5 -92.5t-93.5 -27.5q-35 0 -61 10t-43 28q-19 20 -26 52t-7 79v251q0 45 -16 66.5t-60 21.5v21q32 -3 62 -3q29 0 55.5 3.5t48.5 10.5v-393q0 -31 4 -57t20 -42
t52 -16q59 0 97 52.5t38 128.5v207q0 45 -16 66.5t-60 21.5v21q32 -3 62 -3q29 0 55.5 3.5t48.5 10.5zM546 3q-2 -2 -5 -3t-5 -2q-49 -21 -68 -45.5t-19 -48.5q0 -19 11.5 -31.5t31.5 -12.5q19 0 35 10t26 23l15 -13q-23 -35 -51.5 -51.5t-61.5 -16.5q-36 0 -57.5 18
t-21.5 47q0 39 36 71.5t102 54.5h32z" />
    <glyph glyph-name="Wcircumflex" unicode="&#x174;" horiz-adv-x="905" 
d="M907 708v-20q-19 -4 -42 -22.5t-37 -64.5l-189 -606h-4h-4h-4h-4l-212 629q-13 39 -29 51t-30 13v20q18 -1 45 -2t52 -1q39 0 73 1t55 2v-20q-30 -1 -47.5 -6t-20 -22t9.5 -56l149 -461l-14 -12l132 415q18 55 16.5 85.5t-22.5 43t-63 13.5v20q29 -1 59 -2t56 -1t43 1
t32 2zM208 708v-20q-26 -2 -37.5 -10t-11 -25.5t10.5 -48.5l155 -473l-25 -25l140 447l15 -24l-165 -534h-4h-4h-4h-4l-212 629q-13 39 -33 51t-36 13v20q20 -1 49.5 -2t57.5 -1q33 0 61.5 1t46.5 2zM473 916q23 -38 72.5 -73.5t114.5 -58.5l-5 -14q-60 13 -118 32t-93 38
q-28 -19 -75.5 -38t-95.5 -32l-5 14q65 23 114.5 58.5t72.5 73.5h18z" />
    <glyph glyph-name="wcircumflex" unicode="&#x175;" horiz-adv-x="770" 
d="M218 515v-21q-25 0 -44 -3.5t-25 -20.5t9 -60l104 -298l-7 1l147 406l20 -8l-183 -516h-8h-9l-164 443q-16 40 -31.5 48t-26.5 8v21q20 -3 41.5 -4.5t46.5 -1.5q31 0 65.5 2t64.5 4zM767 515v-20q-19 -2 -35.5 -16.5t-29.5 -53.5l-145 -430h-8h-9l-161 409l23 115h11.5
h11.5l156 -413l-8 -6l99 301q17 50 2.5 70t-67.5 24v20q18 -1 31 -1.5t25.5 -1t27.5 -0.5q23 0 41.5 1t34.5 2zM420 802q20 -50 64.5 -96.5t102.5 -75.5l-8 -14q-54 19 -105 46t-83 54q-25 -27 -65.5 -54t-82.5 -46l-8 14q58 29 102.5 75.5t64.5 96.5h18z" />
    <glyph glyph-name="Ycircumflex" unicode="&#x176;" horiz-adv-x="591" 
d="M588 708v-20q-19 -4 -38 -24.5t-42 -64.5l-202 -400h-17l-234 432q-20 37 -33.5 46.5t-24.5 9.5v21q20 -1 41.5 -2t46.5 -1q33 0 70.5 0.5t69.5 2.5v-21q-25 0 -44 -6t-25 -22t9 -45l169 -324l-8 -6l133 265q28 55 27.5 85t-23.5 41.5t-65 12.5v20q29 -1 59 -2t56 -1
t43 1t32 2zM351 304v-198q0 -36 6 -54t23.5 -24t51.5 -8v-20q-23 2 -57.5 2.5t-69.5 0.5q-39 0 -73 -0.5t-55 -2.5v20q34 2 51.5 8t23.5 24t6 54v205l54 -62zM313 916q23 -38 72.5 -73.5t114.5 -58.5l-5 -14q-60 13 -118 32t-93 38q-28 -19 -75.5 -38t-95.5 -32l-5 14
q65 23 114.5 58.5t72.5 73.5h18z" />
    <glyph glyph-name="ycircumflex" unicode="&#x177;" horiz-adv-x="504" 
d="M494 515v-20q-19 -2 -35 -17t-30 -53l-164 -430h-17l-184 443q-19 39 -37.5 47.5t-30.5 8.5v21q22 -3 46 -4.5t52 -1.5q31 0 65.5 2t64.5 4v-21q-25 0 -44.5 -3.5t-24.5 -21t12 -59.5l123 -305l-6 -2l114 298q19 50 4 70t-68 24v20q26 -1 43.5 -2t40.5 -1t41.5 1t34.5 2z
M265 -5l-34 -87q-19 -49 -43 -70q-16 -15 -38 -20.5t-40 -5.5q-19 0 -34.5 7t-24.5 20.5t-9 32.5q0 24 14 38.5t39 14.5q21 0 36 -12t15 -35q0 -17 -8 -28t-19 -17q2 -1 3.5 -1h2.5q27 0 48 18.5t37 59.5l36 93zM263 802q20 -50 64.5 -96.5t102.5 -75.5l-8 -14
q-54 19 -105 46t-83 54q-25 -27 -65.5 -54t-82.5 -46l-8 14q58 29 102.5 75.5t64.5 96.5h18z" />
    <glyph glyph-name="Ydieresis" unicode="&#x178;" horiz-adv-x="591" 
d="M588 708v-20q-19 -4 -38 -24.5t-42 -64.5l-202 -400h-17l-234 432q-20 37 -33.5 46.5t-24.5 9.5v21q20 -1 41.5 -2t46.5 -1q33 0 70.5 0.5t69.5 2.5v-21q-25 0 -44 -6t-25 -22t9 -45l169 -324l-8 -6l133 265q28 55 27.5 85t-23.5 41.5t-65 12.5v20q29 -1 59 -2t56 -1
t43 1t32 2zM351 304v-198q0 -36 6 -54t23.5 -24t51.5 -8v-20q-23 2 -57.5 2.5t-69.5 0.5q-39 0 -73 -0.5t-55 -2.5v20q34 2 51.5 8t23.5 24t6 54v205l54 -62zM410 888q23 0 40.5 -17.5t17.5 -40.5q0 -24 -17.5 -41t-40.5 -17q-24 0 -41 17t-17 41q0 23 17 40.5t41 17.5z
M198 888q23 0 40.5 -17.5t17.5 -40.5q0 -24 -17.5 -41t-40.5 -17q-24 0 -41 17t-17 41q0 23 17 40.5t41 17.5z" />
    <glyph glyph-name="Zacute" unicode="&#x179;" horiz-adv-x="594" 
d="M550 708v-20l-399 -665h196q47 0 76.5 10t47 31.5t26.5 57.5t14 88h23q-3 -31 -3 -82q0 -19 1.5 -54.5t5.5 -73.5q-55 2 -124.5 2.5t-124.5 0.5q-59 0 -124.5 -0.5t-122.5 -2.5v20l402 665h-195q-62 0 -95 -18t-47.5 -58.5t-21.5 -110.5h-23q2 16 2.5 37t0.5 45
q0 19 -1.5 54.5t-5.5 73.5q56 -2 125 -2.5t124 -0.5q57 0 122.5 0.5t120.5 2.5zM402 926q20 13 36.5 9.5t24.5 -16.5t4 -28.5t-25 -29.5q-21 -13 -48.5 -23.5t-64 -25t-88.5 -40.5l-7 13q46 35 75.5 61.5t50.5 46.5t42 33z" />
    <glyph glyph-name="zacute" unicode="&#x17a;" horiz-adv-x="476" 
d="M439 520l-289 -505h110q40 0 69.5 16t47.5 51.5t22 93.5h23q0 -64 1 -108t3 -72q-44 2 -91.5 3t-94.5 1q-50 0 -102 -1.5t-100 -3.5l289 505h-110q-44 0 -73.5 -16t-45 -51.5t-20.5 -93.5h-23q0 65 -1 108.5t-3 71.5q44 -2 91.5 -3t94.5 -1q50 0 102 1.5t100 3.5z
M361 813q12 -10 13.5 -26t-13.5 -36q-15 -19 -37 -38t-51.5 -45.5t-69.5 -68.5l-11 9q31 49 49.5 84t31.5 61t28 45q15 20 31.5 22t28.5 -7z" />
    <glyph glyph-name="Zdotaccent" unicode="&#x17b;" horiz-adv-x="594" 
d="M550 708v-20l-399 -665h196q47 0 76.5 10t47 31.5t26.5 57.5t14 88h23q-3 -31 -3 -82q0 -19 1.5 -54.5t5.5 -73.5q-55 2 -124.5 2.5t-124.5 0.5q-59 0 -124.5 -0.5t-122.5 -2.5v20l402 665h-195q-62 0 -95 -18t-47.5 -58.5t-21.5 -110.5h-23q2 16 2.5 37t0.5 45
q0 19 -1.5 54.5t-5.5 73.5q56 -2 125 -2.5t124 -0.5q57 0 122.5 0.5t120.5 2.5zM295 959q26 0 45 -19t19 -45t-19 -45t-45 -19t-45 19t-19 45t19 45t45 19z" />
    <glyph glyph-name="zdotaccent" unicode="&#x17c;" horiz-adv-x="476" 
d="M439 520l-289 -505h110q40 0 69.5 16t47.5 51.5t22 93.5h23q0 -64 1 -108t3 -72q-44 2 -91.5 3t-94.5 1q-50 0 -102 -1.5t-100 -3.5l289 505h-110q-44 0 -73.5 -16t-45 -51.5t-20.5 -93.5h-23q0 65 -1 108.5t-3 71.5q44 -2 91.5 -3t94.5 -1q50 0 102 1.5t100 3.5z
M254 765q26 0 45 -19t19 -45t-19 -45t-45 -19t-45 19t-19 45t19 45t45 19z" />
    <glyph glyph-name="Zcaron" unicode="&#x17d;" horiz-adv-x="594" 
d="M550 708v-20l-399 -665h196q47 0 76.5 10t47 31.5t26.5 57.5t14 88h23q-3 -31 -3 -82q0 -19 1.5 -54.5t5.5 -73.5q-55 2 -124.5 2.5t-124.5 0.5q-59 0 -124.5 -0.5t-122.5 -2.5v20l402 665h-195q-62 0 -95 -18t-47.5 -58.5t-21.5 -110.5h-23q2 16 2.5 37t0.5 45
q0 19 -1.5 54.5t-5.5 73.5q56 -2 125 -2.5t124 -0.5q57 0 122.5 0.5t120.5 2.5zM483 926l5 -14q-65 -22 -114.5 -58t-72.5 -74h-18q-23 38 -72.5 74t-114.5 58l5 14q60 -13 118.5 -32t92.5 -38q29 19 76 38t95 32z" />
    <glyph glyph-name="zcaron" unicode="&#x17e;" horiz-adv-x="476" 
d="M439 520l-289 -505h110q40 0 69.5 16t47.5 51.5t22 93.5h23q0 -64 1 -108t3 -72q-44 2 -91.5 3t-94.5 1q-50 0 -102 -1.5t-100 -3.5l289 505h-110q-44 0 -73.5 -16t-45 -51.5t-20.5 -93.5h-23q0 65 -1 108.5t-3 71.5q44 -2 91.5 -3t94.5 -1q50 0 102 1.5t100 3.5z
M412 802l8 -14q-58 -28 -102.5 -75t-64.5 -97h-18q-20 50 -64.5 97t-102.5 75l8 14q54 -19 105.5 -46t82.5 -54q26 27 66 54t82 46z" />
    <glyph glyph-name="longs" unicode="&#x17f;" horiz-adv-x="332" 
d="M30 0v21q41 0 58.5 15t17.5 57v401h-80v20h80q0 89 11.5 136.5t39.5 81.5q20 23 51 36.5t68 13.5q28 0 49.5 -7.5t37.5 -19.5q15 -12 23 -28t8 -34q0 -23 -15 -38t-38 -15q-22 0 -38.5 14.5t-16.5 39.5q0 21 11.5 34t30.5 17q-3 9 -15.5 15.5t-33.5 6.5q-23 0 -39.5 -10
t-25.5 -27q-12 -21 -15 -62.5t-3 -127.5v-437q0 -49 28.5 -65.5t77.5 -16.5v-21q-23 1 -65 2.5t-89 1.5q-34 0 -67.5 -1.5t-50.5 -2.5z" />
    <glyph glyph-name="uni018F" unicode="&#x18f;" horiz-adv-x="703" 
d="M338 -14q-82 0 -146.5 33t-101.5 102t-37 175h535l1 -19h-438q-4 -76 19.5 -138t69.5 -98t109 -36q82 0 135.5 68.5t65.5 213.5l-3 4q2 15 3 33t1 34q0 80 -18.5 142t-52 105t-76.5 65.5t-93 22.5q-40 0 -87 -16t-77 -51q-20 -23 -30.5 -57.5t-19.5 -90.5h-23
q0 87 -1 140t-3 90h23q5 -46 15 -55t30 4q23 16 49 30.5t61 24.5t84 10q100 0 171 -45.5t109 -128.5t38 -197q0 -111 -36.5 -193t-106 -127t-169.5 -45z" />
    <glyph glyph-name="florin" unicode="&#x192;" horiz-adv-x="459" 
d="M326 782q27 0 49 -7t37 -19.5t23.5 -28.5t8.5 -34q0 -21 -13.5 -36t-37.5 -15t-39 13t-15 37q0 38 43 51q-3 9 -17.5 16.5t-35.5 7.5q-23 0 -39.5 -10t-25.5 -27q-13 -22 -15.5 -68.5t-2.5 -146.5v-400q0 -69 -9.5 -134t-43.5 -108q-24 -31 -56.5 -46t-64.5 -15
q-17 0 -30 4.5t-21 11.5t-12 17t-4 20q0 20 12.5 33.5t34.5 13.5q20 0 32.5 -13t12.5 -32q0 -7 -3 -18t-13 -22q18 2 31.5 8t22.5 16q5 6 9.5 14.5t6.5 18.5q2 11 3.5 23t1.5 28v580q0 89 11.5 136t39.5 81q20 23 51 36.5t68 13.5zM413 514v-20h-377v20h377z" />
    <glyph glyph-name="Ohorn" unicode="&#x1a0;" horiz-adv-x="741" 
d="M450 704q66 -4 107.5 5.5t73.5 31.5l-1 -7q-16 12 -28.5 30t-12.5 41t14.5 41t43.5 18q28 0 42 -16.5t14 -38.5q0 -25 -18 -48.5t-47 -40.5t-67.5 -27t-88.5 -11zM371 722q95 0 166.5 -43t111 -123.5t39.5 -195.5q0 -112 -40.5 -196t-112.5 -131t-165 -47
q-95 0 -166.5 43t-111 124t-39.5 195q0 112 41 196t112.5 131t164.5 47zM367 704q-65 0 -113 -45t-74.5 -124t-26.5 -183q0 -106 29.5 -184.5t80 -121t111.5 -42.5q65 0 113 45t74.5 124.5t26.5 182.5q0 107 -29.5 185t-79.5 120.5t-112 42.5z" />
    <glyph glyph-name="ohorn" unicode="&#x1a1;" horiz-adv-x="548" 
d="M377 479l-4 19q29 2 52 8t42 16l-1 -7q-10 10 -19.5 25.5t-9.5 34.5q0 20 12 37.5t37 17.5q23 0 34 -14t11 -34q0 -23 -13.5 -41.5t-33.5 -30.5q-20 -13 -46.5 -20t-60.5 -11zM274 529q64 0 115 -28t81.5 -88t30.5 -156t-30.5 -155.5t-81.5 -87.5t-115 -28
q-63 0 -114.5 28t-82 87.5t-30.5 155.5t30.5 156t82 88t114.5 28zM274 509q-57 0 -93.5 -59t-36.5 -193t36.5 -192.5t93.5 -58.5t93.5 58.5t36.5 192.5t-36.5 193t-93.5 59z" />
    <glyph glyph-name="Uhorn" unicode="&#x1af;" horiz-adv-x="682" 
d="M350 -14q-48 0 -91.5 11.5t-76.5 42.5q-29 28 -45.5 59t-22.5 76t-6 113v314q0 37 -6 54.5t-23.5 24t-51.5 7.5v20q21 -1 55 -2t73 -1q35 0 69.5 1t57.5 2v-20q-34 -1 -51.5 -7.5t-23.5 -24t-6 -54.5v-331q0 -68 10 -125t43.5 -91t104.5 -34q76 0 117.5 33.5t58 92.5
t16.5 133v417l4 -11q-24 -1 -48.5 -0.5t-48.5 2.5l5 20q14 -1 34.5 -2t39.5 -1q27 0 59 4.5t64 29.5l-1 -5q-15 11 -28 29.5t-13 40.5q0 23 14.5 41.5t43.5 18.5q28 0 42 -16.5t14 -39.5q0 -26 -18.5 -48.5t-46.5 -39.5q-30 -18 -55 -25.5t-48 -8.5l10 10v-405
q0 -70 -9 -122t-32 -90q-25 -42 -73 -67.5t-110 -25.5z" />
    <glyph glyph-name="uhorn" unicode="&#x1b0;" horiz-adv-x="581" 
d="M421 490l-4 19q29 5 52 12t42 19l-1 -7q-10 10 -19.5 25.5t-9.5 34.5q0 20 12 37.5t37 17.5q23 0 34 -14.5t11 -32.5q0 -23 -14 -41.5t-33 -31.5q-22 -15 -47.5 -23t-59.5 -15zM483 526v-418q0 -45 16.5 -66.5t59.5 -21.5v-21q-31 3 -62 3q-29 0 -55.5 -3t-48.5 -11v118
q-25 -65 -70.5 -92.5t-93.5 -27.5q-35 0 -61 10t-43 28q-19 20 -26 52t-7 79v251q0 45 -16 66.5t-60 21.5v21q32 -3 62 -3q29 0 55.5 3.5t48.5 10.5v-393q0 -31 4 -57t20 -42t52 -16q59 0 97 52.5t38 128.5v207q0 45 -16 66.5t-60 21.5v21q32 -3 62 -3q29 0 55.5 3.5
t48.5 10.5z" />
    <glyph glyph-name="uni01B7" unicode="&#x1b7;" horiz-adv-x="594" 
d="M550 708v-20l-196 -315l5 21q49 -16 92.5 -43t71.5 -67t28 -97q0 -61 -34 -106.5t-92 -70t-131 -24.5q-59 0 -101 13.5t-60 23.5q-10 6 -18 10t-15 4q-11 0 -15.5 -11.5t-7.5 -32.5h-23q2 21 2.5 49.5t1 74.5t0.5 116h23q4 -62 27 -113.5t67 -82.5t111 -31
q59 0 96.5 24.5t55.5 65.5t18 90q0 89 -49 137.5t-121 66.5v20l173 275h-210q-62 0 -95 -18t-47.5 -58.5t-21.5 -110.5h-23q2 16 2.5 37t0.5 39q0 25 -1.5 60.5t-5.5 73.5q56 -2 125 -2.5t124 -0.5q57 0 122.5 0.5t120.5 2.5z" />
    <glyph glyph-name="uni01CD" unicode="&#x1cd;" horiz-adv-x="630" 
d="M323 713l244 -629q15 -38 34 -50.5t35 -13.5v-20q-20 2 -49 2.5t-58 0.5q-39 0 -73 -0.5t-55 -2.5v20q51 2 65 17.5t-6 66.5l-186 497l16 13l-174 -452q-21 -54 -20 -84.5t23 -43.5t64 -14v-20q-28 2 -58.5 2.5t-56.5 0.5q-25 0 -42.5 -0.5t-32.5 -2.5v20q20 5 41 23.5
t38 63.5l235 606h8h8zM445 288v-20h-298l10 20h288zM502 926l5 -14q-65 -22 -114.5 -58t-72.5 -74h-18q-23 38 -72.5 74t-114.5 58l5 14q60 -13 118.5 -32t92.5 -38q29 19 76 38t95 32z" />
    <glyph glyph-name="uni01CE" unicode="&#x1ce;" horiz-adv-x="498" 
d="M163 -7q-65 0 -94.5 32.5t-29.5 86.5q0 42 20.5 69.5t52.5 45t67.5 30t67.5 24.5t52.5 27t20.5 38v62q0 42 -12.5 64t-33.5 29.5t-47 7.5q-25 0 -53.5 -7t-45.5 -29q19 -4 33 -20t14 -41t-16 -39.5t-41 -14.5q-29 0 -42.5 18.5t-13.5 41.5q0 26 13 42t33 30
q23 16 59.5 27.5t82.5 11.5q41 0 70 -9.5t48 -27.5q26 -24 34 -58.5t8 -82.5v-278q0 -24 7 -35.5t24 -11.5q14 0 24.5 6t20.5 15l11 -17q-21 -16 -40 -26.5t-51 -10.5q-52 0 -69 27t-17 62q-32 -53 -72.5 -71t-84.5 -18zM207 33q30 0 59 17.5t54 58.5v196q-15 -22 -46.5 -35
t-65 -28.5t-57.5 -42t-24 -75.5q0 -46 23 -68.5t57 -22.5zM404 802l8 -14q-58 -28 -102.5 -75t-64.5 -97h-18q-20 50 -64.5 97t-102.5 75l8 14q54 -19 105.5 -46t82.5 -54q26 27 66 54t82 46z" />
    <glyph glyph-name="uni01D3" unicode="&#x1d3;" horiz-adv-x="682" 
d="M655 708v-20q-34 -1 -51.5 -10t-23.5 -29t-6 -57v-301q0 -70 -9 -122t-32 -90q-25 -42 -73 -67.5t-110 -25.5q-48 0 -91.5 11.5t-76.5 42.5q-29 28 -45.5 59t-22.5 76t-6 113v314q0 37 -6 54.5t-23.5 24t-51.5 7.5v20q21 -1 55 -2t73 -1q35 0 69.5 1t57.5 2v-20
q-34 -1 -51.5 -7.5t-23.5 -24t-6 -54.5v-331q0 -68 10 -125t43.5 -91t104.5 -34q76 0 117.5 33.5t58 92.5t16.5 133v312q0 37 -8.5 57t-28.5 29t-54 10v20q18 -1 47.5 -2t54.5 -1q26 0 51.5 1t41.5 2zM540 926l5 -14q-65 -22 -114.5 -58t-72.5 -74h-18q-23 38 -72.5 74
t-114.5 58l5 14q60 -13 118.5 -32t92.5 -38q29 19 76 38t95 32z" />
    <glyph glyph-name="uni01D4" unicode="&#x1d4;" horiz-adv-x="581" 
d="M483 526v-418q0 -45 16.5 -66.5t59.5 -21.5v-21q-31 3 -62 3q-29 0 -55.5 -3t-48.5 -11v118q-25 -65 -70.5 -92.5t-93.5 -27.5q-35 0 -61 10t-43 28q-19 20 -26 52t-7 79v251q0 45 -16 66.5t-60 21.5v21q32 -3 62 -3q29 0 55.5 3.5t48.5 10.5v-393q0 -31 4 -57t20 -42
t52 -16q59 0 97 52.5t38 128.5v207q0 45 -16 66.5t-60 21.5v21q32 -3 62 -3q29 0 55.5 3.5t48.5 10.5zM438 802l8 -14q-58 -28 -102.5 -75t-64.5 -97h-18q-20 50 -64.5 97t-102.5 75l8 14q54 -19 105.5 -46t82.5 -54q26 27 66 54t82 46z" />
    <glyph glyph-name="uni01E4" unicode="&#x1e4;" horiz-adv-x="703" 
d="M376 722q65 0 105 -19.5t75 -45.5q13 -10 20 -10q19 0 25 61h23q-2 -37 -3 -90t-1 -140h-23q-7 42 -17 81t-33 67q-29 37 -76 57.5t-97 20.5t-90.5 -24.5t-69.5 -70.5t-44.5 -110.5t-15.5 -145.5q0 -180 58 -263.5t180 -83.5q36 0 62.5 10.5t41.5 20.5q19 13 24 24.5
t5 30.5v116q0 41 -8 61t-29.5 27t-63.5 8v20q18 -1 42 -1.5t50.5 -1t48.5 -0.5q33 0 59.5 1t44.5 2v-20q-33 -2 -42 -16t-9 -70v-218h-20q-1 17 -7.5 37t-19.5 20q-6 0 -12 -3t-21 -14q-33 -25 -70 -39.5t-86 -14.5q-155 0 -241.5 94.5t-86.5 261.5q0 117 42 202
t114.5 131.5t165.5 46.5zM408 168v20h295v-20h-295z" />
    <glyph glyph-name="uni01E5" unicode="&#x1e5;" horiz-adv-x="518" 
d="M558 -55v-20h-608v20h608zM213 -188q-53 0 -100 11t-75.5 34.5t-28.5 59.5q0 35 28 60t76 38l6 -16q-22 -7 -35 -28t-13 -47q0 -46 42.5 -70.5t110.5 -24.5q45 0 88 11.5t71 38.5t28 71q0 33 -23.5 54.5t-92.5 21.5h-74q-32 0 -62 5t-49 21t-19 49q0 34 28 65.5t103 64.5
l12 -9q-34 -18 -59 -36.5t-25 -43.5q0 -32 48 -32h125q62 0 109.5 -27.5t47.5 -90.5q0 -47 -30 -88t-89.5 -66.5t-147.5 -25.5zM218 213q-74 0 -124.5 38t-50.5 120q0 83 50.5 120.5t124.5 37.5t124.5 -37.5t50.5 -120.5q0 -82 -50.5 -120t-124.5 -38zM218 231q38 0 59.5 30
t21.5 110t-21.5 110t-59.5 30q-37 0 -59 -30t-22 -110t22 -110t59 -30zM362 446l-18 7q14 34 48 60t71 26q26 0 42 -14.5t16 -43.5q0 -31 -16.5 -43.5t-33.5 -12.5q-15 0 -28 10.5t-15 33.5t14 59l13 -3q-42 -16 -60 -33.5t-33 -45.5z" />
    <glyph glyph-name="Gcaron" unicode="&#x1e6;" horiz-adv-x="703" 
d="M376 722q65 0 105 -19.5t75 -45.5q13 -10 20 -10q19 0 25 61h23q-2 -37 -3 -90t-1 -140h-23q-7 42 -17 81t-33 67q-29 37 -76 57.5t-97 20.5t-90.5 -24.5t-69.5 -70.5t-44.5 -110.5t-15.5 -145.5q0 -180 58 -263.5t180 -83.5q36 0 62.5 10.5t41.5 20.5q19 13 24 24.5
t5 30.5v96q0 41 -8 61t-29.5 27t-63.5 8v20q18 -1 42 -1.5t50.5 -1t48.5 -0.5q33 0 59.5 1t44.5 2v-20q-33 -2 -42 -16t-9 -70v-198h-20q-1 17 -7.5 37t-19.5 20q-6 0 -12 -3t-21 -14q-33 -25 -70 -39.5t-86 -14.5q-155 0 -241.5 94.5t-86.5 261.5q0 117 42 202t114.5 131.5
t165.5 46.5zM549 926l5 -14q-65 -22 -114.5 -58t-72.5 -74h-18q-23 38 -72.5 74t-114.5 58l5 14q60 -13 118.5 -32t92.5 -38q29 19 76 38t95 32z" />
    <glyph glyph-name="gcaron" unicode="&#x1e7;" horiz-adv-x="528" 
d="M213 -188q-53 0 -100 11t-75.5 34.5t-28.5 59.5q0 35 28 60t76 38l6 -16q-22 -7 -35 -28t-13 -47q0 -46 42.5 -70.5t110.5 -24.5q45 0 88 11.5t71 38.5t28 71q0 33 -23.5 54.5t-92.5 21.5h-74q-32 0 -62 5t-49 21t-19 49q0 34 28 65.5t103 64.5l12 -9q-34 -18 -59 -36.5
t-25 -43.5q0 -32 48 -32h125q62 0 109.5 -27.5t47.5 -90.5q0 -47 -30 -88t-89.5 -66.5t-147.5 -25.5zM218 213q-74 0 -124.5 38t-50.5 120q0 83 50.5 120.5t124.5 37.5t124.5 -37.5t50.5 -120.5q0 -82 -50.5 -120t-124.5 -38zM218 231q38 0 59.5 30t21.5 110t-21.5 110
t-59.5 30q-37 0 -59 -30t-22 -110t22 -110t59 -30zM362 446l-18 7q14 34 48 60t71 26q26 0 42 -14.5t16 -43.5q0 -31 -16.5 -43.5t-33.5 -12.5q-15 0 -28 10.5t-15 33.5t14 59l13 -3q-42 -16 -60 -33.5t-33 -45.5zM397 802l8 -14q-58 -28 -102.5 -75t-64.5 -97h-18
q-20 50 -64.5 97t-102.5 75l8 14q54 -19 105.5 -46t82.5 -54q26 27 66 54t82 46z" />
    <glyph glyph-name="uni01E8" unicode="&#x1e8;" horiz-adv-x="655" 
d="M615 708v-20q-31 -4 -60 -20t-58 -53l-193 -247l22 49l240 -336q17 -25 37 -39t51 -22v-20q-24 2 -59.5 2.5t-60.5 0.5q-17 0 -41.5 -0.5t-61.5 -2.5v20q34 2 43 12t-7 33l-146 220q-20 31 -35.5 46.5t-32 20.5t-41.5 6v20q42 1 70.5 16.5t47.5 39.5l96 122q33 42 45 71
t-1 44.5t-55 16.5v20q29 -1 59 -2t56 -1q55 0 85 3zM297 708v-20q-34 -1 -51.5 -7.5t-23.5 -24t-6 -54.5v-496q0 -36 6 -54t23.5 -24t51.5 -8v-20q-23 2 -57.5 2.5t-69.5 0.5q-39 0 -73 -0.5t-55 -2.5v20q34 2 51.5 8t23.5 24t6 54v496q0 37 -6 54.5t-23.5 24t-51.5 7.5v20
q21 -1 55 -2t73 -1q35 0 69.5 1t57.5 2zM533 926l5 -14q-65 -22 -114.5 -58t-72.5 -74h-18q-23 38 -72.5 74t-114.5 58l5 14q60 -13 118.5 -32t92.5 -38q29 19 76 38t95 32z" />
    <glyph glyph-name="uni01E9" unicode="&#x1e9;" horiz-adv-x="550" 
d="M186 784v-691q0 -42 15 -57t51 -15v-21q-16 1 -47.5 2.5t-63.5 1.5q-34 0 -69 -1.5t-52 -2.5v21q41 0 58.5 15t17.5 57v571q0 45 -16 66.5t-60 21.5v21q32 -3 62 -3q29 0 55.5 3.5t48.5 10.5zM504 515v-20q-25 -2 -47 -13.5t-43 -33.5l-141 -148l14 28l186 -255
q17 -23 32.5 -36t37.5 -16v-21q-11 1 -34.5 2.5t-46.5 1.5q-31 0 -63 -1.5t-48 -2.5v21q20 0 28 10t-3 24l-115 168q-19 27 -34.5 35t-44.5 9v20q32 4 52 13.5t38 28.5l74 77q32 33 32 52.5t-20.5 28t-53.5 8.5v20q26 -1 58.5 -2.5t54.5 -1.5q17 0 33 0.5t30 1.5t24 2z
M430 1046l8 -14q-58 -28 -102.5 -75t-64.5 -97h-18q-20 50 -64.5 97t-102.5 75l8 14q54 -19 105.5 -46t82.5 -54q26 27 66 54t82 46z" />
    <glyph glyph-name="uni01EE" unicode="&#x1ee;" horiz-adv-x="594" 
d="M550 708v-20l-196 -315l5 21q49 -16 92.5 -43t71.5 -67t28 -97q0 -61 -34 -106.5t-92 -70t-131 -24.5q-59 0 -101 13.5t-60 23.5q-10 6 -18 10t-15 4q-11 0 -15.5 -11.5t-7.5 -32.5h-23q2 21 2.5 49.5t1 74.5t0.5 116h23q4 -62 27 -113.5t67 -82.5t111 -31
q59 0 96.5 24.5t55.5 65.5t18 90q0 89 -49 137.5t-121 66.5v20l173 275h-210q-62 0 -95 -18t-47.5 -58.5t-21.5 -110.5h-23q2 16 2.5 37t0.5 39q0 25 -1.5 60.5t-5.5 73.5q56 -2 125 -2.5t124 -0.5q57 0 122.5 0.5t120.5 2.5zM483 926l5 -14q-65 -22 -114.5 -58t-72.5 -74
h-18q-23 38 -72.5 74t-114.5 58l5 14q60 -13 118.5 -32t92.5 -38q29 19 76 38t95 32z" />
    <glyph glyph-name="uni01EF" unicode="&#x1ef;" horiz-adv-x="476" 
d="M160 209q67 -2 109.5 -36.5t42.5 -104.5q0 -55 -23.5 -98t-63 -72t-88.5 -44.5t-100 -16.5v-18q64 0 129.5 17.5t120 50t87.5 78.5t33 103q0 52 -27 85t-69 49.5t-89 17.5l37 -14l180 314q-48 -2 -100 -3.5t-102 -1.5q-47 0 -94.5 1t-91.5 3q2 -28 3 -71.5t1 -108.5h23
q5 58 20.5 93.5t45 51.5t73.5 16h110zM412 802l8 -14q-58 -28 -102.5 -75t-64.5 -97h-18q-20 50 -64.5 97t-102.5 75l8 14q54 -19 105.5 -46t82.5 -54q26 27 66 54t82 46z" />
    <glyph glyph-name="uni01F4" unicode="&#x1f4;" horiz-adv-x="703" 
d="M376 722q65 0 105 -19.5t75 -45.5q13 -10 20 -10q19 0 25 61h23q-2 -37 -3 -90t-1 -140h-23q-7 42 -17 81t-33 67q-29 37 -76 57.5t-97 20.5t-90.5 -24.5t-69.5 -70.5t-44.5 -110.5t-15.5 -145.5q0 -180 58 -263.5t180 -83.5q36 0 62.5 10.5t41.5 20.5q19 13 24 24.5
t5 30.5v96q0 41 -8 61t-29.5 27t-63.5 8v20q18 -1 42 -1.5t50.5 -1t48.5 -0.5q33 0 59.5 1t44.5 2v-20q-33 -2 -42 -16t-9 -70v-198h-20q-1 17 -7.5 37t-19.5 20q-6 0 -12 -3t-21 -14q-33 -25 -70 -39.5t-86 -14.5q-155 0 -241.5 94.5t-86.5 261.5q0 117 42 202t114.5 131.5
t165.5 46.5zM468 926q20 13 36.5 9.5t24.5 -16.5t4 -28.5t-25 -29.5q-21 -13 -48.5 -23.5t-64 -25t-88.5 -40.5l-7 13q46 35 75.5 61.5t50.5 46.5t42 33z" />
    <glyph glyph-name="uni01F5" unicode="&#x1f5;" horiz-adv-x="528" 
d="M213 -188q-53 0 -100 11t-75.5 34.5t-28.5 59.5q0 35 28 60t76 38l6 -16q-22 -7 -35 -28t-13 -47q0 -46 42.5 -70.5t110.5 -24.5q45 0 88 11.5t71 38.5t28 71q0 33 -23.5 54.5t-92.5 21.5h-74q-32 0 -62 5t-49 21t-19 49q0 34 28 65.5t103 64.5l12 -9q-34 -18 -59 -36.5
t-25 -43.5q0 -32 48 -32h125q62 0 109.5 -27.5t47.5 -90.5q0 -47 -30 -88t-89.5 -66.5t-147.5 -25.5zM218 213q-74 0 -124.5 38t-50.5 120q0 83 50.5 120.5t124.5 37.5t124.5 -37.5t50.5 -120.5q0 -82 -50.5 -120t-124.5 -38zM218 231q38 0 59.5 30t21.5 110t-21.5 110
t-59.5 30q-37 0 -59 -30t-22 -110t22 -110t59 -30zM362 446l-18 7q14 34 48 60t71 26q26 0 42 -14.5t16 -43.5q0 -31 -16.5 -43.5t-33.5 -12.5q-15 0 -28 10.5t-15 33.5t14 59l13 -3q-42 -16 -60 -33.5t-33 -45.5zM346 813q12 -10 13.5 -26t-13.5 -36q-15 -19 -37 -38
t-51.5 -45.5t-69.5 -68.5l-11 9q31 49 49.5 84t31.5 61t28 45q15 20 31.5 22t28.5 -7z" />
    <glyph glyph-name="Oslashacute" unicode="&#x1fe;" horiz-adv-x="741" 
d="M371 722q95 0 166.5 -43t111 -123.5t39.5 -195.5q0 -112 -40.5 -196t-112.5 -131t-165 -47q-95 0 -166.5 43t-111 124t-39.5 195q0 112 41 196t112.5 131t164.5 47zM367 704q-65 0 -113 -45t-74.5 -124t-26.5 -183q0 -106 29.5 -184.5t80 -121t111.5 -42.5q65 0 113 45
t74.5 124.5t26.5 182.5q0 107 -29.5 185t-79.5 120.5t-112 42.5zM539 632l15 -20l-350 -535l-18 18zM178 95l18 -18l-102 -150l-21 14zM643 773l19 -13l-101 -148l-15 20zM476 926q20 13 36.5 9.5t24.5 -16.5t4 -28.5t-25 -29.5q-21 -13 -48.5 -23.5t-64 -25t-88.5 -40.5
l-7 13q46 35 75.5 61.5t50.5 46.5t42 33z" />
    <glyph glyph-name="oslashacute" unicode="&#x1ff;" horiz-adv-x="548" 
d="M274 529q64 0 115 -28t81.5 -88t30.5 -156t-30.5 -155.5t-81.5 -87.5t-115 -28q-63 0 -114.5 28t-82 87.5t-30.5 155.5t30.5 156t82 88t114.5 28zM274 509q-57 0 -93.5 -59t-36.5 -193t36.5 -192.5t93.5 -58.5t93.5 58.5t36.5 192.5t-36.5 193t-93.5 59zM392 466l15 -20
l-240 -383l-16 21zM141 84l16 -21l-93 -136l-21 14zM485 587l19 -13l-87 -128l-15 20zM384 813q12 -10 13.5 -26t-13.5 -36q-15 -19 -37 -38t-51.5 -45.5t-69.5 -68.5l-11 9q31 49 49.5 84t31.5 61t28 45q15 20 31.5 22t28.5 -7z" />
    <glyph glyph-name="uni0218" unicode="&#x218;" horiz-adv-x="540" 
d="M256 719q50 0 76 -11.5t46 -25.5q12 -7 19.5 -10.5t14.5 -3.5q16 0 22 44h23q-1 -17 -2.5 -40.5t-2 -62t-0.5 -101.5h-23q-3 48 -21 92t-52.5 72t-90.5 28q-53 0 -87.5 -32t-34.5 -84q0 -45 23 -75.5t61.5 -55t83.5 -52.5q52 -32 92.5 -63.5t64 -69.5t23.5 -92
q0 -64 -29 -106t-77 -63t-106 -21q-53 0 -84 12t-53 25q-22 14 -34 14q-16 0 -22 -44h-23q2 21 2.5 49.5t1 74.5t0.5 116h23q4 -60 22.5 -112t57 -83.5t102.5 -31.5q49 0 89.5 31.5t40.5 101.5q0 61 -43 101t-113 82q-47 29 -88 59t-65.5 69.5t-24.5 95.5q0 59 26.5 97.5
t69.5 57t92 18.5zM279 -69q29 0 47 -20.5t18 -49.5q0 -36 -17 -60.5t-65 -41.5l-7 18q23 7 43 23t19 40q-7 -7 -18 -11.5t-24 -4.5q-22 0 -37 14t-15 40q0 23 16.5 38t39.5 15z" />
    <glyph glyph-name="uni0219" unicode="&#x219;" horiz-adv-x="447" 
d="M208 529q40 0 68 -13t41 -24q33 -27 40 36h23q-2 -28 -3 -66.5t-1 -103.5h-23q-6 37 -20.5 72t-42.5 57.5t-73 22.5q-35 0 -58.5 -19.5t-23.5 -57.5q0 -30 18 -51.5t47 -40t63 -40.5q57 -37 97 -75t40 -100q0 -46 -24 -77t-62.5 -47t-84.5 -16q-22 0 -41.5 3.5
t-37.5 10.5q-10 5 -20.5 12t-20.5 15t-18 -0.5t-12 -33.5h-23q2 32 3 78t1 122h23q7 -56 20 -98t41 -65.5t78 -23.5q30 0 59.5 21t29.5 74q0 44 -32 72t-81 59q-36 23 -67.5 46t-51 52t-19.5 70q0 45 20.5 73.5t54.5 42t73 13.5zM222 -69q29 0 47 -20.5t18 -49.5
q0 -36 -17 -60.5t-65 -41.5l-7 18q23 7 43 23t19 40q-7 -7 -18 -11.5t-24 -4.5q-22 0 -37 14t-15 40q0 23 16.5 38t39.5 15z" />
    <glyph glyph-name="uni021A" unicode="&#x21a;" horiz-adv-x="621" 
d="M592 708q-4 -38 -5.5 -73.5t-1.5 -54.5q0 -24 1 -45t2 -37h-23q-7 70 -19 110.5t-42 58.5t-93 18h-54v-569q0 -40 7.5 -60t29.5 -27t64 -9v-20q-26 2 -66 2.5t-81 0.5q-45 0 -84.5 -0.5t-63.5 -2.5v20q42 2 64 9t29.5 27t7.5 60v569h-54q-62 0 -92.5 -18t-42.5 -58.5
t-19 -110.5h-23q2 16 2.5 37t0.5 45q0 19 -1.5 54.5t-5.5 73.5q42 -1 91.5 -2t99.5 -1h91h90.5t99.5 1t91 2zM304 -69q29 0 47 -20.5t18 -49.5q0 -36 -17 -60.5t-65 -41.5l-7 18q23 7 43 23t19 40q-7 -7 -18 -11.5t-24 -4.5q-22 0 -37 14t-15 40q0 23 16.5 38t39.5 15z" />
    <glyph glyph-name="uni021B" unicode="&#x21b;" horiz-adv-x="354" 
d="M190 681v-167h148v-20h-148v-387q0 -47 17 -66t47 -19t52 24.5t38 82.5l20 -5q-10 -58 -39.5 -98t-90.5 -40q-34 0 -56 8.5t-39 24.5q-22 23 -30.5 55t-8.5 85v335h-96v20h96v153q25 1 48 4t42 10zM227 -69q29 0 47 -20.5t18 -49.5q0 -36 -17 -60.5t-65 -41.5l-7 18
q23 7 43 23t19 40q-7 -7 -18 -11.5t-24 -4.5q-22 0 -37 14t-15 40q0 23 16.5 38t39.5 15z" />
    <glyph glyph-name="uni021E" unicode="&#x21e;" horiz-adv-x="757" 
d="M460 0v20q34 2 51.5 8t23.5 24t6 54v496q0 37 -6 54.5t-23.5 24t-51.5 7.5v20q23 -1 58 -2t69 -1q39 0 73 1t55 2v-20q-34 -1 -51.5 -7.5t-23.5 -24t-6 -54.5v-496q0 -36 6 -54t23.5 -24t51.5 -8v-20q-21 2 -55 2.5t-73 0.5q-34 0 -69 -0.5t-58 -2.5zM42 0v20
q34 2 51.5 8t23.5 24t6 54v496q0 37 -6 54.5t-23.5 24t-51.5 7.5v20q21 -1 55 -2t73 -1q35 0 69.5 1t57.5 2v-20q-34 -1 -51.5 -7.5t-23.5 -24t-6 -54.5v-496q0 -36 6 -54t23.5 -24t51.5 -8v-20q-23 2 -57.5 2.5t-69.5 0.5q-39 0 -73 -0.5t-55 -2.5zM181 346v20h395v-20
h-395zM569 926l5 -14q-65 -22 -114.5 -58t-72.5 -74h-18q-23 38 -72.5 74t-114.5 58l5 14q60 -13 118.5 -32t92.5 -38q29 19 76 38t95 32z" />
    <glyph glyph-name="uni021F" unicode="&#x21f;" horiz-adv-x="588" 
d="M186 783v-374q26 68 72.5 94t97.5 26q38 0 63.5 -10t42.5 -28q19 -20 27 -50t8 -81v-267q0 -42 17.5 -57t58.5 -15v-21q-17 1 -52 2.5t-68 1.5t-64.5 -1.5t-47.5 -2.5v21q36 0 51 15t15 57v289q0 31 -5 57t-22.5 42t-53.5 16q-61 0 -100.5 -50.5t-39.5 -130.5v-223
q0 -42 15 -57t51 -15v-21q-16 1 -47.5 2.5t-64.5 1.5t-68 -1.5t-52 -2.5v21q41 0 58.5 15t17.5 57v570q0 45 -16 66.5t-60 21.5v21q32 -3 62 -3q29 0 55.5 3.5t48.5 10.5zM446 1060l8 -14q-58 -28 -102.5 -75t-64.5 -97h-18q-20 50 -64.5 97t-102.5 75l8 14
q54 -19 105.5 -46t82.5 -54q26 27 66 54t82 46z" />
    <glyph glyph-name="uni0237" unicode="&#x237;" horiz-adv-x="267" 
d="M-26 -188v15q62 3 93 53.5t31 138.5v387q0 45 -16 66.5t-60 21.5v21q32 -3 62 -3q29 0 55.5 3.5t48.5 10.5v-411q0 -75 -16.5 -138t-55.5 -104q-25 -27 -61.5 -44t-80.5 -17z" />
    <glyph glyph-name="uni0259" unicode="&#x259;" horiz-adv-x="506" 
d="M234 -15q-88 0 -137.5 53.5t-49.5 166.5h353l1 -19h-258q-2 -49 8 -90.5t31.5 -66.5t55.5 -25q46 0 81.5 46t42.5 146l-3 4q2 15 3 33t1 36q0 68 -22 117t-57.5 74.5t-73.5 25.5q-45 0 -83 -22t-64 -78l-20 8q11 33 36 64t63 50.5t88 19.5q72 0 123.5 -33t79 -91.5
t27.5 -134.5q0 -88 -28 -151.5t-79 -98t-119 -34.5z" />
    <glyph glyph-name="uni0292" unicode="&#x292;" horiz-adv-x="476" 
d="M160 209q67 -2 109.5 -36.5t42.5 -104.5q0 -55 -23.5 -98t-63 -72t-88.5 -44.5t-100 -16.5v-18q64 0 129.5 17.5t120 50t87.5 78.5t33 103q0 52 -27 85t-69 49.5t-89 17.5l37 -14l180 314q-48 -2 -100 -3.5t-102 -1.5q-47 0 -94.5 1t-91.5 3q2 -28 3 -71.5t1 -108.5h23
q5 58 20.5 93.5t45 51.5t73.5 16h110z" />
    <glyph glyph-name="uni02BC" unicode="&#x2bc;" horiz-adv-x="245" 
d="M118 722q22 0 36 -9t23 -23q11 -16 14 -35t3 -31q0 -49 -25 -89t-78 -65l-9 18q31 13 53.5 41t22.5 57q0 12 -3 21q-16 -13 -37 -13q-26 0 -45 17t-19 47q0 28 19 46t45 18z" />
    <glyph glyph-name="circumflex" unicode="&#x2c6;" horiz-adv-x="452" 
d="M235 802q20 -50 64.5 -96.5t102.5 -75.5l-8 -14q-54 19 -105 46t-83 54q-25 -27 -65.5 -54t-82.5 -46l-8 14q58 29 102.5 75.5t64.5 96.5h18z" />
    <glyph glyph-name="caron" unicode="&#x2c7;" horiz-adv-x="452" 
d="M394 802l8 -14q-58 -28 -102.5 -75t-64.5 -97h-18q-20 50 -64.5 97t-102.5 75l8 14q54 -19 105.5 -46t82.5 -54q26 27 66 54t82 46z" />
    <glyph glyph-name="breve" unicode="&#x2d8;" horiz-adv-x="458" 
d="M391 788l17 -9q-14 -33 -38.5 -67t-59.5 -56.5t-81 -22.5t-81 22.5t-59.5 56.5t-38.5 67l17 9q20 -34 59 -65t103 -31q65 0 103.5 31t58.5 65z" />
    <glyph glyph-name="dotaccent" unicode="&#x2d9;" horiz-adv-x="228" 
d="M114 765q26 0 45 -19t19 -45t-19 -45t-45 -19t-45 19t-19 45t19 45t45 19z" />
    <glyph glyph-name="ring" unicode="&#x2da;" horiz-adv-x="293" 
d="M146 791q39 0 68 -24.5t29 -66.5q0 -43 -29 -67.5t-68 -24.5q-38 0 -67 24.5t-29 67.5q0 42 29 66.5t67 24.5zM146 770q-24 0 -46 -18t-22 -53t22 -52.5t46 -17.5q25 0 47 17.5t22 52.5t-22 53t-47 18z" />
    <glyph glyph-name="ogonek" unicode="&#x2db;" horiz-adv-x="292" 
d="M220 3q-2 -2 -5 -3t-5 -2q-49 -21 -68 -45.5t-19 -48.5q0 -19 11.5 -31.5t31.5 -12.5q19 0 35 10t26 23l15 -13q-23 -35 -51.5 -51.5t-61.5 -16.5q-36 0 -57.5 18t-21.5 47q0 39 36 71.5t102 54.5h32z" />
    <glyph glyph-name="tilde" unicode="&#x2dc;" horiz-adv-x="461" 
d="M169 768q27 0 46 -10t34.5 -23t32 -23t38.5 -10q21 0 40.5 12.5t36.5 40.5l14 -7q-16 -55 -48 -79t-70 -24q-27 0 -46.5 10t-35 23.5t-32 23.5t-38.5 10q-21 0 -40.5 -12.5t-36.5 -41.5l-14 7q16 56 48.5 79.5t70.5 23.5z" />
    <glyph glyph-name="hungarumlaut" unicode="&#x2dd;" horiz-adv-x="600" 
d="M372 813q12 -10 13.5 -26t-13.5 -36q-23 -29 -61 -59t-97 -93l-11 9q31 49 49.5 84t31.5 61t28 45q15 20 31.5 22t28.5 -7zM194 813q12 -10 13.5 -26t-13.5 -36q-23 -29 -61 -59t-97 -93l-11 9q31 49 49.5 84t31.5 61t28 45q15 20 31.5 22t28.5 -7z" />
    <glyph glyph-name="gravecomb" unicode="&#x300;" 
d="M34 813q12 9 28.5 7t31.5 -22q15 -19 28 -45t31.5 -61t49.5 -84l-11 -9q-39 42 -69 68.5t-51.5 45.5t-37.5 38q-15 20 -13.5 36t13.5 26z" />
    <glyph glyph-name="acutecomb" unicode="&#x301;" 
d="M189 813q12 -10 13.5 -26t-13.5 -36q-15 -19 -37 -38t-51.5 -45.5t-69.5 -68.5l-11 9q31 49 49.5 84t31.5 61t28 45q15 20 31.5 22t28.5 -7z" />
    <glyph glyph-name="uni0302" unicode="&#x302;" 
d="M210 802q20 -50 64.5 -96.5t102.5 -75.5l-8 -14q-54 19 -105 46t-83 54q-25 -27 -65.5 -54t-82.5 -46l-8 14q58 29 102.5 75.5t64.5 96.5h18z" />
    <glyph glyph-name="tildecomb" unicode="&#x303;" 
d="M144 768q27 0 46 -10t34.5 -23t32 -23t38.5 -10q21 0 40.5 12.5t36.5 40.5l14 -7q-16 -55 -48 -79t-70 -24q-27 0 -46.5 10t-35 23.5t-32 23.5t-38.5 10q-21 0 -40.5 -12.5t-36.5 -41.5l-14 7q16 56 48.5 79.5t70.5 23.5z" />
    <glyph glyph-name="uni0304" unicode="&#x304;" 
d="M337 712v-25h-312v25h312z" />
    <glyph glyph-name="uni0306" unicode="&#x306;" 
d="M376 788l17 -9q-14 -33 -38.5 -67t-59.5 -56.5t-81 -22.5t-81 22.5t-59.5 56.5t-38.5 67l17 9q20 -34 59 -65t103 -31q65 0 103.5 31t58.5 65z" />
    <glyph glyph-name="uni0307" unicode="&#x307;" 
d="M99 765q26 0 45 -19t19 -45t-19 -45t-45 -19t-45 19t-19 45t19 45t45 19z" />
    <glyph glyph-name="uni0308" unicode="&#x308;" 
d="M301 743q23 0 40.5 -17.5t17.5 -40.5q0 -24 -17.5 -41t-40.5 -17q-24 0 -41 17t-17 41q0 23 17 40.5t41 17.5zM89 743q23 0 40.5 -17.5t17.5 -40.5q0 -24 -17.5 -41t-40.5 -17q-24 0 -41 17t-17 41q0 23 17 40.5t41 17.5z" />
    <glyph glyph-name="hookabovecomb" unicode="&#x309;" 
d="M123 592v55q41 16 58.5 37.5t17.5 50.5t-16 47t-46 18q-10 0 -24 -3t-22 -13q14 -3 23 -13.5t9 -27.5q0 -21 -13 -32.5t-32 -11.5t-31 11.5t-12 30.5t11.5 34t27.5 25q11 7 32.5 13.5t49.5 6.5q47 0 79.5 -21t32.5 -59q0 -39 -36.5 -64.5t-88.5 -37.5v-46h-20z" />
    <glyph glyph-name="uni030A" unicode="&#x30a;" 
d="M131 791q39 0 68 -24.5t29 -66.5q0 -43 -29 -67.5t-68 -24.5q-38 0 -67 24.5t-29 67.5q0 42 29 66.5t67 24.5zM131 770q-24 0 -46 -18t-22 -53t22 -52.5t46 -17.5q25 0 47 17.5t22 52.5t-22 53t-47 18z" />
    <glyph glyph-name="uni030B" unicode="&#x30b;" 
d="M372 813q12 -10 13.5 -26t-13.5 -36q-23 -29 -61 -59t-97 -93l-11 9q31 49 49.5 84t31.5 61t28 45q15 20 31.5 22t28.5 -7zM194 813q12 -10 13.5 -26t-13.5 -36q-23 -29 -61 -59t-97 -93l-11 9q31 49 49.5 84t31.5 61t28 45q15 20 31.5 22t28.5 -7z" />
    <glyph glyph-name="uni030C" unicode="&#x30c;" 
d="M369 802l8 -14q-58 -28 -102.5 -75t-64.5 -97h-18q-20 50 -64.5 97t-102.5 75l8 14q54 -19 105.5 -46t82.5 -54q26 27 66 54t82 46z" />
    <glyph glyph-name="dotbelowcomb" unicode="&#x323;" 
d="M99 -181q-24 0 -41 15.5t-17 40.5q0 23 15.5 39.5t42.5 16.5t42.5 -17t15.5 -40q0 -25 -17.5 -40t-40.5 -15z" />
    <glyph glyph-name="uni0326" unicode="&#x326;" 
d="M99 -69q29 0 47 -20.5t18 -49.5q0 -36 -17 -60.5t-65 -41.5l-7 18q23 7 43 23t19 40q-7 -7 -18 -11.5t-24 -4.5q-22 0 -37 14t-15 40q0 23 16.5 38t39.5 15z" />
    <glyph glyph-name="uni0327" unicode="&#x327;" 
d="M112 6l-26 -78q13 3 28 5t31 2q28 0 44.5 -12t16.5 -35q0 -28 -18.5 -44.5t-44.5 -24t-50 -7.5q-28 0 -48.5 3.5t-34.5 7.5l4 18q5 -1 15.5 -2t22.5 -1q29 0 59.5 9t30.5 36q0 28 -42 28q-8 0 -23 -1.5t-26 -5.5l34 102h27z" />
    <glyph glyph-name="uni0328" unicode="&#x328;" 
d="M194 3q-2 -2 -5 -3t-5 -2q-49 -21 -68 -45.5t-19 -48.5q0 -19 11.5 -31.5t31.5 -12.5q19 0 35 10t26 23l15 -13q-23 -35 -51.5 -51.5t-61.5 -16.5q-36 0 -57.5 18t-21.5 47q0 39 36 71.5t102 54.5h32z" />
    <glyph glyph-name="strokeshortoverlaycomb" unicode="&#x335;" horiz-adv-x="394" 
d="M374 628v-20h-354v20h354z" />
    <glyph glyph-name="slashshortoverlaycomb" unicode="&#x337;" horiz-adv-x="547" 
d="M393 466l15 -20l-240 -383l-16 21zM142 84l16 -21l-93 -136l-21 14zM486 587l19 -13l-87 -128l-15 20z" />
    <glyph glyph-name="slashlongoverlaycomb" unicode="&#x338;" horiz-adv-x="741" 
d="M539 632l15 -20l-350 -535l-18 18zM178 95l18 -18l-102 -150l-21 14zM643 773l19 -13l-101 -148l-15 20z" />
    <glyph glyph-name="uni0394" unicode="&#x394;" horiz-adv-x="504" 
d="M277 722l193 -722q-109 3 -220 3t-222 -3l233 722h16zM222 542l-164 -512h304z" />
    </font>
</defs>
</svg>
