<?xml version="1.0" standalone="no"?>
<!DOCTYPE svg PUBLIC "-//W3C//DTD SVG 1.1//EN" "http://www.w3.org/Graphics/SVG/1.1/DTD/svg11.dtd" >
<svg xmlns="http://www.w3.org/2000/svg" xmlns:xlink="http://www.w3.org/1999/xlink" version="1.1">
<metadata>
Created by FontForge 20170731 at Tue Mar 19 18:39:57 2019
 By Aleksey,,,
Copyright 2017 The Playfair Display Project Authors (https://github.com/clauseggers/Playfair-Display), with Reserved Font Name "Playfair Display".
</metadata>
<defs>
<font id="PlayfairDisplay-Medium" horiz-adv-x="505" >
  <font-face 
    font-family="Playfair Display Medium"
    font-weight="500"
    font-stretch="normal"
    units-per-em="1000"
    panose-1="0 0 0 0 0 0 0 0 0 0"
    ascent="800"
    descent="-200"
    x-height="516"
    cap-height="708"
    bbox="-268 -242 1229 1158"
    underline-thickness="20"
    underline-position="-130"
    unicode-range="U+000D-FB02"
  />
<missing-glyph horiz-adv-x="562" 
d="M502 772v-772h-442v772h442zM466 742h-370v-712h370v712z" />
    <glyph glyph-name="IJ" unicode="IJ" horiz-adv-x="677" 
d="M312 708v-20q-33 -1 -50 -7.5t-23 -24t-6 -54.5v-496q0 -36 6 -54t23 -24t50 -8v-20q-24 2 -60.5 2.5t-74.5 0.5q-42 0 -78.5 -0.5t-59.5 -2.5v20q34 2 51 8t22.5 24t5.5 54v496q0 37 -5.5 54.5t-23 24t-50.5 7.5v20q23 -1 59.5 -2t78.5 -1q38 0 74.5 1t60.5 2zM317 -188
v19q43 2 73 22.5t45 68.5t15 131v549q0 37 -5.5 54.5t-22.5 24t-51 7.5v20q23 -1 59 -2t76 -1q39 0 76.5 1t61.5 2v-20q-33 -1 -50 -7.5t-23 -24t-6 -54.5v-366q0 -41 -0.5 -89t-4 -93t-12.5 -79q-18 -70 -76.5 -116.5t-154.5 -46.5z" />
    <glyph glyph-name="ij" unicode="ij" horiz-adv-x="572" 
d="M496 527v-418q0 -84 -15.5 -151t-56.5 -106.5t-117 -39.5q-44 0 -69.5 15.5t-25.5 45.5q0 23 15.5 38t44.5 15q24 0 41 -12.5t17 -35.5q0 -17 -10.5 -29t-30.5 -20q6 -1 10.5 -1h8.5q44 0 62 30t18 96v149q-19 -55 -61 -86t-102 -31q-37 0 -63 10.5t-43 27.5
q-18 20 -25 51.5t-7 79.5v252q0 45 -15 66.5t-57 21.5v21q32 -3 62 -3q33 0 63 3.5t55 10.5v-400q0 -29 4 -53t19 -38t48 -14q55 0 88.5 46t33.5 113v226q0 45 -15 66.5t-57 21.5v21q32 -3 62 -3q33 0 63 3.5t55 10.5zM129 768q31 0 52 -19.5t21 -48.5t-21 -48.5t-52 -19.5
q-32 0 -52.5 19.5t-20.5 48.5t20.5 48.5t52.5 19.5zM432 768q31 0 52 -19.5t21 -48.5t-21 -48.5t-52 -19.5t-52 19.5t-21 48.5t21 48.5t52 19.5z" />
    <glyph glyph-name="fi" unicode="fi" horiz-adv-x="630" 
d="M369 782q49 0 84 -8.5t58 -23.5q17 -10 27 -25t10 -34q0 -30 -21 -49.5t-53 -19.5t-53 19.5t-21 48.5q0 43 44 62q-12 7 -31.5 10.5t-39.5 3.5q-50 0 -83.5 -20.5t-53.5 -55.5q-14 -25 -20.5 -63.5t-6.5 -111.5h147q44 0 75.5 1t57 3.5t49.5 7.5v-434q0 -42 17 -57
t57 -15v-21q-18 1 -54 2.5t-73 1.5q-36 0 -72.5 -1.5t-54.5 -2.5v21q39 0 55.5 15t16.5 57v314q0 45 -15.5 66.5t-58.5 21.5h-147v-402q0 -43 22.5 -57.5t61.5 -14.5v-21q-21 1 -59 2.5t-78 1.5q-39 0 -75 -1.5t-54 -2.5v21q40 0 57 15t17 57v402h-78v20h78q0 63 17.5 113.5
t56.5 87.5q32 29 80.5 47.5t113.5 18.5z" />
    <glyph glyph-name="fl" unicode="fl" horiz-adv-x="632" 
d="M538 784v-691q0 -42 17 -57t57 -15v-21q-18 1 -54 2.5t-73 1.5q-36 0 -72.5 -1.5t-54.5 -2.5v21q39 0 55.5 15t16.5 57v566q0 30 -6.5 47.5t-17.5 29.5q-16 17 -40.5 23.5t-44.5 6.5q-28 0 -47.5 -9.5t-30.5 -22.5q-23 -23 -28.5 -57.5t-5.5 -80.5v-81h120v-20h-120v-402
q0 -43 22.5 -57.5t61.5 -14.5v-21q-21 1 -59 2.5t-78 1.5q-39 0 -75 -1.5t-54 -2.5v21q40 0 57 15t17 57v402h-78v20h78q0 74 12.5 128t54.5 90q30 26 68 37.5t77 11.5q31 0 62 -5.5t69 -5.5q20 0 45.5 3.5t48.5 9.5z" />
    <glyph glyph-name="f_f" unicode="ff" horiz-adv-x="662" 
d="M308 742q54 0 96 -25t56 -73l-15 -8q-11 37 -44.5 62t-84.5 25q-55 0 -81 -35.5t-26 -114.5v-58h145v-20h-145v-402q0 -42 16.5 -57t55.5 -15v-21q-18 1 -53 2.5t-71 1.5t-74 -1.5t-56 -2.5v21q40 0 57 15t17 57v402h-78v20h78q0 55 13 96t38 69q26 28 66.5 45t89.5 17z
M603 782q31 0 54 -8t40 -21q15 -12 23.5 -29t8.5 -37q0 -25 -16.5 -42t-42.5 -17t-44 16t-18 44q0 23 12.5 38t34.5 21q-3 8 -14 13.5t-30 5.5q-22 0 -37.5 -9t-24.5 -24q-11 -19 -14.5 -56.5t-3.5 -114.5v-47h107v-20h-107v-392q0 -49 27.5 -65.5t74.5 -16.5v-21
q-24 1 -67.5 2.5t-92.5 1.5q-35 0 -69.5 -1.5t-52.5 -2.5v21q39 0 55.5 15t16.5 57v402h-76v20h76q0 89 12.5 136t42.5 81q21 22 53.5 36t71.5 14z" />
    <glyph glyph-name="f_f_i" unicode="ffi" horiz-adv-x="956" 
d="M698 782q46 0 81.5 -9t58.5 -23q16 -10 26 -25t10 -34q0 -30 -21 -49.5t-53 -19.5t-53 19.5t-21 48.5q0 43 44 62q-12 7 -31.5 10.5t-38.5 3.5q-48 0 -81 -19t-52 -50q-12 -18 -19 -41t-10 -57t-3 -84h147q44 0 75.5 1t57 3.5t49.5 7.5v-434q0 -42 17 -57t57 -15v-21
q-18 1 -54 2.5t-73 1.5q-36 0 -72.5 -1.5t-54.5 -2.5v21q39 0 55.5 15t16.5 57v314q0 45 -15.5 66.5t-58.5 21.5h-147v-402q0 -43 22.5 -57.5t61.5 -14.5v-21q-21 1 -59 2.5t-78 1.5q-39 0 -75 -1.5t-54 -2.5v21q40 0 57 15t17 57v402h-78v20h78q0 63 17.5 113.5t57.5 87.5
q31 29 80 47.5t116 18.5zM320 744q58 0 98.5 -21t67.5 -60l-14 -12q-19 31 -55 52.5t-84 21.5q-59 0 -91.5 -36.5t-32.5 -117.5v-56h145v-20h-145v-402q0 -42 16.5 -57t55.5 -15v-21q-18 1 -53 2.5t-71 1.5t-74 -1.5t-56 -2.5v21q40 0 57 15t17 57v402h-78v20h78
q0 55 14.5 96t40.5 69q27 30 69.5 47t94.5 17z" />
    <glyph glyph-name="f_f_l" unicode="ffl" horiz-adv-x="958" 
d="M864 784v-691q0 -42 17 -57t57 -15v-21q-18 1 -54 2.5t-73 1.5q-36 0 -72.5 -1.5t-54.5 -2.5v21q39 0 55.5 15t16.5 57v566q0 30 -6 47.5t-18 29.5q-16 17 -40.5 23.5t-43.5 6.5q-29 0 -48 -9.5t-31 -22.5q-22 -23 -28 -57.5t-6 -79.5v-82h120v-20h-120v-402
q0 -43 22.5 -57.5t61.5 -14.5v-21q-21 1 -59 2.5t-78 1.5q-39 0 -75 -1.5t-54 -2.5v21q40 0 57 15t17 57v402h-78v20h78q0 74 12.5 128t54.5 90q30 26 68 37.5t77 11.5q31 0 62.5 -5.5t66.5 -5.5q21 0 47 3.5t49 9.5zM320 744q58 0 98.5 -21t67.5 -60l-14 -12
q-19 31 -55 52.5t-84 21.5q-59 0 -91.5 -36.5t-32.5 -117.5v-56h145v-20h-145v-402q0 -42 16.5 -57t55.5 -15v-21q-18 1 -53 2.5t-71 1.5t-74 -1.5t-56 -2.5v21q40 0 57 15t17 57v402h-78v20h78q0 55 14.5 96t40.5 69q27 30 69.5 47t94.5 17z" />
    <glyph glyph-name="f_b.liga" unicode="fb" horiz-adv-x="908" 
d="M522 784v-743q-17 -6 -34.5 -15t-33.5 -19.5t-31 -22.5l-16 8q4 14 5.5 28t1.5 29v610q0 30 -6.5 47.5t-17.5 29.5q-16 16 -37.5 23t-39.5 7q-25 0 -42 -8.5t-29 -21.5q-23 -23 -28 -59.5t-5 -80.5v-81h120v-20h-120v-402q0 -43 22.5 -57.5t61.5 -14.5v-21q-21 1 -59 2.5
t-78 1.5q-39 0 -75 -1.5t-54 -2.5v21q40 0 57 15t17 57v402h-78v20h78q0 75 12.5 128.5t54.5 89.5q28 25 64 37t74 12q30 0 59 -4.5t69 -4.5q18 0 43 2.5t45 8.5zM677 530q81 0 134 -66.5t53 -201.5q0 -95 -31 -156t-82 -90.5t-112 -29.5q-47 0 -89.5 23.5t-66.5 71.5l18 -5
q23 -34 55.5 -51t66.5 -17q63 0 94.5 61t31.5 188q0 83 -12 136t-37 77.5t-62 24.5q-42 0 -78 -37t-44 -107l-9 21q13 75 59.5 116.5t110.5 41.5z" />
    <glyph glyph-name="f_f_b.liga" unicode="ffb" horiz-adv-x="1234" 
d="M848 784v-743q-17 -6 -34.5 -15t-33.5 -19.5t-30 -22.5l-17 8q4 14 5.5 28t1.5 29v610q0 30 -6.5 47.5t-17.5 29.5q-15 16 -36.5 23t-40.5 7q-25 0 -42 -8.5t-29 -21.5q-23 -24 -28 -60.5t-5 -80.5v-80h120v-20h-120v-402q0 -43 22.5 -57.5t61.5 -14.5v-21q-21 1 -59 2.5
t-78 1.5q-39 0 -75 -1.5t-54 -2.5v21q40 0 57 15t17 57v402h-78v20h78q0 75 12.5 128.5t54.5 89.5q29 25 64.5 37t74.5 12q29 0 58 -4.5t69 -4.5q18 0 43 2.5t45 8.5zM320 744q58 0 98.5 -21t67.5 -60l-14 -12q-19 31 -55 52.5t-84 21.5q-58 0 -90 -36.5t-32 -117.5v-56h143
v-20h-143v-402q0 -42 16.5 -57t55.5 -15v-21q-18 1 -53.5 2.5t-72.5 1.5q-36 0 -74 -1.5t-56 -2.5v21q40 0 57 15t17 57v402h-78v20h78q0 55 14.5 96t40.5 69q27 30 69.5 47t94.5 17zM1003 530q81 0 134 -66.5t53 -201.5q0 -95 -31 -156t-82 -90.5t-112 -29.5
q-47 0 -89.5 23.5t-66.5 71.5l18 -5q23 -34 56 -51t67 -17q63 0 94 61t31 188q0 83 -12 136t-36.5 77.5t-62.5 24.5q-42 0 -78 -37t-43 -107l-10 21q13 75 60 116.5t110 41.5z" />
    <glyph glyph-name="f_f_h.liga" unicode="ffh" horiz-adv-x="1243" 
d="M848 783v-364q26 62 71 86.5t97 24.5q40 0 65.5 -10.5t41.5 -28.5q19 -19 26.5 -49t7.5 -81v-268q0 -42 16.5 -57t55.5 -15v-21q-17 1 -53.5 2.5t-70.5 1.5q-35 0 -68 -1.5t-50 -2.5v21q34 0 48 15t14 57v296q0 29 -5 52.5t-21 38t-48 14.5q-55 0 -91 -44.5t-36 -114.5
v-242q0 -42 14 -57t48 -15v-21q-16 1 -49 2.5t-67 1.5q-35 0 -71.5 -1.5t-54.5 -2.5v21q39 0 55.5 15t16.5 57v566q0 30 -6.5 47.5t-17.5 29.5q-15 16 -36.5 23t-40.5 7q-25 0 -42 -8.5t-29 -21.5q-23 -23 -28 -59.5t-5 -78.5v-83h120v-20h-120v-402q0 -43 22.5 -57.5
t61.5 -14.5v-21q-21 1 -59 2.5t-78 1.5q-39 0 -75 -1.5t-54 -2.5v21q40 0 57 15t17 57v402h-78v20h78q0 75 12.5 128.5t54.5 89.5q29 25 64.5 37t74.5 12q29 0 58 -4.5t69 -4.5q18 0 43 2t45 8zM320 744q58 0 98.5 -21t67.5 -60l-14 -12q-19 31 -55 52.5t-84 21.5
q-59 0 -91.5 -36.5t-32.5 -117.5v-56h145v-20h-145v-402q0 -42 16.5 -57t55.5 -15v-21q-18 1 -53 2.5t-71 1.5t-74 -1.5t-56 -2.5v21q40 0 57 15t17 57v402h-78v20h78q0 55 14.5 96t40.5 69q27 30 69.5 47t94.5 17z" />
    <glyph glyph-name="f_f_j.liga" unicode="ffj" horiz-adv-x="937" 
d="M695 782q49 0 84 -8.5t59 -23.5q16 -10 26 -25t10 -34q0 -30 -21 -49.5t-53 -19.5t-53 19.5t-21 48.5q0 43 44 62q-12 7 -31.5 10.5t-38.5 3.5q-51 0 -84.5 -20.5t-53.5 -55.5q-14 -25 -20.5 -63.5t-6.5 -111.5h147q44 0 75.5 1t57 3.5t49.5 7.5v-419q0 -73 -11 -134.5
t-45 -102.5q-24 -29 -58.5 -44t-77.5 -15q-17 0 -31 3.5t-23 7.5q-16 8 -24.5 20t-8.5 27q0 21 15.5 36.5t43.5 15.5q25 0 41 -13.5t16 -35.5q0 -10 -6.5 -22t-20.5 -22q13 1 23.5 3.5t18.5 7.5q11 4 18.5 13t12.5 22q4 10 6 24.5t2.5 31t0.5 33.5v443q0 45 -15.5 66.5
t-58.5 21.5h-147v-394q0 -48 27 -64t73 -16v-21q-23 1 -65.5 2.5t-89.5 1.5q-37 0 -73 -1.5t-54 -2.5v21q40 0 57 15t17 57v402h-78v20h78q0 63 17.5 113.5t57.5 87.5q31 29 80 47.5t113 18.5zM320 744q58 0 98.5 -21t67.5 -60l-14 -12q-19 31 -55 52.5t-84 21.5
q-58 0 -90 -36.5t-32 -117.5v-56h143v-20h-143v-402q0 -42 16.5 -57t55.5 -15v-21q-18 1 -53.5 2.5t-72.5 1.5q-36 0 -74 -1.5t-56 -2.5v21q40 0 57 15t17 57v402h-78v20h78q0 55 14.5 96t40.5 69q27 29 69.5 46.5t94.5 17.5z" />
    <glyph glyph-name="f_f_k.liga" unicode="ffk" horiz-adv-x="1210" 
d="M848 783v-690q0 -42 15 -57t51 -15v-21q-17 1 -50.5 2.5t-69.5 1.5q-35 0 -71.5 -1.5t-54.5 -2.5v21q39 0 55.5 15t16.5 57v566q0 30 -6.5 47.5t-17.5 29.5q-15 16 -36.5 23t-40.5 7q-25 0 -42 -8.5t-29 -21.5q-23 -23 -28 -59.5t-5 -80.5v-81h120v-20h-120v-402
q0 -43 22.5 -57.5t61.5 -14.5v-21q-21 1 -59 2.5t-78 1.5q-39 0 -75 -1.5t-54 -2.5v21q40 0 57 15t17 57v402h-78v20h78q0 75 12.5 128.5t54.5 89.5q29 25 64.5 37t74.5 12q29 0 58 -4.5t69 -4.5q18 0 43 2t45 8zM320 744q58 0 98.5 -21t67.5 -60l-14 -12q-19 31 -55 52.5
t-84 21.5q-58 0 -90 -36.5t-32 -117.5v-56h143v-20h-143v-402q0 -42 16.5 -57t55.5 -15v-21q-18 1 -53.5 2.5t-72.5 1.5q-36 0 -74 -1.5t-56 -2.5v21q40 0 57 15t17 57v402h-78v20h78q0 55 14.5 96t40.5 69q27 30 69.5 47t94.5 17zM1169 516v-20q-27 -4 -52 -18t-50 -39
l-119 -126l12 25l181 -265q15 -21 29.5 -34.5t34.5 -17.5v-21q-12 1 -37.5 2.5t-51.5 1.5q-33 0 -66.5 -1.5t-50.5 -2.5v21q20 0 28 10t-3 24l-109 172q-17 24 -31 31t-40 8v20q28 3 46.5 11t35.5 26l74 76q33 32 33 53.5t-21 32t-54 11.5v20q26 -1 59 -2.5t55 -1.5
q18 0 36 0.5t34 1.5t27 2z" />
    <glyph glyph-name="f_h.liga" unicode="fh" horiz-adv-x="917" 
d="M522 783v-364q26 62 71 86.5t97 24.5q39 0 65 -10.5t42 -28.5q18 -19 26 -49t8 -81v-268q0 -42 16.5 -57t55.5 -15v-21q-18 1 -54 2.5t-70 1.5q-35 0 -68 -1.5t-50 -2.5v21q34 0 48 15t14 57v296q0 29 -5 52.5t-21 38t-49 14.5q-54 0 -90 -44.5t-36 -114.5v-242
q0 -42 14 -57t48 -15v-21q-17 1 -49.5 2.5t-66.5 1.5q-35 0 -71.5 -1.5t-54.5 -2.5v21q39 0 55.5 15t16.5 57v566q0 30 -6.5 47.5t-17.5 29.5q-16 16 -37.5 23t-39.5 7q-25 0 -42 -8.5t-29 -21.5q-23 -24 -28 -60.5t-5 -80.5v-80h120v-20h-120v-402q0 -43 22.5 -57.5
t61.5 -14.5v-21q-21 1 -59 2.5t-78 1.5q-39 0 -75 -1.5t-54 -2.5v21q40 0 57 15t17 57v402h-78v20h78q0 75 12.5 128.5t54.5 89.5q28 25 64 37t74 12q30 0 59 -4.5t69 -4.5q18 0 43 2t45 8z" />
    <glyph glyph-name="f_idieresis.liga" unicode="f&#xef;" horiz-adv-x="630" 
d="M293 782q42 0 72.5 -12.5t46.5 -34.5t16 -51l-32 6q-4 38 -31 56.5t-68 18.5q-39 0 -59.5 -21.5t-24.5 -67.5q-2 -17 -3 -45t-1 -59v-57h147q44 0 75.5 1t57 3.5t49.5 7.5v-434q0 -42 17 -57t57 -15v-21q-18 1 -54 2.5t-73 1.5q-36 0 -72.5 -1.5t-54.5 -2.5v21
q39 0 55.5 15t16.5 57v314q0 45 -15.5 66.5t-58.5 21.5h-147v-402q0 -43 22.5 -57.5t61.5 -14.5v-21q-21 1 -59 2.5t-78 1.5q-39 0 -75 -1.5t-54 -2.5v21q40 0 57 15t17 57v402h-78v20h78q0 85 12 132.5t41 81.5q27 30 63.5 41.5t75.5 11.5zM582 749q25 0 44 -19.5t19 -44.5
q0 -26 -19 -45t-44 -19q-27 0 -45.5 19t-18.5 45q0 25 18.5 44.5t45.5 19.5zM364 749q26 0 45 -19.5t19 -44.5q0 -26 -19 -45t-45 -19t-44.5 19t-18.5 45q0 25 18.5 44.5t44.5 19.5z" />
    <glyph glyph-name="f_igrave.liga" unicode="f&#xec;" horiz-adv-x="630" 
d="M280 775q31 0 55.5 -10t47.5 -29l6 -25q-28 24 -50.5 35t-49.5 11q-42 0 -63 -39q-9 -16 -13 -42t-4 -69v-92h147q44 0 75.5 1t57 3.5t49.5 7.5v-434q0 -42 17 -57t57 -15v-21q-18 1 -54 2.5t-73 1.5q-36 0 -72.5 -1.5t-54.5 -2.5v21q39 0 55.5 15t16.5 57v314
q0 45 -15.5 66.5t-58.5 21.5h-147v-402q0 -43 22.5 -57.5t61.5 -14.5v-21q-21 1 -59 2.5t-78 1.5q-39 0 -75 -1.5t-54 -2.5v21q40 0 57 15t17 57v402h-78v20h78q0 70 10 123.5t46 89.5q26 26 58.5 36.5t64.5 10.5zM353 814q14 12 33 9t34 -22q16 -19 28 -45t29 -61.5
t47 -86.5l-11 -9q-40 42 -70.5 67t-52.5 43t-38 38t-14.5 38t15.5 29z" />
    <glyph glyph-name="f_j.liga" unicode="fj" horiz-adv-x="611" 
d="M369 782q49 0 84 -8.5t58 -23.5q17 -10 27 -25t10 -34q0 -30 -21 -49.5t-53 -19.5t-53 19.5t-21 48.5q0 43 44 62q-12 7 -31.5 10.5t-39.5 3.5q-50 0 -83.5 -20.5t-53.5 -55.5q-14 -25 -20.5 -63.5t-6.5 -111.5h147q44 0 75.5 1t57 3.5t49.5 7.5v-419q0 -73 -11 -134.5
t-46 -102.5q-23 -29 -57.5 -44t-77.5 -15q-17 0 -31.5 3.5t-23.5 7.5q-16 8 -24 20t-8 27q0 21 15.5 36.5t43.5 15.5q24 0 40 -13.5t16 -35.5q0 -10 -6 -22t-20 -22q12 1 22 3.5t17 6.5q12 4 20 13t13 21q4 10 6 24.5t3 32t1 34.5v443q0 45 -15.5 66.5t-58.5 21.5h-147v-394
q0 -48 27 -64t73 -16v-21q-23 1 -65.5 2.5t-89.5 1.5q-37 0 -73 -1.5t-54 -2.5v21q40 0 57 15t17 57v402h-78v20h78q0 63 17.5 113.5t56.5 87.5q32 29 80.5 47.5t113.5 18.5z" />
    <glyph glyph-name="f_k.liga" unicode="fk" horiz-adv-x="884" 
d="M522 783v-690q0 -42 15 -57t51 -15v-21q-17 1 -51 2.5t-69 1.5t-71.5 -1.5t-54.5 -2.5v21q39 0 55.5 15t16.5 57v566q0 30 -6.5 47.5t-17.5 29.5q-16 16 -37.5 23t-39.5 7q-25 0 -42 -8.5t-29 -21.5q-23 -23 -28 -60t-5 -81v-80h120v-20h-120v-402q0 -43 22.5 -57.5
t61.5 -14.5v-21q-21 1 -59 2.5t-78 1.5q-39 0 -75 -1.5t-54 -2.5v21q40 0 57 15t17 57v402h-78v20h78q0 75 12.5 128.5t54.5 89.5q28 25 64 37t74 12q30 0 59 -4.5t69 -4.5q18 0 43 2t45 8zM843 516v-20q-27 -4 -52 -18t-50 -39l-120 -126l13 25l181 -265q15 -21 29.5 -34.5
t34.5 -17.5v-21q-12 1 -38 2.5t-51 1.5q-33 0 -66.5 -1.5t-50.5 -2.5v21q20 0 27.5 10t-2.5 24l-110 172q-16 24 -30.5 31t-39.5 8v20q28 3 46.5 11t34.5 26l75 76q33 32 33 53.5t-21 32t-55 11.5v20q27 -1 59.5 -2.5t55.5 -1.5q18 0 36 0.5t34 1.5t27 2z" />
    <glyph glyph-name=".notdef" horiz-adv-x="562" 
d="M502 772v-772h-442v772h442zM466 742h-370v-712h370v712z" />
    <glyph glyph-name=".null" horiz-adv-x="0" 
 />
    <glyph glyph-name="nonmarkingreturn" horiz-adv-x="333" 
 />
    <glyph glyph-name="CR" unicode="&#xd;" horiz-adv-x="0" 
 />
    <glyph glyph-name="space" unicode=" " horiz-adv-x="244" 
 />
    <glyph glyph-name="exclam" unicode="!" horiz-adv-x="271" 
d="M135 782q24 0 41 -17t17 -53q0 -40 -7 -97t-16.5 -124.5t-17 -142.5t-8.5 -152v0h-18q0 77 -7.5 152t-17 142.5t-17 124.5t-7.5 97q0 36 17 53t41 17zM135 123q31 0 51 -19.5t20 -49.5q0 -29 -20 -48.5t-51 -19.5q-30 0 -50.5 19.5t-20.5 48.5q0 30 20.5 49.5t50.5 19.5z
" />
    <glyph glyph-name="quotedbl" unicode="&#x22;" horiz-adv-x="322" 
d="M98 730q19 0 32 -14t13 -39q0 -32 -5.5 -59.5t-14 -62t-18.5 -87.5h-14q-9 51 -18 85t-14.5 62.5t-5.5 60.5q0 25 13 39t32 15zM224 730q19 0 32 -14t13 -39q0 -32 -5.5 -59.5t-14 -62t-18.5 -87.5h-14q-9 51 -18 85t-14.5 62.5t-5.5 60.5q0 25 13 39t32 15z" />
    <glyph glyph-name="numbersign" unicode="#" horiz-adv-x="631" 
d="M468 602l-97 -501h-20l97 501h20zM550 267l-4 -20h-501l4 20h501zM281 602l-97 -501h-20l97 501h20zM586 454l-3 -20h-501l3 20h501z" />
    <glyph glyph-name="dollar" unicode="$" horiz-adv-x="540" 
d="M258 720q53 0 81 -12t49 -26q12 -7 19.5 -10.5t14.5 -3.5q16 0 22 44h23q-1 -18 -2.5 -42.5t-2 -64.5t-0.5 -105h-23q-5 53 -23.5 98.5t-53.5 73.5t-93 28q-55 0 -88 -30.5t-33 -78.5q0 -30 11.5 -53.5t34 -44t55 -42t75.5 -48.5q51 -32 90.5 -63.5t63 -69.5t23.5 -92
q0 -65 -31 -107.5t-81.5 -63.5t-111.5 -21q-56 0 -88.5 12.5t-54.5 24.5q-12 7 -20.5 10.5t-15.5 3.5q-16 0 -22 -44h-23q2 22 2.5 51.5t1 77.5t0.5 121h23q5 -70 24.5 -123.5t60 -83t106.5 -29.5q56 0 93.5 30t37.5 93q0 27 -9.5 50t-30 43.5t-52 43.5t-74.5 50
q-47 30 -88 60.5t-65.5 70.5t-24.5 95q0 61 28 100t74 58t98 19zM240 840v-972h-20v972h20zM328 840v-972h-20v972h20z" />
    <glyph glyph-name="percent" unicode="%" horiz-adv-x="737" 
d="M188 761q69 0 111 -43t42 -120q0 -76 -43 -122t-110 -46q-69 0 -111.5 43t-42.5 120q0 75 44 121.5t110 46.5zM546 299q-73 0 -73 -149q0 -73 21 -109.5t56 -36.5q72 0 72 148q0 74 -20 110.5t-56 36.5zM548 317q69 0 111 -43t42 -120q0 -76 -43 -122t-110 -46
q-69 0 -111.5 43t-42.5 120q0 75 44 121.5t110 46.5zM186 743q-73 0 -73 -149q0 -73 21 -109.5t56 -36.5q72 0 72 148q0 74 -20 110.5t-56 36.5zM657 824l19 -13l-585 -866l-19 13z" />
    <glyph glyph-name="ampersand" unicode="&#x26;" horiz-adv-x="857" 
d="M315 705q38 0 62.5 -7.5t41.5 -19.5q21 -15 33 -34t12 -39q0 -27 -19.5 -42.5t-43.5 -15.5t-41.5 14t-17.5 40q0 23 16 40.5t40 20.5q-5 11 -24.5 19t-47.5 8q-52 0 -85.5 -31t-33.5 -92q0 -26 9.5 -54t37.5 -56q17 3 33.5 5t26.5 2q39 0 39 -25q0 -9 -8 -14t-20 -5
q-19 0 -39 8.5t-31 14.5q-55 -19 -88.5 -57.5t-33.5 -105.5q0 -68 36 -114.5t98 -70.5t142 -24q52 0 100 12t85.5 35.5t59.5 56.5t22 76q0 18 -7 46t-29.5 55t-69.5 43l10 10q67 -21 97 -69t30 -108q0 -63 -38.5 -118.5t-109.5 -89t-171 -33.5q-94 0 -171 30t-122 86
t-45 133q0 55 21.5 93.5t53.5 64t64 39t52 18.5q-49 21 -77 54.5t-28 73.5q0 27 13 50t36.5 40.5t56 27t73.5 9.5zM688 722q65 0 108 -36t43 -101q0 -60 -36.5 -96.5t-94.5 -56.5q-20 -9 -52 -19.5t-68 -21.5t-68.5 -21t-53.5 -18q-50 -15 -81 -35.5t-31 -54.5
q0 -26 15.5 -44t38 -27t43.5 -9q13 0 31.5 4.5t21.5 13.5q-19 4 -33.5 17.5t-14.5 38.5q0 26 18.5 41t45.5 15q28 0 44.5 -16t16.5 -42q0 -29 -19 -49t-48 -29.5t-60 -9.5q-32 0 -62.5 12.5t-50 39t-19.5 69.5q0 60 43 98t123 60q27 9 64.5 19t76.5 21.5t72 25.5
q57 22 82 45t25 52q0 43 -34.5 70.5t-80.5 27.5q-11 0 -18.5 -1.5t-10.5 -6.5q17 -7 26 -22t9 -29q0 -25 -19 -39.5t-45 -14.5q-24 0 -43 14t-19 41q0 26 17 42.5t43.5 24t54.5 7.5z" />
    <glyph glyph-name="quotesingle" unicode="'" horiz-adv-x="196" 
d="M98 730q19 0 32 -14t13 -39q0 -32 -5.5 -59.5t-14 -62t-18.5 -87.5h-14q-9 51 -18 85t-14.5 62.5t-5.5 60.5q0 25 13 39t32 15z" />
    <glyph glyph-name="parenleft" unicode="(" horiz-adv-x="302" 
d="M271 806q-107 -91 -168.5 -213.5t-61.5 -280.5t61.5 -280.5t168.5 -213.5l14 13q-78 101 -110 217t-32 264q0 149 32 265t110 216z" />
    <glyph glyph-name="parenright" unicode=")" horiz-adv-x="302" 
d="M31 806q107 -91 168.5 -213.5t61.5 -280.5t-61.5 -280.5t-168.5 -213.5l-14 13q78 101 110 217t32 264q0 149 -32 265t-110 216z" />
    <glyph glyph-name="asterisk" unicode="*" horiz-adv-x="488" 
d="M359 632q26 15 43 9.5t25 -18.5q8 -12 3.5 -29t-30.5 -32q-25 -14 -62 -21.5t-94 -23.5l-1 3q39 39 65.5 68.5t50.5 43.5zM245 520q54 -15 92.5 -23t63.5 -22q26 -15 30 -32.5t-5 -30.5q-6 -12 -23 -17t-43 10q-25 14 -50 42.5t-67 69.5zM246 518q15 -53 27 -91t13 -66
q-1 -30 -14 -42t-28 -12t-27.5 11.5t-12.5 42.5q0 29 12 65t27 92h3zM243 519l2 -3q-39 -38 -65.5 -68t-50.5 -44q-26 -15 -43 -9.5t-25 18.5q-7 12 -3 29t30 32q25 14 62 22t93 23zM128 631q25 -14 50.5 -42.5t65.5 -69.5l-1 -3q-53 15 -92 23t-64 22q-25 15 -29 32.5
t4 30.5q7 12 23.5 17t42.5 -10zM244 729q16 0 28 -12t12 -42q0 -28 -11.5 -64.5t-27.5 -92.5h-3q-14 53 -26.5 91t-12.5 66q0 30 13.5 42t27.5 12z" />
    <glyph glyph-name="plus" unicode="+" horiz-adv-x="583" 
d="M310 606v-236h232v-30h-232v-235h-36v235h-233v30h233v236h36z" />
    <glyph glyph-name="comma" unicode="," horiz-adv-x="264" 
d="M128 123q23 0 38 -9t25 -24q11 -16 14.5 -36t3.5 -36q0 -49 -25 -90t-78 -66l-9 18q30 13 52 40t24 55q1 15 -2 28q-18 -17 -44 -17q-29 0 -49 18t-20 50q0 31 20.5 50t49.5 19z" />
    <glyph glyph-name="hyphen" unicode="-" horiz-adv-x="493" 
d="M427 303v-67h-361v67h361z" />
    <glyph glyph-name="period" unicode="." horiz-adv-x="258" 
d="M129 123q30 0 50.5 -19.5t20.5 -49.5q0 -29 -20.5 -48.5t-50.5 -19.5t-50.5 19.5t-20.5 48.5q0 30 20.5 49.5t50.5 19.5z" />
    <glyph glyph-name="slash" unicode="/" horiz-adv-x="371" 
d="M338 722l-272 -736h-33l272 736h33z" />
    <glyph glyph-name="zero" unicode="0" horiz-adv-x="615" 
d="M313 530q74 0 130.5 -32.5t89 -92t32.5 -139.5t-33.5 -143.5t-92 -100t-137.5 -36.5q-72 0 -129.5 32.5t-90 92t-32.5 139.5q0 79 32.5 142.5t92 100.5t138.5 37zM304 512q-61 0 -100 -68.5t-39 -190.5q0 -90 20 -144.5t53.5 -79.5t72.5 -25q61 0 100 68.5t39 190.5
q0 90 -20 145t-53.5 79.5t-72.5 24.5z" />
    <glyph glyph-name="one" unicode="1" horiz-adv-x="374" 
d="M263 527v-426q0 -47 20 -63.5t68 -16.5v-21q-20 1 -58.5 2.5t-79.5 1.5q-48 0 -92 -1.5t-68 -2.5v21q48 0 75 16.5t27 65.5v243q0 48 -9.5 71t-34 30t-66.5 7v22q76 2 127 13t91 38z" />
    <glyph glyph-name="two" unicode="2" horiz-adv-x="494" 
d="M254 530q72 0 114 -33t42 -94q0 -49 -28.5 -91t-71.5 -79t-86 -72t-71 -70h208q41 0 52 11t15 38h18q0 -58 1 -89t3 -56q-13 3 -58.5 4t-90.5 1h-253v18q29 32 71 69t81.5 81t66 96.5t26.5 113.5q0 56 -25.5 81t-72.5 25q-41 0 -74.5 -22.5t-59.5 -66.5l-16 10
q25 48 74.5 86.5t134.5 38.5z" />
    <glyph glyph-name="three" unicode="3" horiz-adv-x="463" 
d="M233 530q66 0 109.5 -30.5t43.5 -84.5q0 -38 -22.5 -71t-60 -56.5t-84.5 -37.5q54 1 100 -16t74.5 -50.5t28.5 -85.5q0 -57 -34.5 -103t-91.5 -78.5t-125.5 -50t-136.5 -17.5v19q50 1 99 16.5t88.5 44t63.5 71.5t24 98q0 59 -28 97.5t-77 42.5q-15 -7 -27 -11.5t-22 -4.5
q-17 0 -17 14q0 10 9 15t19 5q8 0 16.5 -1.5t18.5 -2.5q42 30 59.5 66.5t17.5 73.5q0 47 -23.5 68.5t-63.5 21.5q-41 0 -75 -21.5t-57 -64.5l-18 9q16 33 41 61.5t62 46t89 17.5z" />
    <glyph glyph-name="four" unicode="4" 
d="M355 530l4 -26l-291 -399l4 22h310q41 0 52 11t15 38h18q0 -53 1 -81.5t3 -51.5q-9 2 -35 3t-59 1.5t-63 0.5h-300v21zM371 530v-671h-92v553l76 118h16z" />
    <glyph glyph-name="five" unicode="5" horiz-adv-x="430" 
d="M351 562q0 -60 1 -93.5t3 -60.5q-13 3 -55 4t-84 1h-122l-13 -185q22 13 52.5 23t75.5 10q94 0 138.5 -44.5t44.5 -110.5q0 -58 -31 -105t-82.5 -80t-113.5 -51t-125 -18v18q60 1 114.5 26.5t89.5 76t35 124.5q0 63 -31.5 98t-90.5 35q-27 0 -45.5 -5.5t-39.5 -15.5
l-11 7l23 303q11 -2 25.5 -3t28.5 -1h130q37 0 48.5 10.5t14.5 36.5h20z" />
    <glyph glyph-name="six" unicode="6" horiz-adv-x="532" 
d="M411 723l4 -20q-42 -13 -86 -37.5t-80.5 -71.5t-59 -125t-22.5 -199q0 -103 17 -160.5t42.5 -80.5t50.5 -23q40 0 72 47.5t32 160.5q0 108 -29.5 152t-70.5 44q-20 0 -44.5 -10t-45 -33t-30.5 -65l-9 -3q6 53 32.5 83.5t61.5 43.5t65 13q49 0 91 -26t68 -74t26 -118
q0 -75 -31 -128t-83.5 -80t-114.5 -27q-100 0 -157.5 74.5t-57.5 209.5q0 91 23.5 161t62 121.5t86 86.5t96.5 55.5t91 28.5z" />
    <glyph glyph-name="seven" unicode="7" horiz-adv-x="422" 
d="M26 520q14 -3 59 -4t90 -1h242v-21q-21 -49 -50.5 -102.5t-58 -114.5t-47.5 -132t-18 -155q0 -13 1 -27.5t2 -28t1 -24.5q0 -24 -14.5 -41t-41.5 -17t-40.5 19.5t-13.5 47.5q0 63 18.5 123t47.5 117.5t64 111.5t68.5 105t59.5 100l-27 -58h-253q-41 0 -52 -10.5
t-15 -38.5h-18q0 58 -1 92t-3 59z" />
    <glyph glyph-name="eight" unicode="8" horiz-adv-x="534" 
d="M275 722q74 0 124.5 -35.5t50.5 -102.5q0 -59 -40 -103.5t-105 -82.5l-8 14q33 31 47 74t14 87q0 59 -24 95t-69 36q-38 0 -62.5 -26.5t-24.5 -72.5t22 -82t57.5 -66t74.5 -59.5t74.5 -61.5t57.5 -71t22 -89q0 -56 -29.5 -99t-80 -67t-116.5 -24q-56 0 -104 18.5
t-77.5 56.5t-29.5 94q0 75 51 128t123 85l8 -14q-46 -34 -64 -82t-18 -101q0 -44 11 -82t37 -61.5t69 -23.5q49 0 83 32.5t34 90.5q0 48 -21.5 85.5t-56 69.5t-73 62t-73 62t-56 70.5t-21.5 87.5t26 84.5t70 54.5t97 19z" />
    <glyph glyph-name="nine" unicode="9" horiz-adv-x="524" 
d="M264 530q100 0 157 -70t57 -198q0 -82 -23 -145.5t-61.5 -111t-85.5 -79t-95.5 -50t-91.5 -25.5l-4 20q42 12 85.5 34t80 64t58.5 113t22 180q0 98 -16.5 151.5t-41.5 75t-51 21.5q-41 0 -73 -48t-32 -160q0 -108 30 -152t71 -44q20 0 44.5 10t45.5 33.5t29 64.5l10 3
q-7 -54 -33.5 -84t-60.5 -43t-65 -13q-49 0 -91.5 25.5t-68.5 74t-26 118.5q0 75 31.5 128t84 80t114.5 27z" />
    <glyph glyph-name="colon" unicode=":" horiz-adv-x="274" 
d="M137 529q30 0 50.5 -19.5t20.5 -49.5q0 -29 -20.5 -48.5t-50.5 -19.5t-50.5 19.5t-20.5 48.5q0 30 20.5 49.5t50.5 19.5zM137 123q30 0 50.5 -19.5t20.5 -49.5q0 -29 -20.5 -48.5t-50.5 -19.5t-50.5 19.5t-20.5 48.5q0 30 20.5 49.5t50.5 19.5z" />
    <glyph glyph-name="semicolon" unicode=";" horiz-adv-x="289" 
d="M139 123q23 0 38 -9t25 -24q11 -16 14.5 -36t3.5 -36q0 -49 -25 -90t-78 -66l-9 18q30 13 52 40t24 55q1 15 -2 28q-18 -17 -44 -17q-29 0 -49 18t-20 50q0 31 20.5 50t49.5 19zM146 529q30 0 50.5 -19.5t20.5 -49.5q0 -29 -20.5 -48.5t-50.5 -19.5t-50.5 19.5
t-20.5 48.5q0 30 20.5 49.5t50.5 19.5z" />
    <glyph glyph-name="less" unicode="&#x3c;" horiz-adv-x="606" 
d="M516 582l17 -36l-409 -191l409 -191l-17 -36l-487 227z" />
    <glyph glyph-name="equal" unicode="=" horiz-adv-x="643" 
d="M572 440v-30h-501v30h501zM572 300v-30h-501v30h501z" />
    <glyph glyph-name="greater" unicode="&#x3e;" horiz-adv-x="606" 
d="M90 582l-17 -36l409 -191l-409 -191l17 -36l487 227z" />
    <glyph glyph-name="question" unicode="?" horiz-adv-x="475" 
d="M222 782q99 0 159.5 -48t60.5 -132q0 -85 -64.5 -140.5t-170.5 -81.5v-146h-20v155q64 25 95 55t42 65t11 74q0 95 -37.5 137t-96.5 42q-25 0 -52 -6.5t-42 -26.5q21 -5 33.5 -19.5t12.5 -38.5q0 -27 -18 -43.5t-45 -16.5q-26 0 -42.5 17t-16.5 41q0 25 14.5 44t36.5 33
t56.5 25t83.5 11zM198 123q31 0 51 -19.5t20 -49.5q0 -29 -20 -48.5t-51 -19.5q-30 0 -50.5 19.5t-20.5 48.5q0 30 20.5 49.5t50.5 19.5z" />
    <glyph glyph-name="at" unicode="@" horiz-adv-x="880" 
d="M533 668q87 0 158 -28t113.5 -88.5t42.5 -158.5q0 -84 -27.5 -152t-71 -116t-94.5 -73.5t-99 -25.5q-40 0 -56.5 16t-17.5 40t4.5 47.5t9.5 36.5l61 298q25 0 52.5 3t49.5 11l-83 -365q-9 -33 -4 -47.5t28 -11.5q29 3 68 26.5t75.5 66.5t60.5 105t24 142q0 93 -40.5 149
t-107 81.5t-145.5 25.5q-93 0 -176.5 -40.5t-149 -110.5t-103 -161t-37.5 -193q0 -103 39 -166.5t107.5 -92.5t155.5 -29q54 0 105.5 12.5t100.5 41.5l7 -13q-37 -26 -92 -42.5t-122 -16.5q-94 0 -166.5 32t-113.5 99t-41 173q0 101 37 195t103.5 168.5t154.5 118t190 43.5z
M473 478q26 0 44 -11t26.5 -32t5.5 -52l-9 -5q1 23 -5 39.5t-19 25t-32 8.5q-30 0 -57 -26t-48 -69.5t-33 -96t-12 -105.5q0 -48 13 -70t36 -22q37 0 73.5 55.5t60.5 154.5l7 -17q-21 -80 -47 -130.5t-58.5 -74.5t-76.5 -24q-55 0 -81 34t-26 90t20.5 113.5t54.5 106
t76.5 78.5t86.5 30z" />
    <glyph glyph-name="A" unicode="A" horiz-adv-x="642" 
d="M338 712l244 -628q14 -37 32.5 -50t34.5 -14v-20q-24 2 -56.5 2.5t-65.5 0.5q-42 0 -78 -0.5t-58 -2.5v20q51 2 64.5 17.5t-6.5 66.5l-180 486l16 18l-166 -434q-24 -60 -23 -93t23.5 -46.5t64.5 -14.5v-20q-30 2 -60.5 2.5t-57.5 0.5q-24 0 -42.5 -0.5t-33.5 -2.5v20
q21 5 42 25t40 68l232 599h17h17zM443 288v-20h-298l10 20h288z" />
    <glyph glyph-name="B" unicode="B" horiz-adv-x="639" 
d="M39 708q23 -1 59.5 -2t72.5 -1q48 0 91.5 1t61.5 1q112 0 167.5 -44t55.5 -113q0 -35 -16.5 -69.5t-53.5 -62t-98 -43.5v-2q84 -9 132 -36t68 -64.5t20 -78.5q0 -88 -66.5 -141t-185.5 -53q-22 0 -66.5 1.5t-107.5 1.5q-38 0 -74.5 -0.5t-59.5 -2.5v20q34 2 51 8t22.5 24
t5.5 54v496q0 37 -5.5 54.5t-23 24t-50.5 7.5v20zM303 688q-43 0 -56.5 -17t-13.5 -69v-496q0 -52 14 -67.5t59 -15.5q90 0 130.5 45.5t40.5 129.5q0 77 -40.5 119t-133.5 42h-97v8.5v8.5h86q55 0 85 22.5t41 60t11 80.5q0 74 -29 111.5t-97 37.5z" />
    <glyph glyph-name="C" unicode="C" horiz-adv-x="694" 
d="M380 722q66 0 108.5 -19.5t75.5 -45.5q20 -15 30.5 -3.5t14.5 54.5h23q-2 -38 -3 -91.5t-1 -142.5h-23q-7 44 -13.5 72t-17 48t-28.5 39q-29 36 -71 52t-89 16q-51 0 -90 -25.5t-65.5 -72.5t-40.5 -111t-14 -140q0 -78 15 -141.5t43.5 -109t69 -70t90.5 -24.5
q41 0 85 16.5t70 50.5q28 30 38.5 67.5t17.5 102.5h23q0 -92 1 -148.5t3 -95.5h-23q-4 43 -13.5 54t-31.5 -3q-37 -26 -78.5 -45.5t-106.5 -19.5q-99 0 -173 43t-115 124t-41 195q0 112 42.5 196t116.5 131t171 47z" />
    <glyph glyph-name="D" unicode="D" horiz-adv-x="741" 
d="M324 708q185 0 275 -89.5t90 -256.5q0 -109 -44 -190.5t-127.5 -126.5t-202.5 -45q-22 0 -65.5 1.5t-76.5 1.5q-38 0 -74.5 -0.5t-59.5 -2.5v20q34 2 51 8t22.5 24t5.5 54v496q0 37 -5.5 54.5t-23 24t-50.5 7.5v20q23 -1 59.5 -2.5t72.5 -0.5t80.5 2t72.5 1zM307 690
q-46 0 -60 -17t-14 -69v-500q0 -52 14.5 -69t60.5 -17q101 0 157 39.5t79 115.5t23 185q0 168 -58 250t-202 82z" />
    <glyph glyph-name="E" unicode="E" horiz-adv-x="617" 
d="M550 708q-4 -38 -5.5 -73.5t-1.5 -54.5t1 -36t2 -28h-23q-7 64 -21.5 101t-43 52.5t-79.5 15.5h-69q-32 0 -48.5 -5.5t-22.5 -22t-6 -51.5v-504q0 -34 6 -51t22.5 -22.5t48.5 -5.5h65q57 0 90.5 18t51 59t26.5 112h23q-3 -29 -3 -76q0 -20 1.5 -58t5.5 -78
q-51 2 -115 2.5t-114 0.5h-82.5t-110 -0.5t-109.5 -2.5v20q34 2 51 8t22.5 24t5.5 54v496q0 37 -5.5 54.5t-23 24t-50.5 7.5v20q51 -1 109.5 -2t110 -1h82.5q46 0 104.5 0.5t104.5 2.5zM384 366v-10v-10h-181v10v10h181zM413 498q-4 -57 -3.5 -87t0.5 -55t1 -55t5 -87h-23
q-5 33 -13 63.5t-28.5 49.5t-63.5 19v20q43 0 62.5 22.5t27 53.5t12.5 56h23z" />
    <glyph glyph-name="F" unicode="F" horiz-adv-x="577" 
d="M550 708q-4 -40 -5.5 -78t-1.5 -58q0 -23 1 -44t2 -36h-23q-9 73 -24.5 114.5t-46.5 60t-89 18.5h-53q-32 0 -48.5 -5.5t-22.5 -22t-6 -51.5v-498q0 -37 8 -55.5t30 -24.5t65 -7v-21q-27 2 -70 2.5t-89 0.5q-40 0 -76.5 -0.5t-61.5 -2.5v20q34 2 51 8t22.5 24t5.5 54v496
q0 37 -5.5 54.5t-23 24t-50.5 7.5v20q51 -1 109.5 -2t110 -1h82.5q46 0 104.5 0.5t104.5 2.5zM397 358v-10v-10h-194v10v10h194zM418 490q-4 -57 -3.5 -87t0.5 -55t1 -55t5 -87h-23q-4 33 -12 63.5t-29 49.5t-63 19v20q42 0 62 22.5t27.5 53.5t11.5 56h23z" />
    <glyph glyph-name="G" unicode="G" horiz-adv-x="714" 
d="M386 722q66 0 107 -19.5t75 -45.5q13 -10 20 -10q19 0 25 61h23q-2 -38 -3 -91.5t-1 -142.5h-23q-7 48 -18.5 89t-39.5 70q-27 32 -70.5 50t-88.5 18q-52 0 -92 -25.5t-67.5 -72.5t-42 -110.5t-14.5 -139.5q0 -180 55.5 -263.5t167.5 -83.5q32 0 55.5 9t37.5 18
q17 12 22 23.5t5 30.5v97q0 43 -7.5 63.5t-29.5 28t-64 8.5v20q19 -1 45 -1.5t54.5 -1t51.5 -0.5q36 0 65.5 1t48.5 2v-20q-31 -2 -40 -16t-9 -70v-198h-20q-1 17 -7.5 37t-19.5 20q-7 0 -14.5 -3t-25.5 -15q-35 -24 -73 -38.5t-86 -14.5q-162 0 -250 94.5t-88 262.5
q0 116 43.5 201t119 131.5t173.5 46.5z" />
    <glyph glyph-name="H" unicode="H" horiz-adv-x="771" 
d="M459 0v20q34 2 51 8t22.5 24t5.5 54v496q0 37 -5.5 54.5t-23 24t-50.5 7.5v20q25 -1 62.5 -2t74.5 -1q42 0 78 1t58 2v-20q-33 -1 -50 -7.5t-23 -24t-6 -54.5v-496q0 -36 6 -54t23 -24t50 -8v-20q-22 2 -58 2.5t-78 0.5q-37 0 -74.5 -0.5t-62.5 -2.5zM39 0v20q34 2 51 8
t22.5 24t5.5 54v496q0 37 -5.5 54.5t-23 24t-50.5 7.5v20q23 -1 59.5 -2t78.5 -1q38 0 74.5 1t60.5 2v-20q-33 -1 -50 -7.5t-23 -24t-6 -54.5v-496q0 -36 6 -54t23 -24t50 -8v-20q-24 2 -60.5 2.5t-74.5 0.5q-42 0 -78.5 -0.5t-59.5 -2.5zM188 346v20h395v-20h-395z" />
    <glyph glyph-name="I" unicode="I" horiz-adv-x="351" 
d="M312 708v-20q-33 -1 -50 -7.5t-23 -24t-6 -54.5v-496q0 -36 6 -54t23 -24t50 -8v-20q-24 2 -60.5 2.5t-74.5 0.5q-42 0 -78.5 -0.5t-59.5 -2.5v20q34 2 51 8t22.5 24t5.5 54v496q0 37 -5.5 54.5t-23 24t-50.5 7.5v20q23 -1 59.5 -2t78.5 -1q38 0 74.5 1t60.5 2z" />
    <glyph glyph-name="J" unicode="J" horiz-adv-x="339" 
d="M-21 -188v19q43 2 73 22.5t45 68.5t15 131v549q0 37 -5.5 54.5t-22.5 24t-51 7.5v20q23 -1 59 -2t76 -1q39 0 76.5 1t61.5 2v-20q-33 -1 -50 -7.5t-23 -24t-6 -54.5v-366q0 -41 -0.5 -89t-4 -93t-12.5 -79q-18 -70 -76.5 -116.5t-154.5 -46.5z" />
    <glyph glyph-name="K" unicode="K" horiz-adv-x="675" 
d="M640 708v-20q-32 -5 -63.5 -22.5t-63.5 -57.5l-192 -240l34 61l240 -348q16 -24 34.5 -38t47.5 -23v-20q-27 2 -65 2.5t-67 0.5q-18 0 -44.5 -0.5t-66.5 -2.5v20q37 2 45.5 12t-7.5 33l-145 225q-18 28 -32 42.5t-29 19t-37 5.5v21q42 1 72.5 19t57.5 49l83 105
q35 43 45 73.5t-5 46.5t-56 17v20q31 -1 62.5 -2t63.5 -1q56 0 88 3zM312 708v-20q-33 -1 -50 -7.5t-23 -24t-6 -54.5v-496q0 -36 6 -54t23 -24t50 -8v-20q-24 2 -60.5 2.5t-74.5 0.5q-42 0 -78.5 -0.5t-59.5 -2.5v20q34 2 51 8t22.5 24t5.5 54v496q0 37 -5.5 54.5t-23 24
t-50.5 7.5v20q23 -1 59.5 -2t78.5 -1q38 0 74.5 1t60.5 2z" />
    <glyph glyph-name="L" unicode="L" horiz-adv-x="596" 
d="M314 708v-20q-34 -1 -51.5 -7.5t-23.5 -24t-6 -54.5v-500q0 -34 5.5 -51t22 -22.5t47.5 -5.5h65q58 0 92 21.5t52 65.5t26 112h23q-3 -32 -3 -84q0 -20 1.5 -58.5t5.5 -79.5q-51 2 -115 2.5t-114 0.5h-82.5t-110 -0.5t-109.5 -2.5v20q34 2 51 8t22.5 24t5.5 54v496
q0 37 -5.5 54.5t-23 24t-50.5 7.5v20q23 -1 59.5 -2t78.5 -1q38 0 75.5 1t61.5 2z" />
    <glyph glyph-name="M" unicode="M" horiz-adv-x="890" 
d="M851 708v-20q-34 -1 -51 -7.5t-22.5 -24t-5.5 -54.5v-496q0 -36 5.5 -54t22.5 -24t51 -8v-20q-25 2 -62 2.5t-75 0.5q-42 0 -79 -0.5t-59 -2.5v20q34 2 51.5 8t23.5 24t6 54v547l5 -2l-246 -655h-16l-258 648v-512q0 -42 6 -65.5t26 -33.5t61 -13v-20q-19 2 -48.5 2.5
t-55.5 0.5q-25 0 -50 -0.5t-41 -2.5v20q33 3 50 12.5t23 32.5t6 63v474q0 37 -6 54.5t-23 24t-50 7.5v20q16 -1 41 -2t50 -1q29 0 58.5 1t50.5 2l221 -568l-19 -13l217 578h27h28q38 0 75 1t62 2z" />
    <glyph glyph-name="N" unicode="N" horiz-adv-x="711" 
d="M678 708v-20q-34 -2 -51 -12t-22.5 -32.5t-5.5 -63.5v-584h-16h-17l-424 616v-480q0 -42 6 -65.5t26 -33.5t61 -13v-20q-19 2 -48.5 2.5t-55.5 0.5q-25 0 -50 -0.5t-41 -2.5v20q33 3 50 12.5t23 32.5t6 63v474q0 37 -6 54.5t-23 24t-50 7.5v20q16 -1 41 -2t50 -1
q22 0 43 1t37 2l365 -522v390q0 43 -6.5 66t-26.5 33.5t-60 12.5v20q18 -1 48 -2t56 -1q25 0 50 1t41 2z" />
    <glyph glyph-name="O" unicode="O" horiz-adv-x="758" 
d="M380 722q98 0 172.5 -43t115.5 -123.5t41 -195.5q0 -112 -42 -196t-117 -131t-171 -47q-99 0 -173 43t-115 124t-41 195q0 112 42.5 196t116.5 131t171 47zM376 704q-62 0 -108 -45t-71 -124t-25 -183q0 -106 28 -184.5t76 -121t107 -42.5q62 0 107.5 45t71 124.5
t25.5 182.5q0 107 -28.5 185t-76 120.5t-106.5 42.5z" />
    <glyph glyph-name="P" unicode="P" horiz-adv-x="604" 
d="M39 708q23 -1 59.5 -2t72.5 -1q48 0 91.5 1t61.5 1q127 0 190 -55t63 -142q0 -36 -12.5 -75.5t-43.5 -73t-84 -54.5t-135 -21h-98v20h88q67 0 102.5 27t48 71t12.5 95q0 95 -34 142t-118 47q-43 0 -56.5 -17t-13.5 -69v-494q0 -37 8 -55.5t30 -24.5t65 -7v-21
q-27 2 -70 2.5t-89 0.5q-40 0 -76.5 -0.5t-61.5 -2.5v20q34 2 51 8t22.5 24t5.5 54v496q0 37 -5.5 54.5t-23 24t-50.5 7.5v20z" />
    <glyph glyph-name="Q" unicode="Q" horiz-adv-x="758" 
d="M753 -11l16 -6q-10 -46 -26 -77.5t-39 -50.5q-19 -17 -52 -30t-81 -13q-53 0 -103.5 17.5t-104 42t-116.5 46.5q-7 2 -13 4t-11 3q-19 -8 -41 -12.5t-42 -4.5t-33 5.5t-13 16.5q0 23 54 23q35 0 75 -10q37 10 63 22.5t54 23.5t67 14l1 -16q-30 -3 -52.5 -11.5
t-44.5 -18.5t-53 -19q57 -8 117 -17.5t114 -15t94 -3.5q68 2 108 22.5t62 64.5zM380 722q98 0 172.5 -43t115.5 -123.5t41 -195.5q0 -112 -42 -196t-117 -131t-171 -47q-99 0 -173 43t-115 124t-41 195q0 112 42.5 196t116.5 131t171 47zM376 704q-62 0 -108 -45t-71 -124
t-25 -183q0 -106 28 -184.5t76 -121t107 -42.5q62 0 107.5 45t71 124.5t25.5 182.5q0 107 -28.5 185t-76 120.5t-106.5 42.5z" />
    <glyph glyph-name="R" unicode="R" horiz-adv-x="663" 
d="M39 708q23 -1 59.5 -2t72.5 -1q48 0 91.5 1t61.5 1q127 0 190 -48.5t63 -125.5q0 -31 -12.5 -65.5t-43.5 -64t-84 -48.5t-135 -19h-96v20h86q67 0 102.5 22.5t48 60t12.5 83.5q0 79 -34 122.5t-118 43.5q-43 0 -56.5 -17t-13.5 -69v-496q0 -36 6 -54t23 -24t50 -8v-20
q-24 2 -60.5 2.5t-74.5 0.5q-42 0 -78.5 -0.5t-59.5 -2.5v20q34 2 51 8t22.5 24t5.5 54v496q0 37 -5.5 54.5t-23 24t-50.5 7.5v20zM208 353q51 -2 82 -4.5t52 -4.5t39 -5q75 -10 109.5 -40t47.5 -92l25 -102q9 -43 19.5 -61t31.5 -18q16 1 26.5 9.5t22.5 23.5l14 -11
q-23 -31 -48 -46.5t-67 -15.5q-43 0 -73.5 22.5t-43.5 85.5l-20 100q-9 43 -20 74.5t-30.5 49.5t-56.5 18h-108z" />
    <glyph glyph-name="S" unicode="S" horiz-adv-x="555" 
d="M265 720q53 0 81 -12t49 -26q12 -7 19.5 -10.5t14.5 -3.5q16 0 22 44h23q-1 -18 -2.5 -42.5t-2 -64.5t-0.5 -105h-23q-3 49 -21.5 95t-54 75t-90.5 29q-51 0 -84.5 -30.5t-33.5 -80.5q0 -44 22 -73.5t60.5 -55t87.5 -56.5q50 -32 90 -63.5t63 -69.5t23 -92
q0 -65 -30.5 -107.5t-81.5 -63.5t-112 -21q-56 0 -89 12t-56 25q-22 14 -34 14q-16 0 -22 -44h-23q2 22 2.5 51.5t1 77.5t0.5 121h23q4 -62 22.5 -116t57 -86.5t102.5 -32.5q50 0 89 30.5t39 95.5q0 61 -42.5 101.5t-111.5 82.5q-47 30 -88 60t-65.5 70t-24.5 95
q0 61 28.5 100t74 58t97.5 19z" />
    <glyph glyph-name="T" unicode="T" horiz-adv-x="637" 
d="M609 708q-4 -42 -5.5 -81.5t-1.5 -60.5q0 -23 1 -44t2 -36h-23q-10 75 -26.5 118t-47.5 62t-89 19h-43v-570q0 -40 7.5 -60t30 -26.5t65.5 -8.5v-20q-28 2 -72 2.5t-90 0.5q-48 0 -90.5 -0.5t-68.5 -2.5v20q43 2 65 8.5t30 26.5t8 60v570h-44q-56 0 -88 -19t-48 -62
t-26 -118h-23q2 15 2.5 36t0.5 44q0 21 -1.5 60.5t-5.5 81.5q43 -1 94 -2t103 -1h94h93t103 1t94 2z" />
    <glyph glyph-name="U" unicode="U" horiz-adv-x="684" 
d="M660 708v-20q-33 -2 -50 -12t-23 -32.5t-6 -63.5v-289q0 -68 -9 -121t-32 -91q-25 -42 -73.5 -67.5t-115.5 -25.5q-48 0 -93 11t-79 42q-30 27 -47 59t-23 77.5t-6 112.5v314q0 37 -5.5 54.5t-22.5 24t-51 7.5v20q23 -1 59.5 -2t78.5 -1q38 0 75.5 1t61.5 2v-20
q-34 -1 -51.5 -7.5t-23.5 -24t-6 -54.5v-346q0 -68 11 -121t43.5 -83.5t97.5 -30.5q74 0 114.5 33.5t57 92t16.5 133.5v296q0 43 -8 66t-28 33.5t-57 12.5v20q19 -1 49 -2t55 -1q26 0 50.5 1t40.5 2z" />
    <glyph glyph-name="V" unicode="V" horiz-adv-x="643" 
d="M651 708v-20q-20 -5 -42.5 -27t-41.5 -71l-227 -594h-8h-9h-8h-8l-248 628q-15 37 -33 50t-34 14v20q23 -1 56.5 -2t65.5 -1q41 0 77.5 1t58.5 2v-20q-50 -2 -64 -17t5 -67l185 -483l-18 -20l162 426q23 61 23 95.5t-22 49.5t-64 16v20q31 -1 61 -2t57 -1q25 0 43 1t33 2
z" />
    <glyph glyph-name="W" unicode="W" horiz-adv-x="926" 
d="M929 708v-20q-20 -5 -43 -26.5t-39 -71.5l-184 -594h-8.5h-8.5h-9h-8l-212 631q-12 37 -27.5 48.5t-29.5 12.5v20q21 -1 52 -2t60 -1q41 0 76.5 1t56.5 2v-20q-30 -1 -47.5 -6.5t-20 -22.5t9.5 -55l147 -452l-17 -22l126 397q20 62 18.5 96.5t-23 49t-62.5 15.5v20l60 -2
t58 -1q25 0 42.5 1t32.5 2zM225 708v-20q-24 -2 -34 -11.5t-9.5 -27t9.5 -45.5l155 -463l-26 -29l136 423l15 -25l-163 -514h-8h-9h-8.5h-8.5l-216 628q-13 38 -32 50.5t-35 13.5v20q24 -1 57 -2t64 -1q36 0 65.5 1t47.5 2z" />
    <glyph glyph-name="X" unicode="X" horiz-adv-x="653" 
d="M262 708v-21q-48 0 -59.5 -9.5t2.5 -32.5l381 -574q20 -29 32.5 -38.5t33.5 -11.5v-21q-15 1 -43.5 2.5t-59.5 1.5q-41 0 -83.5 -1.5t-63.5 -2.5v21q48 0 62 6t0 28l-386 582q-19 29 -31 39t-35 11v21q16 -1 45.5 -2.5t59.5 -1.5q43 0 80.5 1.5t64.5 2.5zM302 362
l4.5 -13l4.5 -13l-116 -168q-37 -54 -39.5 -85.5t21 -46t65.5 -16.5v-20q-19 1 -46 1.5t-53 1t-43 0.5q-57 0 -88 -3v20q33 7 63 32.5t61 69.5zM623 708v-20q-31 -6 -60 -31t-57 -65l-161 -232l-3.5 13l-3.5 13l111 159q55 79 43 110t-75 33v20q29 -1 61 -2t58 -1q57 0 87 3
z" />
    <glyph glyph-name="Y" unicode="Y" horiz-adv-x="602" 
d="M598 708v-20q-20 -5 -40.5 -27.5t-45.5 -70.5l-197 -391h-27l-234 432q-20 36 -33.5 46t-24.5 10v21q22 -1 46 -2t52 -1q36 0 78 0.5t78 2.5v-21q-25 0 -44.5 -5t-26 -19.5t7.5 -41.5l165 -317l-16 -17l123 245q31 61 31.5 94.5t-22 47t-64.5 14.5v20q31 -1 61 -2t57 -1
q25 0 43 1t33 2zM368 322v-216q0 -36 6 -54t23 -24t50 -8v-20q-24 2 -61 2.5t-75 0.5q-41 0 -78 -0.5t-59 -2.5v20q34 2 51 8t22.5 24t5.5 54v205l65 -62z" />
    <glyph glyph-name="Z" unicode="Z" horiz-adv-x="597" 
d="M552 708v-20l-380 -665h166q42 0 73.5 10.5t53 33t34.5 60.5t18 93h23q-3 -32 -3 -84q0 -20 1.5 -58t5.5 -78q-55 2 -124.5 2.5t-124.5 0.5q-61 0 -128 -0.5t-126 -2.5v20l382 665h-166q-58 0 -94 -18t-55 -60t-27 -115h-23q2 15 2.5 36t0.5 44q0 20 -1.5 58t-5.5 78
q54 -2 121 -2.5t120 -0.5q61 0 130 0.5t127 2.5z" />
    <glyph glyph-name="bracketleft" unicode="[" horiz-adv-x="305" 
d="M270 772v-19h-73v-915h73v-19h-181v953h181z" />
    <glyph glyph-name="backslash" unicode="\" horiz-adv-x="371" 
d="M33 722l272 -736h33l-272 736h-33z" />
    <glyph glyph-name="bracketright" unicode="]" horiz-adv-x="305" 
d="M35 772v-19h73v-915h-73v-19h181v953h-181z" />
    <glyph glyph-name="asciicircum" unicode="^" horiz-adv-x="534" 
d="M276 528q25 -57 75.5 -110t115.5 -86l-8 -14q-61 20 -119 49t-93 59q-29 -30 -76 -59t-96 -49l-8 14q64 33 114.5 86t76.5 110h18z" />
    <glyph glyph-name="underscore" unicode="_" horiz-adv-x="597" 
d="M531 -93v-59h-465v59h465z" />
    <glyph glyph-name="grave" unicode="`" horiz-adv-x="287" 
d="M65 814q14 12 33.5 9t34.5 -22t27 -45t29.5 -61.5t47.5 -86.5l-11 -9q-41 42 -71.5 67t-52 43t-38.5 38q-15 20 -13.5 38t14.5 29z" />
    <glyph glyph-name="a" unicode="a" 
d="M161 -7q-66 0 -95.5 33.5t-29.5 85.5q0 43 20 70t51.5 44.5t67 30t67 24t52 26.5t20.5 38v68q0 36 -11.5 57.5t-31 30.5t-46.5 9q-23 0 -49 -6.5t-41 -25.5q22 -6 36.5 -23.5t14.5 -43.5q0 -28 -18.5 -44t-46.5 -16q-31 0 -46 19.5t-15 45.5q0 27 13.5 44t35.5 32
q24 16 61.5 27t83.5 11q43 0 74.5 -9.5t52.5 -30.5q25 -23 33 -57.5t8 -83.5v-276q0 -24 6 -35t22 -11q12 0 22 6t20 14l10 -17q-21 -17 -42.5 -27t-54.5 -10q-55 0 -72.5 26t-18.5 60q-29 -49 -68.5 -67.5t-84.5 -18.5zM216 41q26 0 51 14.5t47 49.5v199q-14 -21 -42.5 -34
t-58 -28.5t-50.5 -41.5t-21 -72q0 -45 21 -66t53 -21z" />
    <glyph glyph-name="b" unicode="b" horiz-adv-x="571" 
d="M340 530q80 0 133.5 -66.5t53.5 -201.5q0 -95 -31 -156t-82.5 -90.5t-111.5 -29.5q-47 0 -90 23.5t-66 71.5l18 -5q22 -34 55 -51t67 -17q63 0 94.5 61t31.5 188q0 83 -12.5 136t-37 77.5t-61.5 24.5q-43 0 -79 -37t-43 -107l-10 21q14 75 60.5 116.5t110.5 41.5z
M185 783v-742q-17 -6 -35 -15t-34 -19.5t-30 -22.5l-16 8q4 14 5.5 28t1.5 29v614q0 45 -15.5 66.5t-56.5 21.5v21q32 -3 62 -3q33 0 63 3.5t55 10.5z" />
    <glyph glyph-name="c" unicode="c" horiz-adv-x="489" 
d="M281 530q34 0 65 -8.5t54 -23.5q24 -15 36.5 -36t12.5 -46q0 -30 -17 -47t-44 -17t-45 15t-18 43q0 26 15 42.5t35 21.5q-9 15 -31.5 25.5t-48.5 10.5q-27 0 -51.5 -14t-43.5 -43t-30.5 -75t-11.5 -111q0 -84 19.5 -133.5t51.5 -70.5t69 -21q35 0 74 20.5t66 75.5l19 -7
q-11 -33 -34.5 -67t-61.5 -56t-93 -22q-63 0 -114 31t-81 90.5t-30 145.5q0 84 30.5 146.5t84.5 96.5t123 34z" />
    <glyph glyph-name="d" unicode="d" horiz-adv-x="587" 
d="M495 784v-675q0 -45 15.5 -66.5t56.5 -21.5v-21q-31 3 -62 3q-34 0 -63.5 -3t-54.5 -11v675q0 45 -15.5 66.5t-56.5 21.5v21q32 -3 62 -3q33 0 63 3.5t55 10.5zM270 530q44 0 80.5 -19t51.5 -64l-12 -11q-14 36 -41 52.5t-61 16.5q-57 0 -93 -60.5t-35 -186.5
q0 -83 14 -135.5t41.5 -77.5t66.5 -25t70.5 33t37.5 95l9 -21q-10 -68 -48 -104.5t-102 -36.5q-61 0 -107.5 29.5t-71.5 90t-25 152.5q0 91 30.5 151.5t81.5 90.5t113 30z" />
    <glyph glyph-name="e" unicode="e" 
d="M275 530q88 0 138 -53t50 -168h-345l-2 19h241q1 49 -8 90.5t-28 66.5t-50 25q-43 0 -74.5 -45.5t-38.5 -145.5l3 -5q-1 -14 -2 -30.5t-1 -32.5q0 -69 21 -116t55 -70.5t69 -23.5q40 0 77.5 20t64.5 74l20 -8q-12 -34 -37 -67t-64 -53.5t-91 -20.5q-70 0 -122 31.5
t-80 90.5t-28 140q0 89 29 152t81.5 96.5t121.5 33.5z" />
    <glyph glyph-name="f" unicode="f" horiz-adv-x="339" 
d="M280 782q30 0 53 -8t41 -21q14 -12 23 -29t9 -37q0 -25 -16.5 -42t-42.5 -17t-44 16t-18 44q0 23 12.5 38t34.5 21q-3 8 -14 13.5t-30 5.5q-22 0 -37.5 -9t-24.5 -24q-11 -19 -14.5 -56.5t-3.5 -114.5v-47h107v-20h-107v-392q0 -49 27.5 -65.5t74.5 -16.5v-21
q-24 1 -67.5 2.5t-92.5 1.5q-35 0 -69.5 -1.5t-52.5 -2.5v21q39 0 55.5 15t16.5 57v402h-76v20h76q0 89 12.5 136t42.5 81q21 22 53.5 36t71.5 14z" />
    <glyph glyph-name="g" unicode="g" horiz-adv-x="536" 
d="M215 -188q-56 0 -103.5 11t-76 33.5t-28.5 57.5q0 33 28 58t79 38l7 -16q-21 -9 -32.5 -29t-11.5 -44q0 -44 41 -68t108 -24q45 0 85.5 11.5t66 37.5t25.5 67q0 32 -23 53.5t-91 21.5h-70q-35 0 -65 6t-48.5 23.5t-18.5 49.5q0 36 30 68t101 63l12 -9
q-29 -16 -51.5 -32.5t-22.5 -40.5q0 -32 46 -32h119q69 0 119 -28.5t50 -94.5q0 -47 -30.5 -88.5t-91.5 -67t-153 -25.5zM221 213q-77 0 -130 38t-53 120q0 83 53 121t130 38q78 0 130.5 -38t52.5 -121q0 -82 -52.5 -120t-130.5 -38zM221 231q35 0 54 30t19 110t-19 110.5
t-54 30.5q-33 0 -53 -30.5t-20 -110.5t20 -110t53 -30zM369 446l-18 7q14 35 48 61t71 26q28 0 44.5 -15.5t16.5 -43.5q0 -31 -16.5 -44t-34.5 -13q-16 0 -29.5 11t-15.5 34.5t15 60.5l11 -4q-40 -16 -58.5 -33.5t-33.5 -46.5z" />
    <glyph glyph-name="h" unicode="h" horiz-adv-x="595" 
d="M200 783v-364q25 62 70.5 86.5t96.5 24.5q40 0 65.5 -10.5t42.5 -28.5q18 -19 26 -49t8 -81v-268q0 -42 16.5 -57t55.5 -15v-21q-18 1 -54 2.5t-70 1.5q-35 0 -68.5 -1.5t-49.5 -2.5v21q34 0 48 15t14 57v296q0 29 -5 52.5t-21.5 38t-48.5 14.5q-54 0 -90 -44.5
t-36 -114.5v-242q0 -42 14 -57t48 -15v-21q-17 1 -49.5 2.5t-66.5 1.5q-35 0 -71.5 -1.5t-54.5 -2.5v21q39 0 55.5 15t16.5 57v570q0 45 -15.5 66.5t-56.5 21.5v21q32 -3 62 -3q33 0 63 3.5t55 10.5z" />
    <glyph glyph-name="i" unicode="i" horiz-adv-x="300" 
d="M147 768q31 0 52 -19.5t21 -48.5t-21 -48.5t-52 -19.5t-52 19.5t-21 48.5t21 48.5t52 19.5zM207 527v-434q0 -42 16.5 -57t55.5 -15v-21q-17 1 -52.5 2.5t-72.5 1.5q-35 0 -72 -1.5t-55 -2.5v21q39 0 55.5 15t16.5 57v314q0 45 -15 66.5t-57 21.5v21q32 -3 62 -3
q34 0 63.5 3.5t54.5 10.5z" />
    <glyph glyph-name="j" unicode="j" horiz-adv-x="277" 
d="M-25 -188v16q58 2 88 48.5t30 130.5v400q0 45 -15 66.5t-57 21.5v21q32 -3 62 -3q33 0 63 3.5t55 10.5v-419q0 -78 -16.5 -138t-55.5 -99q-25 -26 -63.5 -42.5t-90.5 -16.5zM138 768q31 0 52 -19.5t21 -48.5t-21 -48.5t-52 -19.5t-52 19.5t-21 48.5t21 48.5t52 19.5z" />
    <glyph glyph-name="k" unicode="k" horiz-adv-x="562" 
d="M200 784v-691q0 -42 14.5 -57t49.5 -15v-21q-17 1 -50.5 2.5t-67.5 1.5q-35 0 -71.5 -1.5t-54.5 -2.5v21q39 0 55.5 15t16.5 57v571q0 45 -15.5 66.5t-56.5 21.5v21q32 -3 62 -3q33 0 63 3.5t55 10.5zM520 516v-20q-27 -4 -52 -18t-49 -39l-120 -126l13 25l181 -265
q15 -21 29 -34.5t35 -17.5v-21q-13 1 -38.5 2.5t-50.5 1.5q-33 0 -67 -1.5t-50 -2.5v21q20 0 27.5 10t-2.5 24l-110 172q-17 24 -31 31t-40 8v20q29 3 47.5 11t34.5 26l75 76q32 32 32 53.5t-20.5 32t-54.5 11.5v20q27 -1 59.5 -2.5t54.5 -1.5q18 0 36.5 0.5t34.5 1.5t26 2z
" />
    <glyph glyph-name="l" unicode="l" horiz-adv-x="294" 
d="M201 784v-691q0 -42 16.5 -57t55.5 -15v-21q-17 1 -53 2.5t-72 1.5t-72.5 -1.5t-54.5 -2.5v21q39 0 55.5 15t16.5 57v571q0 45 -15 66.5t-57 21.5v21q32 -3 62 -3q33 0 63 3.5t55 10.5z" />
    <glyph glyph-name="m" unicode="m" horiz-adv-x="894" 
d="M368 530q38 0 64 -10.5t42 -28.5q18 -19 25 -50.5t7 -79.5v-268q0 -42 16 -57t54 -15v-21q-17 1 -52.5 2.5t-69.5 1.5t-66.5 -1.5t-49.5 -2.5v21q33 0 46.5 15t13.5 57v296q0 29 -4 52.5t-18.5 38t-45.5 14.5q-35 0 -62.5 -21t-44 -57.5t-16.5 -81.5v-241q0 -42 14 -57
t46 -15v-21q-16 1 -48 2.5t-66 1.5t-71 -1.5t-55 -2.5v21q39 0 55.5 15t16.5 57v314q0 45 -15 66.5t-57 21.5v21q32 -3 62 -3q34 0 63.5 3.5t54.5 10.5v-109q26 60 69.5 86t91.5 26zM669 530q38 0 64 -10.5t42 -28.5q18 -19 25 -50.5t7 -79.5v-268q0 -42 16.5 -57t55.5 -15
v-21q-17 1 -53 2.5t-71 1.5q-34 0 -66.5 -1.5t-49.5 -2.5v21q33 0 46.5 15t13.5 57v296q0 29 -4 52.5t-19 38t-47 14.5q-52 0 -87.5 -46.5t-35.5 -114.5l-4 83q27 66 72.5 90t94.5 24z" />
    <glyph glyph-name="n" unicode="n" horiz-adv-x="603" 
d="M375 530q40 0 65.5 -10.5t42.5 -28.5q18 -19 25.5 -49t7.5 -81v-268q0 -42 16.5 -57t55.5 -15v-21q-17 1 -53 2.5t-71 1.5q-34 0 -67.5 -1.5t-50.5 -2.5v21q34 0 48 15t14 57v296q0 29 -5 52.5t-21 38t-48 14.5q-56 0 -91.5 -46t-35.5 -114v-241q0 -42 14.5 -57t47.5 -15
v-21q-16 1 -48.5 2.5t-67.5 1.5q-34 0 -71 -1.5t-55 -2.5v21q39 0 55.5 15t16.5 57v314q0 45 -15 66.5t-57 21.5v21q32 -3 62 -3q34 0 63.5 3.5t54.5 10.5v-109q26 62 71.5 87t96.5 25z" />
    <glyph glyph-name="o" unicode="o" horiz-adv-x="554" 
d="M277 530q67 0 119 -28t83 -88t31 -157t-31 -156.5t-83 -87t-119 -27.5q-66 0 -119 27.5t-83.5 87t-30.5 156.5t30.5 157t83.5 88t119 28zM277 510q-52 0 -85 -59.5t-33 -193.5t33 -192.5t85 -58.5q51 0 84.5 58.5t33.5 192.5t-33.5 193.5t-84.5 59.5z" />
    <glyph glyph-name="p" unicode="p" horiz-adv-x="587" 
d="M201 527v-613q0 -44 25 -59t69 -15v-21q-23 1 -64 2.5t-88 1.5q-33 0 -65 -1.5t-49 -2.5v21q35 0 49.5 13.5t14.5 50.5v503q0 45 -15 66.5t-57 21.5v21q32 -3 62 -3q33 0 63 3.5t55 10.5zM360 530q78 0 130.5 -63t52.5 -186q0 -80 -25 -147.5t-75.5 -107.5t-129.5 -40
q-44 0 -77.5 19t-47.5 48l10 14q13 -25 36.5 -41t58.5 -16q52 0 81.5 33.5t41.5 91t12 130.5q0 82 -12 132.5t-36 74t-58 23.5q-45 0 -81.5 -36t-44.5 -108l-10 21q13 75 60.5 116.5t113.5 41.5z" />
    <glyph glyph-name="q" unicode="q" horiz-adv-x="570" 
d="M259 530q57 0 94 -22t59 -74l-18 6q-18 35 -48.5 51t-68.5 16q-56 0 -87 -61t-31 -188q0 -82 14.5 -135t42.5 -78t67 -25t71.5 37t36.5 107l10 -21q-10 -75 -51 -116t-101 -41q-57 0 -103.5 29.5t-74 90t-27.5 152.5q0 91 28 151.5t77 90.5t110 30zM484 532l17 -8
q-4 -13 -5.5 -27.5t-1.5 -29.5v-563q0 -37 14.5 -50.5t49.5 -13.5v-21q-17 1 -48.5 2.5t-65.5 1.5q-46 0 -87.5 -1.5t-64.5 -2.5v21q44 0 69 15t25 59v548q18 8 35 19t33.5 24t29.5 27z" />
    <glyph glyph-name="r" unicode="r" horiz-adv-x="452" 
d="M349 530q29 0 49.5 -12t31 -30.5t10.5 -41.5q0 -29 -17.5 -49.5t-46.5 -20.5q-25 0 -42.5 15t-17.5 41q0 22 11.5 37.5t26.5 24.5q-10 8 -24 7q-36 -2 -63.5 -29.5t-43.5 -66.5t-16 -72v-230q0 -49 27 -65.5t75 -16.5v-21q-23 1 -65.5 2.5t-89.5 1.5q-36 0 -72 -1.5
t-55 -2.5v21q39 0 55.5 15t16.5 57v314q0 45 -15 66.5t-57 21.5v21q32 -3 62 -3q34 0 63.5 3.5t54.5 10.5v-115q12 29 32 56t48 44.5t62 17.5z" />
    <glyph glyph-name="s" unicode="s" horiz-adv-x="452" 
d="M213 530q40 0 69.5 -12.5t42.5 -22.5q33 -26 41 34h22q-2 -28 -3 -67.5t-1 -104.5h-22q-6 37 -20.5 72t-42 58t-71.5 23q-33 0 -55 -18.5t-22 -54.5q0 -30 18 -52t46.5 -41l61.5 -41q55 -37 93 -75t38 -99q0 -46 -24.5 -78t-64.5 -48.5t-88 -16.5q-24 0 -45 4.5t-39 11.5
q-11 6 -21.5 12.5t-20.5 12.5q-10 7 -18 -2t-12 -32h-22q2 32 3 78t1 122h22q7 -55 21 -97t41.5 -65.5t75.5 -23.5q28 0 55 19.5t27 67.5q0 44 -30.5 72.5t-78.5 60.5q-34 24 -64.5 47.5t-49.5 53t-19 70.5q0 45 21.5 74t57.5 43.5t77 14.5z" />
    <glyph glyph-name="t" unicode="t" horiz-adv-x="353" 
d="M202 681v-166h138v-20h-138v-393q0 -41 15 -58t43 -17q26 0 46.5 21t35.5 71l19 -7q-12 -53 -42.5 -89.5t-89.5 -36.5q-34 0 -57 8.5t-40 24.5q-22 23 -30 55t-8 85v336h-92v20h92v146q31 1 58 5.5t50 14.5z" />
    <glyph glyph-name="u" unicode="u" horiz-adv-x="589" 
d="M496 527v-419q0 -45 15.5 -66.5t56.5 -21.5v-21q-31 3 -62 3q-33 0 -63 -3t-55 -11v109q-25 -60 -69.5 -85.5t-93.5 -25.5q-37 0 -63 10.5t-43 27.5q-18 20 -25 51.5t-7 79.5v252q0 45 -15 66.5t-57 21.5v21q32 -3 62 -3q33 0 63 3.5t55 10.5v-400q0 -29 4 -53t19 -38
t48 -14q52 0 87 46t35 113v226q0 45 -15 66.5t-57 21.5v21q32 -3 62 -3q33 0 63 3.5t55 10.5z" />
    <glyph glyph-name="v" unicode="v" horiz-adv-x="495" 
d="M493 516v-20q-19 -3 -35.5 -19.5t-30.5 -56.5l-158 -424h-16.5h-16.5l-182 443q-16 39 -31.5 47.5t-26.5 8.5v21q24 -2 49.5 -3.5t56.5 -1.5t65.5 1.5t64.5 3.5v-21q-24 0 -42.5 -3t-24 -17.5t6.5 -49.5l123 -310l-8 -8l103 273q22 60 6 86t-67 30v20q25 -1 45.5 -2
t42.5 -1t41.5 1t34.5 2z" />
    <glyph glyph-name="w" unicode="w" horiz-adv-x="776" 
d="M234 516v-21q-24 0 -42.5 -3.5t-24 -18.5t7.5 -53l101 -298l-9 -4l137 401l20 -9l-173 -514h-16h-17l-162 443q-16 40 -31.5 48t-26.5 8v21q24 -3 49.5 -4.5t56.5 -1.5t65.5 2t64.5 4zM774 516v-20q-19 -3 -36 -19t-30 -57l-141 -424h-16.5h-16.5l-155 401l25 122
q10 -1 19.5 -0.5t19.5 0.5l150 -410l-9 -1l88 272q20 60 3.5 86t-68.5 30v20q18 -1 32.5 -1.5l29 -1t29.5 -0.5q22 0 41.5 1t34.5 2z" />
    <glyph glyph-name="x" unicode="x" horiz-adv-x="525" 
d="M223 516v-21q-19 0 -31 -9t-2 -25l266 -390q15 -23 28.5 -34.5t31.5 -15.5v-21q-12 1 -35.5 2.5t-47.5 1.5q-33 0 -69 -1.5t-53 -2.5v21q20 0 32 9.5t1 24.5l-266 390q-19 27 -30.5 37.5t-29.5 12.5v21q13 -1 38 -2.5t49 -1.5q33 0 67.5 1.5t50.5 2.5zM234 254l4 -13
l4 -13l-69 -89q-27 -35 -29 -61.5t18 -40.5t55 -17v-20q-18 1 -41 1.5t-45 1t-38 0.5q-43 0 -74 -3v20q20 4 40.5 20.5t48.5 51.5zM493 516v-20q-20 -4 -42.5 -22t-46.5 -51l-114 -152l-3.5 12.5l-3.5 12.5l69 95q35 49 30.5 75t-57.5 30v20q27 -1 48.5 -2t45.5 -1
q44 0 74 3z" />
    <glyph glyph-name="y" unicode="y" horiz-adv-x="509" 
d="M500 516v-20q-19 -3 -35 -19.5t-31 -56.5l-156 -418l-24 -24l-195 461q-19 39 -36.5 47.5t-29.5 8.5v21q25 -3 53 -4.5t58 -1.5q34 0 68.5 2t64.5 4v-21q-24 0 -42.5 -3.5t-24 -19t9.5 -52.5l124 -305l-7 -3l101 268q22 60 5.5 86t-67.5 30v20q25 -1 45.5 -2t42.5 -1
t41.5 1t34.5 2zM278 2l-36 -94q-19 -50 -43 -70q-15 -14 -37 -20t-44 -6q-21 0 -39.5 7.5t-30.5 22.5t-12 37q0 26 17 42t45 16q25 0 42 -13.5t17 -39.5q0 -18 -9.5 -31t-24.5 -20q3 -1 6 -1h5q28 0 50 18.5t37 59.5l36 96z" />
    <glyph glyph-name="z" unicode="z" horiz-adv-x="475" 
d="M441 521l-276 -506h90q40 0 71 16t51 53t24 98h23q0 -67 1 -112t3 -74q-45 2 -93 3t-95 1q-51 0 -103.5 -1.5t-100.5 -3.5l276 506h-92q-43 0 -74 -16.5t-48.5 -53t-22.5 -97.5h-22q0 68 -1 112t-3 74q44 -2 92 -3t96 -1q50 0 102.5 1.5t101.5 3.5z" />
    <glyph glyph-name="braceleft" unicode="{" horiz-adv-x="314" 
d="M291 782v-19q-32 -1 -49 -14.5t-23 -58t-6 -139.5q0 -90 -23 -141t-59.5 -75.5t-78.5 -35.5q42 -11 78.5 -36t59.5 -75.5t23 -140.5q0 -74 3.5 -117t11.5 -64.5t23.5 -28t39.5 -6.5v-19q-69 0 -110 20.5t-58.5 71.5t-17.5 143q0 94 -6.5 145.5t-22.5 73.5t-47 24h-5v18h5
q31 2 47 23.5t22.5 73.5t6.5 146q0 88 17.5 138.5t58.5 71.5t110 21z" />
    <glyph glyph-name="bar" unicode="|" horiz-adv-x="232" 
d="M144 858v-1053h-56v1053h56z" />
    <glyph glyph-name="braceright" unicode="}" horiz-adv-x="314" 
d="M23 782v-19q32 -1 49 -14.5t23 -58t6 -139.5q0 -90 23 -141t59.5 -75.5t78.5 -35.5q-42 -11 -78.5 -36t-59.5 -75.5t-23 -140.5q0 -74 -3.5 -117t-11.5 -64.5t-23.5 -28t-39.5 -6.5v-19q69 0 110 20.5t58.5 71.5t17.5 143q0 94 6.5 145.5t22.5 73.5t47 24h5v18h-5
q-31 2 -47 23.5t-22.5 73.5t-6.5 146q0 88 -17.5 138.5t-58.5 71.5t-110 21z" />
    <glyph glyph-name="asciitilde" unicode="~" horiz-adv-x="655" 
d="M214 373q39 0 71 -12t62.5 -28.5t62 -28.5t66.5 -12q32 0 56.5 14t37.5 48l18 -5q-7 -56 -49 -89t-97 -33q-38 0 -70.5 12t-62.5 28.5t-61 28.5t-68 12q-31 0 -55 -14t-39 -48l-17 5q7 57 49 89.5t96 32.5z" />
    <glyph glyph-name="uni00A0" unicode="&#xa0;" horiz-adv-x="244" 
 />
    <glyph glyph-name="exclamdown" unicode="&#xa1;" horiz-adv-x="258" 
d="M138 318q0 -65 7.5 -129t17 -121.5t17 -105.5t7.5 -81q0 -36 -16.5 -52.5t-41.5 -16.5t-41.5 16.5t-16.5 52.5q0 33 7 81t16.5 105.5t17 121.5t8.5 129h18zM130 530q30 0 50.5 -19.5t20.5 -49.5q0 -29 -20.5 -48.5t-50.5 -19.5q-31 0 -51 19.5t-20 48.5q0 30 20 49.5
t51 19.5z" />
    <glyph glyph-name="cent" unicode="&#xa2;" horiz-adv-x="482" 
d="M246 -181v202h22v-202h-22zM246 520v188h22v-188h-22zM271 530q35 0 65.5 -8.5t53.5 -23.5q24 -15 37 -36t13 -46q0 -30 -17.5 -47t-44.5 -17q-26 0 -44 15t-18 43q0 26 15 42.5t35 21.5q-9 15 -31.5 25.5t-48.5 10.5q-27 0 -51.5 -14t-44 -43t-31 -75t-11.5 -111
q0 -84 20 -133.5t52 -70.5t69 -21q35 0 73.5 20.5t66.5 75.5l18 -7q-10 -33 -33.5 -67t-61.5 -56t-94 -22q-63 0 -113.5 31t-81 90.5t-30.5 145.5q0 84 30.5 146.5t84.5 96.5t123 34z" />
    <glyph glyph-name="sterling" unicode="&#xa3;" horiz-adv-x="621" 
d="M368 736q33 0 57.5 -7.5t41.5 -18.5q17 -12 26.5 -28.5t9.5 -33.5q0 -25 -16 -41t-39 -16q-22 0 -38.5 14.5t-16.5 37.5q0 41 40 56q-4 9 -22.5 15t-38.5 6q-45 0 -70.5 -19.5t-37 -54.5t-14.5 -81.5t-3 -99.5v-141q0 -51 -11 -90.5t-30 -75t-44 -75.5q29 19 54.5 27
t52.5 8q37 0 68.5 -10.5t63.5 -20.5t70 -10q35 0 51.5 17.5t16.5 39.5q0 34 -22.5 54.5t-58.5 27.5l4 16q48 -7 88 -39t40 -88q0 -48 -31 -83.5t-92 -35.5q-41 0 -76 15.5t-68 35t-66 29.5q-10 4 -22.5 6t-26.5 2q-28 0 -55 -10q-23 -38 -49.5 -58t-51.5 -20q-7 0 -12.5 2
t-5.5 10q0 10 12.5 24t33 27.5t43.5 20.5q6 23 9 48t3.5 58.5t0.5 81.5v181q0 82 20.5 149.5t71.5 107.5t140 40zM384 317v-20h-325v20h325zM384 417v-20h-325v20h325z" />
    <glyph glyph-name="currency" unicode="&#xa4;" horiz-adv-x="562" 
d="M445 511l47 -47l-50 -50q18 -24 28 -53t10 -61t-10 -61t-28 -53l49 -48l-47 -48l-49 49q-24 -17 -53 -27t-61 -10q-65 0 -114 36l-48 -48l-48 48l48 48q-17 23 -27 52.5t-10 61.5q0 63 38 115l-49 49l47 47l49 -49q24 18 53 27.5t61 9.5q33 0 61.5 -10t52.5 -28zM282 444
q-38 0 -69.5 -20t-50 -52.5t-18.5 -71.5t18.5 -71.5t50 -52t69.5 -19.5t69 19.5t49.5 52t18.5 71.5t-18.5 71.5t-49.5 52.5t-69 20z" />
    <glyph glyph-name="yen" unicode="&#xa5;" horiz-adv-x="657" 
d="M534 298v-20h-385v20h385zM534 198v-20h-385v20h385zM628 708v-20q-20 -5 -40 -27.5t-45 -70.5l-198 -391h-27l-234 432q-19 36 -33 46t-25 10v21q23 -1 46.5 -2t51.5 -1q37 0 79 0.5t77 2.5v-21q-25 0 -44 -5t-26 -19.5t7 -41.5l166 -317l-16 -17l123 245
q31 61 31.5 94.5t-22.5 47t-64 14.5v20l60 -2t58 -1q25 0 42.5 1t32.5 2zM399 322v-216q0 -36 6 -54t23 -24t50 -8v-20q-24 2 -61.5 2.5t-74.5 0.5q-42 0 -78.5 -0.5t-58.5 -2.5v20q33 2 50 8t23 24t6 54v205l65 -62z" />
    <glyph glyph-name="brokenbar" unicode="&#xa6;" horiz-adv-x="235" 
d="M145 326v-521h-56v521h56zM145 858v-474h-56v474h56z" />
    <glyph glyph-name="section" unicode="&#xa7;" horiz-adv-x="532" 
d="M278 782q35 0 59 -6t40 -13q34 -15 53.5 -38.5t19.5 -52.5q0 -24 -15.5 -41.5t-44.5 -17.5q-25 0 -43.5 16t-18.5 42q0 20 11.5 37t34.5 23q-9 19 -38.5 25.5t-52.5 6.5q-40 0 -64 -15t-34 -36.5t-10 -44.5q0 -40 24 -70.5t61 -57.5t79 -56q50 -34 85 -63.5t52.5 -61.5
t17.5 -74q0 -51 -30.5 -96t-108.5 -83l-9 10q40 22 58 50t18 61t-19 60t-52.5 53.5t-78.5 56.5q-55 38 -97.5 70.5t-66 69.5t-23.5 86q0 48 24 84t68 56t101 20zM177 491l10 -12q-39 -21 -57.5 -49.5t-18.5 -61.5q0 -32 19 -59.5t53 -54t78 -56.5q56 -37 98 -70t65.5 -70
t23.5 -86q0 -47 -24 -83.5t-67 -56.5t-102 -20q-34 0 -58.5 6t-40.5 13q-34 15 -53.5 38.5t-19.5 52.5q0 24 16 41.5t44 17.5q27 0 44.5 -16t17.5 -42q0 -20 -11 -36.5t-35 -23.5q6 -12 22 -19t35.5 -10t34.5 -3q40 0 63 15t33.5 37t10.5 44q0 40 -23 70.5t-61 57.5t-80 56
q-50 34 -84.5 63.5t-52.5 62t-18 73.5q0 52 29.5 97.5t108.5 83.5z" />
    <glyph glyph-name="dieresis" unicode="&#xa8;" horiz-adv-x="445" 
d="M331 749q25 0 44 -19.5t19 -44.5q0 -26 -19 -45t-44 -19q-27 0 -45.5 19t-18.5 45q0 25 18.5 44.5t45.5 19.5zM113 749q26 0 45 -19.5t19 -44.5q0 -26 -19 -45t-45 -19t-44.5 19t-18.5 45q0 25 18.5 44.5t44.5 19.5z" />
    <glyph glyph-name="copyright" unicode="&#xa9;" horiz-adv-x="890" 
d="M445 782q83 0 155 -31t126.5 -85.5t85.5 -126.5t31 -155q0 -82 -31 -154.5t-85.5 -127t-126.5 -85.5t-155 -31q-82 0 -154.5 31t-127 85.5t-85.5 127t-31 154.5q0 83 31 155t85.5 126.5t127 85.5t154.5 31zM464 656q36 0 68 -9t54 -25q21 -13 33.5 -33.5t12.5 -46.5
q0 -29 -17.5 -46.5t-44.5 -17.5q-26 0 -44 16.5t-18 44.5q0 25 14 40.5t36 20.5q-10 16 -33.5 26.5t-50.5 10.5q-19 0 -38 -7.5t-37 -24.5q-17 -16 -30.5 -43t-21 -69t-7.5 -101q0 -86 20 -136t51.5 -71.5t67.5 -21.5q25 0 50 9t49 31t42 62l19 -7q-10 -34 -34 -68
t-62 -55.5t-92 -21.5q-63 0 -114.5 30.5t-81.5 90t-30 145.5q0 85 30.5 147t84.5 96t124 34zM445 750q-74 0 -139 -28.5t-114 -79t-77 -116.5t-28 -142t28 -142t77 -116.5t114 -79t139 -28.5t139 28.5t114 79t77 116.5t28 142t-28 142t-77 116.5t-114 79t-139 28.5z" />
    <glyph glyph-name="ordfeminine" unicode="&#xaa;" horiz-adv-x="469" 
d="M230 722q70 0 101 -30t31 -97v-165q0 -19 5.5 -26t17.5 -7q22 0 37 15l11 -15q-17 -16 -41 -26.5t-57 -10.5q-38 0 -52.5 12.5t-16.5 34.5q-25 -25 -55.5 -36t-62.5 -11q-36 0 -65.5 19t-29.5 59q0 43 36.5 65.5t96.5 43.5q28 10 54 23.5t26 32.5v18q0 45 -17.5 63.5
t-48.5 18.5q-15 0 -33.5 -4.5t-33.5 -14.5q16 -5 26.5 -18.5t10.5 -31.5q0 -22 -16 -35.5t-36 -13.5q-24 0 -39 13.5t-15 35.5q0 23 14.5 39t35.5 26q24 11 51.5 17t64.5 6zM266 572q-4 -8 -14 -15.5t-37 -21.5q-32 -16 -47.5 -34.5t-15.5 -43.5q0 -26 14 -42t36 -16
q34 0 64 28v145z" />
    <glyph glyph-name="guillemotleft" unicode="&#xab;" horiz-adv-x="524" 
d="M275 530l17 -6q-21 -61 -47 -109.5t-54.5 -86.5t-60.5 -67q32 -30 60.5 -69t54.5 -89t47 -111l-17 -6q-47 88 -105 155.5t-140 113.5v5q82 47 140 114.5t105 155.5zM458 522l17 -6q-21 -59 -45.5 -106.5t-52 -84t-58.5 -64.5q31 -29 58.5 -66.5t52 -86t45.5 -108.5
l-17 -6q-45 85 -101.5 150.5t-135.5 110.5v5q79 45 135.5 111t101.5 151z" />
    <glyph glyph-name="logicalnot" unicode="&#xac;" horiz-adv-x="651" 
d="M580 370v-205h-36v175h-465v30h501z" />
    <glyph glyph-name="uni00AD" unicode="&#xad;" horiz-adv-x="493" 
 />
    <glyph glyph-name="registered" unicode="&#xae;" horiz-adv-x="674" 
d="M337 782q77 0 140.5 -37.5t101 -101t37.5 -140.5t-37.5 -140.5t-101 -101t-140.5 -37.5t-140.5 37.5t-101 101t-37.5 140.5t37.5 140.5t101 101t140.5 37.5zM269 521q34 0 48.5 -1t22 -2.5t18.5 -3.5q49 -4 67 -18.5t23 -40.5l13 -60q3 -12 5.5 -21t11.5 -9q8 0 12 8
l9 -8q-7 -11 -18 -15.5t-29 -4.5q-28 0 -41.5 10t-17.5 31l-17 74q-3 20 -11.5 30t-29 13t-64.5 3zM337 750q-66 0 -119.5 -33.5t-85.5 -89.5t-32 -124q0 -67 32 -123.5t85.5 -90t119.5 -33.5t120 33.5t85.5 90t31.5 123.5q0 68 -31.5 124t-85.5 89.5t-120 33.5zM347 676
q59 0 88.5 -20.5t29.5 -58.5q0 -19 -11.5 -38.5t-41.5 -33t-88 -16.5l-60 -3v8v8h53q48 0 63 18.5t15 47.5q0 37 -14.5 55t-49.5 18q-21 0 -27.5 -6.5t-6.5 -24.5v-226q0 -23 4.5 -29t18.5 -8v-15q-11 0 -25.5 0.5t-29.5 0.5q-17 0 -32 -0.5t-25 -0.5v15q14 2 18.5 8t4.5 29
v219q0 24 -4.5 30.5t-18.5 7.5v15q10 -1 24.5 -1h28.5q28 0 52 0.5t34 0.5z" />
    <glyph glyph-name="macron" unicode="&#xaf;" horiz-adv-x="420" 
d="M370 712v-25h-320v25h320z" />
    <glyph glyph-name="degree" unicode="&#xb0;" horiz-adv-x="326" 
d="M162 820q49 0 85.5 -32t36.5 -88t-36.5 -88.5t-85.5 -32.5q-48 0 -84.5 32.5t-36.5 88.5t36.5 88t84.5 32zM162 803q-34 0 -65 -26.5t-31 -77.5q0 -52 31 -77.5t65 -25.5t65.5 25.5t31.5 77.5q0 51 -31.5 77.5t-65.5 26.5z" />
    <glyph glyph-name="plusminus" unicode="&#xb1;" horiz-adv-x="591" 
d="M550 30v-30h-501v30h501zM310 606v-236h232v-30h-232v-235h-36v235h-233v30h233v236h36z" />
    <glyph glyph-name="uni00B2" unicode="&#xb2;" horiz-adv-x="342" 
d="M176 755q45 0 74 -18.5t29 -56.5q0 -30 -17 -53.5t-42.5 -44t-53.5 -40.5t-50 -41h133q24 0 32 9t15 25l17 -3q-7 -28 -10.5 -52t-4.5 -45q-9 2 -18.5 2.5t-19.5 0.5h-228v20q22 19 51.5 40.5t57.5 47t46.5 55.5t18.5 65q0 28 -16.5 40.5t-46.5 12.5q-59 0 -93 -52l-15 8
q18 31 52 55.5t89 24.5z" />
    <glyph glyph-name="uni00B3" unicode="&#xb3;" horiz-adv-x="326" 
d="M169 756q46 0 75.5 -19t29.5 -54q0 -34 -28 -58.5t-73 -35.5q49 0 85.5 -23t36.5 -67q0 -36 -23.5 -63.5t-62.5 -47t-86 -29.5t-94 -11v17q53 3 97 21t71 48t27 66q0 34 -18.5 55.5t-50.5 22.5q-11 -5 -19.5 -9.5t-16.5 -4.5q-16 0 -16 12q0 11 13 13t31 1q33 14 43.5 36
t10.5 38q0 25 -17.5 41t-48.5 16q-28 0 -52 -13.5t-41 -39.5l-15 8q17 31 51.5 55.5t90.5 24.5z" />
    <glyph glyph-name="acute" unicode="&#xb4;" horiz-adv-x="287" 
d="M222 814q13 -11 14.5 -29t-13.5 -38q-16 -20 -38 -38t-52.5 -43t-71.5 -67l-11 9q31 51 48 86.5t29 61.5t27 45q15 20 34.5 22.5t33.5 -9.5z" />
    <glyph glyph-name="paragraph" unicode="&#xb6;" horiz-adv-x="674" 
d="M402 709q65 0 121.5 -2.5t109.5 1.5v-19q-48 -2 -61.5 -18.5t-13.5 -49.5v-696q0 -36 6 -54t23 -24t50 -8v-20q-25 2 -64 2.5t-79 0.5q-46 0 -86.5 -0.5t-65.5 -2.5v20q63 2 82 22.5t19 73.5v52q-150 0 -240 49t-129.5 133.5t-39.5 190.5q0 102 44 181t126 123.5
t198 44.5zM444 656q-3 0 -11 -39.5t-15.5 -105t-8.5 -143.5q-79 0 -143.5 -3.5t-103.5 -7.5t-39 -6t39 -6t103.5 -7t143.5 -3q1 -80 8.5 -145.5t15.5 -103.5t11 -38v32.5v86.5v118.5v129.5v119v87.5v34.5z" />
    <glyph glyph-name="periodcentered" unicode="&#xb7;" horiz-adv-x="269" 
d="M134 341q30 0 50.5 -19.5t20.5 -49.5q0 -29 -20.5 -48.5t-50.5 -19.5t-50.5 19.5t-20.5 48.5q0 30 20.5 49.5t50.5 19.5z" />
    <glyph glyph-name="cedilla" unicode="&#xb8;" horiz-adv-x="306" 
d="M154 5l-25 -75q14 4 30 6.5t33 2.5q30 0 47 -13t17 -36q0 -28 -19 -45t-47 -25t-56 -8t-49 3.5t-35 7.5l4 18q5 -1 16 -2t24 -1q28 0 56 9t28 35q0 27 -39 27q-8 0 -21.5 -1.5t-24.5 -5.5l34 103h27z" />
    <glyph glyph-name="uni00B9" unicode="&#xb9;" horiz-adv-x="270" 
d="M186 753v-246q0 -29 15.5 -39t51.5 -10v-21q-15 1 -43.5 1.5t-59.5 0.5q-33 0 -63.5 -0.5t-47.5 -1.5v21q35 0 54.5 10t19.5 39v129q0 44 -17 54.5t-64 10.5v21q54 1 89.5 8t64.5 23z" />
    <glyph glyph-name="ordmasculine" unicode="&#xba;" horiz-adv-x="459" 
d="M230 722q47 0 88.5 -20.5t67.5 -60.5t26 -100q0 -59 -26 -99.5t-67.5 -61t-88.5 -20.5q-48 0 -90 20.5t-68 61t-26 99.5q0 60 26 100t68 60.5t90 20.5zM229 704q-34 0 -58.5 -38t-24.5 -125t24.5 -125t58.5 -38t59 38t25 125t-25 125t-59 38z" />
    <glyph glyph-name="guillemotright" unicode="&#xbb;" horiz-adv-x="524" 
d="M249 529q47 -88 106 -155.5t139 -114.5v-4q-80 -47 -139 -114.5t-106 -155.5l-16 6q22 61 47 109.5t54 86.5t61 67q-32 30 -61 69t-54 89.5t-47 110.5zM66 521q45 -85 102 -150.5t135 -111.5v-4q-78 -45 -135 -111t-102 -151l-16 6q21 60 45.5 107t52 83.5t57.5 64.5
q-30 29 -57.5 66.5t-52 86.5t-45.5 108z" />
    <glyph glyph-name="onequarter" unicode="&#xbc;" horiz-adv-x="698" 
d="M654 824l19 -13l-585 -866l-19 13zM202 753v-246q0 -29 15.5 -39t51.5 -10v-21q-15 1 -43.5 1.5t-59.5 0.5q-33 0 -63.5 -0.5t-47.5 -1.5v21q35 0 54.5 10t19.5 39v129q0 44 -17 54.5t-64 10.5v21q54 1 89.5 8t64.5 23zM532 306l8 -15l-214 -244l3 18h234q24 0 32 8.5
t15 25.5l17 -3q-4 -16 -7 -30t-4.5 -27t-2.5 -24q-9 2 -18.5 2.5t-19.5 0.5h-278v21zM553 306v-405h-61v347l40 58h21z" />
    <glyph glyph-name="onehalf" unicode="&#xbd;" horiz-adv-x="707" 
d="M638 824l19 -13l-585 -866l-19 13zM208 753v-246q0 -29 15.5 -39t51.5 -10v-21q-15 1 -43.5 1.5t-59.5 0.5q-33 0 -63.5 -0.5t-47.5 -1.5v21q35 0 54.5 10t19.5 39v129q0 44 -17 54.5t-64 10.5v21q54 1 89.5 8t64.5 23zM532 318q45 0 74 -18.5t29 -56.5q0 -30 -17 -53.5
t-42.5 -44t-53.5 -40.5t-50 -41h133q24 0 32 9t15 25l17 -3q-7 -28 -10.5 -52t-4.5 -45q-9 2 -18.5 2.5t-19.5 0.5h-228v20q22 19 51.5 40.5t57.5 47t46.5 55.5t18.5 65q0 28 -16.5 40.5t-46.5 12.5q-59 0 -93 -52l-15 8q18 31 52 55.5t89 24.5z" />
    <glyph glyph-name="threequarters" unicode="&#xbe;" horiz-adv-x="747" 
d="M699 824l19 -13l-585 -866l-19 13zM191 756q46 0 75.5 -19t29.5 -54q0 -34 -28 -58.5t-73 -35.5q49 0 85.5 -23t36.5 -67q0 -36 -23.5 -63.5t-62.5 -47t-86 -29.5t-94 -11v17q53 3 97 21t71 48t27 66q0 34 -18.5 55.5t-50.5 22.5q-11 -5 -19.5 -9.5t-16.5 -4.5
q-16 0 -16 12q0 11 13 13t31 1q33 14 43.5 36t10.5 38q0 25 -17.5 41t-48.5 16q-28 0 -52 -13.5t-41 -39.5l-15 8q17 31 51.5 55.5t90.5 24.5zM578 306l8 -15l-214 -244l3 18h234q24 0 32 8.5t15 25.5l17 -3q-4 -16 -7 -30t-4.5 -27t-2.5 -24q-9 2 -18.5 2.5t-19.5 0.5h-278
v21zM599 306v-405h-61v347l40 58h21z" />
    <glyph glyph-name="questiondown" unicode="&#xbf;" horiz-adv-x="470" 
d="M285 321v-136q-62 -23 -94 -52t-43 -63t-11 -71q0 -88 37.5 -127.5t96.5 -39.5q25 0 52 5t43 20q-22 5 -34.5 19.5t-12.5 38.5q0 28 18.5 44t44.5 16t42.5 -17t16.5 -41q0 -25 -13.5 -43t-36.5 -32q-21 -12 -55.5 -21t-85.5 -9q-98 0 -159 46t-61 126t65.5 133.5
t169.5 76.5v127h20zM274 531q31 0 51 -19.5t20 -49.5q0 -29 -20 -48.5t-51 -19.5q-30 0 -50.5 19.5t-20.5 48.5q0 30 20.5 49.5t50.5 19.5z" />
    <glyph glyph-name="Agrave" unicode="&#xc0;" horiz-adv-x="642" 
d="M338 712l244 -628q14 -37 32.5 -50t34.5 -14v-20q-24 2 -56.5 2.5t-65.5 0.5q-42 0 -78 -0.5t-58 -2.5v20q51 2 64.5 17.5t-6.5 66.5l-180 486l16 18l-166 -434q-24 -60 -23 -93t23.5 -46.5t64.5 -14.5v-20q-30 2 -60.5 2.5t-57.5 0.5q-24 0 -42.5 -0.5t-33.5 -2.5v20
q21 5 42 25t40 68l232 599h17h17zM443 288v-20h-298l10 20h288zM221 929q22 -13 42 -33t49 -47.5t75 -63.5l-7 -13q-52 24 -90 37t-64.5 22.5t-48.5 21.5q-22 14 -27 31.5t3 32.5q10 16 29 20t39 -8z" />
    <glyph glyph-name="Aacute" unicode="&#xc1;" horiz-adv-x="642" 
d="M338 712l244 -628q14 -37 32.5 -50t34.5 -14v-20q-24 2 -56.5 2.5t-65.5 0.5q-42 0 -78 -0.5t-58 -2.5v20q51 2 64.5 17.5t-6.5 66.5l-180 486l16 18l-166 -434q-24 -60 -23 -93t23.5 -46.5t64.5 -14.5v-20q-30 2 -60.5 2.5t-57.5 0.5q-24 0 -42.5 -0.5t-33.5 -2.5v20
q21 5 42 25t40 68l232 599h17h17zM443 288v-20h-298l10 20h288zM421 929q20 12 39.5 8t28.5 -20q8 -15 3 -32.5t-27 -31.5q-21 -12 -48.5 -21.5t-64.5 -22.5t-90 -37l-7 13q47 36 75.5 63.5t48.5 47.5t42 33z" />
    <glyph glyph-name="Acircumflex" unicode="&#xc2;" horiz-adv-x="642" 
d="M338 712l244 -628q14 -37 32.5 -50t34.5 -14v-20q-24 2 -56.5 2.5t-65.5 0.5q-42 0 -78 -0.5t-58 -2.5v20q51 2 64.5 17.5t-6.5 66.5l-180 486l16 18l-166 -434q-24 -60 -23 -93t23.5 -46.5t64.5 -14.5v-20q-30 2 -60.5 2.5t-57.5 0.5q-24 0 -42.5 -0.5t-33.5 -2.5v20
q21 5 42 25t40 68l232 599h17h17zM443 288v-20h-298l10 20h288zM329 924q25 -40 76.5 -77.5t116.5 -62.5l-5 -14q-62 12 -121.5 31t-95.5 37q-29 -18 -78 -37t-99 -31l-5 14q65 25 116 62.5t77 77.5h18z" />
    <glyph glyph-name="Atilde" unicode="&#xc3;" horiz-adv-x="642" 
d="M338 712l244 -628q14 -37 32.5 -50t34.5 -14v-20q-24 2 -56.5 2.5t-65.5 0.5q-42 0 -78 -0.5t-58 -2.5v20q51 2 64.5 17.5t-6.5 66.5l-180 486l16 18l-166 -434q-24 -60 -23 -93t23.5 -46.5t64.5 -14.5v-20q-30 2 -60.5 2.5t-57.5 0.5q-24 0 -42.5 -0.5t-33.5 -2.5v20
q21 5 42 25t40 68l232 599h17h17zM443 288v-20h-298l10 20h288zM237 909q30 0 55 -11t47.5 -26t46 -26.5t50.5 -11.5q21 0 39 12.5t30 43.5l15 -4q-7 -56 -41.5 -85.5t-77.5 -29.5q-30 0 -55 11t-48 26t-46 26.5t-50 11.5q-22 0 -40 -12.5t-29 -43.5l-15 4q8 56 42 85.5
t77 29.5z" />
    <glyph glyph-name="Adieresis" unicode="&#xc4;" horiz-adv-x="642" 
d="M338 712l244 -628q14 -37 32.5 -50t34.5 -14v-20q-24 2 -56.5 2.5t-65.5 0.5q-42 0 -78 -0.5t-58 -2.5v20q51 2 64.5 17.5t-6.5 66.5l-180 486l16 18l-166 -434q-24 -60 -23 -93t23.5 -46.5t64.5 -14.5v-20q-30 2 -60.5 2.5t-57.5 0.5q-24 0 -42.5 -0.5t-33.5 -2.5v20
q21 5 42 25t40 68l232 599h17h17zM443 288v-20h-298l10 20h288zM431 898q25 0 44 -19.5t19 -44.5q0 -27 -19 -45.5t-44 -18.5q-27 0 -45.5 18.5t-18.5 45.5q0 25 18.5 44.5t45.5 19.5zM209 898q26 0 45 -19.5t19 -44.5q0 -27 -19 -45.5t-45 -18.5t-44.5 18.5t-18.5 45.5
q0 25 18.5 44.5t44.5 19.5z" />
    <glyph glyph-name="Aring" unicode="&#xc5;" horiz-adv-x="642" 
d="M338 712l244 -628q14 -37 32.5 -50t34.5 -14v-20q-24 2 -56.5 2.5t-65.5 0.5q-42 0 -78 -0.5t-58 -2.5v20q51 2 64.5 17.5t-6.5 66.5l-180 486l16 18l-166 -434q-24 -60 -23 -93t23.5 -46.5t64.5 -14.5v-20q-30 2 -60.5 2.5t-57.5 0.5q-24 0 -42.5 -0.5t-33.5 -2.5v20
q21 5 42 25t40 68l232 599h17h17zM443 288v-20h-298l10 20h288zM320 929q41 0 71 -25t30 -68q0 -44 -30 -69t-71 -25q-40 0 -70 25t-30 69q0 43 30 68t70 25zM320 908q-25 0 -48.5 -18.5t-23.5 -54.5t23.5 -54t48.5 -18q26 0 49.5 18t23.5 54t-23.5 54.5t-49.5 18.5z" />
    <glyph glyph-name="AE" unicode="&#xc6;" horiz-adv-x="866" 
d="M495 772l-399 -668q-28 -46 -14 -64t65 -20v-20q-15 2 -39.5 2.5t-51.5 0.5q-18 0 -36.5 -0.5t-30.5 -2.5v20q16 1 32 15t37 49l413 688h24zM799 708q-4 -37 -5.5 -71.5t-1.5 -52.5q0 -19 1 -36t2 -28h-23q-6 62 -17.5 98.5t-33.5 51.5t-61 15h-53q-33 0 -50.5 -5.5
t-23 -23t-5.5 -54.5v-496q0 -36 5.5 -54t23 -23.5t50.5 -5.5h65q44 0 67.5 17.5t35 58t17.5 109.5h23q-3 -29 -3 -76q0 -20 1 -56.5t6 -75.5q-47 2 -107 2.5t-106 0.5h-70.5t-92.5 -0.5t-93 -2.5v20q27 2 40 8t18 24t5 54v496q0 37 -6 54.5t-23 24t-50 7.5v20q46 -1 98.5 -2
t98.5 -1h75q42 0 96 0.5t97 2.5zM446 366v-20h-218l10 20h208zM666 366v-10v-10h-168v10v10h168zM695 480q-4 -50 -3.5 -76t0.5 -48t1 -47.5t5 -76.5h-23q-4 28 -9.5 54t-21 43t-50.5 17v20q35 0 50 20t19.5 47t8.5 47h23z" />
    <glyph glyph-name="Ccedilla" unicode="&#xc7;" horiz-adv-x="694" 
d="M380 722q66 0 108.5 -19.5t75.5 -45.5q20 -15 30.5 -3.5t14.5 54.5h23q-2 -38 -3 -91.5t-1 -142.5h-23q-7 44 -13.5 72t-17 48t-28.5 39q-29 36 -71 52t-89 16q-51 0 -90 -25.5t-65.5 -72.5t-40.5 -111t-14 -140q0 -78 15 -141.5t43.5 -109t69 -70t90.5 -24.5
q41 0 85 16.5t70 50.5q28 30 38.5 67.5t17.5 102.5h23q0 -92 1 -148.5t3 -95.5h-23q-4 43 -13.5 54t-31.5 -3q-37 -26 -78.5 -45.5t-106.5 -19.5q-99 0 -173 43t-115 124t-41 195q0 112 42.5 196t116.5 131t171 47zM395 5l-25 -75q14 4 30.5 6.5t34.5 2.5q31 0 48.5 -13
t17.5 -36q0 -28 -20 -45t-49 -25t-59 -8q-29 0 -50.5 3.5t-36.5 7.5l5 18q5 -1 16.5 -2t25.5 -1q29 0 59.5 9t30.5 35q0 14 -11.5 20.5t-31.5 6.5q-8 0 -22 -1.5t-24 -5.5l34 103h27z" />
    <glyph glyph-name="Egrave" unicode="&#xc8;" horiz-adv-x="617" 
d="M550 708q-4 -38 -5.5 -73.5t-1.5 -54.5t1 -36t2 -28h-23q-7 64 -21.5 101t-43 52.5t-79.5 15.5h-69q-32 0 -48.5 -5.5t-22.5 -22t-6 -51.5v-504q0 -34 6 -51t22.5 -22.5t48.5 -5.5h65q57 0 90.5 18t51 59t26.5 112h23q-3 -29 -3 -76q0 -20 1.5 -58t5.5 -78
q-51 2 -115 2.5t-114 0.5h-82.5t-110 -0.5t-109.5 -2.5v20q34 2 51 8t22.5 24t5.5 54v496q0 37 -5.5 54.5t-23 24t-50.5 7.5v20q51 -1 109.5 -2t110 -1h82.5q46 0 104.5 0.5t104.5 2.5zM384 366v-10v-10h-181v10v10h181zM413 498q-4 -57 -3.5 -87t0.5 -55t1 -55t5 -87h-23
q-5 33 -13 63.5t-28.5 49.5t-63.5 19v20q43 0 62.5 22.5t27 53.5t12.5 56h23zM210 929q22 -13 42 -33t49 -47.5t75 -63.5l-7 -13q-52 24 -90 37t-64.5 22.5t-48.5 21.5q-22 14 -27 31.5t3 32.5q10 16 29 20t39 -8z" />
    <glyph glyph-name="Eacute" unicode="&#xc9;" horiz-adv-x="617" 
d="M550 708q-4 -38 -5.5 -73.5t-1.5 -54.5t1 -36t2 -28h-23q-7 64 -21.5 101t-43 52.5t-79.5 15.5h-69q-32 0 -48.5 -5.5t-22.5 -22t-6 -51.5v-504q0 -34 6 -51t22.5 -22.5t48.5 -5.5h65q57 0 90.5 18t51 59t26.5 112h23q-3 -29 -3 -76q0 -20 1.5 -58t5.5 -78
q-51 2 -115 2.5t-114 0.5h-82.5t-110 -0.5t-109.5 -2.5v20q34 2 51 8t22.5 24t5.5 54v496q0 37 -5.5 54.5t-23 24t-50.5 7.5v20q51 -1 109.5 -2t110 -1h82.5q46 0 104.5 0.5t104.5 2.5zM384 366v-10v-10h-181v10v10h181zM413 498q-4 -57 -3.5 -87t0.5 -55t1 -55t5 -87h-23
q-5 33 -13 63.5t-28.5 49.5t-63.5 19v20q43 0 62.5 22.5t27 53.5t12.5 56h23zM410 929q20 12 39.5 8t28.5 -20q8 -15 3 -32.5t-27 -31.5q-21 -12 -48.5 -21.5t-64.5 -22.5t-90 -37l-7 13q47 36 75.5 63.5t48.5 47.5t42 33z" />
    <glyph glyph-name="Ecircumflex" unicode="&#xca;" horiz-adv-x="617" 
d="M550 708q-4 -38 -5.5 -73.5t-1.5 -54.5t1 -36t2 -28h-23q-7 64 -21.5 101t-43 52.5t-79.5 15.5h-69q-32 0 -48.5 -5.5t-22.5 -22t-6 -51.5v-504q0 -34 6 -51t22.5 -22.5t48.5 -5.5h65q57 0 90.5 18t51 59t26.5 112h23q-3 -29 -3 -76q0 -20 1.5 -58t5.5 -78
q-51 2 -115 2.5t-114 0.5h-82.5t-110 -0.5t-109.5 -2.5v20q34 2 51 8t22.5 24t5.5 54v496q0 37 -5.5 54.5t-23 24t-50.5 7.5v20q51 -1 109.5 -2t110 -1h82.5q46 0 104.5 0.5t104.5 2.5zM384 366v-10v-10h-181v10v10h181zM413 498q-4 -57 -3.5 -87t0.5 -55t1 -55t5 -87h-23
q-5 33 -13 63.5t-28.5 49.5t-63.5 19v20q43 0 62.5 22.5t27 53.5t12.5 56h23zM318 924q25 -40 76.5 -77.5t116.5 -62.5l-5 -14q-62 12 -121.5 31t-95.5 37q-29 -18 -78 -37t-99 -31l-5 14q65 25 116 62.5t77 77.5h18z" />
    <glyph glyph-name="Edieresis" unicode="&#xcb;" horiz-adv-x="617" 
d="M550 708q-4 -38 -5.5 -73.5t-1.5 -54.5t1 -36t2 -28h-23q-7 64 -21.5 101t-43 52.5t-79.5 15.5h-69q-32 0 -48.5 -5.5t-22.5 -22t-6 -51.5v-504q0 -34 6 -51t22.5 -22.5t48.5 -5.5h65q57 0 90.5 18t51 59t26.5 112h23q-3 -29 -3 -76q0 -20 1.5 -58t5.5 -78
q-51 2 -115 2.5t-114 0.5h-82.5t-110 -0.5t-109.5 -2.5v20q34 2 51 8t22.5 24t5.5 54v496q0 37 -5.5 54.5t-23 24t-50.5 7.5v20q51 -1 109.5 -2t110 -1h82.5q46 0 104.5 0.5t104.5 2.5zM384 366v-10v-10h-181v10v10h181zM413 498q-4 -57 -3.5 -87t0.5 -55t1 -55t5 -87h-23
q-5 33 -13 63.5t-28.5 49.5t-63.5 19v20q43 0 62.5 22.5t27 53.5t12.5 56h23zM420 898q25 0 44 -19.5t19 -44.5q0 -27 -19 -45.5t-44 -18.5q-27 0 -45.5 18.5t-18.5 45.5q0 25 18.5 44.5t45.5 19.5zM198 898q26 0 45 -19.5t19 -44.5q0 -27 -19 -45.5t-45 -18.5t-44.5 18.5
t-18.5 45.5q0 25 18.5 44.5t44.5 19.5z" />
    <glyph glyph-name="Igrave" unicode="&#xcc;" horiz-adv-x="351" 
d="M312 708v-20q-33 -1 -50 -7.5t-23 -24t-6 -54.5v-496q0 -36 6 -54t23 -24t50 -8v-20q-24 2 -60.5 2.5t-74.5 0.5q-42 0 -78.5 -0.5t-59.5 -2.5v20q34 2 51 8t22.5 24t5.5 54v496q0 37 -5.5 54.5t-23 24t-50.5 7.5v20q23 -1 59.5 -2t78.5 -1q38 0 74.5 1t60.5 2zM78 929
q22 -13 42 -33t49 -47.5t75 -63.5l-7 -13q-52 24 -90 37t-64.5 22.5t-48.5 21.5q-22 14 -27 31.5t3 32.5q10 16 29 20t39 -8z" />
    <glyph glyph-name="Iacute" unicode="&#xcd;" horiz-adv-x="351" 
d="M312 708v-20q-33 -1 -50 -7.5t-23 -24t-6 -54.5v-496q0 -36 6 -54t23 -24t50 -8v-20q-24 2 -60.5 2.5t-74.5 0.5q-42 0 -78.5 -0.5t-59.5 -2.5v20q34 2 51 8t22.5 24t5.5 54v496q0 37 -5.5 54.5t-23 24t-50.5 7.5v20q23 -1 59.5 -2t78.5 -1q38 0 74.5 1t60.5 2zM278 929
q20 12 39.5 8t28.5 -20q8 -15 3 -32.5t-27 -31.5q-21 -12 -48.5 -21.5t-64.5 -22.5t-90 -37l-7 13q47 36 75.5 63.5t48.5 47.5t42 33z" />
    <glyph glyph-name="Icircumflex" unicode="&#xce;" horiz-adv-x="351" 
d="M312 708v-20q-33 -1 -50 -7.5t-23 -24t-6 -54.5v-496q0 -36 6 -54t23 -24t50 -8v-20q-24 2 -60.5 2.5t-74.5 0.5q-42 0 -78.5 -0.5t-59.5 -2.5v20q34 2 51 8t22.5 24t5.5 54v496q0 37 -5.5 54.5t-23 24t-50.5 7.5v20q23 -1 59.5 -2t78.5 -1q38 0 74.5 1t60.5 2zM186 924
q25 -40 76.5 -77.5t116.5 -62.5l-5 -14q-62 12 -121.5 31t-95.5 37q-29 -18 -78 -37t-99 -31l-5 14q65 25 116 62.5t77 77.5h18z" />
    <glyph glyph-name="Idieresis" unicode="&#xcf;" horiz-adv-x="351" 
d="M312 708v-20q-33 -1 -50 -7.5t-23 -24t-6 -54.5v-496q0 -36 6 -54t23 -24t50 -8v-20q-24 2 -60.5 2.5t-74.5 0.5q-42 0 -78.5 -0.5t-59.5 -2.5v20q34 2 51 8t22.5 24t5.5 54v496q0 37 -5.5 54.5t-23 24t-50.5 7.5v20q23 -1 59.5 -2t78.5 -1q38 0 74.5 1t60.5 2zM288 898
q25 0 44 -19.5t19 -44.5q0 -27 -19 -45.5t-44 -18.5q-27 0 -45.5 18.5t-18.5 45.5q0 25 18.5 44.5t45.5 19.5zM66 898q26 0 45 -19.5t19 -44.5q0 -27 -19 -45.5t-45 -18.5t-44.5 18.5t-18.5 45.5q0 25 18.5 44.5t44.5 19.5z" />
    <glyph glyph-name="Eth" unicode="&#xd0;" horiz-adv-x="741" 
d="M324 708q185 0 275 -89.5t90 -256.5q0 -109 -44 -190.5t-127.5 -126.5t-202.5 -45q-22 0 -65.5 1.5t-76.5 1.5q-38 0 -74.5 -0.5t-59.5 -2.5v20q34 2 51 8t22.5 24t5.5 54v496q0 37 -5.5 54.5t-23 24t-50.5 7.5v20q23 -1 59.5 -2.5t72.5 -0.5t80.5 2t72.5 1zM307 690
q-46 0 -60 -17t-14 -69v-500q0 -52 14.5 -69t60.5 -17q101 0 157 39.5t79 115.5t23 185q0 168 -58 250t-202 82zM373 366v-20h-364v20h364z" />
    <glyph glyph-name="Ntilde" unicode="&#xd1;" horiz-adv-x="711" 
d="M678 708v-20q-34 -2 -51 -12t-22.5 -32.5t-5.5 -63.5v-584h-16h-17l-424 616v-480q0 -42 6 -65.5t26 -33.5t61 -13v-20q-19 2 -48.5 2.5t-55.5 0.5q-25 0 -50 -0.5t-41 -2.5v20q33 3 50 12.5t23 32.5t6 63v474q0 37 -6 54.5t-23 24t-50 7.5v20q16 -1 41 -2t50 -1
q22 0 43 1t37 2l365 -522v390q0 43 -6.5 66t-26.5 33.5t-60 12.5v20q18 -1 48 -2t56 -1q25 0 50 1t41 2zM293 909q30 0 55 -11t47.5 -26t46 -26.5t50.5 -11.5q21 0 39 12.5t30 43.5l15 -4q-7 -56 -41.5 -85.5t-77.5 -29.5q-30 0 -55 11t-48 26t-46 26.5t-50 11.5
q-22 0 -40 -12.5t-29 -43.5l-15 4q8 56 42 85.5t77 29.5z" />
    <glyph glyph-name="Ograve" unicode="&#xd2;" horiz-adv-x="758" 
d="M380 722q98 0 172.5 -43t115.5 -123.5t41 -195.5q0 -112 -42 -196t-117 -131t-171 -47q-99 0 -173 43t-115 124t-41 195q0 112 42.5 196t116.5 131t171 47zM376 704q-62 0 -108 -45t-71 -124t-25 -183q0 -106 28 -184.5t76 -121t107 -42.5q62 0 107.5 45t71 124.5
t25.5 182.5q0 107 -28.5 185t-76 120.5t-106.5 42.5zM279 929q22 -13 42 -33t49 -47.5t75 -63.5l-7 -13q-52 24 -90 37t-64.5 22.5t-48.5 21.5q-22 14 -27 31.5t3 32.5q10 16 29 20t39 -8z" />
    <glyph glyph-name="Oacute" unicode="&#xd3;" horiz-adv-x="758" 
d="M380 722q98 0 172.5 -43t115.5 -123.5t41 -195.5q0 -112 -42 -196t-117 -131t-171 -47q-99 0 -173 43t-115 124t-41 195q0 112 42.5 196t116.5 131t171 47zM376 704q-62 0 -108 -45t-71 -124t-25 -183q0 -106 28 -184.5t76 -121t107 -42.5q62 0 107.5 45t71 124.5
t25.5 182.5q0 107 -28.5 185t-76 120.5t-106.5 42.5zM479 929q20 12 39.5 8t28.5 -20q8 -15 3 -32.5t-27 -31.5q-21 -12 -48.5 -21.5t-64.5 -22.5t-90 -37l-7 13q47 36 75.5 63.5t48.5 47.5t42 33z" />
    <glyph glyph-name="Ocircumflex" unicode="&#xd4;" horiz-adv-x="758" 
d="M380 722q98 0 172.5 -43t115.5 -123.5t41 -195.5q0 -112 -42 -196t-117 -131t-171 -47q-99 0 -173 43t-115 124t-41 195q0 112 42.5 196t116.5 131t171 47zM376 704q-62 0 -108 -45t-71 -124t-25 -183q0 -106 28 -184.5t76 -121t107 -42.5q62 0 107.5 45t71 124.5
t25.5 182.5q0 107 -28.5 185t-76 120.5t-106.5 42.5zM387 924q25 -40 76.5 -77.5t116.5 -62.5l-5 -14q-62 12 -121.5 31t-95.5 37q-29 -18 -78 -37t-99 -31l-5 14q65 25 116 62.5t77 77.5h18z" />
    <glyph glyph-name="Otilde" unicode="&#xd5;" horiz-adv-x="758" 
d="M380 722q98 0 172.5 -43t115.5 -123.5t41 -195.5q0 -112 -42 -196t-117 -131t-171 -47q-99 0 -173 43t-115 124t-41 195q0 112 42.5 196t116.5 131t171 47zM376 704q-62 0 -108 -45t-71 -124t-25 -183q0 -106 28 -184.5t76 -121t107 -42.5q62 0 107.5 45t71 124.5
t25.5 182.5q0 107 -28.5 185t-76 120.5t-106.5 42.5zM295 909q30 0 55 -11t47.5 -26t46 -26.5t50.5 -11.5q21 0 39 12.5t30 43.5l15 -4q-7 -56 -41.5 -85.5t-77.5 -29.5q-30 0 -55 11t-48 26t-46 26.5t-50 11.5q-22 0 -40 -12.5t-29 -43.5l-15 4q8 56 42 85.5t77 29.5z" />
    <glyph glyph-name="Odieresis" unicode="&#xd6;" horiz-adv-x="758" 
d="M380 722q98 0 172.5 -43t115.5 -123.5t41 -195.5q0 -112 -42 -196t-117 -131t-171 -47q-99 0 -173 43t-115 124t-41 195q0 112 42.5 196t116.5 131t171 47zM376 704q-62 0 -108 -45t-71 -124t-25 -183q0 -106 28 -184.5t76 -121t107 -42.5q62 0 107.5 45t71 124.5
t25.5 182.5q0 107 -28.5 185t-76 120.5t-106.5 42.5zM489 898q25 0 44 -19.5t19 -44.5q0 -27 -19 -45.5t-44 -18.5q-27 0 -45.5 18.5t-18.5 45.5q0 25 18.5 44.5t45.5 19.5zM267 898q26 0 45 -19.5t19 -44.5q0 -27 -19 -45.5t-45 -18.5t-44.5 18.5t-18.5 45.5
q0 25 18.5 44.5t44.5 19.5z" />
    <glyph glyph-name="multiply" unicode="&#xd7;" horiz-adv-x="504" 
d="M78 552l175 -175l173 173l22 -22l-173 -172l173 -173l-22 -22l-173 173l-174 -174l-22 22l174 173l-175 175z" />
    <glyph glyph-name="Oslash" unicode="&#xd8;" horiz-adv-x="758" 
d="M380 722q98 0 172.5 -43t115.5 -123.5t41 -195.5q0 -112 -42 -196t-117 -131t-171 -47q-99 0 -173 43t-115 124t-41 195q0 112 42.5 196t116.5 131t171 47zM376 704q-62 0 -108 -45t-71 -124t-25 -183q0 -106 28 -184.5t76 -121t107 -42.5q62 0 107.5 45t71 124.5
t25.5 182.5q0 107 -28.5 185t-76 120.5t-106.5 42.5zM546 634l15 -20l-348 -537l-18 18zM186 95l18 -18l-105 -152l-21 14zM650 775l19 -13l-101 -148l-15 20z" />
    <glyph glyph-name="Ugrave" unicode="&#xd9;" horiz-adv-x="684" 
d="M660 708v-20q-33 -2 -50 -12t-23 -32.5t-6 -63.5v-289q0 -68 -9 -121t-32 -91q-25 -42 -73.5 -67.5t-115.5 -25.5q-48 0 -93 11t-79 42q-30 27 -47 59t-23 77.5t-6 112.5v314q0 37 -5.5 54.5t-22.5 24t-51 7.5v20q23 -1 59.5 -2t78.5 -1q38 0 75.5 1t61.5 2v-20
q-34 -1 -51.5 -7.5t-23.5 -24t-6 -54.5v-346q0 -68 11 -121t43.5 -83.5t97.5 -30.5q74 0 114.5 33.5t57 92t16.5 133.5v296q0 43 -8 66t-28 33.5t-57 12.5v20q19 -1 49 -2t55 -1q26 0 50.5 1t40.5 2zM255 929q22 -13 42 -33t49 -47.5t75 -63.5l-7 -13q-52 24 -90 37
t-64.5 22.5t-48.5 21.5q-22 14 -27 31.5t3 32.5q10 16 29 20t39 -8z" />
    <glyph glyph-name="Uacute" unicode="&#xda;" horiz-adv-x="684" 
d="M660 708v-20q-33 -2 -50 -12t-23 -32.5t-6 -63.5v-289q0 -68 -9 -121t-32 -91q-25 -42 -73.5 -67.5t-115.5 -25.5q-48 0 -93 11t-79 42q-30 27 -47 59t-23 77.5t-6 112.5v314q0 37 -5.5 54.5t-22.5 24t-51 7.5v20q23 -1 59.5 -2t78.5 -1q38 0 75.5 1t61.5 2v-20
q-34 -1 -51.5 -7.5t-23.5 -24t-6 -54.5v-346q0 -68 11 -121t43.5 -83.5t97.5 -30.5q74 0 114.5 33.5t57 92t16.5 133.5v296q0 43 -8 66t-28 33.5t-57 12.5v20q19 -1 49 -2t55 -1q26 0 50.5 1t40.5 2zM455 929q20 12 39.5 8t28.5 -20q8 -15 3 -32.5t-27 -31.5
q-21 -12 -48.5 -21.5t-64.5 -22.5t-90 -37l-7 13q47 36 75.5 63.5t48.5 47.5t42 33z" />
    <glyph glyph-name="Ucircumflex" unicode="&#xdb;" horiz-adv-x="684" 
d="M660 708v-20q-33 -2 -50 -12t-23 -32.5t-6 -63.5v-289q0 -68 -9 -121t-32 -91q-25 -42 -73.5 -67.5t-115.5 -25.5q-48 0 -93 11t-79 42q-30 27 -47 59t-23 77.5t-6 112.5v314q0 37 -5.5 54.5t-22.5 24t-51 7.5v20q23 -1 59.5 -2t78.5 -1q38 0 75.5 1t61.5 2v-20
q-34 -1 -51.5 -7.5t-23.5 -24t-6 -54.5v-346q0 -68 11 -121t43.5 -83.5t97.5 -30.5q74 0 114.5 33.5t57 92t16.5 133.5v296q0 43 -8 66t-28 33.5t-57 12.5v20q19 -1 49 -2t55 -1q26 0 50.5 1t40.5 2zM363 924q25 -40 76.5 -77.5t116.5 -62.5l-5 -14q-62 12 -121.5 31
t-95.5 37q-29 -18 -78 -37t-99 -31l-5 14q65 25 116 62.5t77 77.5h18z" />
    <glyph glyph-name="Udieresis" unicode="&#xdc;" horiz-adv-x="684" 
d="M660 708v-20q-33 -2 -50 -12t-23 -32.5t-6 -63.5v-289q0 -68 -9 -121t-32 -91q-25 -42 -73.5 -67.5t-115.5 -25.5q-48 0 -93 11t-79 42q-30 27 -47 59t-23 77.5t-6 112.5v314q0 37 -5.5 54.5t-22.5 24t-51 7.5v20q23 -1 59.5 -2t78.5 -1q38 0 75.5 1t61.5 2v-20
q-34 -1 -51.5 -7.5t-23.5 -24t-6 -54.5v-346q0 -68 11 -121t43.5 -83.5t97.5 -30.5q74 0 114.5 33.5t57 92t16.5 133.5v296q0 43 -8 66t-28 33.5t-57 12.5v20q19 -1 49 -2t55 -1q26 0 50.5 1t40.5 2zM465 898q25 0 44 -19.5t19 -44.5q0 -27 -19 -45.5t-44 -18.5
q-27 0 -45.5 18.5t-18.5 45.5q0 25 18.5 44.5t45.5 19.5zM243 898q26 0 45 -19.5t19 -44.5q0 -27 -19 -45.5t-45 -18.5t-44.5 18.5t-18.5 45.5q0 25 18.5 44.5t44.5 19.5z" />
    <glyph glyph-name="Yacute" unicode="&#xdd;" horiz-adv-x="602" 
d="M598 708v-20q-20 -5 -40.5 -27.5t-45.5 -70.5l-197 -391h-27l-234 432q-20 36 -33.5 46t-24.5 10v21q22 -1 46 -2t52 -1q36 0 78 0.5t78 2.5v-21q-25 0 -44.5 -5t-26 -19.5t7.5 -41.5l165 -317l-16 -17l123 245q31 61 31.5 94.5t-22 47t-64.5 14.5v20q31 -1 61 -2t57 -1
q25 0 43 1t33 2zM368 322v-216q0 -36 6 -54t23 -24t50 -8v-20q-24 2 -61 2.5t-75 0.5q-41 0 -78 -0.5t-59 -2.5v20q34 2 51 8t22.5 24t5.5 54v205l65 -62zM414 929q20 12 39.5 8t28.5 -20q8 -15 3 -32.5t-27 -31.5q-21 -12 -48.5 -21.5t-64.5 -22.5t-90 -37l-7 13
q47 36 75.5 63.5t48.5 47.5t42 33z" />
    <glyph glyph-name="Thorn" unicode="&#xde;" horiz-adv-x="594" 
d="M313 562q127 0 190 -54t63 -140q0 -40 -12.5 -79.5t-43.5 -73.5t-84 -54t-135 -20h-96v10v10h86q67 0 102.5 27.5t48 73.5t12.5 99q0 89 -35 135.5t-121 46.5q-31 0 -69 -1t-55 -1l-2 19q47 0 90 1t61 1zM312 708v-20q-33 -1 -50 -7.5t-23 -24t-6 -54.5v-496q0 -36 6 -54
t23 -24t50 -8v-20q-24 2 -60.5 2.5t-74.5 0.5q-42 0 -78.5 -0.5t-59.5 -2.5v20q34 2 51 8t22.5 24t5.5 54v496q0 37 -5.5 54.5t-23 24t-50.5 7.5v20q23 -1 59.5 -2t78.5 -1q38 0 74.5 1t60.5 2z" />
    <glyph glyph-name="germandbls" unicode="&#xdf;" horiz-adv-x="608" 
d="M306 782q92 0 140 -39.5t48 -105.5q0 -38 -18 -71.5t-47 -60.5t-60.5 -45.5t-58.5 -26.5q75 -14 133.5 -50t93 -88.5t34.5 -117.5q0 -61 -27.5 -103.5t-71.5 -65t-95 -22.5q-30 0 -59.5 9.5t-49.5 29.5t-20 53q0 27 15.5 44.5t43.5 17.5q26 0 42 -15t16 -40
q0 -23 -13 -39t-36 -24q3 -8 16.5 -14t30.5 -6q26 0 48.5 16t36.5 50.5t14 90.5q0 47 -11.5 90t-32.5 77.5t-52 59.5t-70 37q-8 -5 -18 -9.5t-19 -4.5q-7 0 -13.5 4.5t-6.5 12.5q0 19 23 19q7 0 16.5 -2.5t18.5 -5.5q51 38 71 84t20 110q0 66 -24 101t-71 35
q-22 0 -43.5 -12.5t-35.5 -47.5t-14 -101v-617q-23 8 -51 11t-60 3q-16 0 -32.5 -0.5t-36.5 -2.5v21q42 0 57 20t15 65v427q0 89 26.5 144t74.5 80t113 25z" />
    <glyph glyph-name="agrave" unicode="&#xe0;" 
d="M161 -7q-66 0 -95.5 33.5t-29.5 85.5q0 43 20 70t51.5 44.5t67 30t67 24t52 26.5t20.5 38v68q0 36 -11.5 57.5t-31 30.5t-46.5 9q-23 0 -49 -6.5t-41 -25.5q22 -6 36.5 -23.5t14.5 -43.5q0 -28 -18.5 -44t-46.5 -16q-31 0 -46 19.5t-15 45.5q0 27 13.5 44t35.5 32
q24 16 61.5 27t83.5 11q43 0 74.5 -9.5t52.5 -30.5q25 -23 33 -57.5t8 -83.5v-276q0 -24 6 -35t22 -11q12 0 22 6t20 14l10 -17q-21 -17 -42.5 -27t-54.5 -10q-55 0 -72.5 26t-18.5 60q-29 -49 -68.5 -67.5t-84.5 -18.5zM216 41q26 0 51 14.5t47 49.5v199q-14 -21 -42.5 -34
t-58 -28.5t-50.5 -41.5t-21 -72q0 -45 21 -66t53 -21zM127 814q14 12 33.5 9t34.5 -22t27 -45t29.5 -61.5t47.5 -86.5l-11 -9q-41 42 -71.5 67t-52 43t-38.5 38q-15 20 -13.5 38t14.5 29z" />
    <glyph glyph-name="aacute" unicode="&#xe1;" 
d="M161 -7q-66 0 -95.5 33.5t-29.5 85.5q0 43 20 70t51.5 44.5t67 30t67 24t52 26.5t20.5 38v68q0 36 -11.5 57.5t-31 30.5t-46.5 9q-23 0 -49 -6.5t-41 -25.5q22 -6 36.5 -23.5t14.5 -43.5q0 -28 -18.5 -44t-46.5 -16q-31 0 -46 19.5t-15 45.5q0 27 13.5 44t35.5 32
q24 16 61.5 27t83.5 11q43 0 74.5 -9.5t52.5 -30.5q25 -23 33 -57.5t8 -83.5v-276q0 -24 6 -35t22 -11q12 0 22 6t20 14l10 -17q-21 -17 -42.5 -27t-54.5 -10q-55 0 -72.5 26t-18.5 60q-29 -49 -68.5 -67.5t-84.5 -18.5zM216 41q26 0 51 14.5t47 49.5v199q-14 -21 -42.5 -34
t-58 -28.5t-50.5 -41.5t-21 -72q0 -45 21 -66t53 -21zM359 814q13 -11 14.5 -29t-13.5 -38q-16 -20 -38 -38t-52.5 -43t-71.5 -67l-11 9q31 51 48 86.5t29 61.5t27 45q15 20 34.5 22.5t33.5 -9.5z" />
    <glyph glyph-name="acircumflex" unicode="&#xe2;" 
d="M161 -7q-66 0 -95.5 33.5t-29.5 85.5q0 43 20 70t51.5 44.5t67 30t67 24t52 26.5t20.5 38v68q0 36 -11.5 57.5t-31 30.5t-46.5 9q-23 0 -49 -6.5t-41 -25.5q22 -6 36.5 -23.5t14.5 -43.5q0 -28 -18.5 -44t-46.5 -16q-31 0 -46 19.5t-15 45.5q0 27 13.5 44t35.5 32
q24 16 61.5 27t83.5 11q43 0 74.5 -9.5t52.5 -30.5q25 -23 33 -57.5t8 -83.5v-276q0 -24 6 -35t22 -11q12 0 22 6t20 14l10 -17q-21 -17 -42.5 -27t-54.5 -10q-55 0 -72.5 26t-18.5 60q-29 -49 -68.5 -67.5t-84.5 -18.5zM216 41q26 0 51 14.5t47 49.5v199q-14 -21 -42.5 -34
t-58 -28.5t-50.5 -41.5t-21 -72q0 -45 21 -66t53 -21zM260 808q22 -52 67.5 -100.5t103.5 -79.5l-8 -14q-55 17 -107 42t-85 50q-26 -25 -67.5 -50t-84.5 -42l-8 14q58 31 103.5 79.5t67.5 100.5h18z" />
    <glyph glyph-name="atilde" unicode="&#xe3;" 
d="M161 -7q-66 0 -95.5 33.5t-29.5 85.5q0 43 20 70t51.5 44.5t67 30t67 24t52 26.5t20.5 38v68q0 36 -11.5 57.5t-31 30.5t-46.5 9q-23 0 -49 -6.5t-41 -25.5q22 -6 36.5 -23.5t14.5 -43.5q0 -28 -18.5 -44t-46.5 -16q-31 0 -46 19.5t-15 45.5q0 27 13.5 44t35.5 32
q24 16 61.5 27t83.5 11q43 0 74.5 -9.5t52.5 -30.5q25 -23 33 -57.5t8 -83.5v-276q0 -24 6 -35t22 -11q12 0 22 6t20 14l10 -17q-21 -17 -42.5 -27t-54.5 -10q-55 0 -72.5 26t-18.5 60q-29 -49 -68.5 -67.5t-84.5 -18.5zM216 41q26 0 51 14.5t47 49.5v199q-14 -21 -42.5 -34
t-58 -28.5t-50.5 -41.5t-21 -72q0 -45 21 -66t53 -21zM176 774q28 0 48 -10t36 -23t33 -23t40 -10q21 0 40.5 12.5t36.5 40.5l14 -7q-16 -61 -48.5 -88t-71.5 -27q-28 0 -48.5 10t-36.5 23.5t-33 23.5t-40 10q-21 0 -40.5 -12.5t-36.5 -41.5l-14 7q16 62 49 88.5t72 26.5z
" />
    <glyph glyph-name="adieresis" unicode="&#xe4;" 
d="M161 -7q-66 0 -95.5 33.5t-29.5 85.5q0 43 20 70t51.5 44.5t67 30t67 24t52 26.5t20.5 38v68q0 36 -11.5 57.5t-31 30.5t-46.5 9q-23 0 -49 -6.5t-41 -25.5q22 -6 36.5 -23.5t14.5 -43.5q0 -28 -18.5 -44t-46.5 -16q-31 0 -46 19.5t-15 45.5q0 27 13.5 44t35.5 32
q24 16 61.5 27t83.5 11q43 0 74.5 -9.5t52.5 -30.5q25 -23 33 -57.5t8 -83.5v-276q0 -24 6 -35t22 -11q12 0 22 6t20 14l10 -17q-21 -17 -42.5 -27t-54.5 -10q-55 0 -72.5 26t-18.5 60q-29 -49 -68.5 -67.5t-84.5 -18.5zM216 41q26 0 51 14.5t47 49.5v199q-14 -21 -42.5 -34
t-58 -28.5t-50.5 -41.5t-21 -72q0 -45 21 -66t53 -21zM361 749q25 0 44 -19.5t19 -44.5q0 -26 -19 -45t-44 -19q-27 0 -45.5 19t-18.5 45q0 25 18.5 44.5t45.5 19.5zM143 749q26 0 45 -19.5t19 -44.5q0 -26 -19 -45t-45 -19t-44.5 19t-18.5 45q0 25 18.5 44.5t44.5 19.5z
" />
    <glyph glyph-name="aring" unicode="&#xe5;" 
d="M161 -7q-66 0 -95.5 33.5t-29.5 85.5q0 43 20 70t51.5 44.5t67 30t67 24t52 26.5t20.5 38v68q0 36 -11.5 57.5t-31 30.5t-46.5 9q-23 0 -49 -6.5t-41 -25.5q22 -6 36.5 -23.5t14.5 -43.5q0 -28 -18.5 -44t-46.5 -16q-31 0 -46 19.5t-15 45.5q0 27 13.5 44t35.5 32
q24 16 61.5 27t83.5 11q43 0 74.5 -9.5t52.5 -30.5q25 -23 33 -57.5t8 -83.5v-276q0 -24 6 -35t22 -11q12 0 22 6t20 14l10 -17q-21 -17 -42.5 -27t-54.5 -10q-55 0 -72.5 26t-18.5 60q-29 -49 -68.5 -67.5t-84.5 -18.5zM216 41q26 0 51 14.5t47 49.5v199q-14 -21 -42.5 -34
t-58 -28.5t-50.5 -41.5t-21 -72q0 -45 21 -66t53 -21zM251 793q41 0 71 -25t30 -68q0 -44 -30 -69t-71 -25q-40 0 -70 25t-30 69q0 43 30 68t70 25zM251 772q-25 0 -48.5 -18.5t-23.5 -54.5t23.5 -54t48.5 -18q26 0 49.5 18t23.5 54t-23.5 54.5t-49.5 18.5z" />
    <glyph glyph-name="ae" unicode="&#xe6;" horiz-adv-x="744" 
d="M161 -7q-66 0 -95.5 33.5t-29.5 85.5q0 43 20 70t51.5 44.5t67 30t67 24t52 26.5t20.5 38v68q0 36 -11.5 57.5t-31 30.5t-46.5 9q-23 0 -49 -6.5t-41 -25.5q22 -6 36.5 -23.5t14.5 -43.5q0 -28 -18.5 -44t-46.5 -16q-31 0 -46 19.5t-15 45.5q0 27 13.5 44t35.5 32
q24 16 61.5 27t83.5 11q43 0 74.5 -9.5t52.5 -30.5q25 -23 32 -58t7 -83l-78 -228q-28 -54 -58.5 -82t-61.5 -37t-61 -9zM215 41q28 0 54.5 17t49.5 57l-4 191q-15 -22 -43 -35.5t-58 -29t-51 -41.5t-21 -72q0 -45 21 -66t52 -21zM525 -14q-65 0 -112 30t-72 88.5t-25 143.5
q0 90 25 153t72.5 96t113.5 33q83 0 130 -53t47 -168h-317l-1 19h212q2 49 -6 90.5t-25.5 66.5t-44.5 25q-38 0 -66.5 -45.5t-34.5 -145.5l3 -5q-1 -14 -2 -30.5t-1 -32.5q0 -69 19.5 -116t50 -70.5t64.5 -23.5q35 0 67 20t57 74l19 -8q-10 -34 -33 -67t-58 -53.5t-82 -20.5
z" />
    <glyph glyph-name="ccedilla" unicode="&#xe7;" horiz-adv-x="489" 
d="M281 530q34 0 65 -8.5t54 -23.5q24 -15 36.5 -36t12.5 -46q0 -30 -17 -47t-44 -17t-45 15t-18 43q0 26 15 42.5t35 21.5q-9 15 -31.5 25.5t-48.5 10.5q-27 0 -51.5 -14t-43.5 -43t-30.5 -75t-11.5 -111q0 -84 19.5 -133.5t51.5 -70.5t69 -21q35 0 74 20.5t66 75.5l19 -7
q-11 -33 -34.5 -67t-61.5 -56t-93 -22q-63 0 -114 31t-81 90.5t-30 145.5q0 84 30.5 146.5t84.5 96.5t123 34zM264 5l-25 -75q14 4 30 6.5t33 2.5q30 0 47 -13t17 -36q0 -28 -19 -45t-47 -25t-56 -8t-49 3.5t-35 7.5l4 18q5 -1 16 -2t24 -1q28 0 56 9t28 35q0 27 -39 27
q-8 0 -21.5 -1.5t-24.5 -5.5l34 103h27z" />
    <glyph glyph-name="egrave" unicode="&#xe8;" 
d="M275 530q88 0 138 -53t50 -168h-345l-2 19h241q1 49 -8 90.5t-28 66.5t-50 25q-43 0 -74.5 -45.5t-38.5 -145.5l3 -5q-1 -14 -2 -30.5t-1 -32.5q0 -69 21 -116t55 -70.5t69 -23.5q40 0 77.5 20t64.5 74l20 -8q-12 -34 -37 -67t-64 -53.5t-91 -20.5q-70 0 -122 31.5
t-80 90.5t-28 140q0 89 29 152t81.5 96.5t121.5 33.5zM149 814q14 12 33.5 9t34.5 -22t27 -45t29.5 -61.5t47.5 -86.5l-11 -9q-41 42 -71.5 67t-52 43t-38.5 38q-15 20 -13.5 38t14.5 29z" />
    <glyph glyph-name="eacute" unicode="&#xe9;" 
d="M275 530q88 0 138 -53t50 -168h-345l-2 19h241q1 49 -8 90.5t-28 66.5t-50 25q-43 0 -74.5 -45.5t-38.5 -145.5l3 -5q-1 -14 -2 -30.5t-1 -32.5q0 -69 21 -116t55 -70.5t69 -23.5q40 0 77.5 20t64.5 74l20 -8q-12 -34 -37 -67t-64 -53.5t-91 -20.5q-70 0 -122 31.5
t-80 90.5t-28 140q0 89 29 152t81.5 96.5t121.5 33.5zM381 814q13 -11 14.5 -29t-13.5 -38q-16 -20 -38 -38t-52.5 -43t-71.5 -67l-11 9q31 51 48 86.5t29 61.5t27 45q15 20 34.5 22.5t33.5 -9.5z" />
    <glyph glyph-name="ecircumflex" unicode="&#xea;" 
d="M275 530q88 0 138 -53t50 -168h-345l-2 19h241q1 49 -8 90.5t-28 66.5t-50 25q-43 0 -74.5 -45.5t-38.5 -145.5l3 -5q-1 -14 -2 -30.5t-1 -32.5q0 -69 21 -116t55 -70.5t69 -23.5q40 0 77.5 20t64.5 74l20 -8q-12 -34 -37 -67t-64 -53.5t-91 -20.5q-70 0 -122 31.5
t-80 90.5t-28 140q0 89 29 152t81.5 96.5t121.5 33.5zM282 808q22 -52 67.5 -100.5t103.5 -79.5l-8 -14q-55 17 -107 42t-85 50q-26 -25 -67.5 -50t-84.5 -42l-8 14q58 31 103.5 79.5t67.5 100.5h18z" />
    <glyph glyph-name="edieresis" unicode="&#xeb;" 
d="M275 530q88 0 138 -53t50 -168h-345l-2 19h241q1 49 -8 90.5t-28 66.5t-50 25q-43 0 -74.5 -45.5t-38.5 -145.5l3 -5q-1 -14 -2 -30.5t-1 -32.5q0 -69 21 -116t55 -70.5t69 -23.5q40 0 77.5 20t64.5 74l20 -8q-12 -34 -37 -67t-64 -53.5t-91 -20.5q-70 0 -122 31.5
t-80 90.5t-28 140q0 89 29 152t81.5 96.5t121.5 33.5zM383 749q25 0 44 -19.5t19 -44.5q0 -26 -19 -45t-44 -19q-27 0 -45.5 19t-18.5 45q0 25 18.5 44.5t45.5 19.5zM165 749q26 0 45 -19.5t19 -44.5q0 -26 -19 -45t-45 -19t-44.5 19t-18.5 45q0 25 18.5 44.5t44.5 19.5z
" />
    <glyph glyph-name="igrave" unicode="&#xec;" horiz-adv-x="300" 
d="M207 527v-434q0 -42 16.5 -57t55.5 -15v-21q-17 1 -52.5 2.5t-72.5 1.5q-35 0 -72 -1.5t-55 -2.5v21q39 0 55.5 15t16.5 57v314q0 45 -15 66.5t-57 21.5v21q32 -3 62 -3q34 0 63.5 3.5t54.5 10.5zM22 814q14 12 33.5 9t34.5 -22t27 -45t29.5 -61.5t47.5 -86.5l-11 -9
q-41 42 -71.5 67t-52 43t-38.5 38q-15 20 -13.5 38t14.5 29z" />
    <glyph glyph-name="iacute" unicode="&#xed;" horiz-adv-x="300" 
d="M207 527v-434q0 -42 16.5 -57t55.5 -15v-21q-17 1 -52.5 2.5t-72.5 1.5q-35 0 -72 -1.5t-55 -2.5v21q39 0 55.5 15t16.5 57v314q0 45 -15 66.5t-57 21.5v21q32 -3 62 -3q34 0 63.5 3.5t54.5 10.5zM254 814q13 -11 14.5 -29t-13.5 -38q-16 -20 -38 -38t-52.5 -43
t-71.5 -67l-11 9q31 51 48 86.5t29 61.5t27 45q15 20 34.5 22.5t33.5 -9.5z" />
    <glyph glyph-name="icircumflex" unicode="&#xee;" horiz-adv-x="300" 
d="M207 527v-434q0 -42 16.5 -57t55.5 -15v-21q-17 1 -52.5 2.5t-72.5 1.5q-35 0 -72 -1.5t-55 -2.5v21q39 0 55.5 15t16.5 57v314q0 45 -15 66.5t-57 21.5v21q32 -3 62 -3q34 0 63.5 3.5t54.5 10.5zM155 808q22 -52 67.5 -100.5t103.5 -79.5l-8 -14q-55 17 -107 42t-85 50
q-26 -25 -67.5 -50t-84.5 -42l-8 14q58 31 103.5 79.5t67.5 100.5h18z" />
    <glyph glyph-name="idieresis" unicode="&#xef;" horiz-adv-x="300" 
d="M207 527v-434q0 -42 16.5 -57t55.5 -15v-21q-17 1 -52.5 2.5t-72.5 1.5q-35 0 -72 -1.5t-55 -2.5v21q39 0 55.5 15t16.5 57v314q0 45 -15 66.5t-57 21.5v21q32 -3 62 -3q34 0 63.5 3.5t54.5 10.5zM256 749q25 0 44 -19.5t19 -44.5q0 -26 -19 -45t-44 -19q-27 0 -45.5 19
t-18.5 45q0 25 18.5 44.5t45.5 19.5zM38 749q26 0 45 -19.5t19 -44.5q0 -26 -19 -45t-45 -19t-44.5 19t-18.5 45q0 25 18.5 44.5t44.5 19.5z" />
    <glyph glyph-name="eth" unicode="&#xf0;" horiz-adv-x="558" 
d="M138 782q100 -37 183.5 -99t134.5 -155.5t51 -224.5q0 -108 -32 -178.5t-85 -104.5t-116 -34q-67 0 -119.5 28.5t-82 88t-29.5 150.5q0 75 26 138t75.5 101t119.5 38q68 0 104.5 -38t46.5 -117l-19 -4q-4 59 -23.5 88.5t-44.5 39t-49 9.5q-34 0 -62 -24.5t-43.5 -80.5
t-15.5 -149q0 -89 15.5 -144t41 -79.5t55.5 -24.5q32 0 60.5 26t46 90.5t17.5 178.5q0 108 -20 184t-56 128.5t-84.5 89t-103.5 62.5zM284 693l17 -14l-199 -97l-9 18zM440 769l9 -18l-148 -72l-17 14z" />
    <glyph glyph-name="ntilde" unicode="&#xf1;" horiz-adv-x="603" 
d="M375 530q40 0 65.5 -10.5t42.5 -28.5q18 -19 25.5 -49t7.5 -81v-268q0 -42 16.5 -57t55.5 -15v-21q-17 1 -53 2.5t-71 1.5q-34 0 -67.5 -1.5t-50.5 -2.5v21q34 0 48 15t14 57v296q0 29 -5 52.5t-21 38t-48 14.5q-56 0 -91.5 -46t-35.5 -114v-241q0 -42 14.5 -57t47.5 -15
v-21q-16 1 -48.5 2.5t-67.5 1.5q-34 0 -71 -1.5t-55 -2.5v21q39 0 55.5 15t16.5 57v314q0 45 -15 66.5t-57 21.5v21q32 -3 62 -3q34 0 63.5 3.5t54.5 10.5v-109q26 62 71.5 87t96.5 25zM234 774q28 0 48 -10t36 -23t33 -23t40 -10q21 0 40.5 12.5t36.5 40.5l14 -7
q-16 -61 -48.5 -88t-71.5 -27q-28 0 -48.5 10t-36.5 23.5t-33 23.5t-40 10q-21 0 -40.5 -12.5t-36.5 -41.5l-14 7q16 62 49 88.5t72 26.5z" />
    <glyph glyph-name="ograve" unicode="&#xf2;" horiz-adv-x="554" 
d="M277 530q67 0 119 -28t83 -88t31 -157t-31 -156.5t-83 -87t-119 -27.5q-66 0 -119 27.5t-83.5 87t-30.5 156.5t30.5 157t83.5 88t119 28zM277 510q-52 0 -85 -59.5t-33 -193.5t33 -192.5t85 -58.5q51 0 84.5 58.5t33.5 192.5t-33.5 193.5t-84.5 59.5zM155 814
q14 12 33.5 9t34.5 -22t27 -45t29.5 -61.5t47.5 -86.5l-11 -9q-41 42 -71.5 67t-52 43t-38.5 38q-15 20 -13.5 38t14.5 29z" />
    <glyph glyph-name="oacute" unicode="&#xf3;" horiz-adv-x="554" 
d="M277 530q67 0 119 -28t83 -88t31 -157t-31 -156.5t-83 -87t-119 -27.5q-66 0 -119 27.5t-83.5 87t-30.5 156.5t30.5 157t83.5 88t119 28zM277 510q-52 0 -85 -59.5t-33 -193.5t33 -192.5t85 -58.5q51 0 84.5 58.5t33.5 192.5t-33.5 193.5t-84.5 59.5zM387 814
q13 -11 14.5 -29t-13.5 -38q-16 -20 -38 -38t-52.5 -43t-71.5 -67l-11 9q31 51 48 86.5t29 61.5t27 45q15 20 34.5 22.5t33.5 -9.5z" />
    <glyph glyph-name="ocircumflex" unicode="&#xf4;" horiz-adv-x="554" 
d="M277 530q67 0 119 -28t83 -88t31 -157t-31 -156.5t-83 -87t-119 -27.5q-66 0 -119 27.5t-83.5 87t-30.5 156.5t30.5 157t83.5 88t119 28zM277 510q-52 0 -85 -59.5t-33 -193.5t33 -192.5t85 -58.5q51 0 84.5 58.5t33.5 192.5t-33.5 193.5t-84.5 59.5zM288 808
q22 -52 67.5 -100.5t103.5 -79.5l-8 -14q-55 17 -107 42t-85 50q-26 -25 -67.5 -50t-84.5 -42l-8 14q58 31 103.5 79.5t67.5 100.5h18z" />
    <glyph glyph-name="otilde" unicode="&#xf5;" horiz-adv-x="554" 
d="M277 530q67 0 119 -28t83 -88t31 -157t-31 -156.5t-83 -87t-119 -27.5q-66 0 -119 27.5t-83.5 87t-30.5 156.5t30.5 157t83.5 88t119 28zM277 510q-52 0 -85 -59.5t-33 -193.5t33 -192.5t85 -58.5q51 0 84.5 58.5t33.5 192.5t-33.5 193.5t-84.5 59.5zM205 774
q28 0 48 -10t36 -23t33 -23t40 -10q21 0 40.5 12.5t36.5 40.5l14 -7q-16 -61 -48.5 -88t-71.5 -27q-28 0 -48.5 10t-36.5 23.5t-33 23.5t-40 10q-21 0 -40.5 -12.5t-36.5 -41.5l-14 7q16 62 49 88.5t72 26.5z" />
    <glyph glyph-name="odieresis" unicode="&#xf6;" horiz-adv-x="554" 
d="M277 530q67 0 119 -28t83 -88t31 -157t-31 -156.5t-83 -87t-119 -27.5q-66 0 -119 27.5t-83.5 87t-30.5 156.5t30.5 157t83.5 88t119 28zM277 510q-52 0 -85 -59.5t-33 -193.5t33 -192.5t85 -58.5q51 0 84.5 58.5t33.5 192.5t-33.5 193.5t-84.5 59.5zM389 749
q25 0 44 -19.5t19 -44.5q0 -26 -19 -45t-44 -19q-27 0 -45.5 19t-18.5 45q0 25 18.5 44.5t45.5 19.5zM171 749q26 0 45 -19.5t19 -44.5q0 -26 -19 -45t-45 -19t-44.5 19t-18.5 45q0 25 18.5 44.5t44.5 19.5z" />
    <glyph glyph-name="divide" unicode="&#xf7;" horiz-adv-x="644" 
d="M322 266q23 0 39.5 -16t16.5 -39t-16.5 -39.5t-39.5 -16.5q-22 0 -38.5 16.5t-16.5 39.5t16.5 39t38.5 16zM322 554q23 0 39.5 -16t16.5 -39t-16.5 -39t-39.5 -16q-22 0 -38.5 16t-16.5 39t16.5 39t38.5 16zM572 370v-30h-501v30h501z" />
    <glyph glyph-name="oslash" unicode="&#xf8;" horiz-adv-x="554" 
d="M277 530q67 0 119 -28t83 -88t31 -157t-31 -156.5t-83 -87t-119 -27.5q-66 0 -119 27.5t-83.5 87t-30.5 156.5t30.5 157t83.5 88t119 28zM277 510q-52 0 -85 -59.5t-33 -193.5t33 -192.5t85 -58.5q51 0 84.5 58.5t33.5 192.5t-33.5 193.5t-84.5 59.5zM392 466l15 -20
l-235 -383l-16 21zM143 82l16 -21l-92 -134l-21 14zM488 588l19 -13l-88 -129l-15 20z" />
    <glyph glyph-name="ugrave" unicode="&#xf9;" horiz-adv-x="589" 
d="M496 527v-419q0 -45 15.5 -66.5t56.5 -21.5v-21q-31 3 -62 3q-33 0 -63 -3t-55 -11v109q-25 -60 -69.5 -85.5t-93.5 -25.5q-37 0 -63 10.5t-43 27.5q-18 20 -25 51.5t-7 79.5v252q0 45 -15 66.5t-57 21.5v21q32 -3 62 -3q33 0 63 3.5t55 10.5v-400q0 -29 4 -53t19 -38
t48 -14q52 0 87 46t35 113v226q0 45 -15 66.5t-57 21.5v21q32 -3 62 -3q33 0 63 3.5t55 10.5zM159 814q14 12 33.5 9t34.5 -22t27 -45t29.5 -61.5t47.5 -86.5l-11 -9q-41 42 -71.5 67t-52 43t-38.5 38q-15 20 -13.5 38t14.5 29z" />
    <glyph glyph-name="uacute" unicode="&#xfa;" horiz-adv-x="589" 
d="M496 527v-419q0 -45 15.5 -66.5t56.5 -21.5v-21q-31 3 -62 3q-33 0 -63 -3t-55 -11v109q-25 -60 -69.5 -85.5t-93.5 -25.5q-37 0 -63 10.5t-43 27.5q-18 20 -25 51.5t-7 79.5v252q0 45 -15 66.5t-57 21.5v21q32 -3 62 -3q33 0 63 3.5t55 10.5v-400q0 -29 4 -53t19 -38
t48 -14q52 0 87 46t35 113v226q0 45 -15 66.5t-57 21.5v21q32 -3 62 -3q33 0 63 3.5t55 10.5zM391 814q13 -11 14.5 -29t-13.5 -38q-16 -20 -38 -38t-52.5 -43t-71.5 -67l-11 9q31 51 48 86.5t29 61.5t27 45q15 20 34.5 22.5t33.5 -9.5z" />
    <glyph glyph-name="ucircumflex" unicode="&#xfb;" horiz-adv-x="589" 
d="M496 527v-419q0 -45 15.5 -66.5t56.5 -21.5v-21q-31 3 -62 3q-33 0 -63 -3t-55 -11v109q-25 -60 -69.5 -85.5t-93.5 -25.5q-37 0 -63 10.5t-43 27.5q-18 20 -25 51.5t-7 79.5v252q0 45 -15 66.5t-57 21.5v21q32 -3 62 -3q33 0 63 3.5t55 10.5v-400q0 -29 4 -53t19 -38
t48 -14q52 0 87 46t35 113v226q0 45 -15 66.5t-57 21.5v21q32 -3 62 -3q33 0 63 3.5t55 10.5zM292 808q22 -52 67.5 -100.5t103.5 -79.5l-8 -14q-55 17 -107 42t-85 50q-26 -25 -67.5 -50t-84.5 -42l-8 14q58 31 103.5 79.5t67.5 100.5h18z" />
    <glyph glyph-name="udieresis" unicode="&#xfc;" horiz-adv-x="589" 
d="M496 527v-419q0 -45 15.5 -66.5t56.5 -21.5v-21q-31 3 -62 3q-33 0 -63 -3t-55 -11v109q-25 -60 -69.5 -85.5t-93.5 -25.5q-37 0 -63 10.5t-43 27.5q-18 20 -25 51.5t-7 79.5v252q0 45 -15 66.5t-57 21.5v21q32 -3 62 -3q33 0 63 3.5t55 10.5v-400q0 -29 4 -53t19 -38
t48 -14q52 0 87 46t35 113v226q0 45 -15 66.5t-57 21.5v21q32 -3 62 -3q33 0 63 3.5t55 10.5zM393 749q25 0 44 -19.5t19 -44.5q0 -26 -19 -45t-44 -19q-27 0 -45.5 19t-18.5 45q0 25 18.5 44.5t45.5 19.5zM175 749q26 0 45 -19.5t19 -44.5q0 -26 -19 -45t-45 -19t-44.5 19
t-18.5 45q0 25 18.5 44.5t44.5 19.5z" />
    <glyph glyph-name="yacute" unicode="&#xfd;" horiz-adv-x="509" 
d="M500 516v-20q-19 -3 -35 -19.5t-31 -56.5l-156 -418l-24 -24l-195 461q-19 39 -36.5 47.5t-29.5 8.5v21q25 -3 53 -4.5t58 -1.5q34 0 68.5 2t64.5 4v-21q-24 0 -42.5 -3.5t-24 -19t9.5 -52.5l124 -305l-7 -3l101 268q22 60 5.5 86t-67.5 30v20q25 -1 45.5 -2t42.5 -1
t41.5 1t34.5 2zM278 2l-36 -94q-19 -50 -43 -70q-15 -14 -37 -20t-44 -6q-21 0 -39.5 7.5t-30.5 22.5t-12 37q0 26 17 42t45 16q25 0 42 -13.5t17 -39.5q0 -18 -9.5 -31t-24.5 -20q3 -1 6 -1h5q28 0 50 18.5t37 59.5l36 96zM363 814q13 -11 14.5 -29t-13.5 -38
q-16 -20 -38 -38t-52.5 -43t-71.5 -67l-11 9q31 51 48 86.5t29 61.5t27 45q15 20 34.5 22.5t33.5 -9.5z" />
    <glyph glyph-name="thorn" unicode="&#xfe;" horiz-adv-x="567" 
d="M181 783v-869q0 -44 25 -59t69 -15v-21q-23 1 -64 2.5t-88 1.5q-32 0 -64.5 -1.5t-49.5 -2.5v21q35 0 49.5 13.5t14.5 50.5v759q0 45 -15 66.5t-57 21.5v21q32 -3 62 -3q34 0 63.5 3.5t54.5 10.5zM340 530q78 0 130.5 -63t52.5 -186q0 -80 -25 -147.5t-75.5 -107.5
t-128.5 -40q-45 0 -78.5 19t-47.5 48l10 14q13 -25 37 -41t58 -16q52 0 81.5 33.5t41.5 91t12 130.5q0 82 -12 132.5t-36 74t-58 23.5q-45 0 -81 -36t-45 -108l-10 21q14 75 61 116.5t113 41.5z" />
    <glyph glyph-name="ydieresis" unicode="&#xff;" horiz-adv-x="509" 
d="M500 516v-20q-19 -3 -35 -19.5t-31 -56.5l-156 -418l-24 -24l-195 461q-19 39 -36.5 47.5t-29.5 8.5v21q25 -3 53 -4.5t58 -1.5q34 0 68.5 2t64.5 4v-21q-24 0 -42.5 -3.5t-24 -19t9.5 -52.5l124 -305l-7 -3l101 268q22 60 5.5 86t-67.5 30v20q25 -1 45.5 -2t42.5 -1
t41.5 1t34.5 2zM278 2l-36 -94q-19 -50 -43 -70q-15 -14 -37 -20t-44 -6q-21 0 -39.5 7.5t-30.5 22.5t-12 37q0 26 17 42t45 16q25 0 42 -13.5t17 -39.5q0 -18 -9.5 -31t-24.5 -20q3 -1 6 -1h5q28 0 50 18.5t37 59.5l36 96zM365 749q25 0 44 -19.5t19 -44.5q0 -26 -19 -45
t-44 -19q-27 0 -45.5 19t-18.5 45q0 25 18.5 44.5t45.5 19.5zM147 749q26 0 45 -19.5t19 -44.5q0 -26 -19 -45t-45 -19t-44.5 19t-18.5 45q0 25 18.5 44.5t44.5 19.5z" />
    <glyph glyph-name="Amacron" unicode="&#x100;" horiz-adv-x="642" 
d="M338 712l244 -628q14 -37 32.5 -50t34.5 -14v-20q-24 2 -56.5 2.5t-65.5 0.5q-42 0 -78 -0.5t-58 -2.5v20q51 2 64.5 17.5t-6.5 66.5l-180 486l16 18l-166 -434q-24 -60 -23 -93t23.5 -46.5t64.5 -14.5v-20q-30 2 -60.5 2.5t-57.5 0.5q-24 0 -42.5 -0.5t-33.5 -2.5v20
q21 5 42 25t40 68l232 599h17h17zM443 288v-20h-298l10 20h288zM504 844v-25h-368v25h368z" />
    <glyph glyph-name="amacron" unicode="&#x101;" 
d="M161 -7q-66 0 -95.5 33.5t-29.5 85.5q0 43 20 70t51.5 44.5t67 30t67 24t52 26.5t20.5 38v68q0 36 -11.5 57.5t-31 30.5t-46.5 9q-23 0 -49 -6.5t-41 -25.5q22 -6 36.5 -23.5t14.5 -43.5q0 -28 -18.5 -44t-46.5 -16q-31 0 -46 19.5t-15 45.5q0 27 13.5 44t35.5 32
q24 16 61.5 27t83.5 11q43 0 74.5 -9.5t52.5 -30.5q25 -23 33 -57.5t8 -83.5v-276q0 -24 6 -35t22 -11q12 0 22 6t20 14l10 -17q-21 -17 -42.5 -27t-54.5 -10q-55 0 -72.5 26t-18.5 60q-29 -49 -68.5 -67.5t-84.5 -18.5zM216 41q26 0 51 14.5t47 49.5v199q-14 -21 -42.5 -34
t-58 -28.5t-50.5 -41.5t-21 -72q0 -45 21 -66t53 -21zM408 712v-25h-320v25h320z" />
    <glyph glyph-name="Abreve" unicode="&#x102;" horiz-adv-x="642" 
d="M338 712l244 -628q14 -37 32.5 -50t34.5 -14v-20q-24 2 -56.5 2.5t-65.5 0.5q-42 0 -78 -0.5t-58 -2.5v20q51 2 64.5 17.5t-6.5 66.5l-180 486l16 18l-166 -434q-24 -60 -23 -93t23.5 -46.5t64.5 -14.5v-20q-30 2 -60.5 2.5t-57.5 0.5q-24 0 -42.5 -0.5t-33.5 -2.5v20
q21 5 42 25t40 68l232 599h17h17zM443 288v-20h-298l10 20h288zM513 911l12 -11q-15 -27 -43 -55.5t-69 -47.5t-95 -19t-95 19t-69 47.5t-43 55.5l13 10q24 -21 71.5 -41.5t122.5 -20.5t123 21t72 42z" />
    <glyph glyph-name="abreve" unicode="&#x103;" 
d="M161 -7q-66 0 -95.5 33.5t-29.5 85.5q0 43 20 70t51.5 44.5t67 30t67 24t52 26.5t20.5 38v68q0 36 -11.5 57.5t-31 30.5t-46.5 9q-23 0 -49 -6.5t-41 -25.5q22 -6 36.5 -23.5t14.5 -43.5q0 -28 -18.5 -44t-46.5 -16q-31 0 -46 19.5t-15 45.5q0 27 13.5 44t35.5 32
q24 16 61.5 27t83.5 11q43 0 74.5 -9.5t52.5 -30.5q25 -23 33 -57.5t8 -83.5v-276q0 -24 6 -35t22 -11q12 0 22 6t20 14l10 -17q-21 -17 -42.5 -27t-54.5 -10q-55 0 -72.5 26t-18.5 60q-29 -49 -68.5 -67.5t-84.5 -18.5zM216 41q26 0 51 14.5t47 49.5v199q-14 -21 -42.5 -34
t-58 -28.5t-50.5 -41.5t-21 -72q0 -45 21 -66t53 -21zM416 788l17 -9q-13 -34 -37.5 -69t-60.5 -58t-85 -23t-85 23t-60.5 58t-37.5 69l17 9q21 -31 60.5 -59.5t105.5 -28.5t105.5 28.5t60.5 59.5z" />
    <glyph glyph-name="Aogonek" unicode="&#x104;" horiz-adv-x="642" 
d="M338 712l244 -628q14 -37 32.5 -50t34.5 -14v-20q-24 2 -56.5 2.5t-65.5 0.5q-42 0 -78 -0.5t-58 -2.5v20q51 2 64.5 17.5t-6.5 66.5l-180 486l16 18l-166 -434q-24 -60 -23 -93t23.5 -46.5t64.5 -14.5v-20q-30 2 -60.5 2.5t-57.5 0.5q-24 0 -42.5 -0.5t-33.5 -2.5v20
q21 5 42 25t40 68l232 599h17h17zM443 288v-20h-298l10 20h288zM637 3q-60 -17 -82.5 -45t-22.5 -53q0 -19 11 -31t31 -12q19 0 35.5 9.5t26.5 21.5l15 -13q-24 -35 -54 -51.5t-67 -16.5q-39 0 -61 18t-22 48q0 40 40 72t112 53h38z" />
    <glyph glyph-name="aogonek" unicode="&#x105;" 
d="M161 -7q-66 0 -95.5 33.5t-29.5 85.5q0 43 20 70t51.5 44.5t67 30t67 24t52 26.5t20.5 38v68q0 36 -11.5 57.5t-31 30.5t-46.5 9q-23 0 -49 -6.5t-41 -25.5q22 -6 36.5 -23.5t14.5 -43.5q0 -28 -18.5 -44t-46.5 -16q-31 0 -46 19.5t-15 45.5q0 27 13.5 44t35.5 32
q24 16 61.5 27t83.5 11q43 0 74.5 -9.5t52.5 -30.5q25 -23 33 -57.5t8 -83.5v-276q0 -24 6 -35t22 -11q12 0 22 6t20 14l10 -17q-21 -17 -42.5 -27t-54.5 -10q-55 0 -72.5 26t-18.5 60q-29 -49 -68.5 -67.5t-84.5 -18.5zM216 41q26 0 51 14.5t47 49.5v199q-14 -21 -42.5 -34
t-58 -28.5t-50.5 -41.5t-21 -72q0 -45 21 -66t53 -21zM460 5q-2 -2 -5.5 -4t-7.5 -3q-47 -21 -65 -45.5t-18 -47.5q0 -19 11.5 -31t31.5 -12q18 0 34.5 9.5t27.5 21.5l14 -13q-24 -35 -54 -51.5t-67 -16.5q-38 0 -60.5 18t-22.5 48q0 40 38.5 72t107.5 53z" />
    <glyph glyph-name="Cacute" unicode="&#x106;" horiz-adv-x="694" 
d="M380 722q66 0 108.5 -19.5t75.5 -45.5q20 -15 30.5 -3.5t14.5 54.5h23q-2 -38 -3 -91.5t-1 -142.5h-23q-7 44 -13.5 72t-17 48t-28.5 39q-29 36 -71 52t-89 16q-51 0 -90 -25.5t-65.5 -72.5t-40.5 -111t-14 -140q0 -78 15 -141.5t43.5 -109t69 -70t90.5 -24.5
q41 0 85 16.5t70 50.5q28 30 38.5 67.5t17.5 102.5h23q0 -92 1 -148.5t3 -95.5h-23q-4 43 -13.5 54t-31.5 -3q-37 -26 -78.5 -45.5t-106.5 -19.5q-99 0 -173 43t-115 124t-41 195q0 112 42.5 196t116.5 131t171 47zM470 929q20 12 39.5 8t28.5 -20q8 -15 3 -32.5t-27 -31.5
q-21 -12 -48.5 -21.5t-64.5 -22.5t-90 -37l-7 13q47 36 75.5 63.5t48.5 47.5t42 33z" />
    <glyph glyph-name="cacute" unicode="&#x107;" horiz-adv-x="489" 
d="M281 530q34 0 65 -8.5t54 -23.5q24 -15 36.5 -36t12.5 -46q0 -30 -17 -47t-44 -17t-45 15t-18 43q0 26 15 42.5t35 21.5q-9 15 -31.5 25.5t-48.5 10.5q-27 0 -51.5 -14t-43.5 -43t-30.5 -75t-11.5 -111q0 -84 19.5 -133.5t51.5 -70.5t69 -21q35 0 74 20.5t66 75.5l19 -7
q-11 -33 -34.5 -67t-61.5 -56t-93 -22q-63 0 -114 31t-81 90.5t-30 145.5q0 84 30.5 146.5t84.5 96.5t123 34zM373 814q13 -11 14.5 -29t-13.5 -38q-16 -20 -38 -38t-52.5 -43t-71.5 -67l-11 9q31 51 48 86.5t29 61.5t27 45q15 20 34.5 22.5t33.5 -9.5z" />
    <glyph glyph-name="Ccircumflex" unicode="&#x108;" horiz-adv-x="694" 
d="M380 722q66 0 108.5 -19.5t75.5 -45.5q20 -15 30.5 -3.5t14.5 54.5h23q-2 -38 -3 -91.5t-1 -142.5h-23q-7 44 -13.5 72t-17 48t-28.5 39q-29 36 -71 52t-89 16q-51 0 -90 -25.5t-65.5 -72.5t-40.5 -111t-14 -140q0 -78 15 -141.5t43.5 -109t69 -70t90.5 -24.5
q41 0 85 16.5t70 50.5q28 30 38.5 67.5t17.5 102.5h23q0 -92 1 -148.5t3 -95.5h-23q-4 43 -13.5 54t-31.5 -3q-37 -26 -78.5 -45.5t-106.5 -19.5q-99 0 -173 43t-115 124t-41 195q0 112 42.5 196t116.5 131t171 47zM378 924q25 -40 76.5 -77.5t116.5 -62.5l-5 -14
q-62 12 -121.5 31t-95.5 37q-29 -18 -78 -37t-99 -31l-5 14q65 25 116 62.5t77 77.5h18z" />
    <glyph glyph-name="ccircumflex" unicode="&#x109;" horiz-adv-x="489" 
d="M281 530q34 0 65 -8.5t54 -23.5q24 -15 36.5 -36t12.5 -46q0 -30 -17 -47t-44 -17t-45 15t-18 43q0 26 15 42.5t35 21.5q-9 15 -31.5 25.5t-48.5 10.5q-27 0 -51.5 -14t-43.5 -43t-30.5 -75t-11.5 -111q0 -84 19.5 -133.5t51.5 -70.5t69 -21q35 0 74 20.5t66 75.5l19 -7
q-11 -33 -34.5 -67t-61.5 -56t-93 -22q-63 0 -114 31t-81 90.5t-30 145.5q0 84 30.5 146.5t84.5 96.5t123 34zM274 808q22 -52 67.5 -100.5t103.5 -79.5l-8 -14q-55 17 -107 42t-85 50q-26 -25 -67.5 -50t-84.5 -42l-8 14q58 31 103.5 79.5t67.5 100.5h18z" />
    <glyph glyph-name="Cdotaccent" unicode="&#x10a;" horiz-adv-x="694" 
d="M380 722q66 0 108.5 -19.5t75.5 -45.5q20 -15 30.5 -3.5t14.5 54.5h23q-2 -38 -3 -91.5t-1 -142.5h-23q-7 44 -13.5 72t-17 48t-28.5 39q-29 36 -71 52t-89 16q-51 0 -90 -25.5t-65.5 -72.5t-40.5 -111t-14 -140q0 -78 15 -141.5t43.5 -109t69 -70t90.5 -24.5
q41 0 85 16.5t70 50.5q28 30 38.5 67.5t17.5 102.5h23q0 -92 1 -148.5t3 -95.5h-23q-4 43 -13.5 54t-31.5 -3q-37 -26 -78.5 -45.5t-106.5 -19.5q-99 0 -173 43t-115 124t-41 195q0 112 42.5 196t116.5 131t171 47zM370 906q30 0 50.5 -19.5t20.5 -48.5t-20.5 -48.5
t-50.5 -19.5q-31 0 -51 19.5t-20 48.5t20 48.5t51 19.5z" />
    <glyph glyph-name="cdotaccent" unicode="&#x10b;" horiz-adv-x="489" 
d="M281 530q34 0 65 -8.5t54 -23.5q24 -15 36.5 -36t12.5 -46q0 -30 -17 -47t-44 -17t-45 15t-18 43q0 26 15 42.5t35 21.5q-9 15 -31.5 25.5t-48.5 10.5q-27 0 -51.5 -14t-43.5 -43t-30.5 -75t-11.5 -111q0 -84 19.5 -133.5t51.5 -70.5t69 -21q35 0 74 20.5t66 75.5l19 -7
q-11 -33 -34.5 -67t-61.5 -56t-93 -22q-63 0 -114 31t-81 90.5t-30 145.5q0 84 30.5 146.5t84.5 96.5t123 34zM276 768q31 0 52 -19.5t21 -48.5t-21 -48.5t-52 -19.5t-52 19.5t-21 48.5t21 48.5t52 19.5z" />
    <glyph glyph-name="Ccaron" unicode="&#x10c;" horiz-adv-x="694" 
d="M380 722q66 0 108.5 -19.5t75.5 -45.5q20 -15 30.5 -3.5t14.5 54.5h23q-2 -38 -3 -91.5t-1 -142.5h-23q-7 44 -13.5 72t-17 48t-28.5 39q-29 36 -71 52t-89 16q-51 0 -90 -25.5t-65.5 -72.5t-40.5 -111t-14 -140q0 -78 15 -141.5t43.5 -109t69 -70t90.5 -24.5
q41 0 85 16.5t70 50.5q28 30 38.5 67.5t17.5 102.5h23q0 -92 1 -148.5t3 -95.5h-23q-4 43 -13.5 54t-31.5 -3q-37 -26 -78.5 -45.5t-106.5 -19.5q-99 0 -173 43t-115 124t-41 195q0 112 42.5 196t116.5 131t171 47zM563 930l5 -14q-65 -24 -116 -62t-77 -78h-18
q-25 40 -76.5 78t-116.5 62l5 14q62 -12 122 -31t95 -37q30 18 78.5 37t98.5 31z" />
    <glyph glyph-name="ccaron" unicode="&#x10d;" horiz-adv-x="489" 
d="M281 530q34 0 65 -8.5t54 -23.5q24 -15 36.5 -36t12.5 -46q0 -30 -17 -47t-44 -17t-45 15t-18 43q0 26 15 42.5t35 21.5q-9 15 -31.5 25.5t-48.5 10.5q-27 0 -51.5 -14t-43.5 -43t-30.5 -75t-11.5 -111q0 -84 19.5 -133.5t51.5 -70.5t69 -21q35 0 74 20.5t66 75.5l19 -7
q-11 -33 -34.5 -67t-61.5 -56t-93 -22q-63 0 -114 31t-81 90.5t-30 145.5q0 84 30.5 146.5t84.5 96.5t123 34zM427 808l8 -14q-58 -30 -103.5 -79t-67.5 -101h-18q-22 52 -67.5 101t-103.5 79l8 14q55 -17 107.5 -42t84.5 -50q27 25 68 50t84 42z" />
    <glyph glyph-name="Dcaron" unicode="&#x10e;" horiz-adv-x="741" 
d="M324 708q185 0 275 -89.5t90 -256.5q0 -109 -44 -190.5t-127.5 -126.5t-202.5 -45q-22 0 -65.5 1.5t-76.5 1.5q-38 0 -74.5 -0.5t-59.5 -2.5v20q34 2 51 8t22.5 24t5.5 54v496q0 37 -5.5 54.5t-23 24t-50.5 7.5v20q23 -1 59.5 -2.5t72.5 -0.5t80.5 2t72.5 1zM307 690
q-46 0 -60 -17t-14 -69v-500q0 -52 14.5 -69t60.5 -17q101 0 157 39.5t79 115.5t23 185q0 168 -58 250t-202 82zM518 930l5 -14q-65 -24 -116 -62t-77 -78h-18q-25 40 -76.5 78t-116.5 62l5 14q62 -12 122 -31t95 -37q30 18 78.5 37t98.5 31z" />
    <glyph glyph-name="dcaron" unicode="&#x10f;" horiz-adv-x="587" 
d="M495 784v-675q0 -45 15.5 -66.5t56.5 -21.5v-21q-31 3 -62 3q-34 0 -63.5 -3t-54.5 -11v675q0 45 -15.5 66.5t-56.5 21.5v21q32 -3 62 -3q33 0 63 3.5t55 10.5zM270 530q44 0 80.5 -19t51.5 -64l-12 -11q-14 36 -41 52.5t-61 16.5q-57 0 -93 -60.5t-35 -186.5
q0 -83 14 -135.5t41.5 -77.5t66.5 -25t70.5 33t37.5 95l9 -21q-10 -68 -48 -104.5t-102 -36.5q-61 0 -107.5 29.5t-71.5 90t-25 152.5q0 91 30.5 151.5t81.5 90.5t113 30zM636 784q2 -5 3.5 -18.5t1.5 -22.5q0 -29 -21 -72t-56 -108l-14 4q12 68 16 100t4 45q0 20 -3.5 30
t-16.5 10v21q31 -2 50.5 2t35.5 9z" />
    <glyph glyph-name="Dcroat" unicode="&#x110;" horiz-adv-x="741" 
d="M324 708q185 0 275 -89.5t90 -256.5q0 -109 -44 -190.5t-127.5 -126.5t-202.5 -45q-22 0 -65.5 1.5t-76.5 1.5q-38 0 -74.5 -0.5t-59.5 -2.5v20q34 2 51 8t22.5 24t5.5 54v496q0 37 -5.5 54.5t-23 24t-50.5 7.5v20q23 -1 59.5 -2.5t72.5 -0.5t80.5 2t72.5 1zM307 690
q-46 0 -60 -17t-14 -69v-500q0 -52 14.5 -69t60.5 -17q101 0 157 39.5t79 115.5t23 185q0 168 -58 250t-202 82zM373 366v-20h-364v20h364z" />
    <glyph glyph-name="dcroat" unicode="&#x111;" horiz-adv-x="587" 
d="M495 784v-675q0 -45 15.5 -66.5t56.5 -21.5v-21q-31 3 -62 3q-34 0 -63.5 -3t-54.5 -11v675q0 45 -15.5 66.5t-56.5 21.5v21q32 -3 62 -3q33 0 63 3.5t55 10.5zM270 530q44 0 80.5 -19t51.5 -64l-12 -11q-14 36 -41 52.5t-61 16.5q-57 0 -93 -60.5t-35 -186.5
q0 -83 14 -135.5t41.5 -77.5t66.5 -25t70.5 33t37.5 95l9 -21q-10 -68 -48 -104.5t-102 -36.5q-61 0 -107.5 29.5t-71.5 90t-25 152.5q0 91 30.5 151.5t81.5 90.5t113 30zM578 628v-20h-364v20h364z" />
    <glyph glyph-name="Emacron" unicode="&#x112;" horiz-adv-x="617" 
d="M550 708q-4 -38 -5.5 -73.5t-1.5 -54.5t1 -36t2 -28h-23q-7 64 -21.5 101t-43 52.5t-79.5 15.5h-69q-32 0 -48.5 -5.5t-22.5 -22t-6 -51.5v-504q0 -34 6 -51t22.5 -22.5t48.5 -5.5h65q57 0 90.5 18t51 59t26.5 112h23q-3 -29 -3 -76q0 -20 1.5 -58t5.5 -78
q-51 2 -115 2.5t-114 0.5h-82.5t-110 -0.5t-109.5 -2.5v20q34 2 51 8t22.5 24t5.5 54v496q0 37 -5.5 54.5t-23 24t-50.5 7.5v20q51 -1 109.5 -2t110 -1h82.5q46 0 104.5 0.5t104.5 2.5zM384 366v-10v-10h-181v10v10h181zM413 498q-4 -57 -3.5 -87t0.5 -55t1 -55t5 -87h-23
q-5 33 -13 63.5t-28.5 49.5t-63.5 19v20q43 0 62.5 22.5t27 53.5t12.5 56h23zM493 844v-25h-368v25h368z" />
    <glyph glyph-name="emacron" unicode="&#x113;" 
d="M275 530q88 0 138 -53t50 -168h-345l-2 19h241q1 49 -8 90.5t-28 66.5t-50 25q-43 0 -74.5 -45.5t-38.5 -145.5l3 -5q-1 -14 -2 -30.5t-1 -32.5q0 -69 21 -116t55 -70.5t69 -23.5q40 0 77.5 20t64.5 74l20 -8q-12 -34 -37 -67t-64 -53.5t-91 -20.5q-70 0 -122 31.5
t-80 90.5t-28 140q0 89 29 152t81.5 96.5t121.5 33.5zM430 712v-25h-320v25h320z" />
    <glyph glyph-name="Ebreve" unicode="&#x114;" horiz-adv-x="617" 
d="M550 708q-4 -38 -5.5 -73.5t-1.5 -54.5t1 -36t2 -28h-23q-7 64 -21.5 101t-43 52.5t-79.5 15.5h-69q-32 0 -48.5 -5.5t-22.5 -22t-6 -51.5v-504q0 -34 6 -51t22.5 -22.5t48.5 -5.5h65q57 0 90.5 18t51 59t26.5 112h23q-3 -29 -3 -76q0 -20 1.5 -58t5.5 -78
q-51 2 -115 2.5t-114 0.5h-82.5t-110 -0.5t-109.5 -2.5v20q34 2 51 8t22.5 24t5.5 54v496q0 37 -5.5 54.5t-23 24t-50.5 7.5v20q51 -1 109.5 -2t110 -1h82.5q46 0 104.5 0.5t104.5 2.5zM384 366v-10v-10h-181v10v10h181zM413 498q-4 -57 -3.5 -87t0.5 -55t1 -55t5 -87h-23
q-5 33 -13 63.5t-28.5 49.5t-63.5 19v20q43 0 62.5 22.5t27 53.5t12.5 56h23zM502 911l12 -11q-15 -27 -43 -55.5t-69 -47.5t-95 -19t-95 19t-69 47.5t-43 55.5l13 10q24 -21 71.5 -41.5t122.5 -20.5t123 21t72 42z" />
    <glyph glyph-name="ebreve" unicode="&#x115;" 
d="M275 530q88 0 138 -53t50 -168h-345l-2 19h241q1 49 -8 90.5t-28 66.5t-50 25q-43 0 -74.5 -45.5t-38.5 -145.5l3 -5q-1 -14 -2 -30.5t-1 -32.5q0 -69 21 -116t55 -70.5t69 -23.5q40 0 77.5 20t64.5 74l20 -8q-12 -34 -37 -67t-64 -53.5t-91 -20.5q-70 0 -122 31.5
t-80 90.5t-28 140q0 89 29 152t81.5 96.5t121.5 33.5zM438 788l17 -9q-13 -34 -37.5 -69t-60.5 -58t-85 -23t-85 23t-60.5 58t-37.5 69l17 9q21 -31 60.5 -59.5t105.5 -28.5t105.5 28.5t60.5 59.5z" />
    <glyph glyph-name="Edotaccent" unicode="&#x116;" horiz-adv-x="617" 
d="M550 708q-4 -38 -5.5 -73.5t-1.5 -54.5t1 -36t2 -28h-23q-7 64 -21.5 101t-43 52.5t-79.5 15.5h-69q-32 0 -48.5 -5.5t-22.5 -22t-6 -51.5v-504q0 -34 6 -51t22.5 -22.5t48.5 -5.5h65q57 0 90.5 18t51 59t26.5 112h23q-3 -29 -3 -76q0 -20 1.5 -58t5.5 -78
q-51 2 -115 2.5t-114 0.5h-82.5t-110 -0.5t-109.5 -2.5v20q34 2 51 8t22.5 24t5.5 54v496q0 37 -5.5 54.5t-23 24t-50.5 7.5v20q51 -1 109.5 -2t110 -1h82.5q46 0 104.5 0.5t104.5 2.5zM384 366v-10v-10h-181v10v10h181zM413 498q-4 -57 -3.5 -87t0.5 -55t1 -55t5 -87h-23
q-5 33 -13 63.5t-28.5 49.5t-63.5 19v20q43 0 62.5 22.5t27 53.5t12.5 56h23zM309 906q30 0 50.5 -19.5t20.5 -48.5t-20.5 -48.5t-50.5 -19.5q-31 0 -51 19.5t-20 48.5t20 48.5t51 19.5z" />
    <glyph glyph-name="edotaccent" unicode="&#x117;" 
d="M275 530q88 0 138 -53t50 -168h-345l-2 19h241q1 49 -8 90.5t-28 66.5t-50 25q-43 0 -74.5 -45.5t-38.5 -145.5l3 -5q-1 -14 -2 -30.5t-1 -32.5q0 -69 21 -116t55 -70.5t69 -23.5q40 0 77.5 20t64.5 74l20 -8q-12 -34 -37 -67t-64 -53.5t-91 -20.5q-70 0 -122 31.5
t-80 90.5t-28 140q0 89 29 152t81.5 96.5t121.5 33.5zM273 768q31 0 52 -19.5t21 -48.5t-21 -48.5t-52 -19.5t-52 19.5t-21 48.5t21 48.5t52 19.5z" />
    <glyph glyph-name="Eogonek" unicode="&#x118;" horiz-adv-x="617" 
d="M550 708q-4 -38 -5.5 -73.5t-1.5 -54.5t1 -36t2 -28h-23q-7 64 -21.5 101t-43 52.5t-79.5 15.5h-69q-32 0 -48.5 -5.5t-22.5 -22t-6 -51.5v-504q0 -34 6 -51t22.5 -22.5t48.5 -5.5h65q57 0 90.5 18t51 59t26.5 112h23q-3 -29 -3 -76q0 -20 1.5 -58t5.5 -78
q-51 2 -115 2.5t-114 0.5h-82.5t-110 -0.5t-109.5 -2.5v20q34 2 51 8t22.5 24t5.5 54v496q0 37 -5.5 54.5t-23 24t-50.5 7.5v20q51 -1 109.5 -2t110 -1h82.5q46 0 104.5 0.5t104.5 2.5zM384 366v-10v-10h-181v10v10h181zM413 498q-4 -57 -3.5 -87t0.5 -55t1 -55t5 -87h-23
q-5 33 -13 63.5t-28.5 49.5t-63.5 19v20q43 0 62.5 22.5t27 53.5t12.5 56h23zM570 3q-60 -17 -82.5 -45t-22.5 -53q0 -19 11 -31t31 -12q19 0 35.5 9.5t26.5 21.5l15 -13q-24 -35 -54 -51.5t-67 -16.5q-39 0 -61 18t-22 48q0 40 40 72t112 53h38z" />
    <glyph glyph-name="eogonek" unicode="&#x119;" 
d="M275 530q88 0 138 -53t50 -168h-345l-2 19h241q1 49 -8 90.5t-28 66.5t-50 25q-43 0 -74.5 -45.5t-38.5 -145.5l3 -5q-1 -14 -2 -30.5t-1 -32.5q0 -69 21 -116t55 -70.5t69 -23.5q40 0 77.5 20t64.5 74l20 -8q-12 -34 -37 -67t-64 -53.5t-91 -20.5q-70 0 -122 31.5
t-80 90.5t-28 140q0 89 29 152t81.5 96.5t121.5 33.5zM355 5q-2 -2 -5.5 -4t-7.5 -3q-47 -21 -65 -45.5t-18 -47.5q0 -19 11.5 -31t31.5 -12q18 0 34.5 9.5t27.5 21.5l14 -13q-24 -35 -54 -51.5t-67 -16.5q-38 0 -60.5 18t-22.5 48q0 40 38.5 72t107.5 53z" />
    <glyph glyph-name="Ecaron" unicode="&#x11a;" horiz-adv-x="617" 
d="M550 708q-4 -38 -5.5 -73.5t-1.5 -54.5t1 -36t2 -28h-23q-7 64 -21.5 101t-43 52.5t-79.5 15.5h-69q-32 0 -48.5 -5.5t-22.5 -22t-6 -51.5v-504q0 -34 6 -51t22.5 -22.5t48.5 -5.5h65q57 0 90.5 18t51 59t26.5 112h23q-3 -29 -3 -76q0 -20 1.5 -58t5.5 -78
q-51 2 -115 2.5t-114 0.5h-82.5t-110 -0.5t-109.5 -2.5v20q34 2 51 8t22.5 24t5.5 54v496q0 37 -5.5 54.5t-23 24t-50.5 7.5v20q51 -1 109.5 -2t110 -1h82.5q46 0 104.5 0.5t104.5 2.5zM384 366v-10v-10h-181v10v10h181zM413 498q-4 -57 -3.5 -87t0.5 -55t1 -55t5 -87h-23
q-5 33 -13 63.5t-28.5 49.5t-63.5 19v20q43 0 62.5 22.5t27 53.5t12.5 56h23zM503 930l5 -14q-65 -24 -116 -62t-77 -78h-18q-25 40 -76.5 78t-116.5 62l5 14q62 -12 122 -31t95 -37q30 18 78.5 37t98.5 31z" />
    <glyph glyph-name="ecaron" unicode="&#x11b;" 
d="M275 530q88 0 138 -53t50 -168h-345l-2 19h241q1 49 -8 90.5t-28 66.5t-50 25q-43 0 -74.5 -45.5t-38.5 -145.5l3 -5q-1 -14 -2 -30.5t-1 -32.5q0 -69 21 -116t55 -70.5t69 -23.5q40 0 77.5 20t64.5 74l20 -8q-12 -34 -37 -67t-64 -53.5t-91 -20.5q-70 0 -122 31.5
t-80 90.5t-28 140q0 89 29 152t81.5 96.5t121.5 33.5zM435 808l8 -14q-58 -30 -103.5 -79t-67.5 -101h-18q-22 52 -67.5 101t-103.5 79l8 14q55 -17 107.5 -42t84.5 -50q27 25 68 50t84 42z" />
    <glyph glyph-name="Gcircumflex" unicode="&#x11c;" horiz-adv-x="714" 
d="M386 722q66 0 107 -19.5t75 -45.5q13 -10 20 -10q19 0 25 61h23q-2 -38 -3 -91.5t-1 -142.5h-23q-7 48 -18.5 89t-39.5 70q-27 32 -70.5 50t-88.5 18q-52 0 -92 -25.5t-67.5 -72.5t-42 -110.5t-14.5 -139.5q0 -180 55.5 -263.5t167.5 -83.5q32 0 55.5 9t37.5 18
q17 12 22 23.5t5 30.5v97q0 43 -7.5 63.5t-29.5 28t-64 8.5v20q19 -1 45 -1.5t54.5 -1t51.5 -0.5q36 0 65.5 1t48.5 2v-20q-31 -2 -40 -16t-9 -70v-198h-20q-1 17 -7.5 37t-19.5 20q-7 0 -14.5 -3t-25.5 -15q-35 -24 -73 -38.5t-86 -14.5q-162 0 -250 94.5t-88 262.5
q0 116 43.5 201t119 131.5t173.5 46.5zM378 924q25 -40 76.5 -77.5t116.5 -62.5l-5 -14q-62 12 -121.5 31t-95.5 37q-29 -18 -78 -37t-99 -31l-5 14q65 25 116 62.5t77 77.5h18z" />
    <glyph glyph-name="gcircumflex" unicode="&#x11d;" horiz-adv-x="536" 
d="M215 -188q-56 0 -103.5 11t-76 33.5t-28.5 57.5q0 33 28 58t79 38l7 -16q-21 -9 -32.5 -29t-11.5 -44q0 -44 41 -68t108 -24q45 0 85.5 11.5t66 37.5t25.5 67q0 32 -23 53.5t-91 21.5h-70q-35 0 -65 6t-48.5 23.5t-18.5 49.5q0 36 30 68t101 63l12 -9
q-29 -16 -51.5 -32.5t-22.5 -40.5q0 -32 46 -32h119q69 0 119 -28.5t50 -94.5q0 -47 -30.5 -88.5t-91.5 -67t-153 -25.5zM221 213q-77 0 -130 38t-53 120q0 83 53 121t130 38q78 0 130.5 -38t52.5 -121q0 -82 -52.5 -120t-130.5 -38zM221 231q35 0 54 30t19 110t-19 110.5
t-54 30.5q-33 0 -53 -30.5t-20 -110.5t20 -110t53 -30zM369 446l-18 7q14 35 48 61t71 26q28 0 44.5 -15.5t16.5 -43.5q0 -31 -16.5 -44t-34.5 -13q-16 0 -29.5 11t-15.5 34.5t15 60.5l11 -4q-40 -16 -58.5 -33.5t-33.5 -46.5zM251 808q22 -52 67.5 -100.5t103.5 -79.5
l-8 -14q-55 17 -107 42t-85 50q-26 -25 -67.5 -50t-84.5 -42l-8 14q58 31 103.5 79.5t67.5 100.5h18z" />
    <glyph glyph-name="Gbreve" unicode="&#x11e;" horiz-adv-x="714" 
d="M386 722q66 0 107 -19.5t75 -45.5q13 -10 20 -10q19 0 25 61h23q-2 -38 -3 -91.5t-1 -142.5h-23q-7 48 -18.5 89t-39.5 70q-27 32 -70.5 50t-88.5 18q-52 0 -92 -25.5t-67.5 -72.5t-42 -110.5t-14.5 -139.5q0 -180 55.5 -263.5t167.5 -83.5q32 0 55.5 9t37.5 18
q17 12 22 23.5t5 30.5v97q0 43 -7.5 63.5t-29.5 28t-64 8.5v20q19 -1 45 -1.5t54.5 -1t51.5 -0.5q36 0 65.5 1t48.5 2v-20q-31 -2 -40 -16t-9 -70v-198h-20q-1 17 -7.5 37t-19.5 20q-7 0 -14.5 -3t-25.5 -15q-35 -24 -73 -38.5t-86 -14.5q-162 0 -250 94.5t-88 262.5
q0 116 43.5 201t119 131.5t173.5 46.5zM562 911l12 -11q-15 -27 -43 -55.5t-69 -47.5t-95 -19t-95 19t-69 47.5t-43 55.5l13 10q24 -21 71.5 -41.5t122.5 -20.5t123 21t72 42z" />
    <glyph glyph-name="gbreve" unicode="&#x11f;" horiz-adv-x="536" 
d="M215 -188q-56 0 -103.5 11t-76 33.5t-28.5 57.5q0 33 28 58t79 38l7 -16q-21 -9 -32.5 -29t-11.5 -44q0 -44 41 -68t108 -24q45 0 85.5 11.5t66 37.5t25.5 67q0 32 -23 53.5t-91 21.5h-70q-35 0 -65 6t-48.5 23.5t-18.5 49.5q0 36 30 68t101 63l12 -9
q-29 -16 -51.5 -32.5t-22.5 -40.5q0 -32 46 -32h119q69 0 119 -28.5t50 -94.5q0 -47 -30.5 -88.5t-91.5 -67t-153 -25.5zM221 213q-77 0 -130 38t-53 120q0 83 53 121t130 38q78 0 130.5 -38t52.5 -121q0 -82 -52.5 -120t-130.5 -38zM221 231q35 0 54 30t19 110t-19 110.5
t-54 30.5q-33 0 -53 -30.5t-20 -110.5t20 -110t53 -30zM369 446l-18 7q14 35 48 61t71 26q28 0 44.5 -15.5t16.5 -43.5q0 -31 -16.5 -44t-34.5 -13q-16 0 -29.5 11t-15.5 34.5t15 60.5l11 -4q-40 -16 -58.5 -33.5t-33.5 -46.5zM407 788l17 -9q-13 -34 -37.5 -69t-60.5 -58
t-85 -23t-85 23t-60.5 58t-37.5 69l17 9q21 -31 60.5 -59.5t105.5 -28.5t105.5 28.5t60.5 59.5z" />
    <glyph glyph-name="Gdotaccent" unicode="&#x120;" horiz-adv-x="714" 
d="M386 722q66 0 107 -19.5t75 -45.5q13 -10 20 -10q19 0 25 61h23q-2 -38 -3 -91.5t-1 -142.5h-23q-7 48 -18.5 89t-39.5 70q-27 32 -70.5 50t-88.5 18q-52 0 -92 -25.5t-67.5 -72.5t-42 -110.5t-14.5 -139.5q0 -180 55.5 -263.5t167.5 -83.5q32 0 55.5 9t37.5 18
q17 12 22 23.5t5 30.5v97q0 43 -7.5 63.5t-29.5 28t-64 8.5v20q19 -1 45 -1.5t54.5 -1t51.5 -0.5q36 0 65.5 1t48.5 2v-20q-31 -2 -40 -16t-9 -70v-198h-20q-1 17 -7.5 37t-19.5 20q-7 0 -14.5 -3t-25.5 -15q-35 -24 -73 -38.5t-86 -14.5q-162 0 -250 94.5t-88 262.5
q0 116 43.5 201t119 131.5t173.5 46.5zM373 906q30 0 50.5 -19.5t20.5 -48.5t-20.5 -48.5t-50.5 -19.5q-31 0 -51 19.5t-20 48.5t20 48.5t51 19.5z" />
    <glyph glyph-name="gdotaccent" unicode="&#x121;" horiz-adv-x="536" 
d="M215 -188q-56 0 -103.5 11t-76 33.5t-28.5 57.5q0 33 28 58t79 38l7 -16q-21 -9 -32.5 -29t-11.5 -44q0 -44 41 -68t108 -24q45 0 85.5 11.5t66 37.5t25.5 67q0 32 -23 53.5t-91 21.5h-70q-35 0 -65 6t-48.5 23.5t-18.5 49.5q0 36 30 68t101 63l12 -9
q-29 -16 -51.5 -32.5t-22.5 -40.5q0 -32 46 -32h119q69 0 119 -28.5t50 -94.5q0 -47 -30.5 -88.5t-91.5 -67t-153 -25.5zM221 213q-77 0 -130 38t-53 120q0 83 53 121t130 38q78 0 130.5 -38t52.5 -121q0 -82 -52.5 -120t-130.5 -38zM221 231q35 0 54 30t19 110t-19 110.5
t-54 30.5q-33 0 -53 -30.5t-20 -110.5t20 -110t53 -30zM369 446l-18 7q14 35 48 61t71 26q28 0 44.5 -15.5t16.5 -43.5q0 -31 -16.5 -44t-34.5 -13q-16 0 -29.5 11t-15.5 34.5t15 60.5l11 -4q-40 -16 -58.5 -33.5t-33.5 -46.5zM242 768q31 0 52 -19.5t21 -48.5t-21 -48.5
t-52 -19.5t-52 19.5t-21 48.5t21 48.5t52 19.5z" />
    <glyph glyph-name="uni0122" unicode="&#x122;" horiz-adv-x="714" 
d="M386 722q66 0 107 -19.5t75 -45.5q13 -10 20 -10q19 0 25 61h23q-2 -38 -3 -91.5t-1 -142.5h-23q-7 48 -18.5 89t-39.5 70q-27 32 -70.5 50t-88.5 18q-52 0 -92 -25.5t-67.5 -72.5t-42 -110.5t-14.5 -139.5q0 -180 55.5 -263.5t167.5 -83.5q32 0 55.5 9t37.5 18
q17 12 22 23.5t5 30.5v97q0 43 -7.5 63.5t-29.5 28t-64 8.5v20q19 -1 45 -1.5t54.5 -1t51.5 -0.5q36 0 65.5 1t48.5 2v-20q-31 -2 -40 -16t-9 -70v-198h-20q-1 17 -7.5 37t-19.5 20q-7 0 -14.5 -3t-25.5 -15q-35 -24 -73 -38.5t-86 -14.5q-162 0 -250 94.5t-88 262.5
q0 116 43.5 201t119 131.5t173.5 46.5zM379 -64q31 0 51 -20.5t20 -52.5q0 -38 -20.5 -64.5t-72.5 -40.5l-6 19q27 7 47.5 22t20.5 39q-7 -7 -18.5 -11.5t-25.5 -4.5q-26 0 -42.5 14.5t-16.5 42.5q0 25 18 41t45 16z" />
    <glyph glyph-name="uni0123" unicode="&#x123;" horiz-adv-x="518" 
d="M215 -188q-56 0 -103.5 11t-76 33.5t-28.5 57.5q0 33 28 58t79 38l7 -16q-21 -9 -32.5 -29t-11.5 -44q0 -44 41 -68t108 -24q45 0 85.5 11.5t66 37.5t25.5 67q0 32 -23 53.5t-91 21.5h-70q-35 0 -65 6t-48.5 23.5t-18.5 49.5q0 36 30 68t101 63l12 -9
q-29 -16 -51.5 -32.5t-22.5 -40.5q0 -32 46 -32h119q69 0 119 -28.5t50 -94.5q0 -47 -30.5 -88.5t-91.5 -67t-153 -25.5zM221 213q-77 0 -130 38t-53 120q0 83 53 121t130 38q78 0 130.5 -38t52.5 -121q0 -82 -52.5 -120t-130.5 -38zM221 231q35 0 54 30t19 110t-19 110.5
t-54 30.5q-33 0 -53 -30.5t-20 -110.5t20 -110t53 -30zM369 446l-18 7q14 35 48 61t71 26q28 0 44.5 -15.5t16.5 -43.5q0 -31 -16.5 -44t-34.5 -13q-16 0 -29.5 11t-15.5 34.5t15 60.5l11 -4q-40 -16 -58.5 -33.5t-33.5 -46.5zM235 633q-31 0 -51 20.5t-20 52.5
q0 38 20.5 64.5t72.5 40.5l6 -19q-27 -7 -47.5 -22t-20.5 -39q7 7 18.5 11.5t25.5 4.5q26 0 42.5 -14.5t16.5 -42.5q0 -25 -18 -41t-45 -16z" />
    <glyph glyph-name="Hcircumflex" unicode="&#x124;" horiz-adv-x="771" 
d="M459 0v20q34 2 51 8t22.5 24t5.5 54v496q0 37 -5.5 54.5t-23 24t-50.5 7.5v20q25 -1 62.5 -2t74.5 -1q42 0 78 1t58 2v-20q-33 -1 -50 -7.5t-23 -24t-6 -54.5v-496q0 -36 6 -54t23 -24t50 -8v-20q-22 2 -58 2.5t-78 0.5q-37 0 -74.5 -0.5t-62.5 -2.5zM39 0v20q34 2 51 8
t22.5 24t5.5 54v496q0 37 -5.5 54.5t-23 24t-50.5 7.5v20q23 -1 59.5 -2t78.5 -1q38 0 74.5 1t60.5 2v-20q-33 -1 -50 -7.5t-23 -24t-6 -54.5v-496q0 -36 6 -54t23 -24t50 -8v-20q-24 2 -60.5 2.5t-74.5 0.5q-42 0 -78.5 -0.5t-59.5 -2.5zM188 346v20h395v-20h-395zM397 924
q25 -40 76.5 -77.5t116.5 -62.5l-5 -14q-62 12 -121.5 31t-95.5 37q-29 -18 -78 -37t-99 -31l-5 14q65 25 116 62.5t77 77.5h18z" />
    <glyph glyph-name="hcircumflex" unicode="&#x125;" horiz-adv-x="595" 
d="M200 783v-364q25 62 70.5 86.5t96.5 24.5q40 0 65.5 -10.5t42.5 -28.5q18 -19 26 -49t8 -81v-268q0 -42 16.5 -57t55.5 -15v-21q-18 1 -54 2.5t-70 1.5q-35 0 -68.5 -1.5t-49.5 -2.5v21q34 0 48 15t14 57v296q0 29 -5 52.5t-21.5 38t-48.5 14.5q-54 0 -90 -44.5
t-36 -114.5v-242q0 -42 14 -57t48 -15v-21q-17 1 -49.5 2.5t-66.5 1.5q-35 0 -71.5 -1.5t-54.5 -2.5v21q39 0 55.5 15t16.5 57v570q0 45 -15.5 66.5t-56.5 21.5v21q32 -3 62 -3q33 0 63 3.5t55 10.5zM294 988q25 -40 76.5 -77.5t116.5 -62.5l-5 -14q-62 12 -121.5 31
t-95.5 37q-29 -18 -78 -37t-99 -31l-5 14q65 25 116 62.5t77 77.5h18z" />
    <glyph glyph-name="Hbar" unicode="&#x126;" horiz-adv-x="771" 
d="M459 0v20q34 2 51 8t22.5 24t5.5 54v496q0 37 -5.5 54.5t-23 24t-50.5 7.5v20q25 -1 62.5 -2t74.5 -1q42 0 78 1t58 2v-20q-33 -1 -50 -7.5t-23 -24t-6 -54.5v-496q0 -36 6 -54t23 -24t50 -8v-20q-22 2 -58 2.5t-78 0.5q-37 0 -74.5 -0.5t-62.5 -2.5zM39 0v20q34 2 51 8
t22.5 24t5.5 54v496q0 37 -5.5 54.5t-23 24t-50.5 7.5v20q23 -1 59.5 -2t78.5 -1q38 0 74.5 1t60.5 2v-20q-33 -1 -50 -7.5t-23 -24t-6 -54.5v-496q0 -36 6 -54t23 -24t50 -8v-20q-24 2 -60.5 2.5t-74.5 0.5q-42 0 -78.5 -0.5t-59.5 -2.5zM188 346v20h395v-20h-395zM732 533
v-20h-693v20h693z" />
    <glyph glyph-name="hbar" unicode="&#x127;" horiz-adv-x="595" 
d="M200 783v-364q25 62 70.5 86.5t96.5 24.5q40 0 65.5 -10.5t42.5 -28.5q18 -19 26 -49t8 -81v-268q0 -42 16.5 -57t55.5 -15v-21q-18 1 -54 2.5t-70 1.5q-35 0 -68.5 -1.5t-49.5 -2.5v21q34 0 48 15t14 57v296q0 29 -5 52.5t-21.5 38t-48.5 14.5q-54 0 -90 -44.5
t-36 -114.5v-242q0 -42 14 -57t48 -15v-21q-17 1 -49.5 2.5t-66.5 1.5q-35 0 -71.5 -1.5t-54.5 -2.5v21q39 0 55.5 15t16.5 57v570q0 45 -15.5 66.5t-56.5 21.5v21q32 -3 62 -3q33 0 63 3.5t55 10.5zM373 628v-20h-364v20h364z" />
    <glyph glyph-name="Itilde" unicode="&#x128;" horiz-adv-x="351" 
d="M312 708v-20q-33 -1 -50 -7.5t-23 -24t-6 -54.5v-496q0 -36 6 -54t23 -24t50 -8v-20q-24 2 -60.5 2.5t-74.5 0.5q-42 0 -78.5 -0.5t-59.5 -2.5v20q34 2 51 8t22.5 24t5.5 54v496q0 37 -5.5 54.5t-23 24t-50.5 7.5v20q23 -1 59.5 -2t78.5 -1q38 0 74.5 1t60.5 2zM94 909
q30 0 55 -11t47.5 -26t46 -26.5t50.5 -11.5q21 0 39 12.5t30 43.5l15 -4q-7 -56 -41.5 -85.5t-77.5 -29.5q-30 0 -55 11t-48 26t-46 26.5t-50 11.5q-22 0 -40 -12.5t-29 -43.5l-15 4q8 56 42 85.5t77 29.5z" />
    <glyph glyph-name="itilde" unicode="&#x129;" horiz-adv-x="300" 
d="M207 527v-434q0 -42 16.5 -57t55.5 -15v-21q-17 1 -52.5 2.5t-72.5 1.5q-35 0 -72 -1.5t-55 -2.5v21q39 0 55.5 15t16.5 57v314q0 45 -15 66.5t-57 21.5v21q32 -3 62 -3q34 0 63.5 3.5t54.5 10.5zM72 774q28 0 48 -10t36 -23t33 -23t40 -10q21 0 40.5 12.5t36.5 40.5
l14 -7q-16 -61 -48.5 -88t-71.5 -27q-28 0 -48.5 10t-36.5 23.5t-33 23.5t-40 10q-21 0 -40.5 -12.5t-36.5 -41.5l-14 7q16 62 49 88.5t72 26.5z" />
    <glyph glyph-name="Imacron" unicode="&#x12a;" horiz-adv-x="351" 
d="M312 708v-20q-33 -1 -50 -7.5t-23 -24t-6 -54.5v-496q0 -36 6 -54t23 -24t50 -8v-20q-24 2 -60.5 2.5t-74.5 0.5q-42 0 -78.5 -0.5t-59.5 -2.5v20q34 2 51 8t22.5 24t5.5 54v496q0 37 -5.5 54.5t-23 24t-50.5 7.5v20q23 -1 59.5 -2t78.5 -1q38 0 74.5 1t60.5 2zM361 844
v-25h-368v25h368z" />
    <glyph glyph-name="imacron" unicode="&#x12b;" horiz-adv-x="300" 
d="M289 712v-25h-300v25h300zM207 527v-434q0 -42 16.5 -57t55.5 -15v-21q-17 1 -52.5 2.5t-72.5 1.5q-35 0 -72 -1.5t-55 -2.5v21q39 0 55.5 15t16.5 57v314q0 45 -15 66.5t-57 21.5v21q32 -3 62 -3q34 0 63.5 3.5t54.5 10.5z" />
    <glyph glyph-name="Ibreve" unicode="&#x12c;" horiz-adv-x="351" 
d="M312 708v-20q-33 -1 -50 -7.5t-23 -24t-6 -54.5v-496q0 -36 6 -54t23 -24t50 -8v-20q-24 2 -60.5 2.5t-74.5 0.5q-42 0 -78.5 -0.5t-59.5 -2.5v20q34 2 51 8t22.5 24t5.5 54v496q0 37 -5.5 54.5t-23 24t-50.5 7.5v20q23 -1 59.5 -2t78.5 -1q38 0 74.5 1t60.5 2zM370 911
l12 -11q-15 -27 -43 -55.5t-69 -47.5t-95 -19t-95 19t-69 47.5t-43 55.5l13 10q24 -21 71.5 -41.5t122.5 -20.5t123 21t72 42z" />
    <glyph glyph-name="ibreve" unicode="&#x12d;" horiz-adv-x="300" 
d="M207 527v-434q0 -42 16.5 -57t55.5 -15v-21q-17 1 -52.5 2.5t-72.5 1.5q-35 0 -72 -1.5t-55 -2.5v21q39 0 55.5 15t16.5 57v314q0 45 -15 66.5t-57 21.5v21q32 -3 62 -3q34 0 63.5 3.5t54.5 10.5zM311 788l17 -9q-13 -34 -37.5 -69t-60.5 -58t-85 -23t-85 23t-60.5 58
t-37.5 69l17 9q21 -31 60.5 -59.5t105.5 -28.5t105.5 28.5t60.5 59.5z" />
    <glyph glyph-name="Iogonek" unicode="&#x12e;" horiz-adv-x="351" 
d="M312 708v-20q-33 -1 -50 -7.5t-23 -24t-6 -54.5v-496q0 -36 6 -54t23 -24t50 -8v-20q-24 2 -60.5 2.5t-74.5 0.5q-42 0 -78.5 -0.5t-59.5 -2.5v20q34 2 51 8t22.5 24t5.5 54v496q0 37 -5.5 54.5t-23 24t-50.5 7.5v20q23 -1 59.5 -2t78.5 -1q38 0 74.5 1t60.5 2zM309 3
q-60 -17 -82.5 -45t-22.5 -53q0 -19 11 -31t31 -12q19 0 35.5 9.5t26.5 21.5l15 -13q-24 -35 -54 -51.5t-67 -16.5q-39 0 -61 18t-22 48q0 40 40 72t112 53h38z" />
    <glyph glyph-name="iogonek" unicode="&#x12f;" horiz-adv-x="300" 
d="M145 768q31 0 52 -19.5t21 -48.5t-21 -48.5t-52 -19.5t-52 19.5t-21 48.5t21 48.5t52 19.5zM207 527v-434q0 -42 16.5 -57t55.5 -15v-21q-17 1 -52.5 2.5t-72.5 1.5q-35 0 -72 -1.5t-55 -2.5v21q39 0 55.5 15t16.5 57v314q0 45 -15 66.5t-57 21.5v21q32 -3 62 -3
q34 0 63.5 3.5t54.5 10.5zM269 5q-2 -2 -5.5 -4t-7.5 -3q-47 -21 -65 -45.5t-18 -47.5q0 -19 11.5 -31t31.5 -12q18 0 34.5 9.5t27.5 21.5l14 -13q-24 -35 -54 -51.5t-67 -16.5q-38 0 -60.5 18t-22.5 48q0 40 38.5 72t107.5 53z" />
    <glyph glyph-name="Idotaccent" unicode="&#x130;" horiz-adv-x="351" 
d="M312 708v-20q-33 -1 -50 -7.5t-23 -24t-6 -54.5v-496q0 -36 6 -54t23 -24t50 -8v-20q-24 2 -60.5 2.5t-74.5 0.5q-42 0 -78.5 -0.5t-59.5 -2.5v20q34 2 51 8t22.5 24t5.5 54v496q0 37 -5.5 54.5t-23 24t-50.5 7.5v20q23 -1 59.5 -2t78.5 -1q38 0 74.5 1t60.5 2zM177 961
q31 0 52 -19.5t21 -48.5t-21 -48.5t-52 -19.5t-52 19.5t-21 48.5t21 48.5t52 19.5z" />
    <glyph glyph-name="dotlessi" unicode="&#x131;" horiz-adv-x="300" 
d="M207 527v-434q0 -42 16.5 -57t55.5 -15v-21q-17 1 -52.5 2.5t-72.5 1.5q-35 0 -72 -1.5t-55 -2.5v21q39 0 55.5 15t16.5 57v314q0 45 -15 66.5t-57 21.5v21q32 -3 62 -3q34 0 63.5 3.5t54.5 10.5z" />
    <glyph glyph-name="Jcircumflex" unicode="&#x134;" horiz-adv-x="339" 
d="M-21 -188v19q43 2 73 22.5t45 68.5t15 131v549q0 37 -5.5 54.5t-22.5 24t-51 7.5v20q23 -1 59 -2t76 -1q39 0 76.5 1t61.5 2v-20q-33 -1 -50 -7.5t-23 -24t-6 -54.5v-366q0 -41 -0.5 -89t-4 -93t-12.5 -79q-18 -70 -76.5 -116.5t-154.5 -46.5zM178 924q25 -40 76.5 -77.5
t116.5 -62.5l-5 -14q-62 12 -121.5 31t-95.5 37q-29 -18 -78 -37t-99 -31l-5 14q65 25 116 62.5t77 77.5h18z" />
    <glyph glyph-name="jcircumflex" unicode="&#x135;" horiz-adv-x="277" 
d="M-25 -188v16q58 2 88 48.5t30 130.5v400q0 45 -15 66.5t-57 21.5v21q32 -3 62 -3q33 0 63 3.5t55 10.5v-419q0 -78 -16.5 -138t-55.5 -99q-25 -26 -63.5 -42.5t-90.5 -16.5zM147 808q22 -52 67.5 -100.5t103.5 -79.5l-8 -14q-55 17 -107 42t-85 50q-26 -25 -67.5 -50
t-84.5 -42l-8 14q58 31 103.5 79.5t67.5 100.5h18z" />
    <glyph glyph-name="uni0136" unicode="&#x136;" horiz-adv-x="675" 
d="M640 708v-20q-32 -5 -63.5 -22.5t-63.5 -57.5l-192 -240l34 61l240 -348q16 -24 34.5 -38t47.5 -23v-20q-27 2 -65 2.5t-67 0.5q-18 0 -44.5 -0.5t-66.5 -2.5v20q37 2 45.5 12t-7.5 33l-145 225q-18 28 -32 42.5t-29 19t-37 5.5v21q42 1 72.5 19t57.5 49l83 105
q35 43 45 73.5t-5 46.5t-56 17v20q31 -1 62.5 -2t63.5 -1q56 0 88 3zM312 708v-20q-33 -1 -50 -7.5t-23 -24t-6 -54.5v-496q0 -36 6 -54t23 -24t50 -8v-20q-24 2 -60.5 2.5t-74.5 0.5q-42 0 -78.5 -0.5t-59.5 -2.5v20q34 2 51 8t22.5 24t5.5 54v496q0 37 -5.5 54.5t-23 24
t-50.5 7.5v20q23 -1 59.5 -2t78.5 -1q38 0 74.5 1t60.5 2zM357 -64q31 0 51 -20.5t20 -52.5q0 -38 -20.5 -64.5t-72.5 -40.5l-6 19q27 7 47.5 22t20.5 39q-7 -7 -18.5 -11.5t-25.5 -4.5q-26 0 -42.5 14.5t-16.5 42.5q0 25 18 41t45 16z" />
    <glyph glyph-name="uni0137" unicode="&#x137;" horiz-adv-x="562" 
d="M200 784v-691q0 -42 14.5 -57t49.5 -15v-21q-17 1 -50.5 2.5t-67.5 1.5q-35 0 -71.5 -1.5t-54.5 -2.5v21q39 0 55.5 15t16.5 57v571q0 45 -15.5 66.5t-56.5 21.5v21q32 -3 62 -3q33 0 63 3.5t55 10.5zM520 516v-20q-27 -4 -52 -18t-49 -39l-120 -126l13 25l181 -265
q15 -21 29 -34.5t35 -17.5v-21q-13 1 -38.5 2.5t-50.5 1.5q-33 0 -67 -1.5t-50 -2.5v21q20 0 27.5 10t-2.5 24l-110 172q-17 24 -31 31t-40 8v20q29 3 47.5 11t34.5 26l75 76q32 32 32 53.5t-20.5 32t-54.5 11.5v20q27 -1 59.5 -2.5t54.5 -1.5q18 0 36.5 0.5t34.5 1.5t26 2z
M289 -64q31 0 51 -20.5t20 -52.5q0 -38 -20.5 -64.5t-72.5 -40.5l-6 19q27 7 47.5 22t20.5 39q-7 -7 -18.5 -11.5t-25.5 -4.5q-26 0 -42.5 14.5t-16.5 42.5q0 25 18 41t45 16z" />
    <glyph glyph-name="kgreenlandic" unicode="&#x138;" horiz-adv-x="572" 
d="M536 516v-20q-28 -3 -48 -11.5t-44 -36.5l-132 -146l186 -227q16 -19 33 -35t33 -19v-21q-12 1 -37.5 2.5t-51.5 1.5q-32 0 -65 -1.5t-50 -2.5v21q20 0 28.5 10t-3.5 24l-126 155q-15 18 -28 27.5t-28 9.5v20q30 4 48.5 15t37.5 31l110 123q23 25 11.5 42t-52.5 18v20
q26 -1 53.5 -2t49.5 -1q24 0 42.5 1t32.5 2zM207 527v-434q0 -42 14.5 -57t49.5 -15v-21q-16 1 -49.5 2.5t-67.5 1.5q-35 0 -72 -1.5t-55 -2.5v21q39 0 55.5 15t16.5 57v314q0 45 -15 66.5t-57 21.5v21q32 -3 62 -3q34 0 63.5 3.5t54.5 10.5z" />
    <glyph glyph-name="Lacute" unicode="&#x139;" horiz-adv-x="596" 
d="M314 708v-20q-34 -1 -51.5 -7.5t-23.5 -24t-6 -54.5v-500q0 -34 5.5 -51t22 -22.5t47.5 -5.5h65q58 0 92 21.5t52 65.5t26 112h23q-3 -32 -3 -84q0 -20 1.5 -58.5t5.5 -79.5q-51 2 -115 2.5t-114 0.5h-82.5t-110 -0.5t-109.5 -2.5v20q34 2 51 8t22.5 24t5.5 54v496
q0 37 -5.5 54.5t-23 24t-50.5 7.5v20q23 -1 59.5 -2t78.5 -1q38 0 75.5 1t61.5 2zM278 929q20 12 39.5 8t28.5 -20q8 -15 3 -32.5t-27 -31.5q-21 -12 -48.5 -21.5t-64.5 -22.5t-90 -37l-7 13q47 36 75.5 63.5t48.5 47.5t42 33z" />
    <glyph glyph-name="lacute" unicode="&#x13a;" horiz-adv-x="294" 
d="M201 784v-691q0 -42 16.5 -57t55.5 -15v-21q-17 1 -53 2.5t-72 1.5t-72.5 -1.5t-54.5 -2.5v21q39 0 55.5 15t16.5 57v571q0 45 -15 66.5t-57 21.5v21q32 -3 62 -3q33 0 63 3.5t55 10.5zM248 979q20 12 39.5 8t28.5 -20q8 -15 3 -32.5t-27 -31.5q-21 -12 -48.5 -21.5
t-64.5 -22.5t-90 -37l-7 13q47 36 75.5 63.5t48.5 47.5t42 33z" />
    <glyph glyph-name="uni013B" unicode="&#x13b;" horiz-adv-x="596" 
d="M314 708v-20q-34 -1 -51.5 -7.5t-23.5 -24t-6 -54.5v-500q0 -34 5.5 -51t22 -22.5t47.5 -5.5h65q58 0 92 21.5t52 65.5t26 112h23q-3 -32 -3 -84q0 -20 1.5 -58.5t5.5 -79.5q-51 2 -115 2.5t-114 0.5h-82.5t-110 -0.5t-109.5 -2.5v20q34 2 51 8t22.5 24t5.5 54v496
q0 37 -5.5 54.5t-23 24t-50.5 7.5v20q23 -1 59.5 -2t78.5 -1q38 0 75.5 1t61.5 2zM333 -64q31 0 51 -20.5t20 -52.5q0 -38 -20.5 -64.5t-72.5 -40.5l-6 19q27 7 47.5 22t20.5 39q-7 -7 -18.5 -11.5t-25.5 -4.5q-26 0 -42.5 14.5t-16.5 42.5q0 25 18 41t45 16z" />
    <glyph glyph-name="uni013C" unicode="&#x13c;" horiz-adv-x="294" 
d="M201 784v-691q0 -42 16.5 -57t55.5 -15v-21q-17 1 -53 2.5t-72 1.5t-72.5 -1.5t-54.5 -2.5v21q39 0 55.5 15t16.5 57v571q0 45 -15 66.5t-57 21.5v21q32 -3 62 -3q33 0 63 3.5t55 10.5zM141 -64q31 0 51 -20.5t20 -52.5q0 -38 -20.5 -64.5t-72.5 -40.5l-6 19
q27 7 47.5 22t20.5 39q-7 -7 -18.5 -11.5t-25.5 -4.5q-26 0 -42.5 14.5t-16.5 42.5q0 25 18 41t45 16z" />
    <glyph glyph-name="Lcaron" unicode="&#x13d;" horiz-adv-x="596" 
d="M314 708v-20q-34 -1 -51.5 -7.5t-23.5 -24t-6 -54.5v-500q0 -34 5.5 -51t22 -22.5t47.5 -5.5h65q58 0 92 21.5t52 65.5t26 112h23q-3 -32 -3 -84q0 -20 1.5 -58.5t5.5 -79.5q-51 2 -115 2.5t-114 0.5h-82.5t-110 -0.5t-109.5 -2.5v20q34 2 51 8t22.5 24t5.5 54v496
q0 37 -5.5 54.5t-23 24t-50.5 7.5v20q23 -1 59.5 -2t78.5 -1q38 0 75.5 1t61.5 2zM496 714q2 -5 3.5 -16t1.5 -20q0 -32 -26.5 -80t-70.5 -120l-14 4q12 77 16 113.5t4 51.5q0 20 -5.5 30t-24.5 10v21q42 -4 67.5 -1.5t48.5 7.5z" />
    <glyph glyph-name="lcaron" unicode="&#x13e;" horiz-adv-x="294" 
d="M201 784v-691q0 -42 16.5 -57t55.5 -15v-21q-17 1 -53 2.5t-72 1.5t-72.5 -1.5t-54.5 -2.5v21q39 0 55.5 15t16.5 57v571q0 45 -15 66.5t-57 21.5v21q32 -3 62 -3q33 0 63 3.5t55 10.5zM367 784q2 -5 3.5 -18.5t1.5 -22.5q0 -29 -21 -72t-56 -108l-14 4q12 68 16 100
t4 45q0 20 -3.5 30t-16.5 10v21q31 -2 50.5 2t35.5 9z" />
    <glyph glyph-name="Ldot" unicode="&#x13f;" horiz-adv-x="596" 
d="M314 708v-20q-34 -1 -51.5 -7.5t-23.5 -24t-6 -54.5v-500q0 -34 5.5 -51t22 -22.5t47.5 -5.5h65q58 0 92 21.5t52 65.5t26 112h23q-3 -32 -3 -84q0 -20 1.5 -58.5t5.5 -79.5q-51 2 -115 2.5t-114 0.5h-82.5t-110 -0.5t-109.5 -2.5v20q34 2 51 8t22.5 24t5.5 54v496
q0 37 -5.5 54.5t-23 24t-50.5 7.5v20q23 -1 59.5 -2t78.5 -1q38 0 75.5 1t61.5 2zM478 503q30 0 50.5 -19.5t20.5 -49.5q0 -29 -20.5 -48.5t-50.5 -19.5t-50.5 19.5t-20.5 48.5q0 30 20.5 49.5t50.5 19.5z" />
    <glyph glyph-name="ldot" unicode="&#x140;" horiz-adv-x="451" 
d="M201 784v-691q0 -42 16.5 -57t55.5 -15v-21q-17 1 -53 2.5t-72 1.5t-72.5 -1.5t-54.5 -2.5v21q39 0 55.5 15t16.5 57v571q0 45 -15 66.5t-57 21.5v21q32 -3 62 -3q33 0 63 3.5t55 10.5zM373 368q30 0 50.5 -19.5t20.5 -49.5q0 -29 -20.5 -48.5t-50.5 -19.5t-50.5 19.5
t-20.5 48.5q0 30 20.5 49.5t50.5 19.5z" />
    <glyph glyph-name="Lslash" unicode="&#x141;" horiz-adv-x="596" 
d="M314 708v-20q-34 -1 -51.5 -7.5t-23.5 -24t-6 -54.5v-500q0 -34 5.5 -51t22 -22.5t47.5 -5.5h65q58 0 92 21.5t52 65.5t26 112h23q-3 -32 -3 -84q0 -20 1.5 -58.5t5.5 -79.5q-51 2 -115 2.5t-114 0.5h-82.5t-110 -0.5t-109.5 -2.5v20q34 2 51 8t22.5 24t5.5 54v496
q0 37 -5.5 54.5t-23 24t-50.5 7.5v20q23 -1 59.5 -2t78.5 -1q38 0 75.5 1t61.5 2zM457 473v-23l-284 -165v23zM173 318v-23l-150 -87v23z" />
    <glyph glyph-name="lslash" unicode="&#x142;" horiz-adv-x="294" 
d="M201 784v-691q0 -42 16.5 -57t55.5 -15v-21q-17 1 -53 2.5t-72 1.5t-72.5 -1.5t-54.5 -2.5v21q39 0 55.5 15t16.5 57v571q0 45 -15 66.5t-57 21.5v21q32 -3 62 -3q33 0 63 3.5t55 10.5zM309 529v-30l-161 -141v30zM148 406v-30l-162 -140v30z" />
    <glyph glyph-name="Nacute" unicode="&#x143;" horiz-adv-x="711" 
d="M678 708v-20q-34 -2 -51 -12t-22.5 -32.5t-5.5 -63.5v-584h-16h-17l-424 616v-480q0 -42 6 -65.5t26 -33.5t61 -13v-20q-19 2 -48.5 2.5t-55.5 0.5q-25 0 -50 -0.5t-41 -2.5v20q33 3 50 12.5t23 32.5t6 63v474q0 37 -6 54.5t-23 24t-50 7.5v20q16 -1 41 -2t50 -1
q22 0 43 1t37 2l365 -522v390q0 43 -6.5 66t-26.5 33.5t-60 12.5v20q18 -1 48 -2t56 -1q25 0 50 1t41 2zM477 929q20 12 39.5 8t28.5 -20q8 -15 3 -32.5t-27 -31.5q-21 -12 -48.5 -21.5t-64.5 -22.5t-90 -37l-7 13q47 36 75.5 63.5t48.5 47.5t42 33z" />
    <glyph glyph-name="nacute" unicode="&#x144;" horiz-adv-x="603" 
d="M375 530q40 0 65.5 -10.5t42.5 -28.5q18 -19 25.5 -49t7.5 -81v-268q0 -42 16.5 -57t55.5 -15v-21q-17 1 -53 2.5t-71 1.5q-34 0 -67.5 -1.5t-50.5 -2.5v21q34 0 48 15t14 57v296q0 29 -5 52.5t-21 38t-48 14.5q-56 0 -91.5 -46t-35.5 -114v-241q0 -42 14.5 -57t47.5 -15
v-21q-16 1 -48.5 2.5t-67.5 1.5q-34 0 -71 -1.5t-55 -2.5v21q39 0 55.5 15t16.5 57v314q0 45 -15 66.5t-57 21.5v21q32 -3 62 -3q34 0 63.5 3.5t54.5 10.5v-109q26 62 71.5 87t96.5 25zM416 814q13 -11 14.5 -29t-13.5 -38q-16 -20 -38 -38t-52.5 -43t-71.5 -67l-11 9
q31 51 48 86.5t29 61.5t27 45q15 20 34.5 22.5t33.5 -9.5z" />
    <glyph glyph-name="uni0145" unicode="&#x145;" horiz-adv-x="711" 
d="M678 708v-20q-34 -2 -51 -12t-22.5 -32.5t-5.5 -63.5v-584h-16h-17l-424 616v-480q0 -42 6 -65.5t26 -33.5t61 -13v-20q-19 2 -48.5 2.5t-55.5 0.5q-25 0 -50 -0.5t-41 -2.5v20q33 3 50 12.5t23 32.5t6 63v474q0 37 -6 54.5t-23 24t-50 7.5v20q16 -1 41 -2t50 -1
q22 0 43 1t37 2l365 -522v390q0 43 -6.5 66t-26.5 33.5t-60 12.5v20q18 -1 48 -2t56 -1q25 0 50 1t41 2zM363 -64q31 0 51 -20.5t20 -52.5q0 -38 -20.5 -64.5t-72.5 -40.5l-6 19q27 7 47.5 22t20.5 39q-7 -7 -18.5 -11.5t-25.5 -4.5q-26 0 -42.5 14.5t-16.5 42.5q0 25 18 41
t45 16z" />
    <glyph glyph-name="uni0146" unicode="&#x146;" horiz-adv-x="603" 
d="M375 530q40 0 65.5 -10.5t42.5 -28.5q18 -19 25.5 -49t7.5 -81v-268q0 -42 16.5 -57t55.5 -15v-21q-17 1 -53 2.5t-71 1.5q-34 0 -67.5 -1.5t-50.5 -2.5v21q34 0 48 15t14 57v296q0 29 -5 52.5t-21 38t-48 14.5q-56 0 -91.5 -46t-35.5 -114v-241q0 -42 14.5 -57t47.5 -15
v-21q-16 1 -48.5 2.5t-67.5 1.5q-34 0 -71 -1.5t-55 -2.5v21q39 0 55.5 15t16.5 57v314q0 45 -15 66.5t-57 21.5v21q32 -3 62 -3q34 0 63.5 3.5t54.5 10.5v-109q26 62 71.5 87t96.5 25zM312 -64q31 0 51 -20.5t20 -52.5q0 -38 -20.5 -64.5t-72.5 -40.5l-6 19q27 7 47.5 22
t20.5 39q-7 -7 -18.5 -11.5t-25.5 -4.5q-26 0 -42.5 14.5t-16.5 42.5q0 25 18 41t45 16z" />
    <glyph glyph-name="Ncaron" unicode="&#x147;" horiz-adv-x="711" 
d="M678 708v-20q-34 -2 -51 -12t-22.5 -32.5t-5.5 -63.5v-584h-16h-17l-424 616v-480q0 -42 6 -65.5t26 -33.5t61 -13v-20q-19 2 -48.5 2.5t-55.5 0.5q-25 0 -50 -0.5t-41 -2.5v20q33 3 50 12.5t23 32.5t6 63v474q0 37 -6 54.5t-23 24t-50 7.5v20q16 -1 41 -2t50 -1
q22 0 43 1t37 2l365 -522v390q0 43 -6.5 66t-26.5 33.5t-60 12.5v20q18 -1 48 -2t56 -1q25 0 50 1t41 2zM570 930l5 -14q-65 -24 -116 -62t-77 -78h-18q-25 40 -76.5 78t-116.5 62l5 14q62 -12 122 -31t95 -37q30 18 78.5 37t98.5 31z" />
    <glyph glyph-name="ncaron" unicode="&#x148;" horiz-adv-x="603" 
d="M375 530q40 0 65.5 -10.5t42.5 -28.5q18 -19 25.5 -49t7.5 -81v-268q0 -42 16.5 -57t55.5 -15v-21q-17 1 -53 2.5t-71 1.5q-34 0 -67.5 -1.5t-50.5 -2.5v21q34 0 48 15t14 57v296q0 29 -5 52.5t-21 38t-48 14.5q-56 0 -91.5 -46t-35.5 -114v-241q0 -42 14.5 -57t47.5 -15
v-21q-16 1 -48.5 2.5t-67.5 1.5q-34 0 -71 -1.5t-55 -2.5v21q39 0 55.5 15t16.5 57v314q0 45 -15 66.5t-57 21.5v21q32 -3 62 -3q34 0 63.5 3.5t54.5 10.5v-109q26 62 71.5 87t96.5 25zM470 808l8 -14q-58 -30 -103.5 -79t-67.5 -101h-18q-22 52 -67.5 101t-103.5 79l8 14
q55 -17 107.5 -42t84.5 -50q27 25 68 50t84 42z" />
    <glyph glyph-name="napostrophe" unicode="&#x149;" horiz-adv-x="603" 
d="M375 530q40 0 65.5 -10.5t42.5 -28.5q18 -19 25.5 -49t7.5 -81v-268q0 -42 16.5 -57t55.5 -15v-21q-17 1 -53 2.5t-71 1.5q-34 0 -67.5 -1.5t-50.5 -2.5v21q34 0 48 15t14 57v296q0 29 -5 52.5t-21 38t-48 14.5q-56 0 -91.5 -46t-35.5 -114v-241q0 -42 14.5 -57t47.5 -15
v-21q-16 1 -48.5 2.5t-67.5 1.5q-34 0 -71 -1.5t-55 -2.5v21q39 0 55.5 15t16.5 57v314q0 45 -15 66.5t-57 21.5v21q32 -3 62 -3q34 0 63.5 3.5t54.5 10.5v-109q26 62 71.5 87t96.5 25zM26 765q23 0 38 -9t25 -24q11 -16 14.5 -36t3.5 -36q0 -49 -25 -90t-78 -66l-9 18
q30 13 52 40t24 55q1 15 -2 28q-18 -17 -44 -17q-29 0 -49 18t-20 50q0 31 20.5 50t49.5 19z" />
    <glyph glyph-name="Eng" unicode="&#x14a;" horiz-adv-x="710" 
d="M677 708v-20q-33 -1 -50 -7.5t-23 -24t-6 -54.5v-330l-15 -276h-8.5h-8.5l-425 616v-506q0 -36 6 -54t23.5 -24t51.5 -8v-20q-18 2 -42 2.5t-50 0.5q-24 0 -49 -0.5t-42 -2.5v20q33 2 50.5 8t23 24t5.5 54v496q0 37 -5.5 54.5t-23 24t-50.5 7.5v20q17 -1 42 -2t49 -1
q25 0 49 1t43 2l353 -506v400q0 37 -6 54.5t-23.5 24t-51.5 7.5v20q18 -1 42.5 -2t49.5 -1q26 0 50.5 1t40.5 2zM598 445v-363q0 -111 -18.5 -169t-50.5 -79.5t-74 -21.5q-39 0 -68.5 15.5t-29.5 52.5q0 26 16.5 41t40.5 15t41 -14.5t17 -37.5q0 -15 -9 -30t-24 -23
q5 -1 11 -1h11q61 0 87.5 57t26.5 160v398h11.5h11.5z" />
    <glyph glyph-name="eng" unicode="&#x14b;" horiz-adv-x="586" 
d="M375 529q40 0 65.5 -10.5t42.5 -27.5q18 -20 25.5 -50t7.5 -81v-252q0 -73 -10.5 -134.5t-45.5 -102.5q-24 -29 -58.5 -44t-76.5 -15q-17 0 -33 4t-28 11.5t-19 18.5t-7 24q0 21 15 36.5t43 15.5q25 0 41 -13.5t16 -35.5q0 -10 -6.5 -22t-19.5 -22q17 1 29 5.5t21 13.5
q9 5 15.5 14t9.5 22q3 9 4.5 22t1.5 28.5v29.5v424q0 29 -5 53t-21 38t-48 14q-56 0 -91.5 -45.5t-35.5 -113.5v-241q0 -42 14.5 -57t47.5 -15v-21q-16 1 -48.5 2.5t-67.5 1.5q-34 0 -71 -1.5t-55 -2.5v21q39 0 55.5 15t16.5 57v314q0 45 -15 66.5t-57 21.5v21q32 -3 62 -3
q34 0 63.5 3.5t54.5 10.5v-109q26 62 71.5 86.5t96.5 24.5z" />
    <glyph glyph-name="Omacron" unicode="&#x14c;" horiz-adv-x="758" 
d="M380 722q98 0 172.5 -43t115.5 -123.5t41 -195.5q0 -112 -42 -196t-117 -131t-171 -47q-99 0 -173 43t-115 124t-41 195q0 112 42.5 196t116.5 131t171 47zM376 704q-62 0 -108 -45t-71 -124t-25 -183q0 -106 28 -184.5t76 -121t107 -42.5q62 0 107.5 45t71 124.5
t25.5 182.5q0 107 -28.5 185t-76 120.5t-106.5 42.5zM562 844v-25h-368v25h368z" />
    <glyph glyph-name="omacron" unicode="&#x14d;" horiz-adv-x="554" 
d="M277 530q67 0 119 -28t83 -88t31 -157t-31 -156.5t-83 -87t-119 -27.5q-66 0 -119 27.5t-83.5 87t-30.5 156.5t30.5 157t83.5 88t119 28zM277 510q-52 0 -85 -59.5t-33 -193.5t33 -192.5t85 -58.5q51 0 84.5 58.5t33.5 192.5t-33.5 193.5t-84.5 59.5zM436 712v-25h-320
v25h320z" />
    <glyph glyph-name="Obreve" unicode="&#x14e;" horiz-adv-x="758" 
d="M380 722q98 0 172.5 -43t115.5 -123.5t41 -195.5q0 -112 -42 -196t-117 -131t-171 -47q-99 0 -173 43t-115 124t-41 195q0 112 42.5 196t116.5 131t171 47zM376 704q-62 0 -108 -45t-71 -124t-25 -183q0 -106 28 -184.5t76 -121t107 -42.5q62 0 107.5 45t71 124.5
t25.5 182.5q0 107 -28.5 185t-76 120.5t-106.5 42.5zM571 911l12 -11q-15 -27 -43 -55.5t-69 -47.5t-95 -19t-95 19t-69 47.5t-43 55.5l13 10q24 -21 71.5 -41.5t122.5 -20.5t123 21t72 42z" />
    <glyph glyph-name="obreve" unicode="&#x14f;" horiz-adv-x="554" 
d="M277 530q67 0 119 -28t83 -88t31 -157t-31 -156.5t-83 -87t-119 -27.5q-66 0 -119 27.5t-83.5 87t-30.5 156.5t30.5 157t83.5 88t119 28zM277 510q-52 0 -85 -59.5t-33 -193.5t33 -192.5t85 -58.5q51 0 84.5 58.5t33.5 192.5t-33.5 193.5t-84.5 59.5zM444 788l17 -9
q-13 -34 -37.5 -69t-60.5 -58t-85 -23t-85 23t-60.5 58t-37.5 69l17 9q21 -31 60.5 -59.5t105.5 -28.5t105.5 28.5t60.5 59.5z" />
    <glyph glyph-name="Ohungarumlaut" unicode="&#x150;" horiz-adv-x="758" 
d="M380 722q98 0 172.5 -43t115.5 -123.5t41 -195.5q0 -112 -42 -196t-117 -131t-171 -47q-99 0 -173 43t-115 124t-41 195q0 112 42.5 196t116.5 131t171 47zM376 704q-62 0 -108 -45t-71 -124t-25 -183q0 -106 28 -184.5t76 -121t107 -42.5q62 0 107.5 45t71 124.5
t25.5 182.5q0 107 -28.5 185t-76 120.5t-106.5 42.5zM538 926q19 16 38 14t30 -16q12 -14 9 -32t-23 -35q-28 -22 -71 -39t-91 -46l-9 12q26 27 45.5 53.5t36 50t35.5 38.5zM343 926q19 16 38 14t30 -16q12 -14 9 -32t-23 -35q-28 -22 -71 -39t-91 -46l-9 12
q26 27 45.5 53.5t36 50t35.5 38.5z" />
    <glyph glyph-name="ohungarumlaut" unicode="&#x151;" horiz-adv-x="554" 
d="M277 530q67 0 119 -28t83 -88t31 -157t-31 -156.5t-83 -87t-119 -27.5q-66 0 -119 27.5t-83.5 87t-30.5 156.5t30.5 157t83.5 88t119 28zM277 510q-52 0 -85 -59.5t-33 -193.5t33 -192.5t85 -58.5q51 0 84.5 58.5t33.5 192.5t-33.5 193.5t-84.5 59.5zM491 814
q15 -11 17 -29t-14 -39q-21 -28 -58.5 -57t-96.5 -90l-11 8q28 50 43.5 85t27 61t25.5 45q15 20 34 23t33 -7zM314 814q14 -11 16 -29t-13 -39q-22 -28 -59.5 -57t-95.5 -90l-12 8q28 50 44 85t27 61t25 45q15 20 34 23t34 -7z" />
    <glyph glyph-name="OE" unicode="&#x152;" horiz-adv-x="950" 
d="M378 722q47 0 87 -15q64 -1 127 -1.5t98 -0.5q42 0 96.5 0.5t96.5 2.5q-4 -37 -5.5 -71.5t-1.5 -52.5q0 -19 1 -36t2 -28h-23q-6 62 -19.5 98.5t-40.5 51.5t-76 15h-29q-33 0 -50 -5.5t-23 -23t-6 -54.5v-496q0 -36 6 -54t23 -23.5t50 -5.5h25q56 0 88 17.5t48.5 58
t23.5 109.5h23q-3 -29 -3 -76q0 -20 1.5 -56.5t5.5 -75.5q-47 2 -106.5 2.5t-106.5 0.5h-101t-129 -2q-19 -7 -40 -11t-43 -4q-98 0 -172 43t-114.5 124t-40.5 195q0 112 42 196t116 131t170 47zM374 704q-62 0 -107 -45t-70 -124t-25 -183q0 -106 27.5 -184.5t75.5 -121
t106 -42.5q25 0 52 10t45.5 31.5t18.5 56.5v502q0 37 -17.5 58.5t-46 31.5t-59.5 10zM750 366v-20h-168v20h168zM771 480q-4 -50 -3.5 -76t0.5 -48t1 -47.5t5 -76.5h-23q-4 28 -10.5 54t-25 43t-60.5 17v20q42 0 59.5 20t23.5 47t10 47h23z" />
    <glyph glyph-name="oe" unicode="&#x153;" horiz-adv-x="828" 
d="M268 529q56 0 101 -27.5t71.5 -87.5t26.5 -157t-26.5 -156.5t-71.5 -87t-101 -27.5q-63 0 -114 27.5t-80 87t-29 156.5t29 157t80 87.5t114 27.5zM268 509q-47 0 -77.5 -59t-30.5 -193t30.5 -192.5t77.5 -58.5q48 0 79 58.5t31 192.5t-31 193t-79 59zM606 530
q84 0 131.5 -53t47.5 -168h-317l-1 19h212q2 49 -6 90.5t-26 66.5t-46 25q-40 0 -71 -45.5t-37 -145.5l3 -5q-2 -14 -2.5 -30.5t-0.5 -32.5q0 -69 21 -116t54.5 -70.5t69.5 -23.5q37 0 70.5 20t59.5 74l19 -8q-10 -34 -34 -67t-60.5 -53.5t-84.5 -20.5q-64 0 -111 31.5
t-72 90.5t-25 140q0 89 26 152t72.5 96.5t107.5 33.5z" />
    <glyph glyph-name="Racute" unicode="&#x154;" horiz-adv-x="663" 
d="M39 708q23 -1 59.5 -2t72.5 -1q48 0 91.5 1t61.5 1q127 0 190 -48.5t63 -125.5q0 -31 -12.5 -65.5t-43.5 -64t-84 -48.5t-135 -19h-96v20h86q67 0 102.5 22.5t48 60t12.5 83.5q0 79 -34 122.5t-118 43.5q-43 0 -56.5 -17t-13.5 -69v-496q0 -36 6 -54t23 -24t50 -8v-20
q-24 2 -60.5 2.5t-74.5 0.5q-42 0 -78.5 -0.5t-59.5 -2.5v20q34 2 51 8t22.5 24t5.5 54v496q0 37 -5.5 54.5t-23 24t-50.5 7.5v20zM208 353q51 -2 82 -4.5t52 -4.5t39 -5q75 -10 109.5 -40t47.5 -92l25 -102q9 -43 19.5 -61t31.5 -18q16 1 26.5 9.5t22.5 23.5l14 -11
q-23 -31 -48 -46.5t-67 -15.5q-43 0 -73.5 22.5t-43.5 85.5l-20 100q-9 43 -20 74.5t-30.5 49.5t-56.5 18h-108zM406 929q20 12 39.5 8t28.5 -20q8 -15 3 -32.5t-27 -31.5q-21 -12 -48.5 -21.5t-64.5 -22.5t-90 -37l-7 13q47 36 75.5 63.5t48.5 47.5t42 33z" />
    <glyph glyph-name="racute" unicode="&#x155;" horiz-adv-x="452" 
d="M349 530q29 0 49.5 -12t31 -30.5t10.5 -41.5q0 -29 -17.5 -49.5t-46.5 -20.5q-25 0 -42.5 15t-17.5 41q0 22 11.5 37.5t26.5 24.5q-10 8 -24 7q-36 -2 -63.5 -29.5t-43.5 -66.5t-16 -72v-230q0 -49 27 -65.5t75 -16.5v-21q-23 1 -65.5 2.5t-89.5 1.5q-36 0 -72 -1.5
t-55 -2.5v21q39 0 55.5 15t16.5 57v314q0 45 -15 66.5t-57 21.5v21q32 -3 62 -3q34 0 63.5 3.5t54.5 10.5v-115q12 29 32 56t48 44.5t62 17.5zM345 814q13 -11 14.5 -29t-13.5 -38q-16 -20 -38 -38t-52.5 -43t-71.5 -67l-11 9q31 51 48 86.5t29 61.5t27 45q15 20 34.5 22.5
t33.5 -9.5z" />
    <glyph glyph-name="uni0156" unicode="&#x156;" horiz-adv-x="663" 
d="M39 708q23 -1 59.5 -2t72.5 -1q48 0 91.5 1t61.5 1q127 0 190 -48.5t63 -125.5q0 -31 -12.5 -65.5t-43.5 -64t-84 -48.5t-135 -19h-96v20h86q67 0 102.5 22.5t48 60t12.5 83.5q0 79 -34 122.5t-118 43.5q-43 0 -56.5 -17t-13.5 -69v-496q0 -36 6 -54t23 -24t50 -8v-20
q-24 2 -60.5 2.5t-74.5 0.5q-42 0 -78.5 -0.5t-59.5 -2.5v20q34 2 51 8t22.5 24t5.5 54v496q0 37 -5.5 54.5t-23 24t-50.5 7.5v20zM208 353q51 -2 82 -4.5t52 -4.5t39 -5q75 -10 109.5 -40t47.5 -92l25 -102q9 -43 19.5 -61t31.5 -18q16 1 26.5 9.5t22.5 23.5l14 -11
q-23 -31 -48 -46.5t-67 -15.5q-43 0 -73.5 22.5t-43.5 85.5l-20 100q-9 43 -20 74.5t-30.5 49.5t-56.5 18h-108zM340 -64q31 0 51 -20.5t20 -52.5q0 -38 -20.5 -64.5t-72.5 -40.5l-6 19q27 7 47.5 22t20.5 39q-7 -7 -18.5 -11.5t-25.5 -4.5q-26 0 -42.5 14.5t-16.5 42.5
q0 25 18 41t45 16z" />
    <glyph glyph-name="uni0157" unicode="&#x157;" horiz-adv-x="452" 
d="M349 530q29 0 49.5 -12t31 -30.5t10.5 -41.5q0 -29 -17.5 -49.5t-46.5 -20.5q-25 0 -42.5 15t-17.5 41q0 22 11.5 37.5t26.5 24.5q-10 8 -24 7q-36 -2 -63.5 -29.5t-43.5 -66.5t-16 -72v-230q0 -49 27 -65.5t75 -16.5v-21q-23 1 -65.5 2.5t-89.5 1.5q-36 0 -72 -1.5
t-55 -2.5v21q39 0 55.5 15t16.5 57v314q0 45 -15 66.5t-57 21.5v21q32 -3 62 -3q34 0 63.5 3.5t54.5 10.5v-115q12 29 32 56t48 44.5t62 17.5zM164 -64q31 0 51 -20.5t20 -52.5q0 -38 -20.5 -64.5t-72.5 -40.5l-6 19q27 7 47.5 22t20.5 39q-7 -7 -18.5 -11.5t-25.5 -4.5
q-26 0 -42.5 14.5t-16.5 42.5q0 25 18 41t45 16z" />
    <glyph glyph-name="Rcaron" unicode="&#x158;" horiz-adv-x="663" 
d="M39 708q23 -1 59.5 -2t72.5 -1q48 0 91.5 1t61.5 1q127 0 190 -48.5t63 -125.5q0 -31 -12.5 -65.5t-43.5 -64t-84 -48.5t-135 -19h-96v20h86q67 0 102.5 22.5t48 60t12.5 83.5q0 79 -34 122.5t-118 43.5q-43 0 -56.5 -17t-13.5 -69v-496q0 -36 6 -54t23 -24t50 -8v-20
q-24 2 -60.5 2.5t-74.5 0.5q-42 0 -78.5 -0.5t-59.5 -2.5v20q34 2 51 8t22.5 24t5.5 54v496q0 37 -5.5 54.5t-23 24t-50.5 7.5v20zM208 353q51 -2 82 -4.5t52 -4.5t39 -5q75 -10 109.5 -40t47.5 -92l25 -102q9 -43 19.5 -61t31.5 -18q16 1 26.5 9.5t22.5 23.5l14 -11
q-23 -31 -48 -46.5t-67 -15.5q-43 0 -73.5 22.5t-43.5 85.5l-20 100q-9 43 -20 74.5t-30.5 49.5t-56.5 18h-108zM499 930l5 -14q-65 -24 -116 -62t-77 -78h-18q-25 40 -76.5 78t-116.5 62l5 14q62 -12 122 -31t95 -37q30 18 78.5 37t98.5 31z" />
    <glyph glyph-name="rcaron" unicode="&#x159;" horiz-adv-x="452" 
d="M349 530q29 0 49.5 -12t31 -30.5t10.5 -41.5q0 -29 -17.5 -49.5t-46.5 -20.5q-25 0 -42.5 15t-17.5 41q0 22 11.5 37.5t26.5 24.5q-10 8 -24 7q-36 -2 -63.5 -29.5t-43.5 -66.5t-16 -72v-230q0 -49 27 -65.5t75 -16.5v-21q-23 1 -65.5 2.5t-89.5 1.5q-36 0 -72 -1.5
t-55 -2.5v21q39 0 55.5 15t16.5 57v314q0 45 -15 66.5t-57 21.5v21q32 -3 62 -3q34 0 63.5 3.5t54.5 10.5v-115q12 29 32 56t48 44.5t62 17.5zM399 808l8 -14q-58 -30 -103.5 -79t-67.5 -101h-18q-22 52 -67.5 101t-103.5 79l8 14q55 -17 107.5 -42t84.5 -50q27 25 68 50
t84 42z" />
    <glyph glyph-name="Sacute" unicode="&#x15a;" horiz-adv-x="555" 
d="M265 720q53 0 81 -12t49 -26q12 -7 19.5 -10.5t14.5 -3.5q16 0 22 44h23q-1 -18 -2.5 -42.5t-2 -64.5t-0.5 -105h-23q-3 49 -21.5 95t-54 75t-90.5 29q-51 0 -84.5 -30.5t-33.5 -80.5q0 -44 22 -73.5t60.5 -55t87.5 -56.5q50 -32 90 -63.5t63 -69.5t23 -92
q0 -65 -30.5 -107.5t-81.5 -63.5t-112 -21q-56 0 -89 12t-56 25q-22 14 -34 14q-16 0 -22 -44h-23q2 22 2.5 51.5t1 77.5t0.5 121h23q4 -62 22.5 -116t57 -86.5t102.5 -32.5q50 0 89 30.5t39 95.5q0 61 -42.5 101.5t-111.5 82.5q-47 30 -88 60t-65.5 70t-24.5 95
q0 61 28.5 100t74 58t97.5 19zM384 929q20 12 39.5 8t28.5 -20q8 -15 3 -32.5t-27 -31.5q-21 -12 -48.5 -21.5t-64.5 -22.5t-90 -37l-7 13q47 36 75.5 63.5t48.5 47.5t42 33z" />
    <glyph glyph-name="sacute" unicode="&#x15b;" horiz-adv-x="452" 
d="M213 530q40 0 69.5 -12.5t42.5 -22.5q33 -26 41 34h22q-2 -28 -3 -67.5t-1 -104.5h-22q-6 37 -20.5 72t-42 58t-71.5 23q-33 0 -55 -18.5t-22 -54.5q0 -30 18 -52t46.5 -41l61.5 -41q55 -37 93 -75t38 -99q0 -46 -24.5 -78t-64.5 -48.5t-88 -16.5q-24 0 -45 4.5t-39 11.5
q-11 6 -21.5 12.5t-20.5 12.5q-10 7 -18 -2t-12 -32h-22q2 32 3 78t1 122h22q7 -55 21 -97t41.5 -65.5t75.5 -23.5q28 0 55 19.5t27 67.5q0 44 -30.5 72.5t-78.5 60.5q-34 24 -64.5 47.5t-49.5 53t-19 70.5q0 45 21.5 74t57.5 43.5t77 14.5zM338 814q13 -11 14.5 -29
t-13.5 -38q-16 -20 -38 -38t-52.5 -43t-71.5 -67l-11 9q31 51 48 86.5t29 61.5t27 45q15 20 34.5 22.5t33.5 -9.5z" />
    <glyph glyph-name="Scircumflex" unicode="&#x15c;" horiz-adv-x="555" 
d="M265 720q53 0 81 -12t49 -26q12 -7 19.5 -10.5t14.5 -3.5q16 0 22 44h23q-1 -18 -2.5 -42.5t-2 -64.5t-0.5 -105h-23q-3 49 -21.5 95t-54 75t-90.5 29q-51 0 -84.5 -30.5t-33.5 -80.5q0 -44 22 -73.5t60.5 -55t87.5 -56.5q50 -32 90 -63.5t63 -69.5t23 -92
q0 -65 -30.5 -107.5t-81.5 -63.5t-112 -21q-56 0 -89 12t-56 25q-22 14 -34 14q-16 0 -22 -44h-23q2 22 2.5 51.5t1 77.5t0.5 121h23q4 -62 22.5 -116t57 -86.5t102.5 -32.5q50 0 89 30.5t39 95.5q0 61 -42.5 101.5t-111.5 82.5q-47 30 -88 60t-65.5 70t-24.5 95
q0 61 28.5 100t74 58t97.5 19zM292 924q25 -40 76.5 -77.5t116.5 -62.5l-5 -14q-62 12 -121.5 31t-95.5 37q-29 -18 -78 -37t-99 -31l-5 14q65 25 116 62.5t77 77.5h18z" />
    <glyph glyph-name="scircumflex" unicode="&#x15d;" horiz-adv-x="452" 
d="M213 530q40 0 69.5 -12.5t42.5 -22.5q33 -26 41 34h22q-2 -28 -3 -67.5t-1 -104.5h-22q-6 37 -20.5 72t-42 58t-71.5 23q-33 0 -55 -18.5t-22 -54.5q0 -30 18 -52t46.5 -41l61.5 -41q55 -37 93 -75t38 -99q0 -46 -24.5 -78t-64.5 -48.5t-88 -16.5q-24 0 -45 4.5t-39 11.5
q-11 6 -21.5 12.5t-20.5 12.5q-10 7 -18 -2t-12 -32h-22q2 32 3 78t1 122h22q7 -55 21 -97t41.5 -65.5t75.5 -23.5q28 0 55 19.5t27 67.5q0 44 -30.5 72.5t-78.5 60.5q-34 24 -64.5 47.5t-49.5 53t-19 70.5q0 45 21.5 74t57.5 43.5t77 14.5zM239 808q22 -52 67.5 -100.5
t103.5 -79.5l-8 -14q-55 17 -107 42t-85 50q-26 -25 -67.5 -50t-84.5 -42l-8 14q58 31 103.5 79.5t67.5 100.5h18z" />
    <glyph glyph-name="Scedilla" unicode="&#x15e;" horiz-adv-x="555" 
d="M265 720q53 0 81 -12t49 -26q12 -7 19.5 -10.5t14.5 -3.5q16 0 22 44h23q-1 -18 -2.5 -42.5t-2 -64.5t-0.5 -105h-23q-3 49 -21.5 95t-54 75t-90.5 29q-51 0 -84.5 -30.5t-33.5 -80.5q0 -44 22 -73.5t60.5 -55t87.5 -56.5q50 -32 90 -63.5t63 -69.5t23 -92
q0 -65 -30.5 -107.5t-81.5 -63.5t-112 -21q-56 0 -89 12t-56 25q-22 14 -34 14q-16 0 -22 -44h-23q2 22 2.5 51.5t1 77.5t0.5 121h23q4 -62 22.5 -116t57 -86.5t102.5 -32.5q50 0 89 30.5t39 95.5q0 61 -42.5 101.5t-111.5 82.5q-47 30 -88 60t-65.5 70t-24.5 95
q0 61 28.5 100t74 58t97.5 19zM301 5l-25 -75q14 4 30.5 6.5t34.5 2.5q31 0 48.5 -13t17.5 -36q0 -28 -20 -45t-49 -25t-59 -8q-29 0 -50.5 3.5t-36.5 7.5l5 18q5 -1 16.5 -2t25.5 -1q29 0 59.5 9t30.5 35q0 14 -11.5 20.5t-31.5 6.5q-8 0 -22 -1.5t-24 -5.5l34 103h27z" />
    <glyph glyph-name="scedilla" unicode="&#x15f;" horiz-adv-x="452" 
d="M213 530q40 0 69.5 -12.5t42.5 -22.5q33 -26 41 34h22q-2 -28 -3 -67.5t-1 -104.5h-22q-6 37 -20.5 72t-42 58t-71.5 23q-33 0 -55 -18.5t-22 -54.5q0 -30 18 -52t46.5 -41l61.5 -41q55 -37 93 -75t38 -99q0 -46 -24.5 -78t-64.5 -48.5t-88 -16.5q-24 0 -45 4.5t-39 11.5
q-11 6 -21.5 12.5t-20.5 12.5q-10 7 -18 -2t-12 -32h-22q2 32 3 78t1 122h22q7 -55 21 -97t41.5 -65.5t75.5 -23.5q28 0 55 19.5t27 67.5q0 44 -30.5 72.5t-78.5 60.5q-34 24 -64.5 47.5t-49.5 53t-19 70.5q0 45 21.5 74t57.5 43.5t77 14.5zM225 5l-25 -75q14 4 30 6.5
t33 2.5q30 0 47 -13t17 -36q0 -28 -19 -45t-47 -25t-56 -8t-49 3.5t-35 7.5l4 18q5 -1 16 -2t24 -1q28 0 56 9t28 35q0 27 -39 27q-8 0 -21.5 -1.5t-24.5 -5.5l34 103h27z" />
    <glyph glyph-name="Scaron" unicode="&#x160;" horiz-adv-x="555" 
d="M265 720q53 0 81 -12t49 -26q12 -7 19.5 -10.5t14.5 -3.5q16 0 22 44h23q-1 -18 -2.5 -42.5t-2 -64.5t-0.5 -105h-23q-3 49 -21.5 95t-54 75t-90.5 29q-51 0 -84.5 -30.5t-33.5 -80.5q0 -44 22 -73.5t60.5 -55t87.5 -56.5q50 -32 90 -63.5t63 -69.5t23 -92
q0 -65 -30.5 -107.5t-81.5 -63.5t-112 -21q-56 0 -89 12t-56 25q-22 14 -34 14q-16 0 -22 -44h-23q2 22 2.5 51.5t1 77.5t0.5 121h23q4 -62 22.5 -116t57 -86.5t102.5 -32.5q50 0 89 30.5t39 95.5q0 61 -42.5 101.5t-111.5 82.5q-47 30 -88 60t-65.5 70t-24.5 95
q0 61 28.5 100t74 58t97.5 19zM477 930l5 -14q-65 -24 -116 -62t-77 -78h-18q-25 40 -76.5 78t-116.5 62l5 14q62 -12 122 -31t95 -37q30 18 78.5 37t98.5 31z" />
    <glyph glyph-name="scaron" unicode="&#x161;" horiz-adv-x="452" 
d="M213 530q40 0 69.5 -12.5t42.5 -22.5q33 -26 41 34h22q-2 -28 -3 -67.5t-1 -104.5h-22q-6 37 -20.5 72t-42 58t-71.5 23q-33 0 -55 -18.5t-22 -54.5q0 -30 18 -52t46.5 -41l61.5 -41q55 -37 93 -75t38 -99q0 -46 -24.5 -78t-64.5 -48.5t-88 -16.5q-24 0 -45 4.5t-39 11.5
q-11 6 -21.5 12.5t-20.5 12.5q-10 7 -18 -2t-12 -32h-22q2 32 3 78t1 122h22q7 -55 21 -97t41.5 -65.5t75.5 -23.5q28 0 55 19.5t27 67.5q0 44 -30.5 72.5t-78.5 60.5q-34 24 -64.5 47.5t-49.5 53t-19 70.5q0 45 21.5 74t57.5 43.5t77 14.5zM392 808l8 -14
q-58 -30 -103.5 -79t-67.5 -101h-18q-22 52 -67.5 101t-103.5 79l8 14q55 -17 107.5 -42t84.5 -50q27 25 68 50t84 42z" />
    <glyph glyph-name="uni0162" unicode="&#x162;" horiz-adv-x="637" 
d="M609 708q-4 -42 -5.5 -81.5t-1.5 -60.5q0 -23 1 -44t2 -36h-23q-10 75 -26.5 118t-47.5 62t-89 19h-43v-570q0 -40 7.5 -60t30 -26.5t65.5 -8.5v-20q-28 2 -72 2.5t-90 0.5q-48 0 -90.5 -0.5t-68.5 -2.5v20q43 2 65 8.5t30 26.5t8 60v570h-44q-56 0 -88 -19t-48 -62
t-26 -118h-23q2 15 2.5 36t0.5 44q0 21 -1.5 60.5t-5.5 81.5q43 -1 94 -2t103 -1h94h93t103 1t94 2zM330 5l-25 -75q14 4 30.5 6.5t34.5 2.5q31 0 48.5 -13t17.5 -36q0 -28 -20 -45t-49 -25t-59 -8q-29 0 -50.5 3.5t-36.5 7.5l5 18q5 -1 16.5 -2t25.5 -1q29 0 59.5 9
t30.5 35q0 14 -11.5 20.5t-31.5 6.5q-8 0 -22 -1.5t-24 -5.5l34 103h27z" />
    <glyph glyph-name="uni0163" unicode="&#x163;" horiz-adv-x="353" 
d="M202 681v-166h138v-20h-138v-393q0 -41 15 -58t43 -17q26 0 46.5 21t35.5 71l19 -7q-12 -53 -42.5 -89.5t-89.5 -36.5q-34 0 -57 8.5t-40 24.5q-22 23 -30 55t-8 85v336h-92v20h92v146q31 1 58 5.5t50 14.5zM225 5l-25 -75q14 4 30 6.5t33 2.5q30 0 47 -13t17 -36
q0 -28 -19 -45t-47 -25t-56 -8t-49 3.5t-35 7.5l4 18q5 -1 16 -2t24 -1q28 0 56 9t28 35q0 27 -39 27q-8 0 -21.5 -1.5t-24.5 -5.5l34 103h27z" />
    <glyph glyph-name="Tcaron" unicode="&#x164;" horiz-adv-x="637" 
d="M609 708q-4 -42 -5.5 -81.5t-1.5 -60.5q0 -23 1 -44t2 -36h-23q-10 75 -26.5 118t-47.5 62t-89 19h-43v-570q0 -40 7.5 -60t30 -26.5t65.5 -8.5v-20q-28 2 -72 2.5t-90 0.5q-48 0 -90.5 -0.5t-68.5 -2.5v20q43 2 65 8.5t30 26.5t8 60v570h-44q-56 0 -88 -19t-48 -62
t-26 -118h-23q2 15 2.5 36t0.5 44q0 21 -1.5 60.5t-5.5 81.5q43 -1 94 -2t103 -1h94h93t103 1t94 2zM513 930l5 -14q-65 -24 -116 -62t-77 -78h-18q-25 40 -76.5 78t-116.5 62l5 14q62 -12 122 -31t95 -37q30 18 78.5 37t98.5 31z" />
    <glyph glyph-name="tcaron" unicode="&#x165;" horiz-adv-x="353" 
d="M202 681v-166h138v-20h-138v-393q0 -41 15 -58t43 -17q26 0 46.5 21t35.5 71l19 -7q-12 -53 -42.5 -89.5t-89.5 -36.5q-34 0 -57 8.5t-40 24.5q-22 23 -30 55t-8 85v336h-92v20h92v146q31 1 58 5.5t50 14.5zM352 783q2 -5 3.5 -18.5t1.5 -22.5q0 -29 -21 -72t-56 -108
l-14 4q12 68 16 100t4 45q0 20 -3.5 30t-16.5 10v21q31 -2 50.5 2t35.5 9z" />
    <glyph glyph-name="Tbar" unicode="&#x166;" horiz-adv-x="637" 
d="M609 708q-4 -42 -5.5 -81.5t-1.5 -60.5q0 -23 1 -44t2 -36h-23q-10 75 -26.5 118t-47.5 62t-89 19h-43v-570q0 -40 7.5 -60t30 -26.5t65.5 -8.5v-20q-28 2 -72 2.5t-90 0.5q-48 0 -90.5 -0.5t-68.5 -2.5v20q43 2 65 8.5t30 26.5t8 60v570h-44q-56 0 -88 -19t-48 -62
t-26 -118h-23q2 15 2.5 36t0.5 44q0 21 -1.5 60.5t-5.5 81.5q43 -1 94 -2t103 -1h94h93t103 1t94 2zM541.805 364v-20h-436.805v20h436.805z" />
    <glyph glyph-name="tbar" unicode="&#x167;" horiz-adv-x="371" 
d="M343 421v-20h-338v20h338zM205 681v-166h138v-20h-138v-393q0 -41 15 -58t42 -17t47.5 21t35.5 71l19 -7q-12 -53 -42.5 -89.5t-89.5 -36.5q-34 0 -57 8.5t-40 24.5q-22 23 -30 55t-8 85v336h-92v20h92v146q31 1 58 5.5t50 14.5z" />
    <glyph glyph-name="Utilde" unicode="&#x168;" horiz-adv-x="684" 
d="M660 708v-20q-33 -2 -50 -12t-23 -32.5t-6 -63.5v-289q0 -68 -9 -121t-32 -91q-25 -42 -73.5 -67.5t-115.5 -25.5q-48 0 -93 11t-79 42q-30 27 -47 59t-23 77.5t-6 112.5v314q0 37 -5.5 54.5t-22.5 24t-51 7.5v20q23 -1 59.5 -2t78.5 -1q38 0 75.5 1t61.5 2v-20
q-34 -1 -51.5 -7.5t-23.5 -24t-6 -54.5v-346q0 -68 11 -121t43.5 -83.5t97.5 -30.5q74 0 114.5 33.5t57 92t16.5 133.5v296q0 43 -8 66t-28 33.5t-57 12.5v20q19 -1 49 -2t55 -1q26 0 50.5 1t40.5 2zM271 909q30 0 55 -11t47.5 -26t46 -26.5t50.5 -11.5q21 0 39 12.5
t30 43.5l15 -4q-7 -56 -41.5 -85.5t-77.5 -29.5q-30 0 -55 11t-48 26t-46 26.5t-50 11.5q-22 0 -40 -12.5t-29 -43.5l-15 4q8 56 42 85.5t77 29.5z" />
    <glyph glyph-name="utilde" unicode="&#x169;" horiz-adv-x="589" 
d="M496 527v-419q0 -45 15.5 -66.5t56.5 -21.5v-21q-31 3 -62 3q-33 0 -63 -3t-55 -11v109q-25 -60 -69.5 -85.5t-93.5 -25.5q-37 0 -63 10.5t-43 27.5q-18 20 -25 51.5t-7 79.5v252q0 45 -15 66.5t-57 21.5v21q32 -3 62 -3q33 0 63 3.5t55 10.5v-400q0 -29 4 -53t19 -38
t48 -14q52 0 87 46t35 113v226q0 45 -15 66.5t-57 21.5v21q32 -3 62 -3q33 0 63 3.5t55 10.5zM209 774q28 0 48 -10t36 -23t33 -23t40 -10q21 0 40.5 12.5t36.5 40.5l14 -7q-16 -61 -48.5 -88t-71.5 -27q-28 0 -48.5 10t-36.5 23.5t-33 23.5t-40 10q-21 0 -40.5 -12.5
t-36.5 -41.5l-14 7q16 62 49 88.5t72 26.5z" />
    <glyph glyph-name="Umacron" unicode="&#x16a;" horiz-adv-x="684" 
d="M660 708v-20q-33 -2 -50 -12t-23 -32.5t-6 -63.5v-289q0 -68 -9 -121t-32 -91q-25 -42 -73.5 -67.5t-115.5 -25.5q-48 0 -93 11t-79 42q-30 27 -47 59t-23 77.5t-6 112.5v314q0 37 -5.5 54.5t-22.5 24t-51 7.5v20q23 -1 59.5 -2t78.5 -1q38 0 75.5 1t61.5 2v-20
q-34 -1 -51.5 -7.5t-23.5 -24t-6 -54.5v-346q0 -68 11 -121t43.5 -83.5t97.5 -30.5q74 0 114.5 33.5t57 92t16.5 133.5v296q0 43 -8 66t-28 33.5t-57 12.5v20q19 -1 49 -2t55 -1q26 0 50.5 1t40.5 2zM538 844v-25h-368v25h368z" />
    <glyph glyph-name="umacron" unicode="&#x16b;" horiz-adv-x="589" 
d="M496 527v-419q0 -45 15.5 -66.5t56.5 -21.5v-21q-31 3 -62 3q-33 0 -63 -3t-55 -11v109q-25 -60 -69.5 -85.5t-93.5 -25.5q-37 0 -63 10.5t-43 27.5q-18 20 -25 51.5t-7 79.5v252q0 45 -15 66.5t-57 21.5v21q32 -3 62 -3q33 0 63 3.5t55 10.5v-400q0 -29 4 -53t19 -38
t48 -14q52 0 87 46t35 113v226q0 45 -15 66.5t-57 21.5v21q32 -3 62 -3q33 0 63 3.5t55 10.5zM440 712v-25h-320v25h320z" />
    <glyph glyph-name="Ubreve" unicode="&#x16c;" horiz-adv-x="684" 
d="M660 708v-20q-33 -2 -50 -12t-23 -32.5t-6 -63.5v-289q0 -68 -9 -121t-32 -91q-25 -42 -73.5 -67.5t-115.5 -25.5q-48 0 -93 11t-79 42q-30 27 -47 59t-23 77.5t-6 112.5v314q0 37 -5.5 54.5t-22.5 24t-51 7.5v20q23 -1 59.5 -2t78.5 -1q38 0 75.5 1t61.5 2v-20
q-34 -1 -51.5 -7.5t-23.5 -24t-6 -54.5v-346q0 -68 11 -121t43.5 -83.5t97.5 -30.5q74 0 114.5 33.5t57 92t16.5 133.5v296q0 43 -8 66t-28 33.5t-57 12.5v20q19 -1 49 -2t55 -1q26 0 50.5 1t40.5 2zM547 911l12 -11q-15 -27 -43 -55.5t-69 -47.5t-95 -19t-95 19t-69 47.5
t-43 55.5l13 10q24 -21 71.5 -41.5t122.5 -20.5t123 21t72 42z" />
    <glyph glyph-name="ubreve" unicode="&#x16d;" horiz-adv-x="589" 
d="M496 527v-419q0 -45 15.5 -66.5t56.5 -21.5v-21q-31 3 -62 3q-33 0 -63 -3t-55 -11v109q-25 -60 -69.5 -85.5t-93.5 -25.5q-37 0 -63 10.5t-43 27.5q-18 20 -25 51.5t-7 79.5v252q0 45 -15 66.5t-57 21.5v21q32 -3 62 -3q33 0 63 3.5t55 10.5v-400q0 -29 4 -53t19 -38
t48 -14q52 0 87 46t35 113v226q0 45 -15 66.5t-57 21.5v21q32 -3 62 -3q33 0 63 3.5t55 10.5zM448 788l17 -9q-13 -34 -37.5 -69t-60.5 -58t-85 -23t-85 23t-60.5 58t-37.5 69l17 9q21 -31 60.5 -59.5t105.5 -28.5t105.5 28.5t60.5 59.5z" />
    <glyph glyph-name="Uring" unicode="&#x16e;" horiz-adv-x="684" 
d="M660 708v-20q-33 -2 -50 -12t-23 -32.5t-6 -63.5v-289q0 -68 -9 -121t-32 -91q-25 -42 -73.5 -67.5t-115.5 -25.5q-48 0 -93 11t-79 42q-30 27 -47 59t-23 77.5t-6 112.5v314q0 37 -5.5 54.5t-22.5 24t-51 7.5v20q23 -1 59.5 -2t78.5 -1q38 0 75.5 1t61.5 2v-20
q-34 -1 -51.5 -7.5t-23.5 -24t-6 -54.5v-346q0 -68 11 -121t43.5 -83.5t97.5 -30.5q74 0 114.5 33.5t57 92t16.5 133.5v296q0 43 -8 66t-28 33.5t-57 12.5v20q19 -1 49 -2t55 -1q26 0 50.5 1t40.5 2zM354 986q41 0 71 -25t30 -68q0 -44 -30 -69t-71 -25q-40 0 -70 25t-30 69
q0 43 30 68t70 25zM354 965q-25 0 -48.5 -18.5t-23.5 -54.5t23.5 -54t48.5 -18q26 0 49.5 18t23.5 54t-23.5 54.5t-49.5 18.5z" />
    <glyph glyph-name="uring" unicode="&#x16f;" horiz-adv-x="589" 
d="M496 527v-419q0 -45 15.5 -66.5t56.5 -21.5v-21q-31 3 -62 3q-33 0 -63 -3t-55 -11v109q-25 -60 -69.5 -85.5t-93.5 -25.5q-37 0 -63 10.5t-43 27.5q-18 20 -25 51.5t-7 79.5v252q0 45 -15 66.5t-57 21.5v21q32 -3 62 -3q33 0 63 3.5t55 10.5v-400q0 -29 4 -53t19 -38
t48 -14q52 0 87 46t35 113v226q0 45 -15 66.5t-57 21.5v21q32 -3 62 -3q33 0 63 3.5t55 10.5zM283 793q41 0 71 -25t30 -68q0 -44 -30 -69t-71 -25q-40 0 -70 25t-30 69q0 43 30 68t70 25zM283 772q-25 0 -48.5 -18.5t-23.5 -54.5t23.5 -54t48.5 -18q26 0 49.5 18t23.5 54
t-23.5 54.5t-49.5 18.5z" />
    <glyph glyph-name="Uhungarumlaut" unicode="&#x170;" horiz-adv-x="684" 
d="M660 708v-20q-33 -2 -50 -12t-23 -32.5t-6 -63.5v-289q0 -68 -9 -121t-32 -91q-25 -42 -73.5 -67.5t-115.5 -25.5q-48 0 -93 11t-79 42q-30 27 -47 59t-23 77.5t-6 112.5v314q0 37 -5.5 54.5t-22.5 24t-51 7.5v20q23 -1 59.5 -2t78.5 -1q38 0 75.5 1t61.5 2v-20
q-34 -1 -51.5 -7.5t-23.5 -24t-6 -54.5v-346q0 -68 11 -121t43.5 -83.5t97.5 -30.5q74 0 114.5 33.5t57 92t16.5 133.5v296q0 43 -8 66t-28 33.5t-57 12.5v20q19 -1 49 -2t55 -1q26 0 50.5 1t40.5 2zM514 926q19 16 38 14t30 -16q12 -14 9 -32t-23 -35q-28 -22 -71 -39
t-91 -46l-9 12q26 27 45.5 53.5t36 50t35.5 38.5zM319 926q19 16 38 14t30 -16q12 -14 9 -32t-23 -35q-28 -22 -71 -39t-91 -46l-9 12q26 27 45.5 53.5t36 50t35.5 38.5z" />
    <glyph glyph-name="uhungarumlaut" unicode="&#x171;" horiz-adv-x="589" 
d="M496 527v-419q0 -45 15.5 -66.5t56.5 -21.5v-21q-31 3 -62 3q-33 0 -63 -3t-55 -11v109q-25 -60 -69.5 -85.5t-93.5 -25.5q-37 0 -63 10.5t-43 27.5q-18 20 -25 51.5t-7 79.5v252q0 45 -15 66.5t-57 21.5v21q32 -3 62 -3q33 0 63 3.5t55 10.5v-400q0 -29 4 -53t19 -38
t48 -14q52 0 87 46t35 113v226q0 45 -15 66.5t-57 21.5v21q32 -3 62 -3q33 0 63 3.5t55 10.5zM495 814q15 -11 17 -29t-14 -39q-21 -28 -58.5 -57t-96.5 -90l-11 8q28 50 43.5 85t27 61t25.5 45q15 20 34 23t33 -7zM318 814q14 -11 16 -29t-13 -39q-22 -28 -59.5 -57
t-95.5 -90l-12 8q28 50 44 85t27 61t25 45q15 20 34 23t34 -7z" />
    <glyph glyph-name="Uogonek" unicode="&#x172;" horiz-adv-x="684" 
d="M660 708v-20q-33 -2 -50 -12t-23 -32.5t-6 -63.5v-289q0 -68 -9 -121t-32 -91q-25 -42 -73.5 -67.5t-115.5 -25.5q-48 0 -93 11t-79 42q-30 27 -47 59t-23 77.5t-6 112.5v314q0 37 -5.5 54.5t-22.5 24t-51 7.5v20q23 -1 59.5 -2t78.5 -1q38 0 75.5 1t61.5 2v-20
q-34 -1 -51.5 -7.5t-23.5 -24t-6 -54.5v-346q0 -68 11 -121t43.5 -83.5t97.5 -30.5q74 0 114.5 33.5t57 92t16.5 133.5v296q0 43 -8 66t-28 33.5t-57 12.5v20q19 -1 49 -2t55 -1q26 0 50.5 1t40.5 2zM447 3q-60 -17 -82.5 -45t-22.5 -53q0 -19 11 -31t31 -12q19 0 35.5 9.5
t26.5 21.5l15 -13q-24 -35 -54 -51.5t-67 -16.5q-39 0 -61 18t-22 48q0 40 40 72t112 53h38z" />
    <glyph glyph-name="uogonek" unicode="&#x173;" horiz-adv-x="589" 
d="M496 527v-419q0 -45 15.5 -66.5t56.5 -21.5v-21q-31 3 -62 3q-33 0 -63 -3t-55 -11v109q-25 -60 -69.5 -85.5t-93.5 -25.5q-37 0 -63 10.5t-43 27.5q-18 20 -25 51.5t-7 79.5v252q0 45 -15 66.5t-57 21.5v21q32 -3 62 -3q33 0 63 3.5t55 10.5v-400q0 -29 4 -53t19 -38
t48 -14q52 0 87 46t35 113v226q0 45 -15 66.5t-57 21.5v21q32 -3 62 -3q33 0 63 3.5t55 10.5zM554 5q-2 -2 -5.5 -4t-7.5 -3q-47 -21 -65 -45.5t-18 -47.5q0 -19 11.5 -31t31.5 -12q18 0 34.5 9.5t27.5 21.5l14 -13q-24 -35 -54 -51.5t-67 -16.5q-38 0 -60.5 18t-22.5 48
q0 40 38.5 72t107.5 53z" />
    <glyph glyph-name="Wcircumflex" unicode="&#x174;" horiz-adv-x="926" 
d="M929 708v-20q-20 -5 -43 -26.5t-39 -71.5l-184 -594h-8.5h-8.5h-9h-8l-212 631q-12 37 -27.5 48.5t-29.5 12.5v20q21 -1 52 -2t60 -1q41 0 76.5 1t56.5 2v-20q-30 -1 -47.5 -6.5t-20 -22.5t9.5 -55l147 -452l-17 -22l126 397q20 62 18.5 96.5t-23 49t-62.5 15.5v20l60 -2
t58 -1q25 0 42.5 1t32.5 2zM225 708v-20q-24 -2 -34 -11.5t-9.5 -27t9.5 -45.5l155 -463l-26 -29l136 423l15 -25l-163 -514h-8h-9h-8.5h-8.5l-216 628q-13 38 -32 50.5t-35 13.5v20q24 -1 57 -2t64 -1q36 0 65.5 1t47.5 2zM485 924q25 -40 76.5 -77.5t116.5 -62.5l-5 -14
q-62 12 -121.5 31t-95.5 37q-29 -18 -78 -37t-99 -31l-5 14q65 25 116 62.5t77 77.5h18z" />
    <glyph glyph-name="wcircumflex" unicode="&#x175;" horiz-adv-x="776" 
d="M234 516v-21q-24 0 -42.5 -3.5t-24 -18.5t7.5 -53l101 -298l-9 -4l137 401l20 -9l-173 -514h-16h-17l-162 443q-16 40 -31.5 48t-26.5 8v21q24 -3 49.5 -4.5t56.5 -1.5t65.5 2t64.5 4zM774 516v-20q-19 -3 -36 -19t-30 -57l-141 -424h-16.5h-16.5l-155 401l25 122
q10 -1 19.5 -0.5t19.5 0.5l150 -410l-9 -1l88 272q20 60 3.5 86t-68.5 30v20q18 -1 32.5 -1.5l29 -1t29.5 -0.5q22 0 41.5 1t34.5 2zM420 808q22 -52 67.5 -100.5t103.5 -79.5l-8 -14q-55 17 -107 42t-85 50q-26 -25 -67.5 -50t-84.5 -42l-8 14q58 31 103.5 79.5t67.5 100.5
h18z" />
    <glyph glyph-name="Ycircumflex" unicode="&#x176;" horiz-adv-x="602" 
d="M598 708v-20q-20 -5 -40.5 -27.5t-45.5 -70.5l-197 -391h-27l-234 432q-20 36 -33.5 46t-24.5 10v21q22 -1 46 -2t52 -1q36 0 78 0.5t78 2.5v-21q-25 0 -44.5 -5t-26 -19.5t7.5 -41.5l165 -317l-16 -17l123 245q31 61 31.5 94.5t-22 47t-64.5 14.5v20q31 -1 61 -2t57 -1
q25 0 43 1t33 2zM368 322v-216q0 -36 6 -54t23 -24t50 -8v-20q-24 2 -61 2.5t-75 0.5q-41 0 -78 -0.5t-59 -2.5v20q34 2 51 8t22.5 24t5.5 54v205l65 -62zM322 924q25 -40 76.5 -77.5t116.5 -62.5l-5 -14q-62 12 -121.5 31t-95.5 37q-29 -18 -78 -37t-99 -31l-5 14
q65 25 116 62.5t77 77.5h18z" />
    <glyph glyph-name="ycircumflex" unicode="&#x177;" horiz-adv-x="509" 
d="M500 516v-20q-19 -3 -35 -19.5t-31 -56.5l-156 -418l-24 -24l-195 461q-19 39 -36.5 47.5t-29.5 8.5v21q25 -3 53 -4.5t58 -1.5q34 0 68.5 2t64.5 4v-21q-24 0 -42.5 -3.5t-24 -19t9.5 -52.5l124 -305l-7 -3l101 268q22 60 5.5 86t-67.5 30v20q25 -1 45.5 -2t42.5 -1
t41.5 1t34.5 2zM278 2l-36 -94q-19 -50 -43 -70q-15 -14 -37 -20t-44 -6q-21 0 -39.5 7.5t-30.5 22.5t-12 37q0 26 17 42t45 16q25 0 42 -13.5t17 -39.5q0 -18 -9.5 -31t-24.5 -20q3 -1 6 -1h5q28 0 50 18.5t37 59.5l36 96zM264 808q22 -52 67.5 -100.5t103.5 -79.5l-8 -14
q-55 17 -107 42t-85 50q-26 -25 -67.5 -50t-84.5 -42l-8 14q58 31 103.5 79.5t67.5 100.5h18z" />
    <glyph glyph-name="Ydieresis" unicode="&#x178;" horiz-adv-x="602" 
d="M598 708v-20q-20 -5 -40.5 -27.5t-45.5 -70.5l-197 -391h-27l-234 432q-20 36 -33.5 46t-24.5 10v21q22 -1 46 -2t52 -1q36 0 78 0.5t78 2.5v-21q-25 0 -44.5 -5t-26 -19.5t7.5 -41.5l165 -317l-16 -17l123 245q31 61 31.5 94.5t-22 47t-64.5 14.5v20q31 -1 61 -2t57 -1
q25 0 43 1t33 2zM368 322v-216q0 -36 6 -54t23 -24t50 -8v-20q-24 2 -61 2.5t-75 0.5q-41 0 -78 -0.5t-59 -2.5v20q34 2 51 8t22.5 24t5.5 54v205l65 -62zM424 898q25 0 44 -19.5t19 -44.5q0 -27 -19 -45.5t-44 -18.5q-27 0 -45.5 18.5t-18.5 45.5q0 25 18.5 44.5t45.5 19.5
zM202 898q26 0 45 -19.5t19 -44.5q0 -27 -19 -45.5t-45 -18.5t-44.5 18.5t-18.5 45.5q0 25 18.5 44.5t44.5 19.5z" />
    <glyph glyph-name="Zacute" unicode="&#x179;" horiz-adv-x="597" 
d="M552 708v-20l-380 -665h166q42 0 73.5 10.5t53 33t34.5 60.5t18 93h23q-3 -32 -3 -84q0 -20 1.5 -58t5.5 -78q-55 2 -124.5 2.5t-124.5 0.5q-61 0 -128 -0.5t-126 -2.5v20l382 665h-166q-58 0 -94 -18t-55 -60t-27 -115h-23q2 15 2.5 36t0.5 44q0 20 -1.5 58t-5.5 78
q54 -2 121 -2.5t120 -0.5q61 0 130 0.5t127 2.5zM398 929q20 12 39.5 8t28.5 -20q8 -15 3 -32.5t-27 -31.5q-21 -12 -48.5 -21.5t-64.5 -22.5t-90 -37l-7 13q47 36 75.5 63.5t48.5 47.5t42 33z" />
    <glyph glyph-name="zacute" unicode="&#x17a;" horiz-adv-x="475" 
d="M441 521l-276 -506h90q40 0 71 16t51 53t24 98h23q0 -67 1 -112t3 -74q-45 2 -93 3t-95 1q-51 0 -103.5 -1.5t-100.5 -3.5l276 506h-92q-43 0 -74 -16.5t-48.5 -53t-22.5 -97.5h-22q0 68 -1 112t-3 74q44 -2 92 -3t96 -1q50 0 102.5 1.5t101.5 3.5zM362 814
q13 -11 14.5 -29t-13.5 -38q-16 -20 -38 -38t-52.5 -43t-71.5 -67l-11 9q31 51 48 86.5t29 61.5t27 45q15 20 34.5 22.5t33.5 -9.5z" />
    <glyph glyph-name="Zdotaccent" unicode="&#x17b;" horiz-adv-x="597" 
d="M552 708v-20l-380 -665h166q42 0 73.5 10.5t53 33t34.5 60.5t18 93h23q-3 -32 -3 -84q0 -20 1.5 -58t5.5 -78q-55 2 -124.5 2.5t-124.5 0.5q-61 0 -128 -0.5t-126 -2.5v20l382 665h-166q-58 0 -94 -18t-55 -60t-27 -115h-23q2 15 2.5 36t0.5 44q0 20 -1.5 58t-5.5 78
q54 -2 121 -2.5t120 -0.5q61 0 130 0.5t127 2.5zM297 961q31 0 52 -19.5t21 -48.5t-21 -48.5t-52 -19.5t-52 19.5t-21 48.5t21 48.5t52 19.5z" />
    <glyph glyph-name="zdotaccent" unicode="&#x17c;" horiz-adv-x="475" 
d="M441 521l-276 -506h90q40 0 71 16t51 53t24 98h23q0 -67 1 -112t3 -74q-45 2 -93 3t-95 1q-51 0 -103.5 -1.5t-100.5 -3.5l276 506h-92q-43 0 -74 -16.5t-48.5 -53t-22.5 -97.5h-22q0 68 -1 112t-3 74q44 -2 92 -3t96 -1q50 0 102.5 1.5t101.5 3.5zM254 768
q31 0 52 -19.5t21 -48.5t-21 -48.5t-52 -19.5t-52 19.5t-21 48.5t21 48.5t52 19.5z" />
    <glyph glyph-name="Zcaron" unicode="&#x17d;" horiz-adv-x="597" 
d="M552 708v-20l-380 -665h166q42 0 73.5 10.5t53 33t34.5 60.5t18 93h23q-3 -32 -3 -84q0 -20 1.5 -58t5.5 -78q-55 2 -124.5 2.5t-124.5 0.5q-61 0 -128 -0.5t-126 -2.5v20l382 665h-166q-58 0 -94 -18t-55 -60t-27 -115h-23q2 15 2.5 36t0.5 44q0 20 -1.5 58t-5.5 78
q54 -2 121 -2.5t120 -0.5q61 0 130 0.5t127 2.5zM491 930l5 -14q-65 -24 -116 -62t-77 -78h-18q-25 40 -76.5 78t-116.5 62l5 14q62 -12 122 -31t95 -37q30 18 78.5 37t98.5 31z" />
    <glyph glyph-name="zcaron" unicode="&#x17e;" horiz-adv-x="475" 
d="M441 521l-276 -506h90q40 0 71 16t51 53t24 98h23q0 -67 1 -112t3 -74q-45 2 -93 3t-95 1q-51 0 -103.5 -1.5t-100.5 -3.5l276 506h-92q-43 0 -74 -16.5t-48.5 -53t-22.5 -97.5h-22q0 68 -1 112t-3 74q44 -2 92 -3t96 -1q50 0 102.5 1.5t101.5 3.5zM416 808l8 -14
q-58 -30 -103.5 -79t-67.5 -101h-18q-22 52 -67.5 101t-103.5 79l8 14q55 -17 107.5 -42t84.5 -50q27 25 68 50t84 42z" />
    <glyph glyph-name="longs" unicode="&#x17f;" horiz-adv-x="339" 
d="M28 0v21q39 0 55.5 15t16.5 57v402h-76v20h76q0 89 12.5 136t42.5 81q21 22 53.5 36t71.5 14q30 0 53 -8t41 -21q14 -12 23 -29t9 -37q0 -25 -16.5 -42t-42.5 -17t-44 16t-18 44q0 23 12.5 38t34.5 21q-3 8 -14 13.5t-30 5.5q-22 0 -37.5 -9t-24.5 -24
q-11 -19 -14.5 -56.5t-3.5 -114.5v-459q0 -49 27.5 -65.5t74.5 -16.5v-21q-24 1 -67.5 2.5t-92.5 1.5q-35 0 -69.5 -1.5t-52.5 -2.5z" />
    <glyph glyph-name="uni018F" unicode="&#x18f;" horiz-adv-x="717" 
d="M345 -14q-84 0 -151 33t-106 102.5t-38 176.5h538l1 -19h-419q-4 -76 17.5 -138t65 -98.5t104.5 -36.5q77 0 127.5 67.5t62.5 214.5l-3 5q2 14 2.5 30.5t0.5 31.5q0 84 -19 147t-53 105t-77 63.5t-92 21.5q-38 0 -80.5 -14t-71.5 -45q-26 -24 -37.5 -62t-20.5 -97h-23
q0 89 -1 142.5t-3 91.5h23q5 -46 15 -55t30 4q21 14 47.5 29t63.5 25.5t90 10.5q101 0 175 -44t114.5 -126.5t40.5 -199.5q0 -114 -39.5 -196t-112 -126t-171.5 -44z" />
    <glyph glyph-name="florin" unicode="&#x192;" horiz-adv-x="490" 
d="M344 782q27 0 51 -6.5t41.5 -19t28 -30t10.5 -38.5q0 -24 -15.5 -41t-42.5 -17q-28 0 -45 15t-17 41q0 44 48 59q-3 8 -17 14.5t-33 6.5q-22 0 -39 -9.5t-26 -26.5q-13 -22 -15.5 -68.5t-2.5 -146.5v-407q0 -73 -10.5 -134.5t-45.5 -102.5q-25 -29 -60 -44t-75 -15
q-18 0 -34 4.5t-27.5 12t-18 19t-6.5 25.5q0 23 15.5 38t41.5 15q24 0 39 -14t15 -37q0 -10 -5 -23t-19 -24q16 2 28 6.5t20 12.5q8 5 15.5 13.5t11.5 19.5q4 13 5.5 32t1.5 52v551q0 89 12.5 136t42.5 81q21 23 54.5 36.5t72.5 13.5zM442 515v-20h-405v20h405z" />
    <glyph glyph-name="Ohorn" unicode="&#x1a0;" horiz-adv-x="758" 
d="M465 703q65 -4 106.5 5t74.5 29l-1 -8q-18 12 -32 31t-14 44t16 43.5t45 18.5t45 -17.5t16 -42.5q0 -26 -17.5 -49t-46.5 -40q-28 -15 -68 -25t-93 -11zM380 722q98 0 172.5 -43t115.5 -123.5t41 -195.5q0 -112 -42 -196t-117 -131t-171 -47q-99 0 -173 43t-115 124
t-41 195q0 112 42.5 196t116.5 131t171 47zM376 704q-62 0 -108 -45t-71 -124t-25 -183q0 -106 28 -184.5t76 -121t107 -42.5q62 0 107.5 45t71 124.5t25.5 182.5q0 107 -28.5 185t-76 120.5t-106.5 42.5z" />
    <glyph glyph-name="ohorn" unicode="&#x1a1;" horiz-adv-x="554" 
d="M382 480l-4 19q32 1 56 7t44 15l-1 -7q-13 10 -24 26.5t-11 37.5q0 23 14 41t41 18q24 0 38 -14.5t14 -38.5t-14 -43t-37 -31q-21 -13 -50.5 -20t-65.5 -10zM277 530q67 0 119 -28t83 -88t31 -157t-31 -156.5t-83 -87t-119 -27.5q-66 0 -119 27.5t-83.5 87t-30.5 156.5
t30.5 157t83.5 88t119 28zM277 510q-52 0 -85 -59.5t-33 -193.5t33 -192.5t85 -58.5q51 0 84.5 58.5t33.5 192.5t-33.5 193.5t-84.5 59.5z" />
    <glyph glyph-name="Uhorn" unicode="&#x1af;" horiz-adv-x="684" 
d="M351 -14q-48 0 -93 11t-79 42q-30 27 -47 59t-23 77.5t-6 112.5v314q0 37 -5.5 54.5t-22.5 24t-51 7.5v20q23 -1 59.5 -2t78.5 -1q38 0 75.5 1t61.5 2v-20q-34 -1 -51.5 -7.5t-23.5 -24t-6 -54.5v-346q0 -68 11 -121t43.5 -83.5t97.5 -30.5q74 0 114.5 33.5t57 92
t16.5 133.5v416l4 -10q-25 -1 -49.5 -0.5t-49.5 2.5l5 20q16 -1 35.5 -2t38.5 -1q29 0 60 4.5t62 26.5l-2 -5q-17 11 -31.5 30t-14.5 43q0 26 16 45t46 19q29 0 45 -17.5t16 -43.5q0 -27 -18.5 -49.5t-46.5 -38.5q-29 -17 -54 -24.5t-48 -8.5l9 9v-404q0 -68 -9 -121
t-32 -91q-25 -42 -73.5 -67.5t-115.5 -25.5z" />
    <glyph glyph-name="uhorn" unicode="&#x1b0;" horiz-adv-x="589" 
d="M431 492l-5 19q32 4 56.5 11.5t44.5 19.5l-1 -8q-13 11 -24 27.5t-11 37.5q0 22 14 40t41 18q24 0 37.5 -15t13.5 -36q0 -24 -14.5 -43t-35.5 -33q-23 -15 -51.5 -23.5t-64.5 -14.5zM496 527v-419q0 -45 15.5 -66.5t56.5 -21.5v-21q-31 3 -62 3q-33 0 -63 -3t-55 -11v109
q-25 -60 -69.5 -85.5t-93.5 -25.5q-37 0 -63 10.5t-43 27.5q-18 20 -25 51.5t-7 79.5v252q0 45 -15 66.5t-57 21.5v21q32 -3 62 -3q33 0 63 3.5t55 10.5v-400q0 -29 4 -53t19 -38t48 -14q52 0 87 46t35 113v226q0 45 -15 66.5t-57 21.5v21q32 -3 62 -3q33 0 63 3.5t55 10.5z
" />
    <glyph glyph-name="uni01B7" unicode="&#x1b7;" horiz-adv-x="597" 
d="M552 708v-20l-188 -321l-2 28q52 -17 95.5 -44.5t71 -66.5t27.5 -94q0 -60 -34 -106.5t-93.5 -72t-137.5 -25.5q-59 0 -101 13t-62 24q-9 6 -17.5 10t-15.5 4q-11 0 -15.5 -11.5t-7.5 -32.5h-23q2 22 2.5 51.5t1 77.5t0.5 121h23q4 -64 26.5 -117.5t65.5 -85.5t109 -32
q58 0 94.5 25t54 65.5t17.5 88.5q0 87 -48.5 135.5t-123.5 65.5v20l164 277h-178q-58 0 -94 -18t-55 -60t-27 -115h-23q2 15 2.5 36t0.5 39q0 25 -1.5 63t-5.5 78q54 -2 121 -2.5t120 -0.5q61 0 130 0.5t127 2.5z" />
    <glyph glyph-name="uni01CD" unicode="&#x1cd;" horiz-adv-x="642" 
d="M338 712l244 -628q14 -37 32.5 -50t34.5 -14v-20q-24 2 -56.5 2.5t-65.5 0.5q-42 0 -78 -0.5t-58 -2.5v20q51 2 64.5 17.5t-6.5 66.5l-180 486l16 18l-166 -434q-24 -60 -23 -93t23.5 -46.5t64.5 -14.5v-20q-30 2 -60.5 2.5t-57.5 0.5q-24 0 -42.5 -0.5t-33.5 -2.5v20
q21 5 42 25t40 68l232 599h17h17zM443 288v-20h-298l10 20h288zM514 930l5 -14q-65 -24 -116 -62t-77 -78h-18q-25 40 -76.5 78t-116.5 62l5 14q62 -12 122 -31t95 -37q30 18 78.5 37t98.5 31z" />
    <glyph glyph-name="uni01CE" unicode="&#x1ce;" 
d="M161 -7q-66 0 -95.5 33.5t-29.5 85.5q0 43 20 70t51.5 44.5t67 30t67 24t52 26.5t20.5 38v68q0 36 -11.5 57.5t-31 30.5t-46.5 9q-23 0 -49 -6.5t-41 -25.5q22 -6 36.5 -23.5t14.5 -43.5q0 -28 -18.5 -44t-46.5 -16q-31 0 -46 19.5t-15 45.5q0 27 13.5 44t35.5 32
q24 16 61.5 27t83.5 11q43 0 74.5 -9.5t52.5 -30.5q25 -23 33 -57.5t8 -83.5v-276q0 -24 6 -35t22 -11q12 0 22 6t20 14l10 -17q-21 -17 -42.5 -27t-54.5 -10q-55 0 -72.5 26t-18.5 60q-29 -49 -68.5 -67.5t-84.5 -18.5zM216 41q26 0 51 14.5t47 49.5v199q-14 -21 -42.5 -34
t-58 -28.5t-50.5 -41.5t-21 -72q0 -45 21 -66t53 -21zM413 808l8 -14q-58 -30 -103.5 -79t-67.5 -101h-18q-22 52 -67.5 101t-103.5 79l8 14q55 -17 107.5 -42t84.5 -50q27 25 68 50t84 42z" />
    <glyph glyph-name="uni01D3" unicode="&#x1d3;" horiz-adv-x="684" 
d="M660 708v-20q-33 -2 -50 -12t-23 -32.5t-6 -63.5v-289q0 -68 -9 -121t-32 -91q-25 -42 -73.5 -67.5t-115.5 -25.5q-48 0 -93 11t-79 42q-30 27 -47 59t-23 77.5t-6 112.5v314q0 37 -5.5 54.5t-22.5 24t-51 7.5v20q23 -1 59.5 -2t78.5 -1q38 0 75.5 1t61.5 2v-20
q-34 -1 -51.5 -7.5t-23.5 -24t-6 -54.5v-346q0 -68 11 -121t43.5 -83.5t97.5 -30.5q74 0 114.5 33.5t57 92t16.5 133.5v296q0 43 -8 66t-28 33.5t-57 12.5v20q19 -1 49 -2t55 -1q26 0 50.5 1t40.5 2zM548 930l5 -14q-65 -24 -116 -62t-77 -78h-18q-25 40 -76.5 78t-116.5 62
l5 14q62 -12 122 -31t95 -37q30 18 78.5 37t98.5 31z" />
    <glyph glyph-name="uni01D4" unicode="&#x1d4;" horiz-adv-x="589" 
d="M496 527v-419q0 -45 15.5 -66.5t56.5 -21.5v-21q-31 3 -62 3q-33 0 -63 -3t-55 -11v109q-25 -60 -69.5 -85.5t-93.5 -25.5q-37 0 -63 10.5t-43 27.5q-18 20 -25 51.5t-7 79.5v252q0 45 -15 66.5t-57 21.5v21q32 -3 62 -3q33 0 63 3.5t55 10.5v-400q0 -29 4 -53t19 -38
t48 -14q52 0 87 46t35 113v226q0 45 -15 66.5t-57 21.5v21q32 -3 62 -3q33 0 63 3.5t55 10.5zM445 808l8 -14q-58 -30 -103.5 -79t-67.5 -101h-18q-22 52 -67.5 101t-103.5 79l8 14q55 -17 107.5 -42t84.5 -50q27 25 68 50t84 42z" />
    <glyph glyph-name="uni01E4" unicode="&#x1e4;" horiz-adv-x="714" 
d="M386 722q66 0 107 -19.5t75 -45.5q13 -10 20 -10q19 0 25 61h23q-2 -38 -3 -91.5t-1 -142.5h-23q-7 48 -18.5 89t-39.5 70q-27 32 -70.5 50t-88.5 18q-52 0 -92 -25.5t-67.5 -72.5t-42 -110.5t-14.5 -139.5q0 -180 55.5 -263.5t167.5 -83.5q32 0 55.5 9t37.5 18
q17 12 22 23.5t5 30.5v119q0 43 -7.5 63.5t-29.5 28t-64 8.5v20q19 -1 45 -1.5t54.5 -1t51.5 -0.5q36 0 65.5 1t48.5 2v-20q-31 -2 -40 -16t-9 -70v-220h-20q-1 17 -7.5 37t-19.5 20q-7 0 -14.5 -3t-25.5 -15q-35 -24 -73 -38.5t-86 -14.5q-162 0 -250 94.5t-88 262.5
q0 116 43.5 201t119 131.5t173.5 46.5zM405 170v20h309v-20h-309z" />
    <glyph glyph-name="uni01E5" unicode="&#x1e5;" horiz-adv-x="526" 
d="M566 -61v-20h-616v20h616zM215 -188q-56 0 -103.5 11t-76 33.5t-28.5 57.5q0 33 28 58t79 38l7 -16q-21 -9 -32.5 -29t-11.5 -44q0 -44 41 -68t108 -24q45 0 85.5 11.5t66 37.5t25.5 67q0 32 -23 53.5t-91 21.5h-70q-35 0 -65 6t-48.5 23.5t-18.5 49.5q0 36 30 68t101 63
l12 -9q-29 -16 -51.5 -32.5t-22.5 -40.5q0 -32 46 -32h119q69 0 119 -28.5t50 -94.5q0 -47 -30.5 -88.5t-91.5 -67t-153 -25.5zM221 213q-77 0 -130 38t-53 120q0 83 53 121t130 38q78 0 130.5 -38t52.5 -121q0 -82 -52.5 -120t-130.5 -38zM221 231q35 0 54 30t19 110
t-19 110.5t-54 30.5q-33 0 -53 -30.5t-20 -110.5t20 -110t53 -30zM369 446l-18 7q14 35 48 61t71 26q28 0 44.5 -15.5t16.5 -43.5q0 -31 -16.5 -44t-34.5 -13q-16 0 -29.5 11t-15.5 34.5t15 60.5l11 -4q-40 -16 -58.5 -33.5t-33.5 -46.5z" />
    <glyph glyph-name="Gcaron" unicode="&#x1e6;" horiz-adv-x="714" 
d="M386 722q66 0 107 -19.5t75 -45.5q13 -10 20 -10q19 0 25 61h23q-2 -38 -3 -91.5t-1 -142.5h-23q-7 48 -18.5 89t-39.5 70q-27 32 -70.5 50t-88.5 18q-52 0 -92 -25.5t-67.5 -72.5t-42 -110.5t-14.5 -139.5q0 -180 55.5 -263.5t167.5 -83.5q32 0 55.5 9t37.5 18
q17 12 22 23.5t5 30.5v97q0 43 -7.5 63.5t-29.5 28t-64 8.5v20q19 -1 45 -1.5t54.5 -1t51.5 -0.5q36 0 65.5 1t48.5 2v-20q-31 -2 -40 -16t-9 -70v-198h-20q-1 17 -7.5 37t-19.5 20q-7 0 -14.5 -3t-25.5 -15q-35 -24 -73 -38.5t-86 -14.5q-162 0 -250 94.5t-88 262.5
q0 116 43.5 201t119 131.5t173.5 46.5zM563 930l5 -14q-65 -24 -116 -62t-77 -78h-18q-25 40 -76.5 78t-116.5 62l5 14q62 -12 122 -31t95 -37q30 18 78.5 37t98.5 31z" />
    <glyph glyph-name="gcaron" unicode="&#x1e7;" horiz-adv-x="536" 
d="M215 -188q-56 0 -103.5 11t-76 33.5t-28.5 57.5q0 33 28 58t79 38l7 -16q-21 -9 -32.5 -29t-11.5 -44q0 -44 41 -68t108 -24q45 0 85.5 11.5t66 37.5t25.5 67q0 32 -23 53.5t-91 21.5h-70q-35 0 -65 6t-48.5 23.5t-18.5 49.5q0 36 30 68t101 63l12 -9
q-29 -16 -51.5 -32.5t-22.5 -40.5q0 -32 46 -32h119q69 0 119 -28.5t50 -94.5q0 -47 -30.5 -88.5t-91.5 -67t-153 -25.5zM221 213q-77 0 -130 38t-53 120q0 83 53 121t130 38q78 0 130.5 -38t52.5 -121q0 -82 -52.5 -120t-130.5 -38zM221 231q35 0 54 30t19 110t-19 110.5
t-54 30.5q-33 0 -53 -30.5t-20 -110.5t20 -110t53 -30zM369 446l-18 7q14 35 48 61t71 26q28 0 44.5 -15.5t16.5 -43.5q0 -31 -16.5 -44t-34.5 -13q-16 0 -29.5 11t-15.5 34.5t15 60.5l11 -4q-40 -16 -58.5 -33.5t-33.5 -46.5zM404 808l8 -14q-58 -30 -103.5 -79t-67.5 -101
h-18q-22 52 -67.5 101t-103.5 79l8 14q55 -17 107.5 -42t84.5 -50q27 25 68 50t84 42z" />
    <glyph glyph-name="uni01E8" unicode="&#x1e8;" horiz-adv-x="675" 
d="M640 708v-20q-32 -5 -63.5 -22.5t-63.5 -57.5l-192 -240l34 61l240 -348q16 -24 34.5 -38t47.5 -23v-20q-27 2 -65 2.5t-67 0.5q-18 0 -44.5 -0.5t-66.5 -2.5v20q37 2 45.5 12t-7.5 33l-145 225q-18 28 -32 42.5t-29 19t-37 5.5v21q42 1 72.5 19t57.5 49l83 105
q35 43 45 73.5t-5 46.5t-56 17v20q31 -1 62.5 -2t63.5 -1q56 0 88 3zM312 708v-20q-33 -1 -50 -7.5t-23 -24t-6 -54.5v-496q0 -36 6 -54t23 -24t50 -8v-20q-24 2 -60.5 2.5t-74.5 0.5q-42 0 -78.5 -0.5t-59.5 -2.5v20q34 2 51 8t22.5 24t5.5 54v496q0 37 -5.5 54.5t-23 24
t-50.5 7.5v20q23 -1 59.5 -2t78.5 -1q38 0 74.5 1t60.5 2zM556 930l5 -14q-65 -24 -116 -62t-77 -78h-18q-25 40 -76.5 78t-116.5 62l5 14q62 -12 122 -31t95 -37q30 18 78.5 37t98.5 31z" />
    <glyph glyph-name="uni01E9" unicode="&#x1e9;" horiz-adv-x="562" 
d="M200 784v-691q0 -42 14.5 -57t49.5 -15v-21q-17 1 -50.5 2.5t-67.5 1.5q-35 0 -71.5 -1.5t-54.5 -2.5v21q39 0 55.5 15t16.5 57v571q0 45 -15.5 66.5t-56.5 21.5v21q32 -3 62 -3q33 0 63 3.5t55 10.5zM520 516v-20q-27 -4 -52 -18t-49 -39l-120 -126l13 25l181 -265
q15 -21 29 -34.5t35 -17.5v-21q-13 1 -38.5 2.5t-50.5 1.5q-33 0 -67 -1.5t-50 -2.5v21q20 0 27.5 10t-2.5 24l-110 172q-17 24 -31 31t-40 8v20q29 3 47.5 11t34.5 26l75 76q32 32 32 53.5t-20.5 32t-54.5 11.5v20q27 -1 59.5 -2.5t54.5 -1.5q18 0 36.5 0.5t34.5 1.5t26 2z
M445 1051l8 -14q-58 -30 -103.5 -79t-67.5 -101h-18q-22 52 -67.5 101t-103.5 79l8 14q55 -17 107.5 -42t84.5 -50q27 25 68 50t84 42z" />
    <glyph glyph-name="uni01EE" unicode="&#x1ee;" horiz-adv-x="597" 
d="M552 708v-20l-188 -321l-2 28q52 -17 95.5 -44.5t71 -66.5t27.5 -94q0 -60 -34 -106.5t-93.5 -72t-137.5 -25.5q-59 0 -101 13t-62 24q-9 6 -17.5 10t-15.5 4q-11 0 -15.5 -11.5t-7.5 -32.5h-23q2 22 2.5 51.5t1 77.5t0.5 121h23q4 -64 26.5 -117.5t65.5 -85.5t109 -32
q58 0 94.5 25t54 65.5t17.5 88.5q0 87 -48.5 135.5t-123.5 65.5v20l164 277h-178q-58 0 -94 -18t-55 -60t-27 -115h-23q2 15 2.5 36t0.5 39q0 25 -1.5 63t-5.5 78q54 -2 121 -2.5t120 -0.5q61 0 130 0.5t127 2.5zM491 930l5 -14q-65 -24 -116 -62t-77 -78h-18
q-25 40 -76.5 78t-116.5 62l5 14q62 -12 122 -31t95 -37q30 18 78.5 37t98.5 31z" />
    <glyph glyph-name="uni01EF" unicode="&#x1ef;" horiz-adv-x="473" 
d="M150 208q67 -1 108 -34.5t41 -103.5q0 -56 -23.5 -99.5t-63 -72t-88 -44t-98.5 -16.5v-19q67 0 135.5 17.5t125.5 50t91 78.5t34 103q0 50 -25.5 82.5t-67 49.5t-89.5 20l35 -18l174 319q-49 -2 -101.5 -3.5t-104.5 -1.5q-46 0 -94 1t-92 3q2 -30 3 -74t1 -112h22
q5 61 22.5 97.5t48.5 53t74 16.5h92zM414 808l8 -14q-58 -30 -103.5 -79t-67.5 -101h-18q-22 52 -67.5 101t-103.5 79l8 14q55 -17 107.5 -42t84.5 -50q27 25 68 50t84 42z" />
    <glyph glyph-name="uni01F4" unicode="&#x1f4;" horiz-adv-x="714" 
d="M386 722q66 0 107 -19.5t75 -45.5q13 -10 20 -10q19 0 25 61h23q-2 -38 -3 -91.5t-1 -142.5h-23q-7 48 -18.5 89t-39.5 70q-27 32 -70.5 50t-88.5 18q-52 0 -92 -25.5t-67.5 -72.5t-42 -110.5t-14.5 -139.5q0 -180 55.5 -263.5t167.5 -83.5q32 0 55.5 9t37.5 18
q17 12 22 23.5t5 30.5v97q0 43 -7.5 63.5t-29.5 28t-64 8.5v20q19 -1 45 -1.5t54.5 -1t51.5 -0.5q36 0 65.5 1t48.5 2v-20q-31 -2 -40 -16t-9 -70v-198h-20q-1 17 -7.5 37t-19.5 20q-7 0 -14.5 -3t-25.5 -15q-35 -24 -73 -38.5t-86 -14.5q-162 0 -250 94.5t-88 262.5
q0 116 43.5 201t119 131.5t173.5 46.5zM470 929q20 12 39.5 8t28.5 -20q8 -15 3 -32.5t-27 -31.5q-21 -12 -48.5 -21.5t-64.5 -22.5t-90 -37l-7 13q47 36 75.5 63.5t48.5 47.5t42 33z" />
    <glyph glyph-name="uni01F5" unicode="&#x1f5;" horiz-adv-x="536" 
d="M215 -188q-56 0 -103.5 11t-76 33.5t-28.5 57.5q0 33 28 58t79 38l7 -16q-21 -9 -32.5 -29t-11.5 -44q0 -44 41 -68t108 -24q45 0 85.5 11.5t66 37.5t25.5 67q0 32 -23 53.5t-91 21.5h-70q-35 0 -65 6t-48.5 23.5t-18.5 49.5q0 36 30 68t101 63l12 -9
q-29 -16 -51.5 -32.5t-22.5 -40.5q0 -32 46 -32h119q69 0 119 -28.5t50 -94.5q0 -47 -30.5 -88.5t-91.5 -67t-153 -25.5zM221 213q-77 0 -130 38t-53 120q0 83 53 121t130 38q78 0 130.5 -38t52.5 -121q0 -82 -52.5 -120t-130.5 -38zM221 231q35 0 54 30t19 110t-19 110.5
t-54 30.5q-33 0 -53 -30.5t-20 -110.5t20 -110t53 -30zM369 446l-18 7q14 35 48 61t71 26q28 0 44.5 -15.5t16.5 -43.5q0 -31 -16.5 -44t-34.5 -13q-16 0 -29.5 11t-15.5 34.5t15 60.5l11 -4q-40 -16 -58.5 -33.5t-33.5 -46.5zM350 814q13 -11 14.5 -29t-13.5 -38
q-16 -20 -38 -38t-52.5 -43t-71.5 -67l-11 9q31 51 48 86.5t29 61.5t27 45q15 20 34.5 22.5t33.5 -9.5z" />
    <glyph glyph-name="Oslashacute" unicode="&#x1fe;" horiz-adv-x="758" 
d="M380 722q98 0 172.5 -43t115.5 -123.5t41 -195.5q0 -112 -42 -196t-117 -131t-171 -47q-99 0 -173 43t-115 124t-41 195q0 112 42.5 196t116.5 131t171 47zM376 704q-62 0 -108 -45t-71 -124t-25 -183q0 -106 28 -184.5t76 -121t107 -42.5q62 0 107.5 45t71 124.5
t25.5 182.5q0 107 -28.5 185t-76 120.5t-106.5 42.5zM546 634l15 -20l-348 -537l-18 18zM186 95l18 -18l-105 -152l-21 14zM650 775l19 -13l-101 -148l-15 20zM479 929q20 12 39.5 8t28.5 -20q8 -15 3 -32.5t-27 -31.5q-21 -12 -48.5 -21.5t-64.5 -22.5t-90 -37l-7 13
q47 36 75.5 63.5t48.5 47.5t42 33z" />
    <glyph glyph-name="oslashacute" unicode="&#x1ff;" horiz-adv-x="554" 
d="M277 530q67 0 119 -28t83 -88t31 -157t-31 -156.5t-83 -87t-119 -27.5q-66 0 -119 27.5t-83.5 87t-30.5 156.5t30.5 157t83.5 88t119 28zM277 510q-52 0 -85 -59.5t-33 -193.5t33 -192.5t85 -58.5q51 0 84.5 58.5t33.5 192.5t-33.5 193.5t-84.5 59.5zM392 466l15 -20
l-235 -383l-16 21zM143 82l16 -21l-92 -134l-21 14zM488 588l19 -13l-88 -129l-15 20zM387 814q13 -11 14.5 -29t-13.5 -38q-16 -20 -38 -38t-52.5 -43t-71.5 -67l-11 9q31 51 48 86.5t29 61.5t27 45q15 20 34.5 22.5t33.5 -9.5z" />
    <glyph glyph-name="uni0218" unicode="&#x218;" horiz-adv-x="555" 
d="M265 720q53 0 81 -12t49 -26q12 -7 19.5 -10.5t14.5 -3.5q16 0 22 44h23q-1 -18 -2.5 -42.5t-2 -64.5t-0.5 -105h-23q-3 49 -21.5 95t-54 75t-90.5 29q-51 0 -84.5 -30.5t-33.5 -80.5q0 -44 22 -73.5t60.5 -55t87.5 -56.5q50 -32 90 -63.5t63 -69.5t23 -92
q0 -65 -30.5 -107.5t-81.5 -63.5t-112 -21q-56 0 -89 12t-56 25q-22 14 -34 14q-16 0 -22 -44h-23q2 22 2.5 51.5t1 77.5t0.5 121h23q4 -62 22.5 -116t57 -86.5t102.5 -32.5q50 0 89 30.5t39 95.5q0 61 -42.5 101.5t-111.5 82.5q-47 30 -88 60t-65.5 70t-24.5 95
q0 61 28.5 100t74 58t97.5 19zM285 -64q31 0 51 -20.5t20 -52.5q0 -38 -20.5 -64.5t-72.5 -40.5l-6 19q27 7 47.5 22t20.5 39q-7 -7 -18.5 -11.5t-25.5 -4.5q-26 0 -42.5 14.5t-16.5 42.5q0 25 18 41t45 16z" />
    <glyph glyph-name="uni0219" unicode="&#x219;" horiz-adv-x="452" 
d="M213 530q40 0 69.5 -12.5t42.5 -22.5q33 -26 41 34h22q-2 -28 -3 -67.5t-1 -104.5h-22q-6 37 -20.5 72t-42 58t-71.5 23q-33 0 -55 -18.5t-22 -54.5q0 -30 18 -52t46.5 -41l61.5 -41q55 -37 93 -75t38 -99q0 -46 -24.5 -78t-64.5 -48.5t-88 -16.5q-24 0 -45 4.5t-39 11.5
q-11 6 -21.5 12.5t-20.5 12.5q-10 7 -18 -2t-12 -32h-22q2 32 3 78t1 122h22q7 -55 21 -97t41.5 -65.5t75.5 -23.5q28 0 55 19.5t27 67.5q0 44 -30.5 72.5t-78.5 60.5q-34 24 -64.5 47.5t-49.5 53t-19 70.5q0 45 21.5 74t57.5 43.5t77 14.5zM224 -64q31 0 51 -20.5t20 -52.5
q0 -38 -20.5 -64.5t-72.5 -40.5l-6 19q27 7 47.5 22t20.5 39q-7 -7 -18.5 -11.5t-25.5 -4.5q-26 0 -42.5 14.5t-16.5 42.5q0 25 18 41t45 16z" />
    <glyph glyph-name="uni021A" unicode="&#x21a;" horiz-adv-x="637" 
d="M609 708q-4 -42 -5.5 -81.5t-1.5 -60.5q0 -23 1 -44t2 -36h-23q-10 75 -26.5 118t-47.5 62t-89 19h-43v-570q0 -40 7.5 -60t30 -26.5t65.5 -8.5v-20q-28 2 -72 2.5t-90 0.5q-48 0 -90.5 -0.5t-68.5 -2.5v20q43 2 65 8.5t30 26.5t8 60v570h-44q-56 0 -88 -19t-48 -62
t-26 -118h-23q2 15 2.5 36t0.5 44q0 21 -1.5 60.5t-5.5 81.5q43 -1 94 -2t103 -1h94h93t103 1t94 2zM312 -64q31 0 51 -20.5t20 -52.5q0 -38 -20.5 -64.5t-72.5 -40.5l-6 19q27 7 47.5 22t20.5 39q-7 -7 -18.5 -11.5t-25.5 -4.5q-26 0 -42.5 14.5t-16.5 42.5q0 25 18 41
t45 16z" />
    <glyph glyph-name="uni021B" unicode="&#x21b;" horiz-adv-x="353" 
d="M202 681v-166h138v-20h-138v-393q0 -41 15 -58t43 -17q26 0 46.5 21t35.5 71l19 -7q-12 -53 -42.5 -89.5t-89.5 -36.5q-34 0 -57 8.5t-40 24.5q-22 23 -30 55t-8 85v336h-92v20h92v146q31 1 58 5.5t50 14.5zM224 -64q31 0 51 -20.5t20 -52.5q0 -38 -20.5 -64.5
t-72.5 -40.5l-6 19q27 7 47.5 22t20.5 39q-7 -7 -18.5 -11.5t-25.5 -4.5q-26 0 -42.5 14.5t-16.5 42.5q0 25 18 41t45 16z" />
    <glyph glyph-name="uni021E" unicode="&#x21e;" horiz-adv-x="771" 
d="M459 0v20q34 2 51 8t22.5 24t5.5 54v496q0 37 -5.5 54.5t-23 24t-50.5 7.5v20q25 -1 62.5 -2t74.5 -1q42 0 78 1t58 2v-20q-33 -1 -50 -7.5t-23 -24t-6 -54.5v-496q0 -36 6 -54t23 -24t50 -8v-20q-22 2 -58 2.5t-78 0.5q-37 0 -74.5 -0.5t-62.5 -2.5zM39 0v20q34 2 51 8
t22.5 24t5.5 54v496q0 37 -5.5 54.5t-23 24t-50.5 7.5v20q23 -1 59.5 -2t78.5 -1q38 0 74.5 1t60.5 2v-20q-33 -1 -50 -7.5t-23 -24t-6 -54.5v-496q0 -36 6 -54t23 -24t50 -8v-20q-24 2 -60.5 2.5t-74.5 0.5q-42 0 -78.5 -0.5t-59.5 -2.5zM188 346v20h395v-20h-395zM582 930
l5 -14q-65 -24 -116 -62t-77 -78h-18q-25 40 -76.5 78t-116.5 62l5 14q62 -12 122 -31t95 -37q30 18 78.5 37t98.5 31z" />
    <glyph glyph-name="uni021F" unicode="&#x21f;" horiz-adv-x="595" 
d="M200 783v-364q25 62 70.5 86.5t96.5 24.5q40 0 65.5 -10.5t42.5 -28.5q18 -19 26 -49t8 -81v-268q0 -42 16.5 -57t55.5 -15v-21q-18 1 -54 2.5t-70 1.5q-35 0 -68.5 -1.5t-49.5 -2.5v21q34 0 48 15t14 57v296q0 29 -5 52.5t-21.5 38t-48.5 14.5q-54 0 -90 -44.5
t-36 -114.5v-242q0 -42 14 -57t48 -15v-21q-17 1 -49.5 2.5t-66.5 1.5q-35 0 -71.5 -1.5t-54.5 -2.5v21q39 0 55.5 15t16.5 57v570q0 45 -15.5 66.5t-56.5 21.5v21q32 -3 62 -3q33 0 63 3.5t55 10.5zM453 1062l8 -14q-58 -30 -103.5 -79t-67.5 -101h-18q-22 52 -67.5 101
t-103.5 79l8 14q55 -17 107.5 -42t84.5 -50q27 25 68 50t84 42z" />
    <glyph glyph-name="uni0237" unicode="&#x237;" horiz-adv-x="277" 
d="M-25 -188v16q58 2 88 48.5t30 130.5v400q0 45 -15 66.5t-57 21.5v21q32 -3 62 -3q33 0 63 3.5t55 10.5v-419q0 -78 -16.5 -138t-55.5 -99q-25 -26 -63.5 -42.5t-90.5 -16.5z" />
    <glyph glyph-name="uni0259" unicode="&#x259;" 
d="M230 -15q-88 0 -138 53t-50 168h345l2 -19h-241q-1 -49 8 -90.5t28 -66.5t50 -25q43 0 74.5 45.5t38.5 145.5l-3 5q1 14 2 30.5t1 32.5q0 69 -21 116t-55 70.5t-69 23.5q-40 0 -77.5 -20t-64.5 -74l-20 8q12 34 37 67t64 53.5t91 20.5q70 0 122 -31.5t80 -90.5t28 -140
q0 -89 -29 -152t-81.5 -96.5t-121.5 -33.5z" />
    <glyph glyph-name="uni0292" unicode="&#x292;" horiz-adv-x="473" 
d="M150 208q67 -1 108 -34.5t41 -103.5q0 -56 -23.5 -99.5t-63 -72t-88 -44t-98.5 -16.5v-19q67 0 135.5 17.5t125.5 50t91 78.5t34 103q0 50 -25.5 82.5t-67 49.5t-89.5 20l35 -18l174 319q-49 -2 -101.5 -3.5t-104.5 -1.5q-46 0 -94 1t-92 3q2 -30 3 -74t1 -112h22
q5 61 22.5 97.5t48.5 53t74 16.5h92z" />
    <glyph glyph-name="uni02BC" unicode="&#x2bc;" horiz-adv-x="248" 
d="M119 722q23 0 38 -9t25 -24q11 -16 14.5 -36t3.5 -36q0 -49 -25 -90t-78 -66l-9 18q30 13 52 40t24 55q1 15 -2 28q-18 -17 -44 -17q-29 0 -49 18t-20 50q0 31 20.5 50t49.5 19z" />
    <glyph glyph-name="circumflex" unicode="&#x2c6;" horiz-adv-x="460" 
d="M239 808q22 -52 67.5 -100.5t103.5 -79.5l-8 -14q-55 17 -107 42t-85 50q-26 -25 -67.5 -50t-84.5 -42l-8 14q58 31 103.5 79.5t67.5 100.5h18z" />
    <glyph glyph-name="caron" unicode="&#x2c7;" horiz-adv-x="460" 
d="M402 808l8 -14q-58 -30 -103.5 -79t-67.5 -101h-18q-22 52 -67.5 101t-103.5 79l8 14q55 -17 107.5 -42t84.5 -50q27 25 68 50t84 42z" />
    <glyph glyph-name="breve" unicode="&#x2d8;" horiz-adv-x="486" 
d="M392 788l17 -9q-13 -34 -37.5 -69t-60.5 -58t-85 -23t-85 23t-60.5 58t-37.5 69l17 9q21 -31 60.5 -59.5t105.5 -28.5t105.5 28.5t60.5 59.5z" />
    <glyph glyph-name="dotaccent" unicode="&#x2d9;" horiz-adv-x="302" 
d="M111 768q31 0 52 -19.5t21 -48.5t-21 -48.5t-52 -19.5t-52 19.5t-21 48.5t21 48.5t52 19.5z" />
    <glyph glyph-name="ring" unicode="&#x2da;" horiz-adv-x="354" 
d="M143 793q41 0 71 -25t30 -68q0 -44 -30 -69t-71 -25q-40 0 -70 25t-30 69q0 43 30 68t70 25zM143 772q-25 0 -48.5 -18.5t-23.5 -54.5t23.5 -54t48.5 -18q26 0 49.5 18t23.5 54t-23.5 54.5t-49.5 18.5z" />
    <glyph glyph-name="ogonek" unicode="&#x2db;" horiz-adv-x="354" 
d="M218 5q-2 -2 -5.5 -4t-7.5 -3q-47 -21 -65 -45.5t-18 -47.5q0 -19 11.5 -31t31.5 -12q18 0 34.5 9.5t27.5 21.5l14 -13q-24 -35 -54 -51.5t-67 -16.5q-38 0 -60.5 18t-22.5 48q0 40 38.5 72t107.5 53z" />
    <glyph glyph-name="tilde" unicode="&#x2dc;" horiz-adv-x="489" 
d="M162 774q28 0 48 -10t36 -23t33 -23t40 -10q21 0 40.5 12.5t36.5 40.5l14 -7q-16 -61 -48.5 -88t-71.5 -27q-28 0 -48.5 10t-36.5 23.5t-33 23.5t-40 10q-21 0 -40.5 -12.5t-36.5 -41.5l-14 7q16 62 49 88.5t72 26.5z" />
    <glyph glyph-name="hungarumlaut" unicode="&#x2dd;" horiz-adv-x="600" 
d="M369 814q15 -11 17 -29t-14 -39q-21 -28 -58.5 -57t-96.5 -90l-11 8q28 50 43.5 85t27 61t25.5 45q15 20 34 23t33 -7zM192 814q14 -11 16 -29t-13 -39q-22 -28 -59.5 -57t-95.5 -90l-12 8q28 50 44 85t27 61t25 45q15 20 34 23t34 -7z" />
    <glyph glyph-name="gravecomb" unicode="&#x300;" horiz-adv-x="0" 
d="M31 814q14 12 33.5 9t34.5 -22t27 -45t29.5 -61.5t47.5 -86.5l-11 -9q-41 42 -71.5 67t-52 43t-38.5 38q-15 20 -13.5 38t14.5 29z" />
    <glyph glyph-name="acutecomb" unicode="&#x301;" horiz-adv-x="0" 
d="M192 814q13 -11 14.5 -29t-13.5 -38q-16 -20 -38 -38t-52.5 -43t-71.5 -67l-11 9q31 51 48 86.5t29 61.5t27 45q15 20 34.5 22.5t33.5 -9.5z" />
    <glyph glyph-name="uni0302" unicode="&#x302;" horiz-adv-x="0" 
d="M210 808q22 -52 67.5 -100.5t103.5 -79.5l-8 -14q-55 17 -107 42t-85 50q-26 -25 -67.5 -50t-84.5 -42l-8 14q58 31 103.5 79.5t67.5 100.5h18z" />
    <glyph glyph-name="tildecomb" unicode="&#x303;" horiz-adv-x="0" 
d="M142 774q28 0 48 -10t36 -23t33 -23t40 -10q21 0 40.5 12.5t36.5 40.5l14 -7q-16 -61 -48.5 -88t-71.5 -27q-28 0 -48.5 10t-36.5 23.5t-33 23.5t-40 10q-21 0 -40.5 -12.5t-36.5 -41.5l-14 7q16 62 49 88.5t72 26.5z" />
    <glyph glyph-name="uni0304" unicode="&#x304;" horiz-adv-x="0" 
d="M341 712v-25h-320v25h320z" />
    <glyph glyph-name="uni0306" unicode="&#x306;" horiz-adv-x="0" 
d="M380 788l17 -9q-13 -34 -37.5 -69t-60.5 -58t-85 -23t-85 23t-60.5 58t-37.5 69l17 9q21 -31 60.5 -59.5t105.5 -28.5t105.5 28.5t60.5 59.5z" />
    <glyph glyph-name="uni0307" unicode="&#x307;" horiz-adv-x="0" 
d="M99 768q31 0 52 -19.5t21 -48.5t-21 -48.5t-52 -19.5t-52 19.5t-21 48.5t21 48.5t52 19.5z" />
    <glyph glyph-name="uni0308" unicode="&#x308;" horiz-adv-x="0" 
d="M304 749q25 0 44 -19.5t19 -44.5q0 -26 -19 -45t-44 -19q-27 0 -45.5 19t-18.5 45q0 25 18.5 44.5t45.5 19.5zM86 749q26 0 45 -19.5t19 -44.5q0 -26 -19 -45t-45 -19t-44.5 19t-18.5 45q0 25 18.5 44.5t44.5 19.5z" />
    <glyph glyph-name="hookabovecomb" unicode="&#x309;" horiz-adv-x="0" 
d="M127 594v55q41 16 58.5 37.5t17.5 50.5q0 31 -17 49t-47 18q-11 0 -25 -3t-21 -12q16 -4 26 -15.5t10 -29.5q0 -22 -13.5 -34.5t-34.5 -12.5q-20 0 -33 12.5t-13 33.5q0 20 12 35t27 25q13 8 35.5 14.5t51.5 6.5q51 0 85 -21.5t34 -60.5t-38.5 -64.5t-94.5 -37.5v-46h-20
z" />
    <glyph glyph-name="uni030A" unicode="&#x30a;" horiz-adv-x="0" 
d="M131 793q41 0 71 -25t30 -68q0 -44 -30 -69t-71 -25q-40 0 -70 25t-30 69q0 43 30 68t70 25zM131 772q-25 0 -48.5 -18.5t-23.5 -54.5t23.5 -54t48.5 -18q26 0 49.5 18t23.5 54t-23.5 54.5t-49.5 18.5z" />
    <glyph glyph-name="uni030B" unicode="&#x30b;" horiz-adv-x="0" 
d="M369 814q15 -11 17 -29t-14 -39q-21 -28 -58.5 -57t-96.5 -90l-11 8q28 50 43.5 85t27 61t25.5 45q15 20 34 23t33 -7zM192 814q14 -11 16 -29t-13 -39q-22 -28 -59.5 -57t-95.5 -90l-12 8q28 50 44 85t27 61t25 45q15 20 34 23t34 -7z" />
    <glyph glyph-name="uni030C" unicode="&#x30c;" horiz-adv-x="0" 
d="M373 808l8 -14q-58 -30 -103.5 -79t-67.5 -101h-18q-22 52 -67.5 101t-103.5 79l8 14q55 -17 107.5 -42t84.5 -50q27 25 68 50t84 42z" />
    <glyph glyph-name="dotbelowcomb" unicode="&#x323;" horiz-adv-x="0" 
d="M99 -183q-27 0 -45.5 16t-18.5 43q0 26 17 43t47 17t47 -17.5t17 -42.5q0 -27 -18.5 -43t-45.5 -16z" />
    <glyph glyph-name="uni0326" unicode="&#x326;" horiz-adv-x="0" 
d="M100 -64q31 0 51 -20.5t20 -52.5q0 -38 -20.5 -64.5t-72.5 -40.5l-6 19q27 7 47.5 22t20.5 39q-7 -7 -18.5 -11.5t-25.5 -4.5q-26 0 -42.5 14.5t-16.5 42.5q0 25 18 41t45 16z" />
    <glyph glyph-name="uni0327" unicode="&#x327;" horiz-adv-x="0" 
d="M110 5l-25 -75q14 4 30 6.5t33 2.5q30 0 47 -13t17 -36q0 -28 -19 -45t-47 -25t-56 -8t-49 3.5t-35 7.5l4 18q5 -1 16 -2t24 -1q28 0 56 9t28 35q0 27 -39 27q-8 0 -21.5 -1.5t-24.5 -5.5l34 103h27z" />
    <glyph glyph-name="uni0328" unicode="&#x328;" horiz-adv-x="0" 
d="M197 5q-2 -2 -5.5 -4t-7.5 -3q-47 -21 -65 -45.5t-18 -47.5q0 -19 11.5 -31t31.5 -12q18 0 34.5 9.5t27.5 21.5l14 -13q-24 -35 -54 -51.5t-67 -16.5q-38 0 -60.5 18t-22.5 48q0 40 38.5 72t107.5 53z" />
    <glyph glyph-name="strokeshortoverlaycomb" unicode="&#x335;" horiz-adv-x="404" 
d="M384 628v-20h-364v20h364z" />
    <glyph glyph-name="slashshortoverlaycomb" unicode="&#x337;" horiz-adv-x="553" 
d="M393 466l15 -20l-235 -383l-16 21zM144 82l16 -21l-92 -134l-21 14zM489 588l19 -13l-88 -129l-15 20z" />
    <glyph glyph-name="slashlongoverlaycomb" unicode="&#x338;" horiz-adv-x="758" 
d="M546 634l15 -20l-348 -537l-18 18zM186 95l18 -18l-105 -152l-21 14zM650 775l19 -13l-101 -148l-15 20z" />
    </font>
</defs>
</svg>
