<?xml version="1.0" standalone="no"?>
<!DOCTYPE svg PUBLIC "-//W3C//DTD SVG 1.1//EN" "http://www.w3.org/Graphics/SVG/1.1/DTD/svg11.dtd" >
<svg xmlns="http://www.w3.org/2000/svg" xmlns:xlink="http://www.w3.org/1999/xlink" version="1.1">
<metadata>
Created by FontForge 20170731 at Tue Mar 19 18:39:57 2019
 By Aleksey,,,
Copyright 2017 The Playfair Display Project Authors (https://github.com/clauseggers/Playfair-Display), with Reserved Font Name "Playfair Display".
</metadata>
<defs>
<font id="PlayfairDisplay-Black" horiz-adv-x="0" >
  <font-face 
    font-family="Playfair Display Black"
    font-weight="900"
    font-stretch="normal"
    units-per-em="1000"
    panose-1="0 0 0 0 0 0 0 0 0 0"
    ascent="800"
    descent="-200"
    x-height="519"
    cap-height="708"
    bbox="-272 -244 1302 1165.91"
    underline-thickness="20"
    underline-position="-130"
    unicode-range="U+000D-FB02"
  />
<missing-glyph horiz-adv-x="562" 
d="M502 772v-772h-442v772h442zM466 742h-370v-712h370v712z" />
    <glyph glyph-name="IJ" unicode="IJ" horiz-adv-x="798" 
d="M373 708v-20q-30 -1 -45.5 -7.5t-20.5 -24t-5 -54.5v-496q0 -36 5.5 -54t20.5 -24t45 -8v-20q-29 2 -74.5 2.5t-92.5 0.5q-54 0 -101.5 -0.5t-76.5 -2.5v20q31 2 46 8t20 24t5 54v496q0 37 -5 54.5t-20.5 24t-45.5 7.5v20q29 -1 76.5 -2t101.5 -1q47 0 92.5 1t74.5 2z
M383 -188v21q36 5 63 23.5t41.5 65t14.5 133.5v547q0 37 -5 54.5t-20.5 24t-45.5 7.5v20q27 -1 72 -2t95 -1t98.5 1t79.5 2v-20q-30 -1 -45.5 -7.5t-20.5 -24t-5 -54.5v-366q0 -41 0.5 -88.5t-3 -92.5t-14.5 -80q-22 -69 -97 -116t-208 -47z" />
    <glyph glyph-name="ij" unicode="ij" horiz-adv-x="610" 
d="M548 530v-447q0 -92 -25.5 -152.5t-85.5 -89.5t-164 -29q-64 0 -109.5 18t-45.5 64q0 27 26 48t78 21q44 0 74 -16.5t30 -48.5q0 -25 -19.5 -42t-48.5 -24q9 -1 14.5 -1h9.5q49 0 67.5 30t18.5 94v106q-24 -40 -64.5 -57.5t-94.5 -17.5q-46 0 -72.5 11.5t-40.5 28.5
q-15 18 -22 48t-7 81v255q0 45 -12 66.5t-44 21.5v21q32 -3 62 -3q50 0 93.5 3.5t80.5 10.5v-429q0 -21 5 -35t16 -21t28 -7q28 0 50 20.5t22 51.5v300q0 45 -12 66.5t-44 21.5v21q32 -3 62 -3q50 0 93.5 3.5t80.5 10.5zM151 782q52 0 80.5 -21.5t28.5 -64.5t-28.5 -64.5
t-80.5 -21.5t-80.5 21.5t-28.5 64.5t28.5 64.5t80.5 21.5zM453 782q52 0 80.5 -21.5t28.5 -64.5t-28.5 -64.5t-80.5 -21.5t-80.5 21.5t-28.5 64.5t28.5 64.5t80.5 21.5z" />
    <glyph glyph-name="fi" unicode="fi" horiz-adv-x="672" 
d="M384 782q76 0 112.5 -11.5t64.5 -28.5q17 -10 31 -31t14 -45q0 -41 -27.5 -63t-86.5 -22q-56 0 -85 21.5t-29 61.5q0 67 88 87q-7 4 -23.5 7.5t-35.5 3.5q-43 0 -72 -19.5t-47 -52.5q-14 -25 -20.5 -62t-6.5 -110h91q60 0 102 1t76 3.5t68 7.5v-437q0 -42 15 -57t51 -15
v-21q-22 1 -64.5 2.5t-86.5 1.5q-43 0 -86 -1.5t-65 -2.5v21q31 0 43.5 15t12.5 57v317q0 45 -14 66.5t-52 21.5h-91v-405q0 -43 20 -57.5t56 -14.5v-21q-25 1 -69.5 2.5t-91.5 1.5q-49 0 -93.5 -1.5t-67.5 -2.5v21q36 0 51 15t15 57v405h-70v20h70q0 62 22 110t62 85
q40 38 100.5 53.5t118.5 15.5z" />
    <glyph glyph-name="fl" unicode="fl" horiz-adv-x="676" 
d="M598 784v-691q0 -42 15 -57t51 -15v-21q-22 1 -64.5 2.5t-86.5 1.5q-43 0 -86 -1.5t-65 -2.5v21q31 0 43.5 15t12.5 57v601q0 22 -3.5 34t-10.5 19q-4 5 -13.5 10t-23.5 5q-28 0 -45.5 -8.5t-32.5 -27.5q-19 -23 -23.5 -62t-4.5 -117v-29h91v-20h-91v-405q0 -43 20 -57.5
t56 -14.5v-21q-25 1 -69.5 2.5t-91.5 1.5q-49 0 -93.5 -1.5t-67.5 -2.5v21q36 0 51 15t15 57v405h-70v20h70q0 76 21 124.5t57 79.5q39 33 88.5 46.5t96.5 13.5q33 0 68.5 -2.5t75.5 -2.5q23 0 53.5 2.5t56.5 4.5z" />
    <glyph glyph-name="f_f" unicode="ff" horiz-adv-x="697" 
d="M328 742q56 0 100.5 -25t59.5 -73l-21 -10q-11 37 -42.5 60t-72.5 23q-47 0 -69 -27t-22 -86v-86h121v-20h-121v-405q0 -42 12.5 -57t43.5 -15v-21q-22 1 -60.5 2.5t-79.5 1.5q-46 0 -92.5 -1.5t-69.5 -2.5v21q36 0 51 15t15 57v405h-70v20h70q0 52 20 98t57 76
q29 23 72.5 36.5t97.5 13.5zM628 782q40 0 69 -10t51 -27q14 -11 25.5 -32.5t11.5 -50.5q0 -31 -23 -56t-60 -25q-41 0 -65.5 22t-24.5 61q0 29 17 53.5t52 35.5q-3 4 -9.5 6.5t-17.5 2.5q-17 0 -28 -5t-19 -14q-9 -11 -14 -31t-5 -60v-134h107v-20h-107v-395
q0 -49 23 -65.5t63 -16.5v-21q-28 1 -78 2.5t-106 1.5q-40 0 -79 -1.5t-59 -2.5v21q31 0 43.5 15t12.5 57v405h-60v20h60q0 89 16 134.5t55 79.5q23 20 63 35t86 15z" />
    <glyph glyph-name="f_f_i" unicode="ffi" horiz-adv-x="1019" 
d="M745 782q62 0 99.5 -12t65.5 -29q17 -10 30 -30t13 -45q0 -41 -27.5 -63t-86.5 -22q-56 0 -85 21.5t-29 61.5q0 67 88 87q-7 4 -23.5 7.5t-35.5 3.5q-32 0 -55.5 -11.5t-37.5 -23.5q-24 -22 -35.5 -49t-14.5 -65t-3 -95h91q60 0 102 1t76 3.5t68 7.5v-437q0 -42 15 -57
t51 -15v-21q-22 1 -64.5 2.5t-86.5 1.5q-43 0 -86 -1.5t-65 -2.5v21q31 0 43.5 15t12.5 57v317q0 45 -14 66.5t-52 21.5h-91v-405q0 -43 20 -57.5t56 -14.5v-21q-25 1 -69.5 2.5t-91.5 1.5q-49 0 -93.5 -1.5t-67.5 -2.5v21q36 0 51 15t15 57v405h-70v20h70q0 62 21.5 110.5
t62.5 84.5t102.5 52.5t130.5 16.5zM348 752q64 0 104 -19t72 -47l-14 -17q-19 20 -54 39.5t-90 19.5q-53 0 -79 -31t-26 -103v-76h121v-20h-121v-405q0 -42 12.5 -57t43.5 -15v-21q-22 1 -60.5 2.5t-79.5 1.5q-46 0 -92.5 -1.5t-69.5 -2.5v21q36 0 51 15t15 57v405h-70v20
h70q0 52 20 97.5t57 76.5q34 32 83.5 46t106.5 14z" />
    <glyph glyph-name="f_f_l" unicode="ffl" horiz-adv-x="1023" 
d="M945 784v-691q0 -42 15 -57t51 -15v-21q-22 1 -64.5 2.5t-86.5 1.5q-43 0 -86 -1.5t-65 -2.5v21q31 0 43.5 15t12.5 57v601q0 22 -3.5 34t-10.5 19q-4 5 -13.5 10t-23.5 5q-28 0 -45.5 -8.5t-32.5 -27.5q-18 -23 -23 -61t-5 -113v-34h91v-20h-91v-405q0 -43 20 -57.5
t56 -14.5v-21q-25 1 -69.5 2.5t-91.5 1.5q-49 0 -93.5 -1.5t-67.5 -2.5v21q36 0 51 15t15 57v405h-70v20h70q0 76 21 124.5t57 79.5q39 33 88.5 46.5t96.5 13.5q33 0 68.5 -2.5t75.5 -2.5q23 0 53.5 2.5t56.5 4.5zM348 752q64 0 104 -19t72 -47l-14 -17q-19 20 -54 39.5
t-90 19.5q-53 0 -79 -31t-26 -103v-76h121v-20h-121v-405q0 -42 12.5 -57t43.5 -15v-21q-20 1 -59.5 2.5t-80.5 1.5q-46 0 -92.5 -1.5t-69.5 -2.5v21q36 0 51 15t15 57v405h-70v20h70q0 52 20 97.5t57 76.5q34 32 83.5 46t106.5 14z" />
    <glyph glyph-name="f_b.liga" unicode="fb" horiz-adv-x="956" 
d="M598 784v-786q-33 14 -67.5 15t-62.5 -7t-43 -22l-14 10q5 14 6 27.5t1 27.5v645q0 22 -3.5 34t-10.5 19q-4 5 -13.5 10t-23.5 5q-28 0 -45.5 -8.5t-32.5 -27.5q-19 -23 -23.5 -61.5t-4.5 -115.5v-31h91v-20h-91v-405q0 -43 20 -57.5t56 -14.5v-21q-25 1 -69.5 2.5
t-91.5 1.5q-49 0 -93.5 -1.5t-67.5 -2.5v21q36 0 51 15t15 57v405h-70v20h70q0 76 21 124.5t57 79.5q39 33 88.5 46.5t96.5 13.5q33 0 68.5 -2.5t75.5 -2.5q23 0 53.5 2.5t56.5 4.5zM750 533q74 0 124 -61.5t50 -189.5q0 -113 -32 -178t-85 -91.5t-116 -26.5q-34 0 -62 4
t-54 20l11 16q13 -10 29 -15t30 -5q47 0 69.5 63t22.5 190q0 89 -9 137t-24 66.5t-34 18.5q-28 0 -50 -20t-22 -52v49q23 38 62 56.5t90 18.5z" />
    <glyph glyph-name="f_f_b.liga" unicode="ffb" horiz-adv-x="1303" 
d="M945 784v-786q-33 14 -67.5 15t-62.5 -7t-43 -22l-14 10q5 14 6 27.5t1 27.5v645q0 22 -3.5 34t-10.5 19q-4 5 -13.5 10t-23.5 5q-28 0 -45.5 -8.5t-32.5 -27.5q-19 -24 -23.5 -64t-4.5 -121v-23h91v-20h-91v-405q0 -43 20 -57.5t56 -14.5v-21q-25 1 -69.5 2.5t-91.5 1.5
q-49 0 -93.5 -1.5t-67.5 -2.5v21q36 0 51 15t15 57v405h-70v20h70q0 76 21 124.5t57 79.5q39 33 88.5 46.5t96.5 13.5q33 0 68.5 -2.5t75.5 -2.5q23 0 53.5 2.5t56.5 4.5zM348 752q64 0 104 -19t72 -47l-14 -17q-19 20 -54 39.5t-90 19.5q-48 0 -71.5 -31t-23.5 -103v-76
h111v-20h-111v-405q0 -42 12.5 -57t43.5 -15v-21q-22 1 -64 2.5t-86 1.5q-46 0 -92.5 -1.5t-69.5 -2.5v21q36 0 51 15t15 57v405h-70v20h70q0 52 20 97.5t57 76.5q34 32 83.5 46t106.5 14zM1097 533q74 0 124 -61.5t50 -189.5q0 -113 -32 -178t-85 -91.5t-116 -26.5
q-34 0 -62 4t-54 20l11 16q13 -10 29 -15t30 -5q47 0 69.5 63t22.5 190q0 89 -9 137t-24 66.5t-34 18.5q-28 0 -50 -20t-22 -52v49q23 38 62 56.5t90 18.5z" />
    <glyph glyph-name="f_f_h.liga" unicode="ffh" horiz-adv-x="1313" 
d="M945 784v-326q24 40 64.5 57.5t94.5 17.5q46 0 72.5 -11.5t40.5 -28.5q15 -18 22 -48t7 -81v-271q0 -42 12.5 -57t43.5 -15v-21q-20 1 -60.5 2.5t-79.5 1.5q-42 0 -82 -1.5t-60 -2.5v21q26 0 36 15t10 57v325q0 21 -5 35t-15.5 21t-28.5 7q-28 0 -50 -20t-22 -52v-316
q0 -42 10.5 -57t35.5 -15v-21q-19 1 -56 2.5t-76 1.5q-42 0 -85 -1.5t-65 -2.5v21q31 0 43.5 15t12.5 57v601q0 22 -3.5 34t-10.5 19q-4 5 -13.5 10t-23.5 5q-28 0 -45.5 -8.5t-32.5 -27.5q-18 -22 -23 -59t-5 -110v-39h91v-20h-91v-405q0 -43 20 -57.5t56 -14.5v-21
q-25 1 -69.5 2.5t-91.5 1.5q-49 0 -93.5 -1.5t-67.5 -2.5v21q36 0 51 15t15 57v405h-70v20h70q0 76 21 124.5t57 79.5q39 33 88.5 46.5t96.5 13.5q33 0 68.5 -2.5t75.5 -2.5q23 0 53.5 2.5t56.5 4.5zM348 752q64 0 104 -19t72 -47l-14 -17q-19 20 -54 39.5t-90 19.5
q-53 0 -79 -31t-26 -103v-76h121v-20h-121v-405q0 -42 12.5 -57t43.5 -15v-21q-22 1 -60.5 2.5t-79.5 1.5q-46 0 -92.5 -1.5t-69.5 -2.5v21q36 0 51 15t15 57v405h-70v20h70q0 52 20 97.5t57 76.5q34 32 83.5 46t106.5 14z" />
    <glyph glyph-name="f_f_j.liga" unicode="ffj" horiz-adv-x="1005" 
d="M731 782q76 0 112.5 -11.5t64.5 -28.5q17 -10 31 -31t14 -45q0 -41 -27.5 -63t-86.5 -22q-56 0 -85 21.5t-29 61.5q0 67 88 87q-7 4 -23.5 7.5t-35.5 3.5q-43 0 -72 -19.5t-47 -52.5q-14 -25 -20.5 -62t-6.5 -110h91q60 0 102 1t76 3.5t68 7.5v-450q0 -88 -16.5 -135.5
t-54.5 -82.5q-22 -21 -64 -35.5t-128 -14.5q-34 0 -61.5 4.5t-44.5 9.5q-28 9 -44.5 25.5t-16.5 38.5q0 26 26 49.5t78 23.5q44 0 74 -16.5t30 -48.5q0 -25 -19 -40.5t-48 -22.5q9 -1 17 -1.5t13 -0.5q26 0 42 13.5t25 35.5q7 17 9.5 51.5t2.5 74.5v72v330q0 45 -14 66.5
t-52 21.5h-91v-405q0 -43 20 -57.5t56 -14.5v-21q-25 1 -69.5 2.5t-91.5 1.5q-49 0 -93.5 -1.5t-67.5 -2.5v21q36 0 51 15t15 57v405h-70v20h70q0 62 22 110t62 85q40 38 100.5 53.5t118.5 15.5zM348 752q64 0 104 -19t72 -47l-14 -17q-19 20 -54 39.5t-90 19.5
q-48 0 -71.5 -31t-23.5 -103v-76h111v-20h-111v-405q0 -42 12.5 -57t43.5 -15v-21q-22 1 -64 2.5t-86 1.5q-46 0 -92.5 -1.5t-69.5 -2.5v21q36 0 51 15t15 57v405h-70v20h70q0 52 20.5 97t56.5 77q35 31 84 45.5t106 14.5z" />
    <glyph glyph-name="f_f_k.liga" unicode="ffk" horiz-adv-x="1299" 
d="M945 784v-691q0 -42 15 -57t51 -15v-21q-22 1 -64.5 2.5t-86.5 1.5q-43 0 -86 -1.5t-65 -2.5v21q31 0 43.5 15t12.5 57v601q0 22 -3.5 34t-10.5 19q-4 5 -13.5 10t-23.5 5q-28 0 -45.5 -8.5t-32.5 -27.5q-19 -23 -23.5 -61.5t-4.5 -115.5v-31h91v-20h-91v-405
q0 -43 20 -57.5t56 -14.5v-21q-25 1 -69.5 2.5t-91.5 1.5q-49 0 -93.5 -1.5t-67.5 -2.5v21q36 0 51 15t15 57v405h-70v20h70q0 76 21 124.5t57 79.5q39 33 88.5 46.5t96.5 13.5q33 0 68.5 -2.5t75.5 -2.5q23 0 53.5 2.5t56.5 4.5zM348 752q64 0 104 -19t72 -47l-14 -17
q-19 20 -54 39.5t-90 19.5q-48 0 -71.5 -31t-23.5 -103v-76h111v-20h-111v-405q0 -42 12.5 -57t43.5 -15v-21q-22 1 -64 2.5t-86 1.5q-46 0 -92.5 -1.5t-69.5 -2.5v21q36 0 51 15t15 57v405h-70v20h70q0 52 20 97.5t57 76.5q34 32 83.5 46t106.5 14zM1277 519v-20
q-36 -10 -73 -35t-75 -63l-35 -35l7 13l161 -306q8 -15 17 -29.5t23 -22.5v-21q-17 1 -51.5 2.5t-69.5 1.5q-40 0 -80.5 -1.5t-60.5 -2.5v21q20 0 26.5 9t-1.5 25l-88 186q-7 14 -16 18t-21 4v19q14 0 26 2.5t22 12.5l77 72q35 32 35.5 60.5t-22 47.5t-58.5 22v20
q29 -1 62.5 -2t57.5 -1q21 0 48 0.5t51.5 1t37.5 1.5z" />
    <glyph glyph-name="f_h.liga" unicode="fh" horiz-adv-x="966" 
d="M598 784v-326q24 40 64.5 57.5t94.5 17.5q46 0 72.5 -11.5t40.5 -28.5q15 -18 22 -48t7 -81v-271q0 -42 12.5 -57t43.5 -15v-21q-20 1 -60.5 2.5t-79.5 1.5q-42 0 -82 -1.5t-60 -2.5v21q26 0 36 15t10 57v325q0 21 -5 35t-15.5 21t-28.5 7q-28 0 -50 -20t-22 -52v-316
q0 -42 10.5 -57t35.5 -15v-21q-19 1 -56 2.5t-76 1.5q-42 0 -85 -1.5t-65 -2.5v21q31 0 43.5 15t12.5 57v601q0 22 -3.5 34t-10.5 19q-4 5 -13.5 10t-23.5 5q-28 0 -45.5 -8.5t-32.5 -27.5q-19 -24 -23.5 -63.5t-4.5 -121.5v-23h91v-20h-91v-405q0 -43 20 -57.5t56 -14.5
v-21q-25 1 -69.5 2.5t-91.5 1.5q-49 0 -93.5 -1.5t-67.5 -2.5v21q36 0 51 15t15 57v405h-70v20h70q0 76 21 124.5t57 79.5q39 33 88.5 46.5t96.5 13.5q33 0 68.5 -2.5t75.5 -2.5q23 0 53.5 2.5t56.5 4.5z" />
    <glyph glyph-name="f_idieresis.liga" unicode="f&#xef;" horiz-adv-x="672" 
d="M325 782q67 0 100.5 -15.5t44.5 -38t11 -43.5l-32 6q-4 38 -34 55.5t-74 17.5q-52 0 -66 -30.5t-14 -111.5v-34.5v-34.5v-35h91q60 0 102 1t76 3.5t68 7.5v-437q0 -42 15 -57t51 -15v-21q-22 1 -64.5 2.5t-86.5 1.5q-43 0 -86 -1.5t-65 -2.5v21q31 0 43.5 15t12.5 57v317
q0 45 -14 66.5t-52 21.5h-91v-405q0 -43 20 -57.5t56 -14.5v-21q-25 1 -69.5 2.5t-91.5 1.5q-49 0 -93.5 -1.5t-67.5 -2.5v21q36 0 51 15t15 57v405h-70v20h70q0 62 14 112.5t49 84.5q37 35 83 51t98 16zM632 772q35 0 61 -26t26 -61q0 -36 -26 -61.5t-61 -25.5
q-36 0 -61.5 25.5t-25.5 61.5q0 35 25.5 61t61.5 26zM394 772q35 0 61 -26t26 -61q0 -36 -26 -61.5t-61 -25.5q-36 0 -61.5 25.5t-25.5 61.5q0 35 25.5 61t61.5 26z" />
    <glyph glyph-name="f_igrave.liga" unicode="f&#xec;" horiz-adv-x="672" 
d="M298 746q48 0 82 -15t60 -32l-5 -17q-28 17 -49 27t-48 10q-39 0 -58 -31q-9 -14 -14 -35.5t-5 -50.5v-84h91q60 0 102 1t76 3.5t68 7.5v-437q0 -42 15 -57t51 -15v-21q-22 1 -64.5 2.5t-86.5 1.5q-43 0 -86 -1.5t-65 -2.5v21q31 0 43.5 15t12.5 57v317q0 45 -14 66.5
t-52 21.5h-91v-405q0 -43 20 -57.5t56 -14.5v-21q-25 1 -69.5 2.5t-91.5 1.5q-49 0 -93.5 -1.5t-67.5 -2.5v21q36 0 51 15t15 57v405h-70v20h70q0 56 14.5 101t48.5 76q33 32 73.5 41.5t80.5 9.5zM379 820q23 21 52.5 15.5t45.5 -23.5q18 -20 26 -46t19.5 -63.5t39.5 -94.5
l-11 -9q-47 40 -80 60.5t-56 35t-40 34.5q-17 21 -16.5 47.5t20.5 43.5z" />
    <glyph glyph-name="f_j.liga" unicode="fj" horiz-adv-x="658" 
d="M384 782q76 0 112.5 -11.5t64.5 -28.5q17 -10 31 -31t14 -45q0 -41 -27.5 -63t-86.5 -22q-56 0 -85 21.5t-29 61.5q0 67 88 87q-7 4 -23.5 7.5t-35.5 3.5q-43 0 -72 -19.5t-47 -52.5q-14 -25 -20.5 -62t-6.5 -110h91q60 0 102 1t76 3.5t68 7.5v-450q0 -88 -16.5 -135.5
t-54.5 -82.5q-22 -21 -64 -35.5t-128 -14.5q-34 0 -61.5 4.5t-44.5 9.5q-28 9 -44.5 25.5t-16.5 38.5q0 26 26 49.5t78 23.5q44 0 74 -16.5t30 -48.5q0 -25 -19 -40.5t-48 -22.5q9 -1 17 -1.5t13 -0.5q26 0 42 13.5t25 35.5q7 17 9.5 51.5t2.5 74.5v72v330q0 45 -14 66.5
t-52 21.5h-91v-405q0 -43 20 -57.5t56 -14.5v-21q-25 1 -69.5 2.5t-91.5 1.5q-49 0 -93.5 -1.5t-67.5 -2.5v21q36 0 51 15t15 57v405h-70v20h70q0 62 22 110t62 85q40 38 100.5 53.5t118.5 15.5z" />
    <glyph glyph-name="f_k.liga" unicode="fk" horiz-adv-x="952" 
d="M598 784v-691q0 -42 15 -57t51 -15v-21q-22 1 -64.5 2.5t-86.5 1.5q-43 0 -86 -1.5t-65 -2.5v21q31 0 43.5 15t12.5 57v601q0 22 -3.5 34t-10.5 19q-4 5 -13.5 10t-23.5 5q-28 0 -45.5 -8.5t-32.5 -27.5q-19 -23 -23.5 -62t-4.5 -119v-27h91v-20h-91v-405q0 -43 20 -57.5
t56 -14.5v-21q-25 1 -69.5 2.5t-91.5 1.5q-49 0 -93.5 -1.5t-67.5 -2.5v21q36 0 51 15t15 57v405h-70v20h70q0 76 21 124.5t57 79.5q39 33 88.5 46.5t96.5 13.5q33 0 68.5 -2.5t75.5 -2.5q23 0 53.5 2.5t56.5 4.5zM930 519v-20q-36 -10 -73 -35t-75 -63l-35 -35l7 13
l161 -306q8 -15 17 -29.5t23 -22.5v-21q-17 1 -51.5 2.5t-69.5 1.5q-40 0 -80.5 -1.5t-60.5 -2.5v21q20 0 26.5 9t-1.5 25l-88 186q-7 14 -16 18t-21 4v19q14 0 26 2.5t22 12.5l77 72q35 32 35.5 60.5t-22 47.5t-58.5 22v20q29 -1 62.5 -2t57.5 -1q21 0 48 0.5t51.5 1
t37.5 1.5z" />
    <glyph glyph-name=".notdef" horiz-adv-x="562" 
d="M502 772v-772h-442v772h442zM466 742h-370v-712h370v712z" />
    <glyph glyph-name=".null" 
 />
    <glyph glyph-name="nonmarkingreturn" horiz-adv-x="333" 
 />
    <glyph glyph-name="CR" unicode="&#xd;" 
 />
    <glyph glyph-name="space" unicode=" " horiz-adv-x="223" 
 />
    <glyph glyph-name="exclam" unicode="!" horiz-adv-x="306" 
d="M153 782q41 0 73.5 -34t32.5 -92q0 -46 -13.5 -97t-31.5 -108.5t-33 -121t-19 -133.5v0h-18q-4 70 -19 133.5t-33 121t-31.5 108.5t-13.5 97q0 58 30 92t76 34zM153 158q47 0 73 -21.5t26 -64.5t-26 -64.5t-73 -21.5q-48 0 -73.5 21.5t-25.5 64.5t25.5 64.5t73.5 21.5z
" />
    <glyph glyph-name="quotedbl" unicode="&#x22;" horiz-adv-x="417" 
d="M111 730q35 0 58 -21.5t23 -58.5q0 -28 -11 -52t-28 -53.5t-35 -76.5h-14q-17 45 -34.5 74.5t-28.5 54t-11 52.5q0 37 23.5 59t57.5 22zM306 730q35 0 58 -21.5t23 -58.5q0 -28 -11 -52t-28 -53.5t-35 -76.5h-14q-17 45 -34.5 74.5t-28.5 54t-11 52.5q0 37 23.5 59
t57.5 22z" />
    <glyph glyph-name="numbersign" unicode="#" horiz-adv-x="609" 
d="M457 602l-97 -501h-20l97 501h20zM539 267l-4 -20h-501l4 20h501zM270 602l-97 -501h-20l97 501h20zM575 454l-3 -20h-501l3 20h501z" />
    <glyph glyph-name="dollar" unicode="$" horiz-adv-x="608" 
d="M300 722q65 0 101 -13t61 -27q12 -7 19.5 -10.5t14.5 -3.5q16 0 22 44h23q-1 -21 -2.5 -49t-2 -74t-0.5 -121h-23q-10 72 -30.5 123.5t-58.5 79t-103 27.5q-64 0 -91 -23t-27 -56q0 -15 3.5 -31t22 -37.5t62 -55.5t122.5 -85q46 -29 82.5 -60.5t58 -71t21.5 -94.5
q0 -67 -37.5 -111t-99.5 -65.5t-135 -21.5q-68 0 -105.5 14t-57.5 22q-14 6 -25.5 10.5t-22.5 4.5q-16 0 -22 -44h-23q2 26 2.5 60.5t1 89.5t0.5 140h23q10 -111 35 -170t72 -81t121 -22q83 0 110.5 25t27.5 58q0 15 -4.5 29.5t-23.5 34.5t-62 53.5t-120 87.5q-47 32 -88 65
t-65.5 74t-24.5 96q0 66 35 107.5t92 61.5t121 20zM272 840v-972h-20v972h20zM378 840v-972h-20v972h20z" />
    <glyph glyph-name="percent" unicode="%" horiz-adv-x="719" 
d="M204 761q76 0 123.5 -43t47.5 -120q0 -76 -48.5 -122t-122.5 -46q-76 0 -124 43t-48 120q0 75 49.5 121.5t122.5 46.5zM514 299q-57 0 -57 -149q0 -73 16.5 -109.5t44.5 -36.5q56 0 56 148q0 74 -15.5 110.5t-44.5 36.5zM516 317q76 0 123.5 -43t47.5 -120
q0 -76 -48.5 -122t-122.5 -46q-76 0 -124 43t-48 120q0 75 49.5 121.5t122.5 46.5zM202 743q-57 0 -57 -149q0 -73 16.5 -109.5t44.5 -36.5q56 0 56 148q0 74 -15.5 110.5t-44.5 36.5zM646 824l19 -13l-585 -866l-19 13z" />
    <glyph glyph-name="ampersand" unicode="&#x26;" horiz-adv-x="938" 
d="M346 715q39 0 62 -3.5t42 -10.5q25 -8 50.5 -29t25.5 -60q0 -34 -26.5 -55t-64.5 -21q-36 0 -61 17t-25 53q0 28 19.5 51.5t51.5 31.5q-10 4 -26.5 6t-32.5 2q-53 0 -92 -34t-39 -105q0 -19 6 -43.5t25 -50.5q17 5 29 7t23 2q35 0 35 -29q0 -10 -8.5 -16t-19.5 -6
q-16 0 -32 10t-26 18q-40 -28 -65 -65t-25 -95q0 -64 35.5 -103.5t104.5 -58t167 -18.5q48 0 98 10t92 31t68 52.5t26 74.5q0 14 -2.5 35t-14.5 43t-41 38l3 8q41 -13 67.5 -59t26.5 -108q0 -76 -48 -132t-132 -86.5t-192 -30.5q-126 0 -215 30t-135.5 86t-46.5 133
q0 57 24.5 97t60.5 66t72 40.5t58 19.5q-46 17 -83.5 44.5t-37.5 79.5q0 38 20.5 63.5t54 40.5t71.5 22t73 7zM758 722q76 0 122 -38t46 -107q0 -94 -73 -139t-202 -65q-9 -1 -18.5 -2.5t-18.5 -3t-17.5 -3t-17.5 -3.5q-104 -19 -157.5 -40.5t-53.5 -62.5q0 -24 17.5 -42.5
t45 -28.5t56.5 -10q8 0 14.5 0.5t12.5 1.5q-31 11 -42 32t-11 43q0 37 28 56t69 19q44 0 68.5 -21t24.5 -56q0 -33 -19.5 -54t-54.5 -30.5t-83 -9.5q-47 0 -84.5 15.5t-59 45.5t-21.5 75q0 95 76.5 142.5t203.5 66.5q15 2 29 4.5t28.5 5t29.5 4.5q86 14 139.5 35t53.5 66
q0 39 -35.5 61.5t-75.5 22.5q-7 0 -14 -0.5t-13 -1.5q31 -11 46.5 -32t15.5 -43q0 -37 -27 -55.5t-68 -18.5q-44 0 -69.5 21t-25.5 56q0 27 14 48.5t44 33.5t77 12z" />
    <glyph glyph-name="quotesingle" unicode="'" horiz-adv-x="222" 
d="M111 730q35 0 58 -21.5t23 -58.5q0 -28 -11 -52t-28 -53.5t-35 -76.5h-14q-17 45 -34.5 74.5t-28.5 54t-11 52.5q0 37 23.5 59t57.5 22z" />
    <glyph glyph-name="parenleft" unicode="(" horiz-adv-x="334" 
d="M299 806q-131 -85 -200.5 -204.5t-69.5 -289.5t69.5 -289.5t200.5 -204.5l15 12q-56 112 -83.5 226t-27.5 256q0 143 28 258.5t83 223.5z" />
    <glyph glyph-name="parenright" unicode=")" horiz-adv-x="334" 
d="M35 806q131 -85 200.5 -204.5t69.5 -289.5t-69.5 -289.5t-200.5 -204.5l-15 12q56 112 83.5 226t27.5 256q0 143 -28 258.5t-83 223.5z" />
    <glyph glyph-name="asterisk" unicode="*" horiz-adv-x="473" 
d="M344 646q26 15 45.5 5.5t29.5 -27.5q11 -19 9.5 -40t-27.5 -36q-25 -14 -64.5 -17.5t-98.5 -13.5l-2 3q36 44 60 78t48 48zM238 520q56 -9 97.5 -13t65.5 -18q26 -15 28 -36.5t-9 -39.5q-10 -19 -29.5 -28t-45.5 6q-25 14 -47.5 47t-60.5 79zM239 518q20 -53 37.5 -90.5
t17.5 -66.5q0 -30 -18 -42t-38 -12q-22 0 -39.5 12t-17.5 42q0 29 16.5 65t38.5 91zM236 518l2 -2q-36 -44 -60 -78t-48 -48q-26 -15 -45.5 -5.5t-29.5 27.5q-11 19 -9.5 40t27.5 36q25 14 64.5 17.5t98.5 12.5zM129 645q25 -14 48 -46.5t60 -79.5l-1 -3q-56 9 -97.5 13
t-65.5 18q-26 15 -27.5 36.5t8.5 39.5q11 19 30 28t45 -6zM237 729q21 0 38.5 -12t17.5 -42q0 -28 -17 -64.5t-38 -92.5h-3q-20 53 -37.5 91t-17.5 66q0 30 18 42t39 12z" />
    <glyph glyph-name="plus" unicode="+" horiz-adv-x="565" 
d="M301 606v-236h232v-30h-232v-235h-36v235h-233v30h233v236h36z" />
    <glyph glyph-name="comma" unicode="," horiz-adv-x="278" 
d="M135 158q26 0 46.5 -9.5t32.5 -27.5q11 -14 18 -39t7 -56q0 -50 -26 -94.5t-80 -69.5l-9 18q26 12 47 34.5t28 47.5q9 28 3 55q-26 -31 -73 -31q-40 0 -64 22.5t-24 63.5q0 39 26 62.5t68 23.5z" />
    <glyph glyph-name="hyphen" unicode="-" horiz-adv-x="469" 
d="M415 321v-99h-361v99h361z" />
    <glyph glyph-name="period" unicode="." horiz-adv-x="282" 
d="M141 158q47 0 73 -21.5t26 -64.5t-26 -64.5t-73 -21.5q-48 0 -73.5 21.5t-25.5 64.5t25.5 64.5t73.5 21.5z" />
    <glyph glyph-name="slash" unicode="/" horiz-adv-x="366" 
d="M336 722l-272 -736h-33l272 736h33z" />
    <glyph glyph-name="zero" unicode="0" horiz-adv-x="675" 
d="M343 533q86 0 151.5 -33t103 -92.5t37.5 -139.5t-38 -144t-106 -101t-159 -37q-84 0 -150 33t-104 93t-38 140q0 79 37.5 142.5t106 101t159.5 37.5zM334 515q-46 0 -76.5 -69t-30.5 -191q0 -90 16 -145.5t42 -80.5t56 -25q47 0 77 69.5t30 191.5q0 90 -16 145t-41.5 80
t-56.5 25z" />
    <glyph glyph-name="one" unicode="1" horiz-adv-x="392" 
d="M302 530v-437q0 -42 12.5 -57t43.5 -15v-21q-20 1 -58.5 2.5t-79.5 1.5q-55 0 -105.5 -1.5t-78.5 -2.5v21q41 0 63.5 16.5t22.5 65.5v246q0 48 -7.5 71t-26.5 30t-52 7v22q95 2 157 13t109 38z" />
    <glyph glyph-name="two" unicode="2" horiz-adv-x="553" 
d="M295 533q83 0 131 -33.5t48 -94.5q0 -47 -31 -83t-77 -65t-93 -55.5t-79 -54.5h226q41 0 52 9t15 32h23q0 -76 1 -118.5t3 -74.5q-13 3 -58.5 4t-90.5 1h-329v21q27 27 67.5 62t80 78.5t66.5 94.5t27 109q0 51 -22 74.5t-67 23.5q-44 0 -76 -17.5t-58 -49.5l-17 12
q35 53 95 89t163 36z" />
    <glyph glyph-name="three" unicode="3" horiz-adv-x="512" 
d="M259 533q81 0 135 -30.5t54 -85.5q0 -37 -27 -70.5t-80 -58.5t-132 -36q82 5 144 -12t96.5 -53t34.5 -88q0 -58 -41 -104t-108.5 -78.5t-148.5 -50t-162 -17.5v21q44 2 92 17t89.5 43.5t67.5 70.5t26 97q0 59 -27.5 96.5t-76.5 41.5q-15 -7 -28 -12t-27 -5q-20 0 -20 16
q0 13 11 18t25 5q8 0 16.5 -1t18.5 -2q44 29 60.5 61.5t16.5 65.5q0 44 -24 65.5t-66 21.5q-38 0 -72 -18t-57 -53l-18 10q20 33 48.5 61.5t72 46t107.5 17.5z" />
    <glyph glyph-name="four" unicode="4" horiz-adv-x="550" 
d="M407 533l4 -26l-332 -402l23 46h327q41 0 52 9t15 32h23q0 -68 1 -106t3 -67q-9 2 -43 3t-75 1.5t-71 0.5h-332v21zM423 533v-674h-140v509l124 165h16z" />
    <glyph glyph-name="five" unicode="5" horiz-adv-x="489" 
d="M419 549q0 -72 1 -112t3 -71q-13 3 -55 4t-84 1h-186l-19 -156q26 20 70 33t104 13q107 0 157 -47t50 -113q0 -58 -38.5 -104t-102.5 -78.5t-142 -49.5t-157 -17v18q64 1 122 27.5t95.5 77.5t37.5 122q0 62 -27 95t-80 33q-31 0 -53.5 -10t-42.5 -27l-16 11l40 323
q11 -2 25.5 -3t28.5 -1h199q22 0 33.5 7t13.5 24h23z" />
    <glyph glyph-name="six" unicode="6" horiz-adv-x="591" 
d="M481 723l4 -20q-48 -15 -93.5 -39.5t-82 -70.5t-58.5 -126t-22 -206q0 -95 12 -151t30.5 -80t36.5 -24q27 0 49 48.5t22 162.5q0 107 -20.5 151.5t-49.5 44.5q-13 0 -31 -10t-33 -31.5t-22 -58.5l-9 10q6 43 26.5 69t51.5 38t67 12q58 0 104.5 -26.5t74.5 -74.5t28 -115
q0 -77 -37 -131t-98.5 -81.5t-133.5 -27.5q-119 0 -187 74.5t-68 210.5q0 90 28.5 160t75.5 121.5t105 86.5t118 55.5t112 28.5z" />
    <glyph glyph-name="seven" unicode="7" horiz-adv-x="488" 
d="M21 523q14 -3 59 -4t90 -1h322v-21q-19 -41 -48.5 -91.5t-59.5 -110t-50 -128t-20 -145.5l1.5 -17t2.5 -36.5t1 -28.5q0 -32 -21.5 -60t-69.5 -28q-46 0 -68.5 30t-22.5 79q0 47 21.5 95t56.5 96t74.5 93.5t77 86.5t62.5 75l-19 -36h-295q-41 0 -52 -9t-15 -32h-23
q0 76 -1 118.5t-3 74.5z" />
    <glyph glyph-name="eight" unicode="8" horiz-adv-x="588" 
d="M301 722q98 0 157.5 -40.5t59.5 -101.5q0 -49 -39.5 -83.5t-113.5 -66.5l-8 14q13 27 17 68t4 63q0 62 -22.5 95.5t-60.5 33.5q-29 0 -43 -19t-14 -48q0 -40 23 -78t59 -74t76 -72.5t76 -74.5t59 -78.5t23 -86.5q0 -54 -34.5 -96t-94 -66.5t-136.5 -24.5
q-67 0 -124.5 19.5t-92.5 58.5t-35 95q0 68 50.5 112.5t123.5 72.5l8 -14q-20 -31 -27 -72t-7 -79q0 -48 10 -88t33.5 -63.5t65.5 -23.5q46 0 65.5 27.5t19.5 64.5q0 45 -22.5 83t-57.5 72.5t-74.5 68.5t-74.5 69.5t-57.5 76t-22.5 89.5q0 59 33 96t86 54t112 17z" />
    <glyph glyph-name="nine" unicode="9" horiz-adv-x="582" 
d="M292 533q119 0 187 -74.5t68 -210.5q0 -79 -27.5 -141.5t-74 -108.5t-103 -77.5t-115 -50t-109.5 -24.5l-4 20q46 13 89.5 35t79 63.5t56.5 112t21 181.5q0 96 -12 151.5t-30 79.5t-37 24q-27 0 -49 -48.5t-22 -162.5q0 -107 20.5 -151.5t49.5 -44.5q14 0 31.5 10t33 32
t21.5 58l9 -10q-5 -43 -26 -69t-52 -38t-67 -12q-57 0 -104 26.5t-75 75t-28 114.5q0 78 37.5 131.5t98.5 81t133 27.5z" />
    <glyph glyph-name="colon" unicode=":" horiz-adv-x="306" 
d="M153 533q47 0 73 -21.5t26 -64.5t-26 -64.5t-73 -21.5q-48 0 -73.5 21.5t-25.5 64.5t25.5 64.5t73.5 21.5zM153 158q47 0 73 -21.5t26 -64.5t-26 -64.5t-73 -21.5q-48 0 -73.5 21.5t-25.5 64.5t25.5 64.5t73.5 21.5z" />
    <glyph glyph-name="semicolon" unicode=";" horiz-adv-x="304" 
d="M147 158q26 0 46.5 -9.5t32.5 -27.5q11 -14 18 -39t7 -56q0 -50 -26 -94.5t-80 -69.5l-9 18q26 12 47 34.5t28 47.5q9 28 3 55q-26 -31 -73 -31q-40 0 -64 22.5t-24 63.5q0 39 26 62.5t68 23.5zM152 533q47 0 73 -21.5t26 -64.5t-26 -64.5t-73 -21.5q-48 0 -73.5 21.5
t-25.5 64.5t25.5 64.5t73.5 21.5z" />
    <glyph glyph-name="less" unicode="&#x3c;" horiz-adv-x="598" 
d="M514 582l17 -36l-409 -191l409 -191l-17 -36l-487 227z" />
    <glyph glyph-name="equal" unicode="=" horiz-adv-x="627" 
d="M564 440v-30h-501v30h501zM564 300v-30h-501v30h501z" />
    <glyph glyph-name="greater" unicode="&#x3e;" horiz-adv-x="598" 
d="M84 582l-17 -36l409 -191l-409 -191l17 -36l487 227z" />
    <glyph glyph-name="question" unicode="?" horiz-adv-x="540" 
d="M251 782q116 0 188 -48t72 -132q0 -85 -76 -140.5t-199 -81.5v-146h-20v155q50 25 74.5 55t33 65t8.5 74q0 95 -31 137t-80 42q-29 0 -49.5 -5.5t-29.5 -13.5q32 -12 48.5 -33t16.5 -55q0 -35 -26 -59.5t-70 -24.5q-37 0 -59.5 24.5t-22.5 55.5q0 37 18.5 59t45.5 37
q26 14 66 24.5t92 10.5zM228 158q47 0 73 -21.5t26 -64.5t-26 -64.5t-73 -21.5q-48 0 -73.5 21.5t-25.5 64.5t25.5 64.5t73.5 21.5z" />
    <glyph glyph-name="at" unicode="@" horiz-adv-x="888" 
d="M535 668q90 0 163 -28t116 -88.5t43 -158.5q0 -84 -28 -152t-73 -116t-97.5 -73.5t-101.5 -25.5q-38 0 -57 13t-24 34t-1 45.5t11 48.5l60 297q37 0 77 3t74 11l-76 -357q-6 -30 -4 -49t28 -6q32 15 65.5 43.5t62 69.5t46.5 95t18 120q0 93 -41.5 149t-110 81.5
t-149.5 25.5q-94 0 -179 -40.5t-151.5 -110.5t-105 -161t-38.5 -193q0 -103 40.5 -166.5t110.5 -92.5t159 -29q54 0 105.5 12.5t100.5 41.5l7 -13q-37 -26 -92 -42.5t-122 -16.5q-96 0 -170 32t-116.5 99t-42.5 173q0 101 38 195t105.5 168.5t157 118t192.5 43.5zM455 478
q36 0 55.5 -18.5t25.5 -45t1 -49.5l-12 -9q4 12 2.5 30.5t-10 33.5t-24.5 15q-19 0 -40 -23t-39.5 -62.5t-30 -88.5t-11.5 -101q0 -44 9 -59t25 -15q29 0 50 34t42 98l4 -17q-18 -69 -43.5 -107t-56 -53t-63.5 -15q-49 0 -86.5 31t-37.5 105q0 51 18.5 106t51.5 102.5
t76.5 77.5t93.5 30z" />
    <glyph glyph-name="A" unicode="A" horiz-adv-x="692" 
d="M398 708l242 -624q14 -34 30 -48.5t29 -15.5v-20q-36 2 -84 2.5t-98 0.5q-51 0 -96 -0.5t-72 -2.5v20q51 2 64.5 17.5t-6.5 66.5l-160 443l20 35l-138 -359q-33 -86 -32.5 -129t25.5 -57.5t65 -16.5v-20q-37 2 -66.5 2.5t-64.5 0.5q-19 0 -40.5 -0.5t-36.5 -2.5v20
q23 4 45.5 29.5t46.5 87.5l222 571q24 -2 52.5 -2t52.5 2zM433 288v-20h-298l10 20h288z" />
    <glyph glyph-name="B" unicode="B" horiz-adv-x="704" 
d="M28 708q29 -1 76.5 -2t95.5 -1q50 0 96 1t65 1q137 0 204 -44t67 -113q0 -35 -25 -72.5t-76 -66t-130 -38.5v-2q103 -5 165 -32t90 -65.5t28 -79.5q0 -100 -80 -147t-220 -47q-24 0 -70.5 1.5t-111.5 1.5q-50 0 -97.5 -0.5t-76.5 -2.5v20q31 2 46 8t20 24t5 54v496
q0 37 -5 54.5t-20.5 24t-45.5 7.5v20zM356 688q-34 0 -44 -17t-10 -69v-496q0 -52 12.5 -67.5t52.5 -15.5q56 0 81.5 45.5t25.5 129.5q0 77 -36.5 119t-121.5 42h-73v8.5v8.5h86q39 0 60 22.5t29 60t8 80.5q0 74 -16 111.5t-54 37.5z" />
    <glyph glyph-name="C" unicode="C" horiz-adv-x="717" 
d="M414 722q66 0 108.5 -19.5t75.5 -45.5q20 -15 30.5 -3.5t14.5 54.5h23q-2 -40 -3 -97.5t-1 -152.5h-23q-4 48 -13 85.5t-27 66.5t-52 51q-21 14 -44.5 22t-48.5 8q-57 0 -94 -31.5t-57.5 -82t-28.5 -110t-8 -115.5t8 -115.5t28.5 -110t57.5 -82t94 -31.5q25 0 48.5 8.5
t44.5 21.5q50 31 67.5 83t24.5 134h23q0 -98 1 -158.5t3 -101.5h-23q-4 43 -13.5 54t-31.5 -3q-37 -26 -78.5 -45.5t-106.5 -19.5q-113 0 -198 43t-132 124t-47 195q0 112 48.5 196t133.5 131t196 47z" />
    <glyph glyph-name="D" unicode="D" horiz-adv-x="811" 
d="M361 708q210 0 311.5 -89.5t101.5 -256.5q0 -109 -50 -190.5t-144.5 -126.5t-227.5 -45q-24 0 -69.5 1.5t-80.5 1.5q-50 0 -97.5 -0.5t-76.5 -2.5v20q31 2 46 8t20 24t5 54v496q0 37 -5 54.5t-20.5 24t-45.5 7.5v20q29 -1 76.5 -2.5t95.5 -0.5q37 1 83.5 2t77.5 1z
M376 690q-46 0 -60 -17t-14 -69v-500q0 -52 14.5 -69t60.5 -17q68 0 109 39.5t59.5 115.5t18.5 185q0 168 -45 250t-143 82z" />
    <glyph glyph-name="E" unicode="E" horiz-adv-x="650" 
d="M587 708q-4 -50 -5.5 -96.5t-1.5 -71.5q0 -21 1 -40t2 -32h-23q-12 83 -40 130.5t-65.5 67t-78.5 19.5h-13q-26 0 -39 -4.5t-17.5 -17.5t-4.5 -41v-536q0 -27 4.5 -40.5t17.5 -18t39 -4.5h33q33 0 69.5 21.5t67.5 73.5t47 142h23q-3 -36 -3 -92q0 -25 1 -71.5t6 -96.5
q-51 2 -115 2.5t-114 0.5h-96.5t-128 -0.5t-125.5 -2.5v20q31 2 46 8t20 24t5 54v496q0 37 -5 54.5t-20.5 24t-45.5 7.5v20q58 -1 125.5 -2t128 -1h96.5q46 0 104.5 0.5t104.5 2.5zM442 366v-10v-10h-170v10v10h170zM471 498q-4 -57 -3.5 -87t0.5 -55t1 -55t5 -87h-23
q-6 37 -24.5 67t-47.5 47.5t-67 17.5v20q38 0 66 21t46 51.5t24 59.5h23z" />
    <glyph glyph-name="F" unicode="F" horiz-adv-x="608" 
d="M587 708q-4 -50 -5.5 -96.5t-1.5 -71.5q0 -21 1 -40t2 -32h-23q-17 83 -47 130.5t-65.5 67t-71.5 19.5h-13q-26 0 -39 -4.5t-17.5 -17.5t-4.5 -41v-506q0 -40 8.5 -60.5t32.5 -26.5t70 -6v-23q-34 1 -89 2t-117 1q-46 0 -92 -1t-87 -2v20q31 2 46 8t20 24t5 54v496
q0 37 -5 54.5t-20.5 24t-45.5 7.5v20q58 -1 125.5 -2t128 -1h96.5q46 0 104.5 0.5t104.5 2.5zM442 366v-10v-10h-170v10v10h170zM471 498q-4 -57 -3.5 -87t0.5 -55t1 -55t5 -87h-23q-6 37 -24.5 67t-47.5 47.5t-67 17.5v20q38 0 66 21t46 51.5t24 59.5h23z" />
    <glyph glyph-name="G" unicode="G" horiz-adv-x="756" 
d="M424 722q70 0 115 -19t79 -46q11 -9 20 -9q19 0 25 60h23q-2 -40 -3 -97.5t-1 -152.5h-23q-7 72 -24.5 120.5t-67.5 82.5q-21 14 -49 22t-54 8q-58 0 -96 -31.5t-60.5 -82t-32 -110t-9.5 -115.5q0 -180 44 -263t117 -83q16 0 28 3t21 9q11 8 16 20t5 30v100q0 49 -7.5 73
t-29.5 33t-64 10v20q23 -1 56 -1.5t69 -1t66 -0.5q48 0 88.5 1t65.5 2v-20q-25 -2 -33 -16t-8 -70v-198h-20q-1 17 -8 37t-23 20q-8 0 -22.5 -4t-45.5 -19q-39 -19 -82.5 -33.5t-86.5 -14.5q-188 0 -282 95.5t-94 266.5q0 112 49.5 196t137 131t201.5 47z" />
    <glyph glyph-name="H" unicode="H" horiz-adv-x="829" 
d="M456 0v20q31 2 46 8t20 24t5 54v496q0 37 -5 54.5t-20.5 24t-45.5 7.5v20q31 -1 79.5 -2t97.5 -1q51 0 96 1t72 2v-20q-30 -1 -45.5 -7.5t-20.5 -24t-5 -54.5v-496q0 -36 5.5 -54t20.5 -24t45 -8v-20q-27 2 -72 2.5t-96 0.5q-49 0 -97.5 -0.5t-79.5 -2.5zM28 0v20
q31 2 46 8t20 24t5 54v496q0 37 -5 54.5t-20.5 24t-45.5 7.5v20q29 -1 76.5 -2t101.5 -1q47 0 92.5 1t74.5 2v-20q-30 -1 -45.5 -7.5t-20.5 -24t-5 -54.5v-496q0 -36 5.5 -54t20.5 -24t45 -8v-20q-29 2 -74.5 2.5t-92.5 0.5q-54 0 -101.5 -0.5t-76.5 -2.5zM217 346v20h395
v-20h-395z" />
    <glyph glyph-name="I" unicode="I" horiz-adv-x="401" 
d="M373 708v-20q-30 -1 -45.5 -7.5t-20.5 -24t-5 -54.5v-496q0 -36 5.5 -54t20.5 -24t45 -8v-20q-29 2 -74.5 2.5t-92.5 0.5q-54 0 -101.5 -0.5t-76.5 -2.5v20q31 2 46 8t20 24t5 54v496q0 37 -5 54.5t-20.5 24t-45.5 7.5v20q29 -1 76.5 -2t101.5 -1q47 0 92.5 1t74.5 2z
" />
    <glyph glyph-name="J" unicode="J" horiz-adv-x="390" 
d="M-25 -188v21q36 5 63 23.5t41.5 65t14.5 133.5v547q0 37 -5 54.5t-20.5 24t-45.5 7.5v20q27 -1 72 -2t95 -1t98.5 1t79.5 2v-20q-30 -1 -45.5 -7.5t-20.5 -24t-5 -54.5v-366q0 -41 0.5 -88.5t-3 -92.5t-14.5 -80q-22 -69 -97 -116t-208 -47z" />
    <glyph glyph-name="K" unicode="K" horiz-adv-x="754" 
d="M739 708v-19q-34 -9 -75.5 -33t-88.5 -77l-184 -209l81 106l237 -395q13 -21 26 -35t35 -26v-20q-42 2 -89.5 2.5t-90.5 0.5q-23 0 -57 -0.5t-86 -2.5v20q47 2 54.5 11t-7.5 34l-145 245q-10 18 -18 27t-15.5 13t-19.5 5v21q44 2 83 29.5t94 89.5l34 38q42 47 44.5 81.5
t-21 54t-61.5 20.5v19q42 -1 77.5 -2t91.5 -1q61 0 101 3zM373 708v-20q-30 -1 -45.5 -7.5t-20.5 -24t-5 -54.5v-496q0 -36 5.5 -54t20.5 -24t45 -8v-20q-29 2 -74.5 2.5t-92.5 0.5q-54 0 -101.5 -0.5t-76.5 -2.5v20q31 2 46 8t20 24t5 54v496q0 37 -5 54.5t-20.5 24
t-45.5 7.5v20q29 -1 76.5 -2t101.5 -1q47 0 92.5 1t74.5 2z" />
    <glyph glyph-name="L" unicode="L" horiz-adv-x="626" 
d="M383 708v-20q-34 -1 -51.5 -7.5t-23.5 -24t-6 -54.5v-516q0 -27 4 -40.5t15 -18t32 -4.5h33q35 0 76 35t74 91.5t44 120.5h23q-3 -36 -3 -92q0 -26 1 -75.5t6 -102.5q-51 2 -115 2.5t-114 0.5h-96.5t-128 -0.5t-125.5 -2.5v20q31 2 46 8t20 24t5 54v496q0 37 -5 54.5
t-20.5 24t-45.5 7.5v20q29 -1 76.5 -2t101.5 -1q50 0 98 1t79 2z" />
    <glyph glyph-name="M" unicode="M" horiz-adv-x="965" 
d="M937 708v-20q-30 -1 -45.5 -7.5t-20.5 -24t-5 -54.5v-496q0 -36 5.5 -54t20.5 -24t45 -8v-20q-31 2 -79 2.5t-98 0.5q-54 0 -101.5 -0.5t-76.5 -2.5v20q34 2 51.5 8t23.5 24t6 54v535l10 2l-251 -642h-16l-282 642v-447q0 -67 5.5 -102.5t27 -51t68.5 -22.5v-20
q-20 2 -52 2.5t-60 0.5q-22 0 -45 -0.5t-38 -2.5v20q31 7 46 21.5t20 46.5t5 88v426q0 37 -5 54.5t-20.5 24t-45.5 7.5v20q15 -1 38 -2t45 -1q58 0 111 1t96 2l198 -446l-30 -33l185 476h43h44q50 0 98 1t79 2z" />
    <glyph glyph-name="N" unicode="N" horiz-adv-x="732" 
d="M708 708v-20q-30 -6 -45.5 -21t-20.5 -46.5t-5 -88.5v-532q-15 2 -32.5 2t-37.5 -2l-443 484v-288q0 -67 5.5 -102.5t27 -51t68.5 -22.5v-20q-20 2 -52 2.5t-60 0.5q-22 0 -45 -0.5t-38 -2.5v20q31 7 46 21.5t20 46.5t5 88v426q0 37 -5 54.5t-20.5 24t-45.5 7.5v20
q15 -1 38 -2t45 -1q25 0 49 1t43 2l409 -432v236q0 67 -5.5 102.5t-26.5 51.5t-69 22v20q20 -1 52 -2t60 -1q23 0 45.5 1t37.5 2z" />
    <glyph glyph-name="O" unicode="O" horiz-adv-x="827" 
d="M414 722q113 0 198 -43t132 -123.5t47 -195.5q0 -112 -48 -196t-133.5 -131t-196.5 -47q-113 0 -198 43t-132 124t-47 195q0 112 48.5 196t133.5 131t196 47zM410 704q-50 0 -87 -45t-57 -124t-20 -183q0 -106 23 -184.5t62 -121t86 -42.5q50 0 87 45t57 124.5t20 182.5
q0 107 -23 185t-62 120.5t-86 42.5z" />
    <glyph glyph-name="P" unicode="P" horiz-adv-x="678" 
d="M28 708q29 -1 76.5 -2t95.5 -1q50 0 96 1t65 1q152 0 226.5 -55t74.5 -142q0 -36 -15 -75.5t-51 -73t-98.5 -54.5t-158.5 -21h-106v20h96q51 0 77.5 27t36 71t9.5 95q0 95 -21.5 142t-74.5 47q-34 0 -44 -17t-10 -69v-486q0 -41 8.5 -61t32.5 -26t70 -6v-23q-34 1 -89 2
t-117 1q-46 0 -92 -1t-87 -2v20q31 2 46 8t20 24t5 54v496q0 37 -5 54.5t-20.5 24t-45.5 7.5v20z" />
    <glyph glyph-name="Q" unicode="Q" horiz-adv-x="827" 
d="M775 36l19 -5q-5 -64 -23 -112t-50 -72q-22 -17 -56 -26t-69 -9q-56 0 -110.5 16.5t-109 41t-112.5 48.5q-6 2 -13 4.5t-11 2.5q-19 -11 -41.5 -18t-42.5 -7t-33.5 7t-13.5 23q0 31 55 31q35 0 76 -18q38 10 65.5 22.5t56.5 23.5t70 14l1 -16q-32 -3 -55.5 -11.5
t-47 -18.5t-55.5 -19q86 -2 148.5 -3.5t112 1.5t94.5 12q55 12 87.5 31t57.5 57zM414 722q113 0 198 -43t132 -123.5t47 -195.5q0 -112 -48 -196t-133.5 -131t-196.5 -47q-113 0 -198 43t-132 124t-47 195q0 112 48.5 196t133.5 131t196 47zM410 704q-50 0 -87 -45t-57 -124
t-20 -183q0 -106 23 -184.5t62 -121t86 -42.5q50 0 87 45t57 124.5t20 182.5q0 107 -23 185t-62 120.5t-86 42.5z" />
    <glyph glyph-name="R" unicode="R" horiz-adv-x="721" 
d="M28 708q29 -1 76.5 -2t95.5 -1q50 0 96 1t65 1q152 0 226.5 -42.5t74.5 -131.5q0 -37 -15 -72t-51 -63.5t-98.5 -45t-158.5 -16.5h-96v20h86q51 0 77.5 22.5t36 60t9.5 83.5q0 79 -21.5 122.5t-74.5 43.5q-34 0 -44 -17t-10 -69v-496q0 -36 5.5 -54t20.5 -24t45 -8v-20
q-29 2 -74.5 2.5t-92.5 0.5q-54 0 -101.5 -0.5t-76.5 -2.5v20q31 2 46 8t20 24t5 54v496q0 37 -5 54.5t-20.5 24t-45.5 7.5v20zM237 353q36 -1 68 -4t59 -5.5t46 -3.5q107 -5 160.5 -37t65.5 -94l21 -104q8 -37 18 -51t27 -14q10 0 17 3t14 10l13 -13q-31 -31 -67.5 -42.5
t-82.5 -11.5q-65 0 -105 23.5t-49 84.5l-15 100q-6 41 -15 73t-24 50.5t-41 18.5h-108z" />
    <glyph glyph-name="S" unicode="S" horiz-adv-x="613" 
d="M302 722q65 0 101 -13t61 -27q12 -7 19.5 -10.5t14.5 -3.5q16 0 22 44h23q-1 -21 -2.5 -49t-2 -74t-0.5 -121h-23q-4 55 -25.5 107t-59 86t-89.5 34q-44 0 -73 -24t-29 -69q0 -37 18 -63.5t56.5 -55.5t101.5 -73q45 -31 81.5 -62t58.5 -70t22 -94q0 -67 -37.5 -111
t-99.5 -65.5t-135 -21.5q-68 0 -108.5 12t-68.5 25q-22 14 -34 14q-16 0 -22 -44h-23q2 26 2.5 60.5t1 89.5t0.5 140h23q4 -70 22.5 -131t57 -98.5t102.5 -37.5q55 0 87.5 26t32.5 72q0 62 -41 103.5t-105 84.5q-47 32 -88 64t-65.5 72t-24.5 95q0 66 35 107.5t92 61.5
t121 20z" />
    <glyph glyph-name="T" unicode="T" horiz-adv-x="699" 
d="M676 708q-4 -59 -5.5 -114t-1.5 -84q0 -21 1 -40t2 -32h-23q-23 94 -55.5 148t-69 76.5t-72.5 22.5h-1v-572q0 -41 8.5 -61t32.5 -26t70 -6v-20q-35 1 -94.5 2t-124.5 1q-62 0 -117 -1t-89 -2v20q46 0 70 6t32.5 26t8.5 61v572h-1q-36 0 -72.5 -22.5t-68.5 -76
t-56 -148.5h-23q2 13 2.5 32t0.5 40q0 29 -1.5 84t-5.5 114q48 -1 106 -2t116 -1h105h105t116 1t105 2z" />
    <glyph glyph-name="U" unicode="U" horiz-adv-x="693" 
d="M681 708v-20q-30 -6 -45.5 -21t-20.5 -46.5t-5 -88.5v-241q0 -62 -8.5 -117t-32.5 -95q-26 -43 -77.5 -68t-137.5 -25q-46 0 -97 10t-91 38q-34 25 -52 61t-24 84t-6 109v314q0 37 -5 54.5t-20 24t-46 7.5v20q29 -1 76.5 -2t99.5 -1t100 1t79 2v-20q-34 -1 -51.5 -7.5
t-23.5 -24t-6 -54.5v-408q0 -66 14 -103.5t42 -53.5t69 -16q67 0 105 32.5t54 91t16 135.5v232q0 67 -5.5 102.5t-26.5 51.5t-69 22v20q20 -1 52 -2t60 -1q23 0 45.5 1t37.5 2z" />
    <glyph glyph-name="V" unicode="V" horiz-adv-x="693" 
d="M705 708v-20q-23 -11 -50 -43.5t-50 -96.5l-195 -548q-12 1 -25.5 1.5t-27.5 0.5q-13 0 -26.5 -0.5t-25.5 -1.5l-262 624q-14 35 -29.5 49t-29.5 15v20q36 -1 84.5 -2t97.5 -1q51 0 96 1t72 2v-20q-47 -2 -63.5 -16t5.5 -68l180 -443l-24 -31l114 320q31 88 33 139.5
t-20 74.5t-62 24v20q38 -1 67.5 -2t63.5 -1q20 0 41 1t36 2z" />
    <glyph glyph-name="W" unicode="W" horiz-adv-x="1010" 
d="M1018 708v-20q-23 -11 -48 -43t-45 -97l-168 -548q-12 1 -25.5 1.5t-27.5 0.5q-13 0 -26.5 -0.5t-25.5 -1.5l-210 641q-8 26 -21 36t-30 11v20q34 -1 80 -2t93 -1t88.5 1t66.5 2v-20q-31 -1 -48 -7.5t-19.5 -24t9.5 -52.5l137 -416l-29 -61l101 323q28 89 27 140.5
t-24 74t-63 23.5v20q38 -1 67.5 -2t63.5 -1q20 0 41 1t36 2zM295 708v-20q-17 -3 -22.5 -17.5t-3 -33t7.5 -33.5l151 -425l-28 -43l120 325l14 -29l-153 -432q-12 1 -25.5 1.5t-27.5 0.5q-13 0 -26.5 -0.5t-25.5 -1.5l-232 624q-13 35 -29 49t-30 15v20q36 -1 84.5 -2
t92.5 -1t78 1t55 2z" />
    <glyph glyph-name="X" unicode="X" horiz-adv-x="729" 
d="M336 709v-21q-42 0 -55.5 -7t0.5 -27l411 -583q20 -28 31.5 -38t30.5 -12v-21q-25 1 -73 2.5t-98 1.5q-49 0 -99 -1.5t-75 -2.5v21q42 0 55.5 7t-0.5 27l-408 583q-20 29 -31 39t-31 11v21q26 -1 77.5 -2.5t103.5 -1.5q47 0 92.5 1.5t68.5 2.5zM314 350l4 -13l4 -13
l-86 -107q-42 -53 -49.5 -96.5t14.5 -70t67 -30.5v-20q-19 1 -54 1.5t-69 1t-50 0.5q-64 0 -97 -3v20q38 16 80 51.5t86 90.5zM693 708v-20q-34 -13 -70.5 -45.5t-64.5 -67.5l-163 -200l-4 12.5l-4 12.5l96 118q59 68 49.5 116.5t-69.5 53.5v20q29 -1 69 -2t64 -1q64 0 97 3
z" />
    <glyph glyph-name="Y" unicode="Y" horiz-adv-x="644" 
d="M636 709v-20q-23 -11 -49 -41.5t-57 -91.5l-180 -357h-67l-234 433q-17 32 -32 44t-26 12v21q31 -3 64.5 -4.5t73.5 -1.5q51 0 110.5 2t109.5 4v-21q-25 0 -46 -2t-30 -9.5t0 -26.5l151 -290l-47 -62l84 168q42 83 46.5 131t-17.5 69.5t-62 22.5v20q38 -1 67.5 -2
t63.5 -1q20 0 41 1t36 2zM437 393v-287q0 -36 5.5 -54t20.5 -24t45 -8v-20q-29 2 -77 2.5t-95 0.5q-51 0 -98.5 -0.5t-74.5 -2.5v20q31 2 46 8t20 24t5 54v205l109 -62z" />
    <glyph glyph-name="Z" unicode="Z" horiz-adv-x="607" 
d="M561 708v-20l-303 -665h42q26 0 63.5 12t75.5 39t67 72.5t36 113.5h23q-3 -36 -3 -92q0 -25 1 -71.5t6 -96.5q-55 2 -124.5 2.5t-124.5 0.5q-68 0 -142.5 -0.5t-140.5 -2.5v20l303 665h-50q-41 0 -89 -19t-85.5 -66t-49.5 -132h-23q2 13 2.5 32t0.5 40q0 25 -1.5 71.5
t-5.5 96.5q47 -2 105 -2.5t104 -0.5q75 0 157.5 0.5t155.5 2.5z" />
    <glyph glyph-name="bracketleft" unicode="[" horiz-adv-x="340" 
d="M299 772v-19h-41v-915h41v-19h-221v953h221z" />
    <glyph glyph-name="backslash" unicode="\" horiz-adv-x="366" 
d="M30 722l272 -736h33l-272 736h-33z" />
    <glyph glyph-name="bracketright" unicode="]" horiz-adv-x="340" 
d="M41 772v-19h41v-915h-41v-19h221v953h-221z" />
    <glyph glyph-name="asciicircum" unicode="^" horiz-adv-x="524" 
d="M271 528q34 -59 89 -116.5t118 -95.5l-8 -14q-66 11 -128 27.5t-100 32.5q-31 -16 -82.5 -32.5t-105.5 -27.5l-8 14q62 37 117 94.5t90 117.5h18z" />
    <glyph glyph-name="underscore" unicode="_" horiz-adv-x="619" 
d="M567 -2v-139h-515v139h515z" />
    <glyph glyph-name="grave" unicode="`" horiz-adv-x="304" 
d="M71 820q23 21 52.5 15.5t45.5 -23.5q18 -20 26 -46t19.5 -63.5t39.5 -94.5l-11 -9q-47 40 -80 60.5t-56 35t-40 34.5q-17 21 -16.5 47.5t20.5 43.5z" />
    <glyph glyph-name="a" unicode="a" horiz-adv-x="531" 
d="M151 -7q-68 0 -98.5 36.5t-30.5 84.5q0 43 19 70t49.5 44t64.5 28.5t64.5 22.5t49.5 25.5t19 37.5v89q0 16 -5.5 35t-20.5 33t-45 14q-16 0 -30.5 -4.5t-25.5 -12.5q35 -13 51 -36.5t16 -51.5q0 -40 -28 -63t-66 -23q-40 0 -62 25t-22 62q0 31 15.5 52.5t46.5 39.5
q30 17 72 24.5t88 7.5q49 0 91 -9.5t72 -40.5q21 -22 27 -55t6 -85v-268q0 -25 3.5 -34t12.5 -9q8 0 15.5 5t14.5 10l10 -17q-22 -19 -54.5 -28t-68.5 -9q-65 0 -86.5 23t-23.5 53q-20 -33 -54 -54.5t-86 -21.5zM251 73q11 0 19.5 3.5t17.5 13.5v211q-10 -18 -25 -31.5
t-29.5 -29t-24 -38t-9.5 -57.5q0 -40 14.5 -56t36.5 -16z" />
    <glyph glyph-name="b" unicode="b" horiz-adv-x="601" 
d="M395 533q74 0 124 -61.5t50 -189.5q0 -113 -32 -178t-85 -91.5t-116 -26.5q-34 0 -62 4t-54 20l11 16q13 -10 29 -15t30 -5q47 0 69.5 63t22.5 190q0 89 -9 137t-24 66.5t-34 18.5q-28 0 -50 -20t-22 -52v49q23 38 62 56.5t90 18.5zM243 782v-784q-33 14 -67.5 15
t-62.5 -7t-43 -22l-14 10q5 14 6 27.5t1 27.5v613q0 45 -12 66.5t-44 21.5v21q32 -3 62 -3q50 0 93.5 3.5t80.5 10.5z" />
    <glyph glyph-name="c" unicode="c" horiz-adv-x="503" 
d="M287 533q44 0 78 -9t54 -21q27 -16 43.5 -42.5t16.5 -61.5q0 -41 -27 -69t-69 -28q-44 0 -68 25t-24 65q0 38 24.5 64.5t57.5 35.5q-7 5 -16.5 8.5t-23.5 3.5q-36 0 -58.5 -21.5t-35 -56.5t-17.5 -75t-5 -78q0 -70 19 -109t48 -54t58 -15q20 0 54 10.5t67 56.5l17 -6
q-12 -40 -38.5 -79.5t-68.5 -65t-102 -25.5q-67 0 -121.5 26t-87 86t-32.5 161q0 96 34 156.5t92.5 89t130.5 28.5z" />
    <glyph glyph-name="d" unicode="d" horiz-adv-x="609" 
d="M537 782v-672q0 -45 12.5 -66.5t43.5 -21.5v-21q-31 3 -62 3q-50 0 -93 -3t-81 -11v672q0 45 -12 66.5t-44 21.5v21q32 -3 62 -3q50 0 93.5 3.5t80.5 10.5zM253 533q44 0 74 -10.5t53 -33.5l-11 -11q-13 11 -29 16.5t-30 5.5q-46 0 -69 -59t-23 -181q0 -88 9 -136.5
t24.5 -67t33.5 -18.5q28 0 50 20.5t22 51.5v-49q-20 -38 -49 -56.5t-73 -18.5q-57 0 -103.5 28.5t-73.5 89.5t-27 159q0 91 27.5 150.5t77.5 89.5t117 30z" />
    <glyph glyph-name="e" unicode="e" horiz-adv-x="503" 
d="M288 533q88 0 138.5 -51.5t50.5 -172.5h-313l-2 19h169q1 49 -4 90.5t-16 66.5t-30 25q-27 0 -44 -42.5t-22 -145.5l4 -8q-1 -10 -1 -20v-21q0 -70 17.5 -109t44 -54t53.5 -15q20 0 54 10.5t67 56.5l17 -6q-12 -40 -38.5 -79.5t-68.5 -65t-102 -25.5q-64 0 -116.5 26
t-83.5 86t-31 161q0 96 34 156.5t92.5 89t130.5 28.5z" />
    <glyph glyph-name="f" unicode="f" horiz-adv-x="365" 
d="M296 782q40 0 69 -10t51 -27q14 -11 25.5 -32.5t11.5 -50.5q0 -31 -23 -56t-60 -25q-41 0 -65.5 22t-24.5 61q0 29 17 53.5t52 35.5q-3 4 -9.5 6.5t-17.5 2.5q-17 0 -28 -5t-19 -14q-9 -11 -14 -31t-5 -60v-134h107v-20h-107v-395q0 -49 23 -65.5t63 -16.5v-21
q-28 1 -78 2.5t-106 1.5q-40 0 -79 -1.5t-59 -2.5v21q31 0 43.5 15t12.5 57v405h-60v20h60q0 89 16 134.5t55 79.5q23 20 63 35t86 15z" />
    <glyph glyph-name="g" unicode="g" horiz-adv-x="570" 
d="M221 -188q-68 0 -117.5 10.5t-76.5 30t-27 47.5t28 52.5t89 38.5l10 -16q-16 -19 -21.5 -34.5t-5.5 -29.5q0 -39 35.5 -60.5t99.5 -21.5q45 0 75.5 12.5t46 34.5t15.5 50t-21 48t-85 20h-54q-46 0 -77 12t-47 33.5t-16 50.5q0 47 37 79t95 57l9 -8q-10 -7 -21 -17
t-11 -29q0 -32 36 -32h97q97 0 157 -32.5t60 -109.5q0 -50 -32.5 -92.5t-100.5 -68t-177 -25.5zM235 213q-93 0 -154 39t-61 121q0 83 61 121.5t154 38.5t154 -38.5t61 -121.5q0 -82 -61 -121t-154 -39zM235 231q19 0 30 31t11 111t-11 111t-30 31t-30 -31t-11 -111t11 -111
t30 -31zM398 445l-21 7q16 42 49.5 67.5t73.5 25.5q35 0 52 -19t17 -47q0 -29 -15.5 -45t-37.5 -16q-19 0 -34.5 13t-17.5 39t19 66l4 -7q-35 -13 -55 -32t-34 -52z" />
    <glyph glyph-name="h" unicode="h" horiz-adv-x="622" 
d="M254 782v-324q24 40 64.5 57.5t94.5 17.5q46 0 72.5 -11.5t40.5 -28.5q15 -18 22 -48t7 -81v-271q0 -42 12.5 -57t43.5 -15v-21q-20 1 -60.5 2.5t-79.5 1.5q-42 0 -82 -1.5t-60 -2.5v21q26 0 36 15t10 57v325q0 21 -5 35t-15.5 21t-28.5 7q-28 0 -50 -20t-22 -52v-316
q0 -42 10.5 -57t35.5 -15v-21q-19 1 -56 2.5t-76 1.5q-42 0 -85 -1.5t-65 -2.5v21q31 0 43.5 15t12.5 57v569q0 45 -12 66.5t-44 21.5v21q32 -3 62 -3q50 0 93.5 3.5t80.5 10.5z" />
    <glyph glyph-name="i" unicode="i" horiz-adv-x="330" 
d="M161 782q52 0 80.5 -21.5t28.5 -64.5t-28.5 -64.5t-80.5 -21.5t-80.5 21.5t-28.5 64.5t28.5 64.5t80.5 21.5zM257 530v-437q0 -42 12.5 -57t43.5 -15v-21q-20 1 -60 2.5t-82 1.5t-85 -1.5t-65 -2.5v21q31 0 43.5 15t12.5 57v317q0 45 -12 66.5t-44 21.5v21q32 -3 62 -3
q50 0 93.5 3.5t80.5 10.5z" />
    <glyph glyph-name="j" unicode="j" horiz-adv-x="317" 
d="M-21 -188v20q40 0 67.5 28.5t27.5 97.5v452q0 45 -12 66.5t-44 21.5v21q32 -3 62 -3q50 0 93.5 3.5t80.5 10.5v-450q0 -88 -16 -136t-55 -82q-25 -22 -73 -36t-131 -14zM153 782q52 0 80.5 -21.5t28.5 -64.5t-28.5 -64.5t-80.5 -21.5t-80.5 21.5t-28.5 64.5t28.5 64.5
t80.5 21.5z" />
    <glyph glyph-name="k" unicode="k" horiz-adv-x="609" 
d="M254 782v-689q0 -42 12.5 -57t43.5 -15v-21q-20 1 -60 2.5t-82 1.5t-85 -1.5t-65 -2.5v21q31 0 43.5 15t12.5 57v569q0 45 -12 66.5t-44 21.5v21q32 -3 62 -3q50 0 93.5 3.5t80.5 10.5zM586 519v-20q-36 -10 -73 -35t-75 -63l-35 -35l7 13l161 -306q8 -15 17 -29.5
t23 -22.5v-21q-17 1 -51.5 2.5t-69.5 1.5q-40 0 -80.5 -1.5t-60.5 -2.5v21q20 0 26.5 9t-1.5 25l-88 186q-7 14 -16 18t-21 4v19q14 0 26 2.5t22 12.5l77 72q35 32 35.5 60.5t-22 47.5t-58.5 22v20q29 -1 62.5 -2t57.5 -1q21 0 48 0.5t51.5 1t37.5 1.5z" />
    <glyph glyph-name="l" unicode="l" horiz-adv-x="328" 
d="M254 782v-689q0 -42 12.5 -57t43.5 -15v-21q-20 1 -60 2.5t-82 1.5t-85 -1.5t-65 -2.5v21q31 0 43.5 15t12.5 57v569q0 45 -12 66.5t-44 21.5v21q32 -3 62 -3q50 0 93.5 3.5t80.5 10.5z" />
    <glyph glyph-name="m" unicode="m" horiz-adv-x="916" 
d="M406 533q46 0 72.5 -11.5t40.5 -28.5q15 -18 22 -48t7 -81v-271q0 -42 10 -57t36 -15v-21q-19 1 -56.5 2.5t-73.5 1.5q-39 0 -76 -1.5t-56 -2.5v21q20 0 28 15t8 57v325q0 21 -4 35t-12.5 21t-22.5 7q-18 0 -34.5 -9t-27 -25.5t-10.5 -37.5v-316q0 -42 8 -57t28 -15v-21
q-17 1 -51.5 2.5t-70.5 1.5q-42 0 -85 -1.5t-65 -2.5v21q31 0 43.5 15t12.5 57v317q0 45 -12 66.5t-44 21.5v21q32 -3 62 -3q50 0 93.5 3.5t80.5 10.5v-72q23 40 61 57.5t88 17.5zM707 533q46 0 72.5 -11.5t40.5 -28.5q15 -18 22 -48t7 -81v-271q0 -42 12.5 -57t43.5 -15
v-21q-20 1 -60.5 2.5t-79.5 1.5t-76 -1.5t-56 -2.5v21q20 0 28 15t8 57v325q0 21 -5 35t-15.5 21t-28.5 7q-27 0 -49.5 -23.5t-24.5 -54.5l-7 40q27 53 70.5 71.5t97.5 18.5z" />
    <glyph glyph-name="n" unicode="n" horiz-adv-x="625" 
d="M416 533q46 0 72.5 -11.5t40.5 -28.5q15 -18 22 -48t7 -81v-271q0 -42 12.5 -57t43.5 -15v-21q-20 1 -60.5 2.5t-79.5 1.5q-42 0 -82 -1.5t-60 -2.5v21q26 0 36 15t10 57v325q0 21 -5 35t-15.5 21t-28.5 7q-28 0 -50 -20t-22 -52v-316q0 -42 10.5 -57t35.5 -15v-21
q-19 1 -56 2.5t-76 1.5q-42 0 -85 -1.5t-65 -2.5v21q31 0 43.5 15t12.5 57v317q0 45 -12 66.5t-44 21.5v21q32 -3 62 -3q50 0 93.5 3.5t80.5 10.5v-72q24 40 64.5 57.5t94.5 17.5z" />
    <glyph glyph-name="o" unicode="o" horiz-adv-x="576" 
d="M288 533q78 0 135.5 -26.5t89.5 -86.5t32 -161t-32 -161t-89.5 -86t-135.5 -26q-77 0 -135 26t-90 86t-32 161t32 161t90 86.5t135 26.5zM288 513q-30 0 -50 -60t-20 -194t20 -193.5t50 -59.5t50 59.5t20 193.5t-20 194t-50 60z" />
    <glyph glyph-name="p" unicode="p" horiz-adv-x="612" 
d="M254 529v-607q0 -49 23 -65.5t63 -16.5v-21q-28 1 -78 2.5t-106 1.5q-40 0 -79 -1.5t-59 -2.5v21q31 0 43.5 15t12.5 57v497q0 45 -12 66.5t-44 21.5v21q32 -3 62 -3q50 0 93.5 3.5t80.5 10.5zM406 533q74 0 124 -61.5t50 -189.5q0 -113 -32 -178t-85 -91.5t-116 -26.5
q-34 0 -64.5 7.5t-50.5 28.5l10 13q8 -11 21 -15t26 -4q37 0 60 27t33.5 81t10.5 135q0 89 -9 137t-24 66.5t-34 18.5q-28 0 -50 -20t-22 -52v49q23 38 62 56.5t90 18.5z" />
    <glyph glyph-name="q" unicode="q" horiz-adv-x="600" 
d="M253 533q36 0 67.5 -3.5t59.5 -19.5l-11 -16q-13 11 -29 15t-30 4q-46 0 -69 -63t-23 -190q0 -88 9 -136.5t24.5 -67t33.5 -18.5q28 0 50 20.5t22 51.5v-49q-20 -38 -49 -56.5t-73 -18.5q-57 0 -103.5 28.5t-73.5 89.5t-27 159q0 91 27.5 150.5t77.5 89.5t117 30z
M530 535l14 -10q-4 -13 -5.5 -27t-1.5 -28v-558q0 -42 12.5 -57t43.5 -15v-21q-20 1 -58.5 2.5t-79.5 1.5q-55 0 -105.5 -1.5t-78.5 -2.5v21q41 0 63.5 16.5t22.5 65.5v598q33 -13 67.5 -14t63 7.5t42.5 21.5z" />
    <glyph glyph-name="r" unicode="r" horiz-adv-x="481" 
d="M386 533q36 0 56 -15.5t28 -39t8 -46.5q0 -45 -25.5 -71.5t-66.5 -26.5q-44 0 -66.5 20t-22.5 52q0 34 14.5 56t36.5 37q-18 0 -32 -7q-16 -7 -29.5 -20.5t-21.5 -31t-8 -37.5v-300q0 -48 20 -65t66 -17v-21q-23 1 -68.5 2.5t-93.5 1.5q-45 0 -91 -1.5t-69 -2.5v21
q31 0 43.5 15t12.5 57v317q0 45 -12 66.5t-44 21.5v21q32 -3 62 -3q50 0 93.5 3.5t80.5 10.5v-72q13 26 32 42.5t43.5 24.5t53.5 8z" />
    <glyph glyph-name="s" unicode="s" horiz-adv-x="472" 
d="M231 533q44 0 77.5 -9.5t48.5 -17.5q35 -21 43 26h20q-2 -29 -3 -70.5t-1 -109.5h-20q-4 37 -17.5 73t-39 60t-66.5 24q-25 0 -42 -15t-17 -41q0 -30 18 -53.5t46 -45t56 -45.5q46 -37 77 -74t31 -95q0 -45 -27.5 -80t-73 -54.5t-101.5 -19.5q-35 0 -61 7.5t-42 17.5
q-16 8 -27.5 12.5t-22.5 4.5q-10 0 -17 -10.5t-11 -24.5h-20q2 32 3 78t1 122h20q6 -53 23.5 -94t45 -64.5t63.5 -23.5q23 0 40.5 13.5t17.5 41.5q0 44 -26.5 74t-66.5 66q-30 28 -56.5 54.5t-43.5 58t-17 70.5q0 45 26.5 77t69.5 49.5t92 17.5z" />
    <glyph glyph-name="t" unicode="t" horiz-adv-x="350" 
d="M252 681v-162h98v-20h-98v-415q0 -19 7 -27.5t23 -8.5q11 0 26 6.5t28 22.5l15 -12q-21 -36 -55.5 -57.5t-86.5 -21.5q-33 0 -59.5 8.5t-43.5 25.5q-22 22 -28 54.5t-6 84.5v340h-76v20h76v118q53 0 96.5 10.5t83.5 33.5z" />
    <glyph glyph-name="u" unicode="u" horiz-adv-x="622" 
d="M548 530v-421q0 -45 12.5 -66.5t43.5 -21.5v-21q-31 3 -62 3q-50 0 -93 -3t-81 -11v72q-24 -40 -64.5 -57.5t-94.5 -17.5q-46 0 -72.5 11.5t-40.5 28.5q-15 18 -22 48t-7 81v255q0 45 -12 66.5t-44 21.5v21q32 -3 62 -3q50 0 93.5 3.5t80.5 10.5v-429q0 -21 5 -35t16 -21
t28 -7q28 0 50 20.5t22 51.5v300q0 45 -12 66.5t-44 21.5v21q32 -3 62 -3q50 0 93.5 3.5t80.5 10.5z" />
    <glyph glyph-name="v" unicode="v" horiz-adv-x="520" 
d="M521 519v-21q-19 -7 -36.5 -27.5t-34.5 -69.5l-135 -401q-24 2 -48.5 2t-48.5 -2l-174 442q-15 38 -31 47t-27 9v21q40 -3 83 -4.5t95 -1.5q31 0 65.5 2t64.5 4v-21q-18 0 -32.5 -1.5t-21 -9t-2.5 -27.5l112 -312l-13 -20l56 167q34 101 12 150.5t-66 52.5v21
q21 -2 54 -3t51 -1t42 1t35 3z" />
    <glyph glyph-name="w" unicode="w" horiz-adv-x="798" 
d="M297 519v-21q-21 0 -35.5 -2.5t-19.5 -10.5t-1 -25l89 -297l-17 -23l97 378l21 -11l-133 -507q-24 2 -48.5 2t-48.5 -2l-154 442q-14 40 -30.5 48t-27.5 8v21q40 -3 83 -4.5t95 -1.5q31 0 65.5 2t64.5 4zM801 519v-21q-19 -7 -37 -27t-34 -70l-125 -401q-24 2 -48.5 2
t-48.5 -2l-127 369l30 149q26 -2 53 -1.5t53 1.5l124 -398l-13 22l46 153q31 103 7 151t-72 52v21q14 -1 36.5 -2t44.5 -1.5t34 -0.5q18 0 42 1t35 3z" />
    <glyph glyph-name="x" unicode="x" horiz-adv-x="547" 
d="M268 519v-21q-20 0 -27.5 -9t2.5 -25l261 -393q9 -13 22.5 -30t29.5 -20v-21q-19 1 -56 2.5t-75 1.5q-40 0 -79 -1.5t-59 -2.5v21q20 0 27.5 9t-2.5 25l-261 393q-14 22 -25.5 34.5t-26.5 15.5v21q22 -1 65 -2.5t86 -1.5q35 0 68 1.5t50 2.5zM212 228l2 -11l2 -11
l-11 -14q-33 -42 -37 -80.5t16 -63.5t55 -28v-20q-20 1 -52 1.5t-62.5 1t-48.5 0.5q-40 0 -67 -3v20q26 13 47.5 32.5t46.5 49.5zM521 519v-20q-22 -10 -45.5 -31t-48.5 -51l-108 -125l-2 11l-2 11l32 39q45 55 36 98.5t-62 47.5v20q31 -1 69 -2t64 -1q40 0 67 3z" />
    <glyph glyph-name="y" unicode="y" horiz-adv-x="529" 
d="M525 519v-21q-19 -7 -36.5 -27.5t-34.5 -69.5l-125 -372l-51 -117l-240 530q-17 38 -32 47t-26 9v21q40 -3 83 -4.5t80 -1.5q47 0 81 2t64 4v-21q-18 0 -34 -2t-23 -9.5t1 -26.5l128 -304l-11 -8l48 147q34 101 12 150.5t-66 52.5v21q21 -2 54 -3t51 -1t42 1t35 3z
M329 29l-42 -121q-18 -52 -44 -72q-13 -10 -34.5 -17t-58.5 -7q-28 0 -59.5 9t-54 29.5t-22.5 55.5t27 56t71 21q41 0 65.5 -18.5t24.5 -55.5q0 -22 -15.5 -44t-49.5 -33q8 -1 18 -1.5t16 -0.5q32 0 57 19.5t38 60.5l35 109z" />
    <glyph glyph-name="z" unicode="z" horiz-adv-x="472" 
d="M447 523l-224 -508h14q38 0 75.5 17t65 58.5t32.5 115.5h20q0 -79 1 -127.5t3 -82.5q-46 2 -96 3t-100 1q-52 0 -107 -1.5t-105 -3.5l224 508h-20q-37 0 -73.5 -17t-62 -58.5t-31.5 -115.5h-20q0 80 -1 128t-3 82q47 -2 97 -3t99 -1q53 0 107.5 1.5t104.5 3.5z" />
    <glyph glyph-name="braceleft" unicode="{" horiz-adv-x="353" 
d="M342 782v-19q-28 -1 -43.5 -14.5t-21 -58t-5.5 -139.5q0 -90 -33.5 -141t-86.5 -75.5t-113 -35.5q60 -11 113 -36t86.5 -75.5t33.5 -140.5q0 -74 3 -117t10.5 -64.5t21.5 -28t35 -6.5v-19q-91 0 -146 20.5t-79.5 71.5t-24.5 143q0 94 -6.5 145.5t-22.5 73.5t-47 24h-5v18
h5q31 2 47 23.5t22.5 73.5t6.5 146q0 88 24.5 138.5t79.5 71.5t146 21z" />
    <glyph glyph-name="bar" unicode="|" horiz-adv-x="274" 
d="M197 858v-1053h-120v1053h120z" />
    <glyph glyph-name="braceright" unicode="}" horiz-adv-x="353" 
d="M11 782v-19q28 -1 43.5 -14.5t21 -58t5.5 -139.5q0 -90 33.5 -141t86.5 -75.5t113 -35.5q-60 -11 -113 -36t-86.5 -75.5t-33.5 -140.5q0 -74 -3 -117t-10.5 -64.5t-21.5 -28t-35 -6.5v-19q91 0 146 20.5t79.5 71.5t24.5 143q0 94 6.5 145.5t22.5 73.5t47 24h5v18h-5
q-31 2 -47 23.5t-22.5 73.5t-6.5 146q0 88 -24.5 138.5t-79.5 71.5t-146 21z" />
    <glyph glyph-name="asciitilde" unicode="~" horiz-adv-x="681" 
d="M212 405q43 0 79 -14.5t70 -34t69.5 -34t75.5 -14.5q36 0 65 17.5t45 60.5l18 -3q-7 -85 -54 -136.5t-108 -51.5q-43 0 -79 14.5t-70 34t-69 34t-76 14.5q-36 0 -64.5 -17.5t-45.5 -60.5l-18 3q8 86 54.5 137t107.5 51z" />
    <glyph glyph-name="uni00A0" unicode="&#xa0;" horiz-adv-x="223" 
 />
    <glyph glyph-name="exclamdown" unicode="&#xa1;" horiz-adv-x="295" 
d="M156 318q4 -58 19 -113t33 -105t31.5 -92.5t13.5 -75.5q0 -59 -30 -89.5t-75 -30.5q-47 0 -77 31.5t-30 88.5q0 32 13.5 74t31.5 92.5t33 106t19 113.5h18zM148 533q47 0 73 -21.5t26 -64.5t-26 -64.5t-73 -21.5q-48 0 -73.5 21.5t-25.5 64.5t25.5 64.5t73.5 21.5z" />
    <glyph glyph-name="cent" unicode="&#xa2;" horiz-adv-x="515" 
d="M259 -181v248h22v-248h-22zM259 519v189h22v-189h-22zM288 533q44 0 78 -9t54 -21q27 -16 43.5 -42.5t16.5 -61.5q0 -41 -27 -69t-69 -28q-44 0 -68 25t-24 65q0 38 24.5 64.5t57.5 35.5q-7 5 -16.5 8.5t-23.5 3.5q-36 0 -58.5 -21.5t-35 -56.5t-17.5 -75t-5 -78
q0 -70 19 -109t48 -54t58 -15q20 0 54 10.5t67 56.5l17 -6q-12 -40 -38.5 -79.5t-68.5 -65t-102 -25.5q-67 0 -121.5 26t-87 86t-32.5 161q0 96 34 156.5t92.5 89t130.5 28.5z" />
    <glyph glyph-name="sterling" unicode="&#xa3;" horiz-adv-x="699" 
d="M406 736q41 0 71.5 -6.5t48.5 -15.5q27 -14 44.5 -37t17.5 -55q0 -37 -24 -62t-64 -25q-41 0 -65.5 22.5t-24.5 57.5q0 68 65 92q-10 5 -24 7.5t-33 2.5q-30 0 -49.5 -13t-30.5 -42t-16 -77.5t-5 -119.5v-114q0 -61 -23.5 -106.5t-61 -87t-80.5 -93.5q65 59 111.5 76.5
t81.5 17.5q43 0 71.5 -6t55.5 -12.5t63 -6.5q30 0 48 16.5t18 40.5q0 28 -18 44t-47 22l4 16q48 -8 88 -42t40 -93q0 -71 -44 -111t-135 -40q-47 0 -88 10.5t-79 24t-75 21.5q-10 2 -22.5 5t-26.5 3q-28 0 -55 -10q-19 -28 -41.5 -41t-43.5 -13q-10 0 -18.5 4t-8.5 16
q0 11 9 20.5t28 18t48 13.5q11 25 14.5 51t3.5 61.5v87.5v181q0 82 24.5 149.5t83.5 107.5t164 40zM422 317v-20h-365v20h365zM422 417v-20h-365v20h365z" />
    <glyph glyph-name="currency" unicode="&#xa4;" horiz-adv-x="669" 
d="M498 586l123 -123l-69 -69q9 -22 14 -45.5t5 -48.5t-5 -48.5t-15 -45.5l70 -69l-123 -123l-70 69q-22 -9 -45.5 -14t-48.5 -5q-49 0 -93 19l-69 -69l-123 123l68 68q-9 22 -14 46t-5 49q0 48 19 94l-68 69l123 123l68 -69q22 10 45.5 15t48.5 5q26 0 49.5 -5.5
t45.5 -14.5zM336 407q-26 0 -47.5 -14.5t-34 -39t-12.5 -53.5t12.5 -53t34 -38.5t47.5 -14.5t47 14.5t33.5 38.5t12.5 53t-12.5 53.5t-33.5 39t-47 14.5z" />
    <glyph glyph-name="yen" unicode="&#xa5;" horiz-adv-x="698" 
d="M585 307v-20h-433v20h433zM585 207v-20h-433v20h433zM669 709v-20q-23 -11 -49 -41.5t-57 -91.5l-180 -357h-67l-234 433q-17 32 -32 44t-26 12v21q31 -3 64.5 -4.5t73.5 -1.5q51 0 110.5 2t109.5 4v-21q-25 0 -46 -2t-30 -9.5t0 -26.5l151 -290l-47 -62l84 168
q42 83 46.5 131t-17.5 69.5t-62 22.5v20q38 -1 67.5 -2t63.5 -1q20 0 41 1t36 2zM470 393v-287q0 -36 5.5 -54t20.5 -24t45 -8v-20q-29 2 -77 2.5t-95 0.5q-51 0 -98.5 -0.5t-74.5 -2.5v20q31 2 46 8t20 24t5 54v205l109 -62z" />
    <glyph glyph-name="brokenbar" unicode="&#xa6;" horiz-adv-x="278" 
d="M199 326v-521h-120v521h120zM199 858v-474h-120v474h120z" />
    <glyph glyph-name="section" unicode="&#xa7;" horiz-adv-x="630" 
d="M348 782q51 0 85 -8.5t52 -17.5q27 -14 43 -35t16 -59q0 -32 -24 -56.5t-64 -24.5q-41 0 -65.5 22.5t-24.5 57.5q0 29 15.5 53.5t40.5 34.5q-4 4 -23 9t-42 5q-37 0 -59 -12t-32 -31.5t-10 -42.5q0 -40 16.5 -64t51.5 -47t88 -59q59 -39 101 -71.5t64 -66.5t22 -79
q0 -55 -40 -99.5t-139 -85.5l-9 10q22 20 33 37.5t11 51.5q0 28 -14.5 50.5t-52 51.5t-107.5 74q-69 45 -112 81t-63 70.5t-20 76.5q0 54 33.5 93t93 60t135.5 21zM211 489l9 -10q-22 -19 -33 -36.5t-11 -52.5q0 -27 14.5 -50t52.5 -52t107 -74t112 -80.5t63 -70.5t20 -77
q0 -53 -33.5 -92.5t-92.5 -60.5t-136 -21q-51 0 -85 8.5t-52 17.5q-27 14 -43 35.5t-16 58.5q0 32 24 56.5t64 24.5q41 0 65.5 -22.5t24.5 -57.5q0 -29 -15.5 -53t-40.5 -35q3 -2 12.5 -5.5t23.5 -6t29 -2.5q37 0 59 12t32 32t10 42q0 40 -16.5 64t-51 47l-88.5 59
q-59 40 -101 72t-64 66t-22 79q0 56 40 100.5t139 84.5z" />
    <glyph glyph-name="dieresis" unicode="&#xa8;" horiz-adv-x="512" 
d="M375 772q35 0 61 -26t26 -61q0 -36 -26 -61.5t-61 -25.5q-36 0 -61.5 25.5t-25.5 61.5q0 35 25.5 61t61.5 26zM137 772q35 0 61 -26t26 -61q0 -36 -26 -61.5t-61 -25.5q-36 0 -61.5 25.5t-25.5 61.5q0 35 25.5 61t61.5 26z" />
    <glyph glyph-name="copyright" unicode="&#xa9;" horiz-adv-x="872" 
d="M436 782q83 0 155 -31t126.5 -85.5t85.5 -126.5t31 -155q0 -82 -31 -154.5t-85.5 -127t-126.5 -85.5t-155 -31q-82 0 -154.5 31t-127 85.5t-85.5 127t-31 154.5q0 83 31 155t85.5 126.5t127 85.5t154.5 31zM462 658q44 0 78 -9.5t54 -20.5q26 -16 43 -42.5t17 -61.5
q0 -41 -27 -69t-69 -28q-44 0 -68 25t-24 65q0 38 24.5 64.5t57.5 35.5q-9 6 -24.5 10.5t-32.5 4.5q-7 0 -14.5 -1t-15.5 -3q-21 -6 -36.5 -29t-24 -70.5t-8.5 -130.5q0 -82 19 -127.5t48 -63t58 -17.5q14 0 33.5 6t42.5 26.5t45 64.5l17 -6q-12 -40 -38.5 -79.5t-68.5 -65
t-102 -25.5q-67 0 -121.5 26t-87 86t-32.5 161q0 96 34 156.5t92.5 89t130.5 28.5zM436 750q-74 0 -139 -28.5t-114 -79t-77 -116.5t-28 -142t28 -142t77 -116.5t114 -79t139 -28.5t139 28.5t114 79t77 116.5t28 142t-28 142t-77 116.5t-114 79t-139 28.5z" />
    <glyph glyph-name="ordfeminine" unicode="&#xaa;" horiz-adv-x="495" 
d="M251 722q91 0 131.5 -30t40.5 -97v-172q0 -10 3.5 -14t11.5 -4q13 0 21 7l11 -15q-22 -16 -55 -26.5t-75 -10.5q-43 0 -59 12.5t-18 34.5q-25 -25 -57.5 -36t-64.5 -11q-45 0 -74 19t-29 60t34 63.5t111 44.5q29 8 54.5 22.5t25.5 33.5v18q0 45 -15 63.5t-43 18.5
q-11 0 -21.5 -2.5t-19.5 -8.5q26 -7 38 -26.5t12 -37.5q0 -33 -25.5 -50t-57.5 -17q-35 0 -56.5 18t-21.5 47q0 26 16.5 44.5t41.5 28.5q29 13 62.5 18t77.5 5zM263 574q-3 -8 -10.5 -17t-19.5 -23q-15 -16 -21.5 -35t-6.5 -40q0 -20 8.5 -32t19.5 -12q18 0 30 10v149z" />
    <glyph glyph-name="guillemotleft" unicode="&#xab;" horiz-adv-x="614" 
d="M328 535l14 -4q-9 -42 -29.5 -95.5t-45 -101.5t-46.5 -75q22 -26 46.5 -74.5t45 -101.5t29.5 -95l-14 -4q-70 72 -144 139.5t-162 125.5v20q88 59 162 126.5t144 139.5zM544 495l14 -4q-6 -36 -22 -81.5t-34.5 -86.5t-34.5 -64q16 -22 34.5 -63t34.5 -86.5t22 -81.5
l-14 -4q-61 60 -125.5 118t-140.5 107v20q76 50 140.5 108t125.5 118z" />
    <glyph glyph-name="logicalnot" unicode="&#xac;" horiz-adv-x="632" 
d="M569 370v-205h-36v175h-465v30h501z" />
    <glyph glyph-name="uni00AD" unicode="&#xad;" horiz-adv-x="469" 
 />
    <glyph glyph-name="registered" unicode="&#xae;" horiz-adv-x="656" 
d="M328 782q77 0 140.5 -37.5t101 -101t37.5 -140.5t-37.5 -140.5t-101 -101t-140.5 -37.5t-140.5 37.5t-101 101t-37.5 140.5t37.5 140.5t101 101t140.5 37.5zM264 525q34 0 48.5 -1t22 -2.5t18.5 -3.5q57 -4 77.5 -17.5t25.5 -41.5l17 -71q2 -10 5 -13.5t8 -3.5q6 0 11 4
l6 -11q-9 -7 -23.5 -12t-34.5 -5q-35 0 -54.5 11.5t-23.5 33.5l-13 72q-3 19 -9.5 28.5t-23.5 13.5t-55 4zM328 750q-66 0 -119.5 -33.5t-85.5 -89.5t-32 -124q0 -67 32 -123.5t85.5 -90t119.5 -33.5t120 33.5t85.5 90t31.5 123.5q0 68 -31.5 124t-85.5 89.5t-120 33.5z
M342 676q70 0 98 -20.5t28 -58.5q0 -15 -12 -33.5t-44 -33t-93 -17.5l-60 -3v8v8h53q27 0 42 17.5t15 50.5q0 32 -11 49.5t-32 17.5q-10 0 -14 -5.5t-4 -19.5v-232q0 -23 4.5 -29t18.5 -8v-15q-14 0 -32.5 0.5t-38.5 0.5q-22 0 -43 -0.5t-33 -0.5v15q14 2 18.5 8t4.5 29v219
q0 24 -4.5 30.5t-18.5 7.5v15q12 -1 32.5 -1h39.5q28 0 52 0.5t34 0.5z" />
    <glyph glyph-name="macron" unicode="&#xaf;" horiz-adv-x="452" 
d="M402 712v-25h-352v25h352z" />
    <glyph glyph-name="degree" unicode="&#xb0;" horiz-adv-x="297" 
d="M148 820q49 0 85.5 -32t36.5 -88t-36.5 -88.5t-85.5 -32.5q-48 0 -84.5 32.5t-36.5 88.5t36.5 88t84.5 32zM148 803q-34 0 -65 -26.5t-31 -77.5q0 -52 31 -77.5t65 -25.5t65.5 25.5t31.5 77.5q0 51 -31.5 77.5t-65.5 26.5z" />
    <glyph glyph-name="plusminus" unicode="&#xb1;" horiz-adv-x="567" 
d="M533 30v-30h-501v30h501zM303 606v-236h232v-30h-232v-235h-36v235h-233v30h233v236h36z" />
    <glyph glyph-name="uni00B2" unicode="&#xb2;" horiz-adv-x="359" 
d="M183 755q50 0 83.5 -18t33.5 -56q0 -25 -14.5 -44.5t-38.5 -36t-53.5 -33.5t-60.5 -38h137q24 0 32 8.5t15 25.5l17 -3q-7 -38 -10.5 -67.5t-4.5 -57.5q-9 2 -18.5 2.5t-19.5 0.5h-260v20q21 18 49 39t54.5 45.5t44.5 54t18 64.5q0 23 -14.5 36.5t-42.5 13.5
q-52 0 -83 -44l-15 8q19 31 54 55.5t97 24.5z" />
    <glyph glyph-name="uni00B3" unicode="&#xb3;" horiz-adv-x="334" 
d="M173 756q51 0 87 -18.5t36 -53.5t-35 -59.5t-98 -35.5q59 4 102.5 -21.5t43.5 -70.5q0 -37 -26 -64t-68.5 -44.5t-93.5 -27t-102 -13.5v17q55 8 95 26.5t62 47t22 66.5q0 29 -13.5 50t-39.5 23q-11 -5 -19.5 -9.5t-17.5 -4.5q-15 0 -15 12q0 11 13 13t31 1q28 14 37 36
t9 37q0 23 -15.5 38t-44.5 15q-25 0 -47 -13t-36 -35l-15 8q17 32 51.5 56t96.5 24z" />
    <glyph glyph-name="acute" unicode="&#xb4;" horiz-adv-x="304" 
d="M233 820q20 -16 20.5 -43t-16.5 -48q-16 -20 -39.5 -34.5t-56.5 -35t-80 -60.5l-11 9q29 57 40 94.5t19 63.5t26 46q16 19 45.5 23.5t52.5 -15.5z" />
    <glyph glyph-name="paragraph" unicode="&#xb6;" horiz-adv-x="790" 
d="M439 709q89 0 164 -2.5t147 1.5v-19q-43 -2 -55 -18.5t-12 -49.5v-696q0 -36 5 -54t20.5 -24t45.5 -8v-20q-35 2 -91.5 2.5t-115.5 0.5q-51 0 -96 -0.5t-72 -2.5v20q63 2 82 22.5t19 73.5v52q-165 0 -263.5 49t-142 133.5t-43.5 190.5q0 102 48.5 181t140 123.5
t219.5 44.5zM481 656q-5 0 -16.5 -38.5t-22.5 -102t-13 -139.5q-86 0 -156 -5t-111.5 -11t-41.5 -9t41.5 -9t111.5 -10.5t156 -4.5q2 -78 13 -141.5t22.5 -100.5t16.5 -37v32.5v86.5v118.5v129.5v119v87.5v34.5z" />
    <glyph glyph-name="periodcentered" unicode="&#xb7;" horiz-adv-x="288" 
d="M144 376q47 0 73 -21.5t26 -64.5t-26 -64.5t-73 -21.5q-48 0 -73.5 21.5t-25.5 64.5t25.5 64.5t73.5 21.5z" />
    <glyph glyph-name="cedilla" unicode="&#xb8;" horiz-adv-x="348" 
d="M162 0l-17 -60q18 8 37.5 11.5t41.5 3.5q38 0 56 -16.5t18 -41.5q0 -29 -20.5 -48t-56 -28t-81.5 -9q-27 0 -50 3.5t-40 9.5l6 18q7 -1 20 -3t28 -2q22 0 42 9t20 29q0 25 -28 25q-8 0 -17 -1.5t-16 -5.5l30 106h27z" />
    <glyph glyph-name="uni00B9" unicode="&#xb9;" horiz-adv-x="297" 
d="M220 753v-246q0 -29 15.5 -39t51.5 -10v-21q-19 1 -54 1.5t-73 0.5t-73 -0.5t-54 -1.5v21q35 0 54.5 10t19.5 39v129q0 44 -17 54.5t-64 10.5v21q69 1 112.5 8t81.5 23z" />
    <glyph glyph-name="ordmasculine" unicode="&#xba;" horiz-adv-x="478" 
d="M240 722q61 0 107.5 -20.5t72.5 -60.5t26 -100q0 -59 -26 -99.5t-72.5 -61t-107.5 -20.5q-62 0 -109 20.5t-73 61t-26 99.5q0 60 26 100t73 60.5t109 20.5zM239 704q-18 0 -29 -38t-11 -125t11 -125t29 -38t29 38t11 125t-11 125t-29 38z" />
    <glyph glyph-name="guillemotright" unicode="&#xbb;" horiz-adv-x="614" 
d="M286 535q70 -72 144 -139.5t162 -126.5v-20q-88 -58 -162 -125.5t-144 -139.5l-14 4q10 42 30 95t44.5 101.5t46.5 74.5q-22 27 -46.5 75t-44.5 101.5t-30 95.5zM70 495q61 -60 125.5 -118t140.5 -108v-20q-76 -49 -140.5 -107t-125.5 -118l-14 4q7 36 22.5 81.5t34 86.5
t34.5 63q-16 23 -34.5 64t-34 86.5t-22.5 81.5z" />
    <glyph glyph-name="onequarter" unicode="&#xbc;" horiz-adv-x="720" 
d="M673 824l19 -13l-585 -866l-19 13zM235 753v-246q0 -29 15.5 -39t51.5 -10v-21q-19 1 -54 1.5t-73 0.5t-73 -0.5t-54 -1.5v21q35 0 54.5 10t19.5 39v129q0 44 -17 54.5t-64 10.5v21q69 1 112.5 8t81.5 23zM548 318l8 -15l-238 -256l32 40h237q24 0 32 8.5t15 25.5l17 -3
q-4 -13 -7 -34t-4.5 -40.5t-2.5 -28.5q-9 2 -18.5 2.5t-19.5 0.5h-310v21zM569 318v-417h-83v336l62 81h21z" />
    <glyph glyph-name="onehalf" unicode="&#xbd;" horiz-adv-x="734" 
d="M657 824l19 -13l-585 -866l-19 13zM232 753v-246q0 -29 15.5 -39t51.5 -10v-21q-19 1 -54 1.5t-73 0.5t-73 -0.5t-54 -1.5v21q35 0 54.5 10t19.5 39v129q0 44 -17 54.5t-64 10.5v21q69 1 112.5 8t81.5 23zM551 318q50 0 83.5 -18t33.5 -56q0 -25 -14.5 -44.5t-38.5 -36
t-53.5 -33.5t-60.5 -38h137q24 0 32 8.5t15 25.5l17 -3q-7 -38 -10.5 -67.5t-4.5 -57.5q-9 2 -18.5 2.5t-19.5 0.5h-260v20q21 18 49 39t54.5 45.5t44.5 54t18 64.5q0 23 -14.5 36.5t-42.5 13.5q-52 0 -83 -44l-15 8q19 31 54 55.5t97 24.5z" />
    <glyph glyph-name="threequarters" unicode="&#xbe;" horiz-adv-x="758" 
d="M711 824l19 -13l-585 -866l-19 13zM193 756q51 0 87 -18.5t36 -53.5t-35 -59.5t-98 -35.5q59 4 102.5 -21.5t43.5 -70.5q0 -37 -26 -64t-68.5 -44.5t-93.5 -27t-102 -13.5v17q55 8 95 26.5t62 47t22 66.5q0 29 -13.5 50t-39.5 23q-11 -5 -19.5 -9.5t-17.5 -4.5
q-15 0 -15 12q0 11 13 13t31 1q28 14 37 36t9 37q0 23 -15.5 38t-44.5 15q-25 0 -47 -13t-36 -35l-15 8q17 32 51.5 56t96.5 24zM593 318l8 -15l-238 -256l32 40h237q24 0 32 8.5t15 25.5l17 -3q-4 -13 -7 -34t-4.5 -40.5t-2.5 -28.5q-9 2 -18.5 2.5t-19.5 0.5h-310v21z
M614 318v-417h-83v336l62 81h21z" />
    <glyph glyph-name="questiondown" unicode="&#xbf;" horiz-adv-x="536" 
d="M322 325v-140q-49 -24 -74 -54.5t-33.5 -65.5t-8.5 -74q0 -84 31 -121.5t80 -37.5q29 0 49.5 5.5t29.5 13.5q-32 12 -48.5 33t-16.5 55q0 35 26.5 59.5t69.5 24.5q38 0 60 -24t22 -56q0 -37 -18.5 -59t-45.5 -37q-25 -14 -65 -24.5t-93 -10.5q-116 0 -188 48t-72 132
q0 77 76 128.5t199 73.5v131h20zM312 534q47 0 73 -21.5t26 -64.5t-26 -64.5t-73 -21.5q-48 0 -73.5 21.5t-25.5 64.5t25.5 64.5t73.5 21.5z" />
    <glyph glyph-name="Agrave" unicode="&#xc0;" horiz-adv-x="692" 
d="M398 708l242 -624q14 -34 30 -48.5t29 -15.5v-20q-36 2 -84 2.5t-98 0.5q-51 0 -96 -0.5t-72 -2.5v20q51 2 64.5 17.5t-6.5 66.5l-160 443l20 35l-138 -359q-33 -86 -32.5 -129t25.5 -57.5t65 -16.5v-20q-37 2 -66.5 2.5t-64.5 0.5q-19 0 -40.5 -0.5t-36.5 -2.5v20
q23 4 45.5 29.5t46.5 87.5l222 571q24 -2 52.5 -2t52.5 2zM433 288v-20h-298l10 20h288zM254 939q25 -11 42 -32t42.5 -51.5t73.5 -71.5l-7 -12q-58 18 -97 24.5t-66 10.5t-50 16q-24 12 -33.5 36.5t1.5 48.5q14 29 43 35.5t51 -4.5z" />
    <glyph glyph-name="Aacute" unicode="&#xc1;" horiz-adv-x="692" 
d="M398 708l242 -624q14 -34 30 -48.5t29 -15.5v-20q-36 2 -84 2.5t-98 0.5q-51 0 -96 -0.5t-72 -2.5v20q51 2 64.5 17.5t-6.5 66.5l-160 443l20 35l-138 -359q-33 -86 -32.5 -129t25.5 -57.5t65 -16.5v-20q-37 2 -66.5 2.5t-64.5 0.5q-19 0 -40.5 -0.5t-36.5 -2.5v20
q23 4 45.5 29.5t46.5 87.5l222 571q24 -2 52.5 -2t52.5 2zM433 288v-20h-298l10 20h288zM422 939q22 11 51.5 4.5t42.5 -35.5q11 -24 1.5 -48.5t-33.5 -36.5q-23 -12 -50 -16t-65.5 -10.5t-97.5 -24.5l-7 12q49 41 74 71.5t42.5 51.5t41.5 32z" />
    <glyph glyph-name="Acircumflex" unicode="&#xc2;" horiz-adv-x="692" 
d="M398 708l242 -624q14 -34 30 -48.5t29 -15.5v-20q-36 2 -84 2.5t-98 0.5q-51 0 -96 -0.5t-72 -2.5v20q51 2 64.5 17.5t-6.5 66.5l-160 443l20 35l-138 -359q-33 -86 -32.5 -129t25.5 -57.5t65 -16.5v-20q-37 2 -66.5 2.5t-64.5 0.5q-19 0 -40.5 -0.5t-36.5 -2.5v20
q23 4 45.5 29.5t46.5 87.5l222 571q24 -2 52.5 -2t52.5 2zM433 288v-20h-298l10 20h288zM354 956q35 -47 93 -93.5t124 -78.5l-5 -15q-69 11 -135.5 28t-105.5 33q-33 -16 -88.5 -33t-112.5 -28l-5 15q65 31 122.5 77.5t94.5 94.5h18z" />
    <glyph glyph-name="Atilde" unicode="&#xc3;" horiz-adv-x="692" 
d="M398 708l242 -624q14 -34 30 -48.5t29 -15.5v-20q-36 2 -84 2.5t-98 0.5q-51 0 -96 -0.5t-72 -2.5v20q51 2 64.5 17.5t-6.5 66.5l-160 443l20 35l-138 -359q-33 -86 -32.5 -129t25.5 -57.5t65 -16.5v-20q-37 2 -66.5 2.5t-64.5 0.5q-19 0 -40.5 -0.5t-36.5 -2.5v20
q23 4 45.5 29.5t46.5 87.5l222 571q24 -2 52.5 -2t52.5 2zM433 288v-20h-298l10 20h288zM252 938q40 0 68 -10t50.5 -23t46.5 -23t56 -10q27 0 51 12.5t46 40.5l14 -7q-20 -82 -60.5 -117.5t-87.5 -35.5q-40 0 -68.5 10t-51 23.5t-46.5 23.5t-56 10q-27 0 -51 -12.5
t-46 -41.5l-14 7q20 82 61 117.5t88 35.5z" />
    <glyph glyph-name="Adieresis" unicode="&#xc4;" horiz-adv-x="692" 
d="M398 708l242 -624q14 -34 30 -48.5t29 -15.5v-20q-36 2 -84 2.5t-98 0.5q-51 0 -96 -0.5t-72 -2.5v20q51 2 64.5 17.5t-6.5 66.5l-160 443l20 35l-138 -359q-33 -86 -32.5 -129t25.5 -57.5t65 -16.5v-20q-37 2 -66.5 2.5t-64.5 0.5q-19 0 -40.5 -0.5t-36.5 -2.5v20
q23 4 45.5 29.5t46.5 87.5l222 571q24 -2 52.5 -2t52.5 2zM433 288v-20h-298l10 20h288zM474 936q35 0 61 -26t26 -61q0 -36 -26 -61.5t-61 -25.5q-36 0 -61.5 25.5t-25.5 61.5q0 35 25.5 61t61.5 26zM216 936q35 0 61 -26t26 -61q0 -36 -26 -61.5t-61 -25.5
q-36 0 -61.5 25.5t-25.5 61.5q0 35 25.5 61t61.5 26z" />
    <glyph glyph-name="Aring" unicode="&#xc5;" horiz-adv-x="692" 
d="M398 708l242 -624q14 -34 30 -48.5t29 -15.5v-20q-36 2 -84 2.5t-98 0.5q-51 0 -96 -0.5t-72 -2.5v20q51 2 64.5 17.5t-6.5 66.5l-160 443l20 35l-138 -359q-33 -86 -32.5 -129t25.5 -57.5t65 -16.5v-20q-37 2 -66.5 2.5t-64.5 0.5q-19 0 -40.5 -0.5t-36.5 -2.5v20
q23 4 45.5 29.5t46.5 87.5l222 571q24 -2 52.5 -2t52.5 2zM433 288v-20h-298l10 20h288zM345 945q47 0 82 -27t35 -74t-35 -74.5t-82 -27.5q-46 0 -81 27.5t-35 74.5t35 74t81 27zM345 924q-31 0 -59.5 -21t-28.5 -60q0 -40 28.5 -60t59.5 -20q32 0 60.5 20t28.5 60
q0 39 -28.5 60t-60.5 21z" />
    <glyph glyph-name="AE" unicode="&#xc6;" horiz-adv-x="912" 
d="M473 772l-383 -668q-27 -47 -13.5 -64.5t64.5 -19.5v-20q-15 2 -39.5 2.5t-51.5 0.5q-18 0 -36.5 -0.5t-30.5 -2.5v20q16 1 32 14.5t37 49.5l397 688h24zM849 708q-4 -44 -5.5 -85t-1.5 -63q0 -21 1 -40t2 -32h-23q-10 75 -32.5 118t-51.5 61t-60 18h-13
q-29 0 -44.5 -5.5t-21 -23t-5.5 -54.5v-496q0 -36 5.5 -54t21 -23.5t44.5 -5.5h33q25 0 55 20t55 67.5t34 129.5h23q-3 -36 -3 -92q0 -22 1 -63t6 -85q-51 2 -115 2.5t-114 0.5h-88t-116.5 -0.5t-115.5 -2.5v20q31 2 46 8t20 24t5 54v496q0 37 -5 54.5t-20.5 24t-45.5 7.5
v20q54 -1 115.5 -2t116.5 -1h88q46 0 104.5 0.5t104.5 2.5zM424 366v-20h-207l10 20h197zM724 366v-10v-10h-160v10v10h160zM753 488q-4 -53 -3.5 -81t0.5 -51t1 -51t5 -81h-23q-5 30 -15 58t-29.5 46t-54.5 18v20q35 0 53.5 21.5t28 50t14.5 50.5h23z" />
    <glyph glyph-name="Ccedilla" unicode="&#xc7;" horiz-adv-x="717" 
d="M414 722q66 0 108.5 -19.5t75.5 -45.5q20 -15 30.5 -3.5t14.5 54.5h23q-2 -40 -3 -97.5t-1 -152.5h-23q-4 48 -13 85.5t-27 66.5t-52 51q-21 14 -44.5 22t-48.5 8q-57 0 -94 -31.5t-57.5 -82t-28.5 -110t-8 -115.5t8 -115.5t28.5 -110t57.5 -82t94 -31.5q25 0 48.5 8.5
t44.5 21.5q50 31 67.5 83t24.5 134h23q0 -98 1 -158.5t3 -101.5h-23q-4 43 -13.5 54t-31.5 -3q-37 -26 -78.5 -45.5t-106.5 -19.5q-113 0 -198 43t-132 124t-47 195q0 112 48.5 196t133.5 131t196 47zM431 5l-19 -65q20 8 42 11.5t47 3.5q43 0 63.5 -16.5t20.5 -41.5
q0 -29 -24.5 -48t-66.5 -28t-97 -9q-30 0 -56 3.5t-44 9.5l6 18l24 -3t34 -2q33 0 62.5 9t29.5 29q0 14 -13 19.5t-35 5.5q-8 0 -17 -1.5t-16 -5.5l32 111h27z" />
    <glyph glyph-name="Egrave" unicode="&#xc8;" horiz-adv-x="650" 
d="M587 708q-4 -50 -5.5 -96.5t-1.5 -71.5q0 -21 1 -40t2 -32h-23q-12 83 -40 130.5t-65.5 67t-78.5 19.5h-13q-26 0 -39 -4.5t-17.5 -17.5t-4.5 -41v-536q0 -27 4.5 -40.5t17.5 -18t39 -4.5h33q33 0 69.5 21.5t67.5 73.5t47 142h23q-3 -36 -3 -92q0 -25 1 -71.5t6 -96.5
q-51 2 -115 2.5t-114 0.5h-96.5t-128 -0.5t-125.5 -2.5v20q31 2 46 8t20 24t5 54v496q0 37 -5 54.5t-20.5 24t-45.5 7.5v20q58 -1 125.5 -2t128 -1h96.5q46 0 104.5 0.5t104.5 2.5zM442 366v-10v-10h-170v10v10h170zM471 498q-4 -57 -3.5 -87t0.5 -55t1 -55t5 -87h-23
q-6 37 -24.5 67t-47.5 47.5t-67 17.5v20q38 0 66 21t46 51.5t24 59.5h23zM229 939q25 -11 42 -32t42.5 -51.5t73.5 -71.5l-7 -12q-58 18 -97 24.5t-66 10.5t-50 16q-24 12 -33.5 36.5t1.5 48.5q14 29 43 35.5t51 -4.5z" />
    <glyph glyph-name="Eacute" unicode="&#xc9;" horiz-adv-x="650" 
d="M587 708q-4 -50 -5.5 -96.5t-1.5 -71.5q0 -21 1 -40t2 -32h-23q-12 83 -40 130.5t-65.5 67t-78.5 19.5h-13q-26 0 -39 -4.5t-17.5 -17.5t-4.5 -41v-536q0 -27 4.5 -40.5t17.5 -18t39 -4.5h33q33 0 69.5 21.5t67.5 73.5t47 142h23q-3 -36 -3 -92q0 -25 1 -71.5t6 -96.5
q-51 2 -115 2.5t-114 0.5h-96.5t-128 -0.5t-125.5 -2.5v20q31 2 46 8t20 24t5 54v496q0 37 -5 54.5t-20.5 24t-45.5 7.5v20q58 -1 125.5 -2t128 -1h96.5q46 0 104.5 0.5t104.5 2.5zM442 366v-10v-10h-170v10v10h170zM471 498q-4 -57 -3.5 -87t0.5 -55t1 -55t5 -87h-23
q-6 37 -24.5 67t-47.5 47.5t-67 17.5v20q38 0 66 21t46 51.5t24 59.5h23zM397 939q22 11 51.5 4.5t42.5 -35.5q11 -24 1.5 -48.5t-33.5 -36.5q-23 -12 -50 -16t-65.5 -10.5t-97.5 -24.5l-7 12q49 41 74 71.5t42.5 51.5t41.5 32z" />
    <glyph glyph-name="Ecircumflex" unicode="&#xca;" horiz-adv-x="650" 
d="M587 708q-4 -50 -5.5 -96.5t-1.5 -71.5q0 -21 1 -40t2 -32h-23q-12 83 -40 130.5t-65.5 67t-78.5 19.5h-13q-26 0 -39 -4.5t-17.5 -17.5t-4.5 -41v-536q0 -27 4.5 -40.5t17.5 -18t39 -4.5h33q33 0 69.5 21.5t67.5 73.5t47 142h23q-3 -36 -3 -92q0 -25 1 -71.5t6 -96.5
q-51 2 -115 2.5t-114 0.5h-96.5t-128 -0.5t-125.5 -2.5v20q31 2 46 8t20 24t5 54v496q0 37 -5 54.5t-20.5 24t-45.5 7.5v20q58 -1 125.5 -2t128 -1h96.5q46 0 104.5 0.5t104.5 2.5zM442 366v-10v-10h-170v10v10h170zM471 498q-4 -57 -3.5 -87t0.5 -55t1 -55t5 -87h-23
q-6 37 -24.5 67t-47.5 47.5t-67 17.5v20q38 0 66 21t46 51.5t24 59.5h23zM329 956q35 -47 93 -93.5t124 -78.5l-5 -15q-69 11 -135.5 28t-105.5 33q-33 -16 -88.5 -33t-112.5 -28l-5 15q65 31 122.5 77.5t94.5 94.5h18z" />
    <glyph glyph-name="Edieresis" unicode="&#xcb;" horiz-adv-x="650" 
d="M587 708q-4 -50 -5.5 -96.5t-1.5 -71.5q0 -21 1 -40t2 -32h-23q-12 83 -40 130.5t-65.5 67t-78.5 19.5h-13q-26 0 -39 -4.5t-17.5 -17.5t-4.5 -41v-536q0 -27 4.5 -40.5t17.5 -18t39 -4.5h33q33 0 69.5 21.5t67.5 73.5t47 142h23q-3 -36 -3 -92q0 -25 1 -71.5t6 -96.5
q-51 2 -115 2.5t-114 0.5h-96.5t-128 -0.5t-125.5 -2.5v20q31 2 46 8t20 24t5 54v496q0 37 -5 54.5t-20.5 24t-45.5 7.5v20q58 -1 125.5 -2t128 -1h96.5q46 0 104.5 0.5t104.5 2.5zM442 366v-10v-10h-170v10v10h170zM471 498q-4 -57 -3.5 -87t0.5 -55t1 -55t5 -87h-23
q-6 37 -24.5 67t-47.5 47.5t-67 17.5v20q38 0 66 21t46 51.5t24 59.5h23zM449 936q35 0 61 -26t26 -61q0 -36 -26 -61.5t-61 -25.5q-36 0 -61.5 25.5t-25.5 61.5q0 35 25.5 61t61.5 26zM191 936q35 0 61 -26t26 -61q0 -36 -26 -61.5t-61 -25.5q-36 0 -61.5 25.5t-25.5 61.5
q0 35 25.5 61t61.5 26z" />
    <glyph glyph-name="Igrave" unicode="&#xcc;" horiz-adv-x="401" 
d="M373 708v-20q-30 -1 -45.5 -7.5t-20.5 -24t-5 -54.5v-496q0 -36 5.5 -54t20.5 -24t45 -8v-20q-29 2 -74.5 2.5t-92.5 0.5q-54 0 -101.5 -0.5t-76.5 -2.5v20q31 2 46 8t20 24t5 54v496q0 37 -5 54.5t-20.5 24t-45.5 7.5v20q29 -1 76.5 -2t101.5 -1q47 0 92.5 1t74.5 2z
M115 939q25 -11 42 -32t42.5 -51.5t73.5 -71.5l-7 -12q-58 18 -97 24.5t-66 10.5t-50 16q-24 12 -33.5 36.5t1.5 48.5q14 29 43 35.5t51 -4.5z" />
    <glyph glyph-name="Iacute" unicode="&#xcd;" horiz-adv-x="401" 
d="M373 708v-20q-30 -1 -45.5 -7.5t-20.5 -24t-5 -54.5v-496q0 -36 5.5 -54t20.5 -24t45 -8v-20q-29 2 -74.5 2.5t-92.5 0.5q-54 0 -101.5 -0.5t-76.5 -2.5v20q31 2 46 8t20 24t5 54v496q0 37 -5 54.5t-20.5 24t-45.5 7.5v20q29 -1 76.5 -2t101.5 -1q47 0 92.5 1t74.5 2z
M283 939q22 11 51.5 4.5t42.5 -35.5q11 -24 1.5 -48.5t-33.5 -36.5q-23 -12 -50 -16t-65.5 -10.5t-97.5 -24.5l-7 12q49 41 74 71.5t42.5 51.5t41.5 32z" />
    <glyph glyph-name="Icircumflex" unicode="&#xce;" horiz-adv-x="401" 
d="M373 708v-20q-30 -1 -45.5 -7.5t-20.5 -24t-5 -54.5v-496q0 -36 5.5 -54t20.5 -24t45 -8v-20q-29 2 -74.5 2.5t-92.5 0.5q-54 0 -101.5 -0.5t-76.5 -2.5v20q31 2 46 8t20 24t5 54v496q0 37 -5 54.5t-20.5 24t-45.5 7.5v20q29 -1 76.5 -2t101.5 -1q47 0 92.5 1t74.5 2z
M215 956q35 -47 93 -93.5t124 -78.5l-5 -15q-69 11 -135.5 28t-105.5 33q-33 -16 -88.5 -33t-112.5 -28l-5 15q65 31 122.5 77.5t94.5 94.5h18z" />
    <glyph glyph-name="Idieresis" unicode="&#xcf;" horiz-adv-x="401" 
d="M373 708v-20q-30 -1 -45.5 -7.5t-20.5 -24t-5 -54.5v-496q0 -36 5.5 -54t20.5 -24t45 -8v-20q-29 2 -74.5 2.5t-92.5 0.5q-54 0 -101.5 -0.5t-76.5 -2.5v20q31 2 46 8t20 24t5 54v496q0 37 -5 54.5t-20.5 24t-45.5 7.5v20q29 -1 76.5 -2t101.5 -1q47 0 92.5 1t74.5 2z
M335 936q35 0 61 -26t26 -61q0 -36 -26 -61.5t-61 -25.5q-36 0 -61.5 25.5t-25.5 61.5q0 35 25.5 61t61.5 26zM77 936q35 0 61 -26t26 -61q0 -36 -26 -61.5t-61 -25.5q-36 0 -61.5 25.5t-25.5 61.5q0 35 25.5 61t61.5 26z" />
    <glyph glyph-name="Eth" unicode="&#xd0;" horiz-adv-x="811" 
d="M361 708q210 0 311.5 -89.5t101.5 -256.5q0 -109 -50 -190.5t-144.5 -126.5t-227.5 -45q-24 0 -69.5 1.5t-80.5 1.5q-50 0 -97.5 -0.5t-76.5 -2.5v20q31 2 46 8t20 24t5 54v496q0 37 -5 54.5t-20.5 24t-45.5 7.5v20q29 -1 76.5 -2.5t95.5 -0.5q37 1 83.5 2t77.5 1z
M376 690q-46 0 -60 -17t-14 -69v-500q0 -52 14.5 -69t60.5 -17q68 0 109 39.5t59.5 115.5t18.5 185q0 168 -45 250t-143 82zM412 366v-20h-404v20h404z" />
    <glyph glyph-name="Ntilde" unicode="&#xd1;" horiz-adv-x="732" 
d="M708 708v-20q-30 -6 -45.5 -21t-20.5 -46.5t-5 -88.5v-532q-15 2 -32.5 2t-37.5 -2l-443 484v-288q0 -67 5.5 -102.5t27 -51t68.5 -22.5v-20q-20 2 -52 2.5t-60 0.5q-22 0 -45 -0.5t-38 -2.5v20q31 7 46 21.5t20 46.5t5 88v426q0 37 -5 54.5t-20.5 24t-45.5 7.5v20
q15 -1 38 -2t45 -1q25 0 49 1t43 2l409 -432v236q0 67 -5.5 102.5t-26.5 51.5t-69 22v20q20 -1 52 -2t60 -1q23 0 45.5 1t37.5 2zM289 938q40 0 68 -10t50.5 -23t46.5 -23t56 -10q27 0 51 12.5t46 40.5l14 -7q-20 -82 -60.5 -117.5t-87.5 -35.5q-40 0 -68.5 10t-51 23.5
t-46.5 23.5t-56 10q-27 0 -51 -12.5t-46 -41.5l-14 7q20 82 61 117.5t88 35.5z" />
    <glyph glyph-name="Ograve" unicode="&#xd2;" horiz-adv-x="827" 
d="M414 722q113 0 198 -43t132 -123.5t47 -195.5q0 -112 -48 -196t-133.5 -131t-196.5 -47q-113 0 -198 43t-132 124t-47 195q0 112 48.5 196t133.5 131t196 47zM410 704q-50 0 -87 -45t-57 -124t-20 -183q0 -106 23 -184.5t62 -121t86 -42.5q50 0 87 45t57 124.5t20 182.5
q0 107 -23 185t-62 120.5t-86 42.5zM321 939q25 -11 42 -32t42.5 -51.5t73.5 -71.5l-7 -12q-58 18 -97 24.5t-66 10.5t-50 16q-24 12 -33.5 36.5t1.5 48.5q14 29 43 35.5t51 -4.5z" />
    <glyph glyph-name="Oacute" unicode="&#xd3;" horiz-adv-x="827" 
d="M414 722q113 0 198 -43t132 -123.5t47 -195.5q0 -112 -48 -196t-133.5 -131t-196.5 -47q-113 0 -198 43t-132 124t-47 195q0 112 48.5 196t133.5 131t196 47zM410 704q-50 0 -87 -45t-57 -124t-20 -183q0 -106 23 -184.5t62 -121t86 -42.5q50 0 87 45t57 124.5t20 182.5
q0 107 -23 185t-62 120.5t-86 42.5zM489 939q22 11 51.5 4.5t42.5 -35.5q11 -24 1.5 -48.5t-33.5 -36.5q-23 -12 -50 -16t-65.5 -10.5t-97.5 -24.5l-7 12q49 41 74 71.5t42.5 51.5t41.5 32z" />
    <glyph glyph-name="Ocircumflex" unicode="&#xd4;" horiz-adv-x="827" 
d="M414 722q113 0 198 -43t132 -123.5t47 -195.5q0 -112 -48 -196t-133.5 -131t-196.5 -47q-113 0 -198 43t-132 124t-47 195q0 112 48.5 196t133.5 131t196 47zM410 704q-50 0 -87 -45t-57 -124t-20 -183q0 -106 23 -184.5t62 -121t86 -42.5q50 0 87 45t57 124.5t20 182.5
q0 107 -23 185t-62 120.5t-86 42.5zM421 956q35 -47 93 -93.5t124 -78.5l-5 -15q-69 11 -135.5 28t-105.5 33q-33 -16 -88.5 -33t-112.5 -28l-5 15q65 31 122.5 77.5t94.5 94.5h18z" />
    <glyph glyph-name="Otilde" unicode="&#xd5;" horiz-adv-x="827" 
d="M414 722q113 0 198 -43t132 -123.5t47 -195.5q0 -112 -48 -196t-133.5 -131t-196.5 -47q-113 0 -198 43t-132 124t-47 195q0 112 48.5 196t133.5 131t196 47zM410 704q-50 0 -87 -45t-57 -124t-20 -183q0 -106 23 -184.5t62 -121t86 -42.5q50 0 87 45t57 124.5t20 182.5
q0 107 -23 185t-62 120.5t-86 42.5zM319 938q40 0 68 -10t50.5 -23t46.5 -23t56 -10q27 0 51 12.5t46 40.5l14 -7q-20 -82 -60.5 -117.5t-87.5 -35.5q-40 0 -68.5 10t-51 23.5t-46.5 23.5t-56 10q-27 0 -51 -12.5t-46 -41.5l-14 7q20 82 61 117.5t88 35.5z" />
    <glyph glyph-name="Odieresis" unicode="&#xd6;" horiz-adv-x="827" 
d="M414 722q113 0 198 -43t132 -123.5t47 -195.5q0 -112 -48 -196t-133.5 -131t-196.5 -47q-113 0 -198 43t-132 124t-47 195q0 112 48.5 196t133.5 131t196 47zM410 704q-50 0 -87 -45t-57 -124t-20 -183q0 -106 23 -184.5t62 -121t86 -42.5q50 0 87 45t57 124.5t20 182.5
q0 107 -23 185t-62 120.5t-86 42.5zM541 936q35 0 61 -26t26 -61q0 -36 -26 -61.5t-61 -25.5q-36 0 -61.5 25.5t-25.5 61.5q0 35 25.5 61t61.5 26zM283 936q35 0 61 -26t26 -61q0 -36 -26 -61.5t-61 -25.5q-36 0 -61.5 25.5t-25.5 61.5q0 35 25.5 61t61.5 26z" />
    <glyph glyph-name="multiply" unicode="&#xd7;" horiz-adv-x="482" 
d="M67 552l175 -175l173 173l22 -22l-173 -172l173 -173l-22 -22l-173 173l-174 -174l-22 22l174 173l-175 175z" />
    <glyph glyph-name="Oslash" unicode="&#xd8;" horiz-adv-x="827" 
d="M414 722q113 0 198 -43t132 -123.5t47 -195.5q0 -112 -48 -196t-133.5 -131t-196.5 -47q-113 0 -198 43t-132 124t-47 195q0 112 48.5 196t133.5 131t196 47zM410 704q-50 0 -87 -45t-57 -124t-20 -183q0 -106 23 -184.5t62 -121t86 -42.5q50 0 87 45t57 124.5t20 182.5
q0 107 -23 185t-62 120.5t-86 42.5zM572 640l15 -20l-338 -545l-18 18zM216 93l18 -18l-114 -158l-21 14zM676 783l19 -13l-101 -150l-15 20z" />
    <glyph glyph-name="Ugrave" unicode="&#xd9;" horiz-adv-x="693" 
d="M681 708v-20q-30 -6 -45.5 -21t-20.5 -46.5t-5 -88.5v-241q0 -62 -8.5 -117t-32.5 -95q-26 -43 -77.5 -68t-137.5 -25q-46 0 -97 10t-91 38q-34 25 -52 61t-24 84t-6 109v314q0 37 -5 54.5t-20 24t-46 7.5v20q29 -1 76.5 -2t99.5 -1t100 1t79 2v-20q-34 -1 -51.5 -7.5
t-23.5 -24t-6 -54.5v-408q0 -66 14 -103.5t42 -53.5t69 -16q67 0 105 32.5t54 91t16 135.5v232q0 67 -5.5 102.5t-26.5 51.5t-69 22v20q20 -1 52 -2t60 -1q23 0 45.5 1t37.5 2zM270 939q25 -11 42 -32t42.5 -51.5t73.5 -71.5l-7 -12q-58 18 -97 24.5t-66 10.5t-50 16
q-24 12 -33.5 36.5t1.5 48.5q14 29 43 35.5t51 -4.5z" />
    <glyph glyph-name="Uacute" unicode="&#xda;" horiz-adv-x="693" 
d="M681 708v-20q-30 -6 -45.5 -21t-20.5 -46.5t-5 -88.5v-241q0 -62 -8.5 -117t-32.5 -95q-26 -43 -77.5 -68t-137.5 -25q-46 0 -97 10t-91 38q-34 25 -52 61t-24 84t-6 109v314q0 37 -5 54.5t-20 24t-46 7.5v20q29 -1 76.5 -2t99.5 -1t100 1t79 2v-20q-34 -1 -51.5 -7.5
t-23.5 -24t-6 -54.5v-408q0 -66 14 -103.5t42 -53.5t69 -16q67 0 105 32.5t54 91t16 135.5v232q0 67 -5.5 102.5t-26.5 51.5t-69 22v20q20 -1 52 -2t60 -1q23 0 45.5 1t37.5 2zM438 939q22 11 51.5 4.5t42.5 -35.5q11 -24 1.5 -48.5t-33.5 -36.5q-23 -12 -50 -16
t-65.5 -10.5t-97.5 -24.5l-7 12q49 41 74 71.5t42.5 51.5t41.5 32z" />
    <glyph glyph-name="Ucircumflex" unicode="&#xdb;" horiz-adv-x="693" 
d="M681 708v-20q-30 -6 -45.5 -21t-20.5 -46.5t-5 -88.5v-241q0 -62 -8.5 -117t-32.5 -95q-26 -43 -77.5 -68t-137.5 -25q-46 0 -97 10t-91 38q-34 25 -52 61t-24 84t-6 109v314q0 37 -5 54.5t-20 24t-46 7.5v20q29 -1 76.5 -2t99.5 -1t100 1t79 2v-20q-34 -1 -51.5 -7.5
t-23.5 -24t-6 -54.5v-408q0 -66 14 -103.5t42 -53.5t69 -16q67 0 105 32.5t54 91t16 135.5v232q0 67 -5.5 102.5t-26.5 51.5t-69 22v20q20 -1 52 -2t60 -1q23 0 45.5 1t37.5 2zM370 956q35 -47 93 -93.5t124 -78.5l-5 -15q-69 11 -135.5 28t-105.5 33q-33 -16 -88.5 -33
t-112.5 -28l-5 15q65 31 122.5 77.5t94.5 94.5h18z" />
    <glyph glyph-name="Udieresis" unicode="&#xdc;" horiz-adv-x="693" 
d="M681 708v-20q-30 -6 -45.5 -21t-20.5 -46.5t-5 -88.5v-241q0 -62 -8.5 -117t-32.5 -95q-26 -43 -77.5 -68t-137.5 -25q-46 0 -97 10t-91 38q-34 25 -52 61t-24 84t-6 109v314q0 37 -5 54.5t-20 24t-46 7.5v20q29 -1 76.5 -2t99.5 -1t100 1t79 2v-20q-34 -1 -51.5 -7.5
t-23.5 -24t-6 -54.5v-408q0 -66 14 -103.5t42 -53.5t69 -16q67 0 105 32.5t54 91t16 135.5v232q0 67 -5.5 102.5t-26.5 51.5t-69 22v20q20 -1 52 -2t60 -1q23 0 45.5 1t37.5 2zM490 936q35 0 61 -26t26 -61q0 -36 -26 -61.5t-61 -25.5q-36 0 -61.5 25.5t-25.5 61.5
q0 35 25.5 61t61.5 26zM232 936q35 0 61 -26t26 -61q0 -36 -26 -61.5t-61 -25.5q-36 0 -61.5 25.5t-25.5 61.5q0 35 25.5 61t61.5 26z" />
    <glyph glyph-name="Yacute" unicode="&#xdd;" horiz-adv-x="644" 
d="M636 709v-20q-23 -11 -49 -41.5t-57 -91.5l-180 -357h-67l-234 433q-17 32 -32 44t-26 12v21q31 -3 64.5 -4.5t73.5 -1.5q51 0 110.5 2t109.5 4v-21q-25 0 -46 -2t-30 -9.5t0 -26.5l151 -290l-47 -62l84 168q42 83 46.5 131t-17.5 69.5t-62 22.5v20q38 -1 67.5 -2
t63.5 -1q20 0 41 1t36 2zM437 393v-287q0 -36 5.5 -54t20.5 -24t45 -8v-20q-29 2 -77 2.5t-95 0.5q-51 0 -98.5 -0.5t-74.5 -2.5v20q31 2 46 8t20 24t5 54v205l109 -62zM425 939q22 11 51.5 4.5t42.5 -35.5q11 -24 1.5 -48.5t-33.5 -36.5q-23 -12 -50 -16t-65.5 -10.5
t-97.5 -24.5l-7 12q49 41 74 71.5t42.5 51.5t41.5 32z" />
    <glyph glyph-name="Thorn" unicode="&#xde;" horiz-adv-x="648" 
d="M334 573q152 0 226.5 -46t74.5 -144q0 -45 -15 -86.5t-51 -74t-98.5 -51.5t-158.5 -19h-96v10v10h86q51 0 77.5 27.5t36 73.5t9.5 99q0 89 -25.5 135.5t-90.5 46.5q-31 0 -69 -1t-55 -1l-2 19q47 0 90 1t61 1zM373 708v-20q-30 -1 -45.5 -7.5t-20.5 -24t-5 -54.5v-496
q0 -36 5.5 -54t20.5 -24t45 -8v-20q-29 2 -74.5 2.5t-92.5 0.5q-54 0 -101.5 -0.5t-76.5 -2.5v20q31 2 46 8t20 24t5 54v496q0 37 -5 54.5t-20.5 24t-45.5 7.5v20q29 -1 76.5 -2t101.5 -1q47 0 92.5 1t74.5 2z" />
    <glyph glyph-name="germandbls" unicode="&#xdf;" horiz-adv-x="705" 
d="M355 782q113 0 173 -44t60 -107q0 -37 -18 -69t-51 -57.5t-76.5 -43.5t-94.5 -28q116 -13 191.5 -49t112.5 -87.5t37 -113.5q0 -65 -35.5 -109t-92 -66t-121.5 -22q-43 0 -78 10.5t-55.5 35.5t-20.5 68t22 70t62 27q37 0 58.5 -23t21.5 -59q0 -40 -24 -66.5t-51 -38.5
q6 -3 13 -4.5t16 -1.5q35 0 56 23t30.5 60.5t9.5 83.5q0 69 -17.5 114t-44 71.5t-55.5 40.5t-52 23q-9 -4 -18 -7.5t-16 -3.5t-13.5 4t-6.5 12q0 18 22 18q8 0 17.5 -2.5t14.5 -4.5q51 33 69 74.5t18 105.5q0 77 -21 114t-62 37q-38 0 -55.5 -23.5t-21.5 -74.5t-4 -136v-544
q-31 6 -65 9.5t-74 4.5q-23 1 -42 0t-55 -3v21q31 0 43.5 15t12.5 57v419q0 88 31.5 148t94.5 91t155 31z" />
    <glyph glyph-name="agrave" unicode="&#xe0;" horiz-adv-x="531" 
d="M151 -7q-68 0 -98.5 36.5t-30.5 84.5q0 43 19 70t49.5 44t64.5 28.5t64.5 22.5t49.5 25.5t19 37.5v89q0 16 -5.5 35t-20.5 33t-45 14q-16 0 -30.5 -4.5t-25.5 -12.5q35 -13 51 -36.5t16 -51.5q0 -40 -28 -63t-66 -23q-40 0 -62 25t-22 62q0 31 15.5 52.5t46.5 39.5
q30 17 72 24.5t88 7.5q49 0 91 -9.5t72 -40.5q21 -22 27 -55t6 -85v-268q0 -25 3.5 -34t12.5 -9q8 0 15.5 5t14.5 10l10 -17q-22 -19 -54.5 -28t-68.5 -9q-65 0 -86.5 23t-23.5 53q-20 -33 -54 -54.5t-86 -21.5zM251 73q11 0 19.5 3.5t17.5 13.5v211q-10 -18 -25 -31.5
t-29.5 -29t-24 -38t-9.5 -57.5q0 -40 14.5 -56t36.5 -16zM142 820q23 21 52.5 15.5t45.5 -23.5q18 -20 26 -46t19.5 -63.5t39.5 -94.5l-11 -9q-47 40 -80 60.5t-56 35t-40 34.5q-17 21 -16.5 47.5t20.5 43.5z" />
    <glyph glyph-name="aacute" unicode="&#xe1;" horiz-adv-x="531" 
d="M151 -7q-68 0 -98.5 36.5t-30.5 84.5q0 43 19 70t49.5 44t64.5 28.5t64.5 22.5t49.5 25.5t19 37.5v89q0 16 -5.5 35t-20.5 33t-45 14q-16 0 -30.5 -4.5t-25.5 -12.5q35 -13 51 -36.5t16 -51.5q0 -40 -28 -63t-66 -23q-40 0 -62 25t-22 62q0 31 15.5 52.5t46.5 39.5
q30 17 72 24.5t88 7.5q49 0 91 -9.5t72 -40.5q21 -22 27 -55t6 -85v-268q0 -25 3.5 -34t12.5 -9q8 0 15.5 5t14.5 10l10 -17q-22 -19 -54.5 -28t-68.5 -9q-65 0 -86.5 23t-23.5 53q-20 -33 -54 -54.5t-86 -21.5zM251 73q11 0 19.5 3.5t17.5 13.5v211q-10 -18 -25 -31.5
t-29.5 -29t-24 -38t-9.5 -57.5q0 -40 14.5 -56t36.5 -16zM380 820q20 -16 20.5 -43t-16.5 -48q-16 -20 -39.5 -34.5t-56.5 -35t-80 -60.5l-11 9q29 57 40 94.5t19 63.5t26 46q16 19 45.5 23.5t52.5 -15.5z" />
    <glyph glyph-name="acircumflex" unicode="&#xe2;" horiz-adv-x="531" 
d="M151 -7q-68 0 -98.5 36.5t-30.5 84.5q0 43 19 70t49.5 44t64.5 28.5t64.5 22.5t49.5 25.5t19 37.5v89q0 16 -5.5 35t-20.5 33t-45 14q-16 0 -30.5 -4.5t-25.5 -12.5q35 -13 51 -36.5t16 -51.5q0 -40 -28 -63t-66 -23q-40 0 -62 25t-22 62q0 31 15.5 52.5t46.5 39.5
q30 17 72 24.5t88 7.5q49 0 91 -9.5t72 -40.5q21 -22 27 -55t6 -85v-268q0 -25 3.5 -34t12.5 -9q8 0 15.5 5t14.5 10l10 -17q-22 -19 -54.5 -28t-68.5 -9q-65 0 -86.5 23t-23.5 53q-20 -33 -54 -54.5t-86 -21.5zM251 73q11 0 19.5 3.5t17.5 13.5v211q-10 -18 -25 -31.5
t-29.5 -29t-24 -38t-9.5 -57.5q0 -40 14.5 -56t36.5 -16zM278 832q31 -59 80.5 -116.5t106.5 -95.5l-8 -14q-60 11 -116.5 27.5t-91.5 32.5q-28 -16 -74 -32.5t-94 -27.5l-8 14q56 37 105.5 94.5t81.5 117.5h18z" />
    <glyph glyph-name="atilde" unicode="&#xe3;" horiz-adv-x="531" 
d="M151 -7q-68 0 -98.5 36.5t-30.5 84.5q0 43 19 70t49.5 44t64.5 28.5t64.5 22.5t49.5 25.5t19 37.5v89q0 16 -5.5 35t-20.5 33t-45 14q-16 0 -30.5 -4.5t-25.5 -12.5q35 -13 51 -36.5t16 -51.5q0 -40 -28 -63t-66 -23q-40 0 -62 25t-22 62q0 31 15.5 52.5t46.5 39.5
q30 17 72 24.5t88 7.5q49 0 91 -9.5t72 -40.5q21 -22 27 -55t6 -85v-268q0 -25 3.5 -34t12.5 -9q8 0 15.5 5t14.5 10l10 -17q-22 -19 -54.5 -28t-68.5 -9q-65 0 -86.5 23t-23.5 53q-20 -33 -54 -54.5t-86 -21.5zM251 73q11 0 19.5 3.5t17.5 13.5v211q-10 -18 -25 -31.5
t-29.5 -29t-24 -38t-9.5 -57.5q0 -40 14.5 -56t36.5 -16zM194 798q33 0 55.5 -10t41.5 -23t38.5 -23t45.5 -10q21 0 40.5 12.5t36.5 40.5l14 -7q-17 -87 -52 -125t-76 -38q-33 0 -56 10t-41.5 23.5t-38.5 23.5t-46 10q-21 0 -40.5 -12.5t-36.5 -41.5l-14 7q17 87 52.5 125
t76.5 38z" />
    <glyph glyph-name="adieresis" unicode="&#xe4;" horiz-adv-x="531" 
d="M151 -7q-68 0 -98.5 36.5t-30.5 84.5q0 43 19 70t49.5 44t64.5 28.5t64.5 22.5t49.5 25.5t19 37.5v89q0 16 -5.5 35t-20.5 33t-45 14q-16 0 -30.5 -4.5t-25.5 -12.5q35 -13 51 -36.5t16 -51.5q0 -40 -28 -63t-66 -23q-40 0 -62 25t-22 62q0 31 15.5 52.5t46.5 39.5
q30 17 72 24.5t88 7.5q49 0 91 -9.5t72 -40.5q21 -22 27 -55t6 -85v-268q0 -25 3.5 -34t12.5 -9q8 0 15.5 5t14.5 10l10 -17q-22 -19 -54.5 -28t-68.5 -9q-65 0 -86.5 23t-23.5 53q-20 -33 -54 -54.5t-86 -21.5zM251 73q11 0 19.5 3.5t17.5 13.5v211q-10 -18 -25 -31.5
t-29.5 -29t-24 -38t-9.5 -57.5q0 -40 14.5 -56t36.5 -16zM389 772q35 0 61 -26t26 -61q0 -36 -26 -61.5t-61 -25.5q-36 0 -61.5 25.5t-25.5 61.5q0 35 25.5 61t61.5 26zM151 772q35 0 61 -26t26 -61q0 -36 -26 -61.5t-61 -25.5q-36 0 -61.5 25.5t-25.5 61.5q0 35 25.5 61
t61.5 26z" />
    <glyph glyph-name="aring" unicode="&#xe5;" horiz-adv-x="531" 
d="M151 -7q-68 0 -98.5 36.5t-30.5 84.5q0 43 19 70t49.5 44t64.5 28.5t64.5 22.5t49.5 25.5t19 37.5v89q0 16 -5.5 35t-20.5 33t-45 14q-16 0 -30.5 -4.5t-25.5 -12.5q35 -13 51 -36.5t16 -51.5q0 -40 -28 -63t-66 -23q-40 0 -62 25t-22 62q0 31 15.5 52.5t46.5 39.5
q30 17 72 24.5t88 7.5q49 0 91 -9.5t72 -40.5q21 -22 27 -55t6 -85v-268q0 -25 3.5 -34t12.5 -9q8 0 15.5 5t14.5 10l10 -17q-22 -19 -54.5 -28t-68.5 -9q-65 0 -86.5 23t-23.5 53q-20 -33 -54 -54.5t-86 -21.5zM251 73q11 0 19.5 3.5t17.5 13.5v211q-10 -18 -25 -31.5
t-29.5 -29t-24 -38t-9.5 -57.5q0 -40 14.5 -56t36.5 -16zM269 801q47 0 82 -27t35 -74t-35 -74.5t-82 -27.5q-46 0 -81 27.5t-35 74.5t35 74t81 27zM269 780q-31 0 -59.5 -21t-28.5 -60q0 -40 28.5 -60t59.5 -20q32 0 60.5 20t28.5 60q0 39 -28.5 60t-60.5 21z" />
    <glyph glyph-name="ae" unicode="&#xe6;" horiz-adv-x="738" 
d="M151 -7q-68 0 -98.5 36.5t-30.5 84.5q0 43 19 70t49.5 44t64.5 28.5t64.5 22.5t49.5 25.5t19 37.5v89q0 16 -5.5 35t-20.5 33t-45 14q-16 0 -30.5 -4.5t-25.5 -12.5q35 -13 51 -36.5t16 -51.5q0 -40 -28 -63t-66 -23q-40 0 -62 25t-22 62q0 31 15.5 52.5t46.5 39.5
q30 17 72 24.5t88 7.5q49 0 91 -9.5t72 -40.5q21 -22 27 -55t6 -85l-144 -228q-24 -45 -51 -71.5t-57 -38.5t-65 -12zM248 73q20 0 36 14t32 51l-21 171q-13 -21 -29 -36t-31 -31.5t-25 -39t-10 -57.5q0 -40 14.5 -56t33.5 -16zM507 -14q-61 0 -111 26t-80 86t-30 161
q0 77 28 139t83 98.5t136 36.5q83 0 131 -51.5t48 -172.5h-293l-2 19h149q1 49 -3 90.5t-13 66.5t-24 25q-23 0 -37.5 -42.5t-18.5 -145.5l4 -8q-1 -10 -1 -20v-21q0 -70 16 -109t40.5 -54t48.5 -15q19 0 50 10.5t61 56.5l17 -6q-12 -40 -37 -79.5t-65 -65t-97 -25.5z" />
    <glyph glyph-name="ccedilla" unicode="&#xe7;" horiz-adv-x="503" 
d="M287 533q44 0 78 -9t54 -21q27 -16 43.5 -42.5t16.5 -61.5q0 -41 -27 -69t-69 -28q-44 0 -68 25t-24 65q0 38 24.5 64.5t57.5 35.5q-7 5 -16.5 8.5t-23.5 3.5q-36 0 -58.5 -21.5t-35 -56.5t-17.5 -75t-5 -78q0 -70 19 -109t48 -54t58 -15q20 0 54 10.5t67 56.5l17 -6
q-12 -40 -38.5 -79.5t-68.5 -65t-102 -25.5q-67 0 -121.5 26t-87 86t-32.5 161q0 96 34 156.5t92.5 89t130.5 28.5zM260 0l-17 -60q18 8 37.5 11.5t41.5 3.5q38 0 56 -16.5t18 -41.5q0 -29 -20.5 -48t-56 -28t-81.5 -9q-27 0 -50 3.5t-40 9.5l6 18q7 -1 20 -3t28 -2
q22 0 42 9t20 29q0 25 -28 25q-8 0 -17 -1.5t-16 -5.5l30 106h27z" />
    <glyph glyph-name="egrave" unicode="&#xe8;" horiz-adv-x="503" 
d="M288 533q88 0 138.5 -51.5t50.5 -172.5h-313l-2 19h169q1 49 -4 90.5t-16 66.5t-30 25q-27 0 -44 -42.5t-22 -145.5l4 -8q-1 -10 -1 -20v-21q0 -70 17.5 -109t44 -54t53.5 -15q20 0 54 10.5t67 56.5l17 -6q-12 -40 -38.5 -79.5t-68.5 -65t-102 -25.5q-64 0 -116.5 26
t-83.5 86t-31 161q0 96 34 156.5t92.5 89t130.5 28.5zM152 820q23 21 52.5 15.5t45.5 -23.5q18 -20 26 -46t19.5 -63.5t39.5 -94.5l-11 -9q-47 40 -80 60.5t-56 35t-40 34.5q-17 21 -16.5 47.5t20.5 43.5z" />
    <glyph glyph-name="eacute" unicode="&#xe9;" horiz-adv-x="503" 
d="M288 533q88 0 138.5 -51.5t50.5 -172.5h-313l-2 19h169q1 49 -4 90.5t-16 66.5t-30 25q-27 0 -44 -42.5t-22 -145.5l4 -8q-1 -10 -1 -20v-21q0 -70 17.5 -109t44 -54t53.5 -15q20 0 54 10.5t67 56.5l17 -6q-12 -40 -38.5 -79.5t-68.5 -65t-102 -25.5q-64 0 -116.5 26
t-83.5 86t-31 161q0 96 34 156.5t92.5 89t130.5 28.5zM390 820q20 -16 20.5 -43t-16.5 -48q-16 -20 -39.5 -34.5t-56.5 -35t-80 -60.5l-11 9q29 57 40 94.5t19 63.5t26 46q16 19 45.5 23.5t52.5 -15.5z" />
    <glyph glyph-name="ecircumflex" unicode="&#xea;" horiz-adv-x="503" 
d="M288 533q88 0 138.5 -51.5t50.5 -172.5h-313l-2 19h169q1 49 -4 90.5t-16 66.5t-30 25q-27 0 -44 -42.5t-22 -145.5l4 -8q-1 -10 -1 -20v-21q0 -70 17.5 -109t44 -54t53.5 -15q20 0 54 10.5t67 56.5l17 -6q-12 -40 -38.5 -79.5t-68.5 -65t-102 -25.5q-64 0 -116.5 26
t-83.5 86t-31 161q0 96 34 156.5t92.5 89t130.5 28.5zM288 832q31 -59 80.5 -116.5t106.5 -95.5l-8 -14q-60 11 -116.5 27.5t-91.5 32.5q-28 -16 -74 -32.5t-94 -27.5l-8 14q56 37 105.5 94.5t81.5 117.5h18z" />
    <glyph glyph-name="edieresis" unicode="&#xeb;" horiz-adv-x="503" 
d="M288 533q88 0 138.5 -51.5t50.5 -172.5h-313l-2 19h169q1 49 -4 90.5t-16 66.5t-30 25q-27 0 -44 -42.5t-22 -145.5l4 -8q-1 -10 -1 -20v-21q0 -70 17.5 -109t44 -54t53.5 -15q20 0 54 10.5t67 56.5l17 -6q-12 -40 -38.5 -79.5t-68.5 -65t-102 -25.5q-64 0 -116.5 26
t-83.5 86t-31 161q0 96 34 156.5t92.5 89t130.5 28.5zM399 772q35 0 61 -26t26 -61q0 -36 -26 -61.5t-61 -25.5q-36 0 -61.5 25.5t-25.5 61.5q0 35 25.5 61t61.5 26zM161 772q35 0 61 -26t26 -61q0 -36 -26 -61.5t-61 -25.5q-36 0 -61.5 25.5t-25.5 61.5q0 35 25.5 61
t61.5 26z" />
    <glyph glyph-name="igrave" unicode="&#xec;" horiz-adv-x="330" 
d="M257 530v-437q0 -42 12.5 -57t43.5 -15v-21q-20 1 -60 2.5t-82 1.5t-85 -1.5t-65 -2.5v21q31 0 43.5 15t12.5 57v317q0 45 -12 66.5t-44 21.5v21q32 -3 62 -3q50 0 93.5 3.5t80.5 10.5zM41 820q23 21 52.5 15.5t45.5 -23.5q18 -20 26 -46t19.5 -63.5t39.5 -94.5l-11 -9
q-47 40 -80 60.5t-56 35t-40 34.5q-17 21 -16.5 47.5t20.5 43.5z" />
    <glyph glyph-name="iacute" unicode="&#xed;" horiz-adv-x="330" 
d="M257 530v-437q0 -42 12.5 -57t43.5 -15v-21q-20 1 -60 2.5t-82 1.5t-85 -1.5t-65 -2.5v21q31 0 43.5 15t12.5 57v317q0 45 -12 66.5t-44 21.5v21q32 -3 62 -3q50 0 93.5 3.5t80.5 10.5zM279 820q20 -16 20.5 -43t-16.5 -48q-16 -20 -39.5 -34.5t-56.5 -35t-80 -60.5
l-11 9q29 57 40 94.5t19 63.5t26 46q16 19 45.5 23.5t52.5 -15.5z" />
    <glyph glyph-name="icircumflex" unicode="&#xee;" horiz-adv-x="330" 
d="M257 530v-437q0 -42 12.5 -57t43.5 -15v-21q-20 1 -60 2.5t-82 1.5t-85 -1.5t-65 -2.5v21q31 0 43.5 15t12.5 57v317q0 45 -12 66.5t-44 21.5v21q32 -3 62 -3q50 0 93.5 3.5t80.5 10.5zM177 832q31 -59 80.5 -116.5t106.5 -95.5l-8 -14q-60 11 -116.5 27.5t-91.5 32.5
q-28 -16 -74 -32.5t-94 -27.5l-8 14q56 37 105.5 94.5t81.5 117.5h18z" />
    <glyph glyph-name="idieresis" unicode="&#xef;" horiz-adv-x="330" 
d="M257 530v-437q0 -42 12.5 -57t43.5 -15v-21q-20 1 -60 2.5t-82 1.5t-85 -1.5t-65 -2.5v21q31 0 43.5 15t12.5 57v317q0 45 -12 66.5t-44 21.5v21q32 -3 62 -3q50 0 93.5 3.5t80.5 10.5zM288 772q35 0 61 -26t26 -61q0 -36 -26 -61.5t-61 -25.5q-36 0 -61.5 25.5
t-25.5 61.5q0 35 25.5 61t61.5 26zM50 772q35 0 61 -26t26 -61q0 -36 -26 -61.5t-61 -25.5q-36 0 -61.5 25.5t-25.5 61.5q0 35 25.5 61t61.5 26z" />
    <glyph glyph-name="eth" unicode="&#xf0;" horiz-adv-x="575" 
d="M136 782q112 -34 204.5 -99.5t147.5 -160t55 -216.5q0 -111 -31 -182.5t-88 -105.5t-135 -34q-76 0 -133.5 24.5t-90 81.5t-33.5 154q0 110 32.5 173t86 89.5t114.5 26.5q35 0 64 -10.5t52 -33.5l-11 -3q-8 8 -18.5 12.5t-20.5 7t-20 2.5q-31 0 -51.5 -27t-30.5 -81.5
t-10 -139.5q0 -89 9 -146t25 -83.5t36 -26.5t36 27.5t25 92t9 174.5q0 77 -8.5 146t-32.5 128.5t-70 108t-120 84.5zM302 695l17 -14l-199 -97l-9 18zM458 771l9 -18l-148 -72l-17 14z" />
    <glyph glyph-name="ntilde" unicode="&#xf1;" horiz-adv-x="625" 
d="M416 533q46 0 72.5 -11.5t40.5 -28.5q15 -18 22 -48t7 -81v-271q0 -42 12.5 -57t43.5 -15v-21q-20 1 -60.5 2.5t-79.5 1.5q-42 0 -82 -1.5t-60 -2.5v21q26 0 36 15t10 57v325q0 21 -5 35t-15.5 21t-28.5 7q-28 0 -50 -20t-22 -52v-316q0 -42 10.5 -57t35.5 -15v-21
q-19 1 -56 2.5t-76 1.5q-42 0 -85 -1.5t-65 -2.5v21q31 0 43.5 15t12.5 57v317q0 45 -12 66.5t-44 21.5v21q32 -3 62 -3q50 0 93.5 3.5t80.5 10.5v-72q24 40 64.5 57.5t94.5 17.5zM243 798q33 0 55.5 -10t41.5 -23t38.5 -23t45.5 -10q21 0 40.5 12.5t36.5 40.5l14 -7
q-17 -87 -52 -125t-76 -38q-33 0 -56 10t-41.5 23.5t-38.5 23.5t-46 10q-21 0 -40.5 -12.5t-36.5 -41.5l-14 7q17 87 52.5 125t76.5 38z" />
    <glyph glyph-name="ograve" unicode="&#xf2;" horiz-adv-x="576" 
d="M288 533q78 0 135.5 -26.5t89.5 -86.5t32 -161t-32 -161t-89.5 -86t-135.5 -26q-77 0 -135 26t-90 86t-32 161t32 161t90 86.5t135 26.5zM288 513q-30 0 -50 -60t-20 -194t20 -193.5t50 -59.5t50 59.5t20 193.5t-20 194t-50 60zM161 820q23 21 52.5 15.5t45.5 -23.5
q18 -20 26 -46t19.5 -63.5t39.5 -94.5l-11 -9q-47 40 -80 60.5t-56 35t-40 34.5q-17 21 -16.5 47.5t20.5 43.5z" />
    <glyph glyph-name="oacute" unicode="&#xf3;" horiz-adv-x="576" 
d="M288 533q78 0 135.5 -26.5t89.5 -86.5t32 -161t-32 -161t-89.5 -86t-135.5 -26q-77 0 -135 26t-90 86t-32 161t32 161t90 86.5t135 26.5zM288 513q-30 0 -50 -60t-20 -194t20 -193.5t50 -59.5t50 59.5t20 193.5t-20 194t-50 60zM399 820q20 -16 20.5 -43t-16.5 -48
q-16 -20 -39.5 -34.5t-56.5 -35t-80 -60.5l-11 9q29 57 40 94.5t19 63.5t26 46q16 19 45.5 23.5t52.5 -15.5z" />
    <glyph glyph-name="ocircumflex" unicode="&#xf4;" horiz-adv-x="576" 
d="M288 533q78 0 135.5 -26.5t89.5 -86.5t32 -161t-32 -161t-89.5 -86t-135.5 -26q-77 0 -135 26t-90 86t-32 161t32 161t90 86.5t135 26.5zM288 513q-30 0 -50 -60t-20 -194t20 -193.5t50 -59.5t50 59.5t20 193.5t-20 194t-50 60zM297 832q31 -59 80.5 -116.5t106.5 -95.5
l-8 -14q-60 11 -116.5 27.5t-91.5 32.5q-28 -16 -74 -32.5t-94 -27.5l-8 14q56 37 105.5 94.5t81.5 117.5h18z" />
    <glyph glyph-name="otilde" unicode="&#xf5;" horiz-adv-x="576" 
d="M288 533q78 0 135.5 -26.5t89.5 -86.5t32 -161t-32 -161t-89.5 -86t-135.5 -26q-77 0 -135 26t-90 86t-32 161t32 161t90 86.5t135 26.5zM288 513q-30 0 -50 -60t-20 -194t20 -193.5t50 -59.5t50 59.5t20 193.5t-20 194t-50 60zM213 798q33 0 55.5 -10t41.5 -23t38.5 -23
t45.5 -10q21 0 40.5 12.5t36.5 40.5l14 -7q-17 -87 -52 -125t-76 -38q-33 0 -56 10t-41.5 23.5t-38.5 23.5t-46 10q-21 0 -40.5 -12.5t-36.5 -41.5l-14 7q17 87 52.5 125t76.5 38z" />
    <glyph glyph-name="odieresis" unicode="&#xf6;" horiz-adv-x="576" 
d="M288 533q78 0 135.5 -26.5t89.5 -86.5t32 -161t-32 -161t-89.5 -86t-135.5 -26q-77 0 -135 26t-90 86t-32 161t32 161t90 86.5t135 26.5zM288 513q-30 0 -50 -60t-20 -194t20 -193.5t50 -59.5t50 59.5t20 193.5t-20 194t-50 60zM408 772q35 0 61 -26t26 -61
q0 -36 -26 -61.5t-61 -25.5q-36 0 -61.5 25.5t-25.5 61.5q0 35 25.5 61t61.5 26zM170 772q35 0 61 -26t26 -61q0 -36 -26 -61.5t-61 -25.5q-36 0 -61.5 25.5t-25.5 61.5q0 35 25.5 61t61.5 26z" />
    <glyph glyph-name="divide" unicode="&#xf7;" horiz-adv-x="623" 
d="M313 266q23 0 39.5 -16t16.5 -39t-16.5 -39.5t-39.5 -16.5q-22 0 -38.5 16.5t-16.5 39.5t16.5 39t38.5 16zM313 554q23 0 39.5 -16t16.5 -39t-16.5 -39t-39.5 -16q-22 0 -38.5 16t-16.5 39t16.5 39t38.5 16zM565 370v-30h-501v30h501z" />
    <glyph glyph-name="oslash" unicode="&#xf8;" horiz-adv-x="576" 
d="M288 533q78 0 135.5 -26.5t89.5 -86.5t32 -161t-32 -161t-89.5 -86t-135.5 -26q-77 0 -135 26t-90 86t-32 161t32 161t90 86.5t135 26.5zM288 513q-30 0 -50 -60t-20 -194t20 -193.5t50 -59.5t50 59.5t20 193.5t-20 194t-50 60zM390 466l15 -20l-213 -383l-16 21zM149 73
l15 -20l-88 -126l-19 13zM500 592l19 -13l-92 -133l-15 20z" />
    <glyph glyph-name="ugrave" unicode="&#xf9;" horiz-adv-x="622" 
d="M548 530v-421q0 -45 12.5 -66.5t43.5 -21.5v-21q-31 3 -62 3q-50 0 -93 -3t-81 -11v72q-24 -40 -64.5 -57.5t-94.5 -17.5q-46 0 -72.5 11.5t-40.5 28.5q-15 18 -22 48t-7 81v255q0 45 -12 66.5t-44 21.5v21q32 -3 62 -3q50 0 93.5 3.5t80.5 10.5v-429q0 -21 5 -35t16 -21
t28 -7q28 0 50 20.5t22 51.5v300q0 45 -12 66.5t-44 21.5v21q32 -3 62 -3q50 0 93.5 3.5t80.5 10.5zM168 820q23 21 52.5 15.5t45.5 -23.5q18 -20 26 -46t19.5 -63.5t39.5 -94.5l-11 -9q-47 40 -80 60.5t-56 35t-40 34.5q-17 21 -16.5 47.5t20.5 43.5z" />
    <glyph glyph-name="uacute" unicode="&#xfa;" horiz-adv-x="622" 
d="M548 530v-421q0 -45 12.5 -66.5t43.5 -21.5v-21q-31 3 -62 3q-50 0 -93 -3t-81 -11v72q-24 -40 -64.5 -57.5t-94.5 -17.5q-46 0 -72.5 11.5t-40.5 28.5q-15 18 -22 48t-7 81v255q0 45 -12 66.5t-44 21.5v21q32 -3 62 -3q50 0 93.5 3.5t80.5 10.5v-429q0 -21 5 -35t16 -21
t28 -7q28 0 50 20.5t22 51.5v300q0 45 -12 66.5t-44 21.5v21q32 -3 62 -3q50 0 93.5 3.5t80.5 10.5zM406 820q20 -16 20.5 -43t-16.5 -48q-16 -20 -39.5 -34.5t-56.5 -35t-80 -60.5l-11 9q29 57 40 94.5t19 63.5t26 46q16 19 45.5 23.5t52.5 -15.5z" />
    <glyph glyph-name="ucircumflex" unicode="&#xfb;" horiz-adv-x="622" 
d="M548 530v-421q0 -45 12.5 -66.5t43.5 -21.5v-21q-31 3 -62 3q-50 0 -93 -3t-81 -11v72q-24 -40 -64.5 -57.5t-94.5 -17.5q-46 0 -72.5 11.5t-40.5 28.5q-15 18 -22 48t-7 81v255q0 45 -12 66.5t-44 21.5v21q32 -3 62 -3q50 0 93.5 3.5t80.5 10.5v-429q0 -21 5 -35t16 -21
t28 -7q28 0 50 20.5t22 51.5v300q0 45 -12 66.5t-44 21.5v21q32 -3 62 -3q50 0 93.5 3.5t80.5 10.5zM304 832q31 -59 80.5 -116.5t106.5 -95.5l-8 -14q-60 11 -116.5 27.5t-91.5 32.5q-28 -16 -74 -32.5t-94 -27.5l-8 14q56 37 105.5 94.5t81.5 117.5h18z" />
    <glyph glyph-name="udieresis" unicode="&#xfc;" horiz-adv-x="622" 
d="M548 530v-421q0 -45 12.5 -66.5t43.5 -21.5v-21q-31 3 -62 3q-50 0 -93 -3t-81 -11v72q-24 -40 -64.5 -57.5t-94.5 -17.5q-46 0 -72.5 11.5t-40.5 28.5q-15 18 -22 48t-7 81v255q0 45 -12 66.5t-44 21.5v21q32 -3 62 -3q50 0 93.5 3.5t80.5 10.5v-429q0 -21 5 -35t16 -21
t28 -7q28 0 50 20.5t22 51.5v300q0 45 -12 66.5t-44 21.5v21q32 -3 62 -3q50 0 93.5 3.5t80.5 10.5zM415 772q35 0 61 -26t26 -61q0 -36 -26 -61.5t-61 -25.5q-36 0 -61.5 25.5t-25.5 61.5q0 35 25.5 61t61.5 26zM177 772q35 0 61 -26t26 -61q0 -36 -26 -61.5t-61 -25.5
q-36 0 -61.5 25.5t-25.5 61.5q0 35 25.5 61t61.5 26z" />
    <glyph glyph-name="yacute" unicode="&#xfd;" horiz-adv-x="529" 
d="M525 519v-21q-19 -7 -36.5 -27.5t-34.5 -69.5l-125 -372l-51 -117l-240 530q-17 38 -32 47t-26 9v21q40 -3 83 -4.5t80 -1.5q47 0 81 2t64 4v-21q-18 0 -34 -2t-23 -9.5t1 -26.5l128 -304l-11 -8l48 147q34 101 12 150.5t-66 52.5v21q21 -2 54 -3t51 -1t42 1t35 3z
M329 29l-42 -121q-18 -52 -44 -72q-13 -10 -34.5 -17t-58.5 -7q-28 0 -59.5 9t-54 29.5t-22.5 55.5t27 56t71 21q41 0 65.5 -18.5t24.5 -55.5q0 -22 -15.5 -44t-49.5 -33q8 -1 18 -1.5t16 -0.5q32 0 57 19.5t38 60.5l35 109zM371 820q20 -16 20.5 -43t-16.5 -48
q-16 -20 -39.5 -34.5t-56.5 -35t-80 -60.5l-11 9q29 57 40 94.5t19 63.5t26 46q16 19 45.5 23.5t52.5 -15.5z" />
    <glyph glyph-name="thorn" unicode="&#xfe;" horiz-adv-x="601" 
d="M243 782v-860q0 -49 23 -65.5t63 -16.5v-21q-28 1 -78 2.5t-106 1.5q-40 0 -79 -1.5t-59 -2.5v21q31 0 43.5 15t12.5 57v750q0 45 -12 66.5t-44 21.5v21q32 -3 62 -3q50 0 93.5 3.5t80.5 10.5zM395 533q74 0 124 -61.5t50 -189.5q0 -113 -32 -178t-85 -91.5t-116 -26.5
q-34 0 -64.5 7.5t-50.5 28.5l10 13q8 -11 21 -15t26 -4q37 0 60 27t33.5 81t10.5 135q0 89 -9 137t-24 66.5t-34 18.5q-28 0 -50 -20t-22 -52v49q23 38 62 56.5t90 18.5z" />
    <glyph glyph-name="ydieresis" unicode="&#xff;" horiz-adv-x="529" 
d="M525 519v-21q-19 -7 -36.5 -27.5t-34.5 -69.5l-125 -372l-51 -117l-240 530q-17 38 -32 47t-26 9v21q40 -3 83 -4.5t80 -1.5q47 0 81 2t64 4v-21q-18 0 -34 -2t-23 -9.5t1 -26.5l128 -304l-11 -8l48 147q34 101 12 150.5t-66 52.5v21q21 -2 54 -3t51 -1t42 1t35 3z
M329 29l-42 -121q-18 -52 -44 -72q-13 -10 -34.5 -17t-58.5 -7q-28 0 -59.5 9t-54 29.5t-22.5 55.5t27 56t71 21q41 0 65.5 -18.5t24.5 -55.5q0 -22 -15.5 -44t-49.5 -33q8 -1 18 -1.5t16 -0.5q32 0 57 19.5t38 60.5l35 109zM380 772q35 0 61 -26t26 -61q0 -36 -26 -61.5
t-61 -25.5q-36 0 -61.5 25.5t-25.5 61.5q0 35 25.5 61t61.5 26zM142 772q35 0 61 -26t26 -61q0 -36 -26 -61.5t-61 -25.5q-36 0 -61.5 25.5t-25.5 61.5q0 35 25.5 61t61.5 26z" />
    <glyph glyph-name="Amacron" unicode="&#x100;" horiz-adv-x="692" 
d="M398 708l242 -624q14 -34 30 -48.5t29 -15.5v-20q-36 2 -84 2.5t-98 0.5q-51 0 -96 -0.5t-72 -2.5v20q51 2 64.5 17.5t-6.5 66.5l-160 443l20 35l-138 -359q-33 -86 -32.5 -129t25.5 -57.5t65 -16.5v-20q-37 2 -66.5 2.5t-64.5 0.5q-19 0 -40.5 -0.5t-36.5 -2.5v20
q23 4 45.5 29.5t46.5 87.5l222 571q24 -2 52.5 -2t52.5 2zM433 288v-20h-298l10 20h288zM561 844v-25h-432v25h432z" />
    <glyph glyph-name="amacron" unicode="&#x101;" horiz-adv-x="531" 
d="M151 -7q-68 0 -98.5 36.5t-30.5 84.5q0 43 19 70t49.5 44t64.5 28.5t64.5 22.5t49.5 25.5t19 37.5v89q0 16 -5.5 35t-20.5 33t-45 14q-16 0 -30.5 -4.5t-25.5 -12.5q35 -13 51 -36.5t16 -51.5q0 -40 -28 -63t-66 -23q-40 0 -62 25t-22 62q0 31 15.5 52.5t46.5 39.5
q30 17 72 24.5t88 7.5q49 0 91 -9.5t72 -40.5q21 -22 27 -55t6 -85v-268q0 -25 3.5 -34t12.5 -9q8 0 15.5 5t14.5 10l10 -17q-22 -19 -54.5 -28t-68.5 -9q-65 0 -86.5 23t-23.5 53q-20 -33 -54 -54.5t-86 -21.5zM251 73q11 0 19.5 3.5t17.5 13.5v211q-10 -18 -25 -31.5
t-29.5 -29t-24 -38t-9.5 -57.5q0 -40 14.5 -56t36.5 -16zM442 712v-25h-352v25h352z" />
    <glyph glyph-name="Abreve" unicode="&#x102;" horiz-adv-x="692" 
d="M398 708l242 -624q14 -34 30 -48.5t29 -15.5v-20q-36 2 -84 2.5t-98 0.5q-51 0 -96 -0.5t-72 -2.5v20q51 2 64.5 17.5t-6.5 66.5l-160 443l20 35l-138 -359q-33 -86 -32.5 -129t25.5 -57.5t65 -16.5v-20q-37 2 -66.5 2.5t-64.5 0.5q-19 0 -40.5 -0.5t-36.5 -2.5v20
q23 4 45.5 29.5t46.5 87.5l222 571q24 -2 52.5 -2t52.5 2zM433 288v-20h-298l10 20h288zM562 920l12 -11q-13 -33 -43.5 -67t-79 -56.5t-116.5 -22.5t-116.5 22.5t-79 56.5t-43.5 67l12 11q29 -19 84.5 -38.5t142.5 -19.5t142.5 19.5t84.5 38.5z" />
    <glyph glyph-name="abreve" unicode="&#x103;" horiz-adv-x="531" 
d="M151 -7q-68 0 -98.5 36.5t-30.5 84.5q0 43 19 70t49.5 44t64.5 28.5t64.5 22.5t49.5 25.5t19 37.5v89q0 16 -5.5 35t-20.5 33t-45 14q-16 0 -30.5 -4.5t-25.5 -12.5q35 -13 51 -36.5t16 -51.5q0 -40 -28 -63t-66 -23q-40 0 -62 25t-22 62q0 31 15.5 52.5t46.5 39.5
q30 17 72 24.5t88 7.5q49 0 91 -9.5t72 -40.5q21 -22 27 -55t6 -85v-268q0 -25 3.5 -34t12.5 -9q8 0 15.5 5t14.5 10l10 -17q-22 -19 -54.5 -28t-68.5 -9q-65 0 -86.5 23t-23.5 53q-20 -33 -54 -54.5t-86 -21.5zM251 73q11 0 19.5 3.5t17.5 13.5v211q-10 -18 -25 -31.5
t-29.5 -29t-24 -38t-9.5 -57.5q0 -40 14.5 -56t36.5 -16zM450 788l17 -9q-11 -38 -34.5 -76.5t-63.5 -64t-101 -25.5t-101 25.5t-63.5 64t-34.5 76.5l17 9q23 -19 66.5 -37.5t115.5 -18.5t115.5 18.5t66.5 37.5z" />
    <glyph glyph-name="Aogonek" unicode="&#x104;" horiz-adv-x="692" 
d="M398 708l242 -624q14 -34 30 -48.5t29 -15.5v-20q-36 2 -84 2.5t-98 0.5q-51 0 -96 -0.5t-72 -2.5v20q51 2 64.5 17.5t-6.5 66.5l-160 443l20 35l-138 -359q-33 -86 -32.5 -129t25.5 -57.5t65 -16.5v-20q-37 2 -66.5 2.5t-64.5 0.5q-19 0 -40.5 -0.5t-36.5 -2.5v20
q23 4 45.5 29.5t46.5 87.5l222 571q24 -2 52.5 -2t52.5 2zM433 288v-20h-298l10 20h288zM687 3q-62 -21 -87.5 -46.5t-25.5 -46.5q0 -20 10 -29t30 -9q17 0 36 6.5t30 16.5l13 -15q-29 -36 -64.5 -52t-88.5 -16q-49 0 -74 18.5t-25 52.5q0 44 55.5 74t152.5 46h38z" />
    <glyph glyph-name="aogonek" unicode="&#x105;" horiz-adv-x="531" 
d="M151 -7q-68 0 -98.5 36.5t-30.5 84.5q0 43 19 70t49.5 44t64.5 28.5t64.5 22.5t49.5 25.5t19 37.5v89q0 16 -5.5 35t-20.5 33t-45 14q-16 0 -30.5 -4.5t-25.5 -12.5q35 -13 51 -36.5t16 -51.5q0 -40 -28 -63t-66 -23q-40 0 -62 25t-22 62q0 31 15.5 52.5t46.5 39.5
q30 17 72 24.5t88 7.5q49 0 91 -9.5t72 -40.5q21 -22 27 -55t6 -85v-268q0 -25 3.5 -34t12.5 -9q8 0 15.5 5t14.5 10l10 -17q-22 -19 -54.5 -28t-68.5 -9q-65 0 -86.5 23t-23.5 53q-20 -33 -54 -54.5t-86 -21.5zM251 73q11 0 19.5 3.5t17.5 13.5v211q-10 -18 -25 -31.5
t-29.5 -29t-24 -38t-9.5 -57.5q0 -40 14.5 -56t36.5 -16zM488 13q-4 -4 -9 -8t-16 -9q-39 -19 -53.5 -42.5t-14.5 -43.5t10.5 -29t29.5 -9q17 0 36 6.5t30 16.5l13 -15q-29 -36 -64.5 -52t-88.5 -16q-49 0 -74 18.5t-25 52.5q0 44 47 74t131 46z" />
    <glyph glyph-name="Cacute" unicode="&#x106;" horiz-adv-x="717" 
d="M414 722q66 0 108.5 -19.5t75.5 -45.5q20 -15 30.5 -3.5t14.5 54.5h23q-2 -40 -3 -97.5t-1 -152.5h-23q-4 48 -13 85.5t-27 66.5t-52 51q-21 14 -44.5 22t-48.5 8q-57 0 -94 -31.5t-57.5 -82t-28.5 -110t-8 -115.5t8 -115.5t28.5 -110t57.5 -82t94 -31.5q25 0 48.5 8.5
t44.5 21.5q50 31 67.5 83t24.5 134h23q0 -98 1 -158.5t3 -101.5h-23q-4 43 -13.5 54t-31.5 -3q-37 -26 -78.5 -45.5t-106.5 -19.5q-113 0 -198 43t-132 124t-47 195q0 112 48.5 196t133.5 131t196 47zM466 939q22 11 51.5 4.5t42.5 -35.5q11 -24 1.5 -48.5t-33.5 -36.5
q-23 -12 -50 -16t-65.5 -10.5t-97.5 -24.5l-7 12q49 41 74 71.5t42.5 51.5t41.5 32z" />
    <glyph glyph-name="cacute" unicode="&#x107;" horiz-adv-x="503" 
d="M287 533q44 0 78 -9t54 -21q27 -16 43.5 -42.5t16.5 -61.5q0 -41 -27 -69t-69 -28q-44 0 -68 25t-24 65q0 38 24.5 64.5t57.5 35.5q-7 5 -16.5 8.5t-23.5 3.5q-36 0 -58.5 -21.5t-35 -56.5t-17.5 -75t-5 -78q0 -70 19 -109t48 -54t58 -15q20 0 54 10.5t67 56.5l17 -6
q-12 -40 -38.5 -79.5t-68.5 -65t-102 -25.5q-67 0 -121.5 26t-87 86t-32.5 161q0 96 34 156.5t92.5 89t130.5 28.5zM382 820q20 -16 20.5 -43t-16.5 -48q-16 -20 -39.5 -34.5t-56.5 -35t-80 -60.5l-11 9q29 57 40 94.5t19 63.5t26 46q16 19 45.5 23.5t52.5 -15.5z" />
    <glyph glyph-name="Ccircumflex" unicode="&#x108;" horiz-adv-x="717" 
d="M414 722q66 0 108.5 -19.5t75.5 -45.5q20 -15 30.5 -3.5t14.5 54.5h23q-2 -40 -3 -97.5t-1 -152.5h-23q-4 48 -13 85.5t-27 66.5t-52 51q-21 14 -44.5 22t-48.5 8q-57 0 -94 -31.5t-57.5 -82t-28.5 -110t-8 -115.5t8 -115.5t28.5 -110t57.5 -82t94 -31.5q25 0 48.5 8.5
t44.5 21.5q50 31 67.5 83t24.5 134h23q0 -98 1 -158.5t3 -101.5h-23q-4 43 -13.5 54t-31.5 -3q-37 -26 -78.5 -45.5t-106.5 -19.5q-113 0 -198 43t-132 124t-47 195q0 112 48.5 196t133.5 131t196 47zM398 956q35 -47 93 -93.5t124 -78.5l-5 -15q-69 11 -135.5 28t-105.5 33
q-33 -16 -88.5 -33t-112.5 -28l-5 15q65 31 122.5 77.5t94.5 94.5h18z" />
    <glyph glyph-name="ccircumflex" unicode="&#x109;" horiz-adv-x="503" 
d="M287 533q44 0 78 -9t54 -21q27 -16 43.5 -42.5t16.5 -61.5q0 -41 -27 -69t-69 -28q-44 0 -68 25t-24 65q0 38 24.5 64.5t57.5 35.5q-7 5 -16.5 8.5t-23.5 3.5q-36 0 -58.5 -21.5t-35 -56.5t-17.5 -75t-5 -78q0 -70 19 -109t48 -54t58 -15q20 0 54 10.5t67 56.5l17 -6
q-12 -40 -38.5 -79.5t-68.5 -65t-102 -25.5q-67 0 -121.5 26t-87 86t-32.5 161q0 96 34 156.5t92.5 89t130.5 28.5zM280 832q31 -59 80.5 -116.5t106.5 -95.5l-8 -14q-60 11 -116.5 27.5t-91.5 32.5q-28 -16 -74 -32.5t-94 -27.5l-8 14q56 37 105.5 94.5t81.5 117.5h18z" />
    <glyph glyph-name="Cdotaccent" unicode="&#x10a;" horiz-adv-x="717" 
d="M414 722q66 0 108.5 -19.5t75.5 -45.5q20 -15 30.5 -3.5t14.5 54.5h23q-2 -40 -3 -97.5t-1 -152.5h-23q-4 48 -13 85.5t-27 66.5t-52 51q-21 14 -44.5 22t-48.5 8q-57 0 -94 -31.5t-57.5 -82t-28.5 -110t-8 -115.5t8 -115.5t28.5 -110t57.5 -82t94 -31.5q25 0 48.5 8.5
t44.5 21.5q50 31 67.5 83t24.5 134h23q0 -98 1 -158.5t3 -101.5h-23q-4 43 -13.5 54t-31.5 -3q-37 -26 -78.5 -45.5t-106.5 -19.5q-113 0 -198 43t-132 124t-47 195q0 112 48.5 196t133.5 131t196 47zM390 932q47 0 73 -21.5t26 -64.5t-26 -64.5t-73 -21.5q-48 0 -73.5 21.5
t-25.5 64.5t25.5 64.5t73.5 21.5z" />
    <glyph glyph-name="cdotaccent" unicode="&#x10b;" horiz-adv-x="503" 
d="M287 533q44 0 78 -9t54 -21q27 -16 43.5 -42.5t16.5 -61.5q0 -41 -27 -69t-69 -28q-44 0 -68 25t-24 65q0 38 24.5 64.5t57.5 35.5q-7 5 -16.5 8.5t-23.5 3.5q-36 0 -58.5 -21.5t-35 -56.5t-17.5 -75t-5 -78q0 -70 19 -109t48 -54t58 -15q20 0 54 10.5t67 56.5l17 -6
q-12 -40 -38.5 -79.5t-68.5 -65t-102 -25.5q-67 0 -121.5 26t-87 86t-32.5 161q0 96 34 156.5t92.5 89t130.5 28.5zM271 782q52 0 80.5 -21.5t28.5 -64.5t-28.5 -64.5t-80.5 -21.5t-80.5 21.5t-28.5 64.5t28.5 64.5t80.5 21.5z" />
    <glyph glyph-name="Ccaron" unicode="&#x10c;" horiz-adv-x="717" 
d="M414 722q66 0 108.5 -19.5t75.5 -45.5q20 -15 30.5 -3.5t14.5 54.5h23q-2 -40 -3 -97.5t-1 -152.5h-23q-4 48 -13 85.5t-27 66.5t-52 51q-21 14 -44.5 22t-48.5 8q-57 0 -94 -31.5t-57.5 -82t-28.5 -110t-8 -115.5t8 -115.5t28.5 -110t57.5 -82t94 -31.5q25 0 48.5 8.5
t44.5 21.5q50 31 67.5 83t24.5 134h23q0 -98 1 -158.5t3 -101.5h-23q-4 43 -13.5 54t-31.5 -3q-37 -26 -78.5 -45.5t-106.5 -19.5q-113 0 -198 43t-132 124t-47 195q0 112 48.5 196t133.5 131t196 47zM607 946l5 -15q-65 -31 -122.5 -77.5t-94.5 -94.5h-18q-35 47 -93 94
t-124 78l5 15q69 -10 135.5 -27t105.5 -34q33 17 88.5 34t112.5 27z" />
    <glyph glyph-name="ccaron" unicode="&#x10d;" horiz-adv-x="503" 
d="M287 533q44 0 78 -9t54 -21q27 -16 43.5 -42.5t16.5 -61.5q0 -41 -27 -69t-69 -28q-44 0 -68 25t-24 65q0 38 24.5 64.5t57.5 35.5q-7 5 -16.5 8.5t-23.5 3.5q-36 0 -58.5 -21.5t-35 -56.5t-17.5 -75t-5 -78q0 -70 19 -109t48 -54t58 -15q20 0 54 10.5t67 56.5l17 -6
q-12 -40 -38.5 -79.5t-68.5 -65t-102 -25.5q-67 0 -121.5 26t-87 86t-32.5 161q0 96 34 156.5t92.5 89t130.5 28.5zM449 832l8 -14q-56 -37 -105.5 -94.5t-81.5 -117.5h-18q-31 59 -80.5 117t-106.5 95l8 14q60 -10 117 -26.5t91 -33.5q29 17 74.5 33.5t93.5 26.5z" />
    <glyph glyph-name="Dcaron" unicode="&#x10e;" horiz-adv-x="811" 
d="M361 708q210 0 311.5 -89.5t101.5 -256.5q0 -109 -50 -190.5t-144.5 -126.5t-227.5 -45q-24 0 -69.5 1.5t-80.5 1.5q-50 0 -97.5 -0.5t-76.5 -2.5v20q31 2 46 8t20 24t5 54v496q0 37 -5 54.5t-20.5 24t-45.5 7.5v20q29 -1 76.5 -2.5t95.5 -0.5q37 1 83.5 2t77.5 1z
M376 690q-46 0 -60 -17t-14 -69v-500q0 -52 14.5 -69t60.5 -17q68 0 109 39.5t59.5 115.5t18.5 185q0 168 -45 250t-143 82zM579 946l5 -15q-65 -31 -122.5 -77.5t-94.5 -94.5h-18q-35 47 -93 94t-124 78l5 15q69 -10 135.5 -27t105.5 -34q33 17 88.5 34t112.5 27z" />
    <glyph glyph-name="dcaron" unicode="&#x10f;" horiz-adv-x="609" 
d="M537 782v-672q0 -45 12.5 -66.5t43.5 -21.5v-21q-31 3 -62 3q-50 0 -93 -3t-81 -11v672q0 45 -12 66.5t-44 21.5v21q32 -3 62 -3q50 0 93.5 3.5t80.5 10.5zM253 533q44 0 74 -10.5t53 -33.5l-11 -11q-13 11 -29 16.5t-30 5.5q-46 0 -69 -59t-23 -181q0 -88 9 -136.5
t24.5 -67t33.5 -18.5q28 0 50 20.5t22 51.5v-49q-20 -38 -49 -56.5t-73 -18.5q-57 0 -103.5 28.5t-73.5 89.5t-27 159q0 91 27.5 150.5t77.5 89.5t117 30zM704 784q2 -5 3.5 -18.5t1.5 -22.5q0 -29 -32 -72t-85 -108l-14 4q12 68 16 100t4 45q0 20 -3.5 30t-16.5 10v21
q46 -2 73.5 2t52.5 9z" />
    <glyph glyph-name="Dcroat" unicode="&#x110;" horiz-adv-x="811" 
d="M361 708q210 0 311.5 -89.5t101.5 -256.5q0 -109 -50 -190.5t-144.5 -126.5t-227.5 -45q-24 0 -69.5 1.5t-80.5 1.5q-50 0 -97.5 -0.5t-76.5 -2.5v20q31 2 46 8t20 24t5 54v496q0 37 -5 54.5t-20.5 24t-45.5 7.5v20q29 -1 76.5 -2.5t95.5 -0.5q37 1 83.5 2t77.5 1z
M376 690q-46 0 -60 -17t-14 -69v-500q0 -52 14.5 -69t60.5 -17q68 0 109 39.5t59.5 115.5t18.5 185q0 168 -45 250t-143 82zM412 366v-20h-404v20h404z" />
    <glyph glyph-name="dcroat" unicode="&#x111;" horiz-adv-x="609" 
d="M537 782v-672q0 -45 12.5 -66.5t43.5 -21.5v-21q-31 3 -62 3q-50 0 -93 -3t-81 -11v672q0 45 -12 66.5t-44 21.5v21q32 -3 62 -3q50 0 93.5 3.5t80.5 10.5zM253 533q44 0 74 -10.5t53 -33.5l-11 -11q-13 11 -29 16.5t-30 5.5q-46 0 -69 -59t-23 -181q0 -88 9 -136.5
t24.5 -67t33.5 -18.5q28 0 50 20.5t22 51.5v-49q-20 -38 -49 -56.5t-73 -18.5q-57 0 -103.5 28.5t-73.5 89.5t-27 159q0 91 27.5 150.5t77.5 89.5t117 30zM600 628v-20h-404v20h404z" />
    <glyph glyph-name="Emacron" unicode="&#x112;" horiz-adv-x="650" 
d="M587 708q-4 -50 -5.5 -96.5t-1.5 -71.5q0 -21 1 -40t2 -32h-23q-12 83 -40 130.5t-65.5 67t-78.5 19.5h-13q-26 0 -39 -4.5t-17.5 -17.5t-4.5 -41v-536q0 -27 4.5 -40.5t17.5 -18t39 -4.5h33q33 0 69.5 21.5t67.5 73.5t47 142h23q-3 -36 -3 -92q0 -25 1 -71.5t6 -96.5
q-51 2 -115 2.5t-114 0.5h-96.5t-128 -0.5t-125.5 -2.5v20q31 2 46 8t20 24t5 54v496q0 37 -5 54.5t-20.5 24t-45.5 7.5v20q58 -1 125.5 -2t128 -1h96.5q46 0 104.5 0.5t104.5 2.5zM442 366v-10v-10h-170v10v10h170zM471 498q-4 -57 -3.5 -87t0.5 -55t1 -55t5 -87h-23
q-6 37 -24.5 67t-47.5 47.5t-67 17.5v20q38 0 66 21t46 51.5t24 59.5h23zM536 844v-25h-432v25h432z" />
    <glyph glyph-name="emacron" unicode="&#x113;" horiz-adv-x="503" 
d="M288 533q88 0 138.5 -51.5t50.5 -172.5h-313l-2 19h169q1 49 -4 90.5t-16 66.5t-30 25q-27 0 -44 -42.5t-22 -145.5l4 -8q-1 -10 -1 -20v-21q0 -70 17.5 -109t44 -54t53.5 -15q20 0 54 10.5t67 56.5l17 -6q-12 -40 -38.5 -79.5t-68.5 -65t-102 -25.5q-64 0 -116.5 26
t-83.5 86t-31 161q0 96 34 156.5t92.5 89t130.5 28.5zM452 712v-25h-352v25h352z" />
    <glyph glyph-name="Ebreve" unicode="&#x114;" horiz-adv-x="650" 
d="M587 708q-4 -50 -5.5 -96.5t-1.5 -71.5q0 -21 1 -40t2 -32h-23q-12 83 -40 130.5t-65.5 67t-78.5 19.5h-13q-26 0 -39 -4.5t-17.5 -17.5t-4.5 -41v-536q0 -27 4.5 -40.5t17.5 -18t39 -4.5h33q33 0 69.5 21.5t67.5 73.5t47 142h23q-3 -36 -3 -92q0 -25 1 -71.5t6 -96.5
q-51 2 -115 2.5t-114 0.5h-96.5t-128 -0.5t-125.5 -2.5v20q31 2 46 8t20 24t5 54v496q0 37 -5 54.5t-20.5 24t-45.5 7.5v20q58 -1 125.5 -2t128 -1h96.5q46 0 104.5 0.5t104.5 2.5zM442 366v-10v-10h-170v10v10h170zM471 498q-4 -57 -3.5 -87t0.5 -55t1 -55t5 -87h-23
q-6 37 -24.5 67t-47.5 47.5t-67 17.5v20q38 0 66 21t46 51.5t24 59.5h23zM537 920l12 -11q-13 -33 -43.5 -67t-79 -56.5t-116.5 -22.5t-116.5 22.5t-79 56.5t-43.5 67l12 11q29 -19 84.5 -38.5t142.5 -19.5t142.5 19.5t84.5 38.5z" />
    <glyph glyph-name="ebreve" unicode="&#x115;" horiz-adv-x="503" 
d="M288 533q88 0 138.5 -51.5t50.5 -172.5h-313l-2 19h169q1 49 -4 90.5t-16 66.5t-30 25q-27 0 -44 -42.5t-22 -145.5l4 -8q-1 -10 -1 -20v-21q0 -70 17.5 -109t44 -54t53.5 -15q20 0 54 10.5t67 56.5l17 -6q-12 -40 -38.5 -79.5t-68.5 -65t-102 -25.5q-64 0 -116.5 26
t-83.5 86t-31 161q0 96 34 156.5t92.5 89t130.5 28.5zM460 788l17 -9q-11 -38 -34.5 -76.5t-63.5 -64t-101 -25.5t-101 25.5t-63.5 64t-34.5 76.5l17 9q23 -19 66.5 -37.5t115.5 -18.5t115.5 18.5t66.5 37.5z" />
    <glyph glyph-name="Edotaccent" unicode="&#x116;" horiz-adv-x="650" 
d="M587 708q-4 -50 -5.5 -96.5t-1.5 -71.5q0 -21 1 -40t2 -32h-23q-12 83 -40 130.5t-65.5 67t-78.5 19.5h-13q-26 0 -39 -4.5t-17.5 -17.5t-4.5 -41v-536q0 -27 4.5 -40.5t17.5 -18t39 -4.5h33q33 0 69.5 21.5t67.5 73.5t47 142h23q-3 -36 -3 -92q0 -25 1 -71.5t6 -96.5
q-51 2 -115 2.5t-114 0.5h-96.5t-128 -0.5t-125.5 -2.5v20q31 2 46 8t20 24t5 54v496q0 37 -5 54.5t-20.5 24t-45.5 7.5v20q58 -1 125.5 -2t128 -1h96.5q46 0 104.5 0.5t104.5 2.5zM442 366v-10v-10h-170v10v10h170zM471 498q-4 -57 -3.5 -87t0.5 -55t1 -55t5 -87h-23
q-6 37 -24.5 67t-47.5 47.5t-67 17.5v20q38 0 66 21t46 51.5t24 59.5h23zM321 932q47 0 73 -21.5t26 -64.5t-26 -64.5t-73 -21.5q-48 0 -73.5 21.5t-25.5 64.5t25.5 64.5t73.5 21.5z" />
    <glyph glyph-name="edotaccent" unicode="&#x117;" horiz-adv-x="503" 
d="M288 533q88 0 138.5 -51.5t50.5 -172.5h-313l-2 19h169q1 49 -4 90.5t-16 66.5t-30 25q-27 0 -44 -42.5t-22 -145.5l4 -8q-1 -10 -1 -20v-21q0 -70 17.5 -109t44 -54t53.5 -15q20 0 54 10.5t67 56.5l17 -6q-12 -40 -38.5 -79.5t-68.5 -65t-102 -25.5q-64 0 -116.5 26
t-83.5 86t-31 161q0 96 34 156.5t92.5 89t130.5 28.5zM279 782q52 0 80.5 -21.5t28.5 -64.5t-28.5 -64.5t-80.5 -21.5t-80.5 21.5t-28.5 64.5t28.5 64.5t80.5 21.5z" />
    <glyph glyph-name="Eogonek" unicode="&#x118;" horiz-adv-x="650" 
d="M587 708q-4 -50 -5.5 -96.5t-1.5 -71.5q0 -21 1 -40t2 -32h-23q-12 83 -40 130.5t-65.5 67t-78.5 19.5h-13q-26 0 -39 -4.5t-17.5 -17.5t-4.5 -41v-536q0 -27 4.5 -40.5t17.5 -18t39 -4.5h33q33 0 69.5 21.5t67.5 73.5t47 142h23q-3 -36 -3 -92q0 -25 1 -71.5t6 -96.5
q-51 2 -115 2.5t-114 0.5h-96.5t-128 -0.5t-125.5 -2.5v20q31 2 46 8t20 24t5 54v496q0 37 -5 54.5t-20.5 24t-45.5 7.5v20q58 -1 125.5 -2t128 -1h96.5q46 0 104.5 0.5t104.5 2.5zM442 366v-10v-10h-170v10v10h170zM471 498q-4 -57 -3.5 -87t0.5 -55t1 -55t5 -87h-23
q-6 37 -24.5 67t-47.5 47.5t-67 17.5v20q38 0 66 21t46 51.5t24 59.5h23zM603 3q-62 -21 -87.5 -46.5t-25.5 -46.5q0 -20 10 -29t30 -9q17 0 36 6.5t30 16.5l13 -15q-29 -36 -64.5 -52t-88.5 -16q-49 0 -74 18.5t-25 52.5q0 44 55.5 74t152.5 46h38z" />
    <glyph glyph-name="eogonek" unicode="&#x119;" horiz-adv-x="503" 
d="M288 533q88 0 138.5 -51.5t50.5 -172.5h-313l-2 19h169q1 49 -4 90.5t-16 66.5t-30 25q-27 0 -44 -42.5t-22 -145.5l4 -8q-1 -10 -1 -20v-21q0 -70 17.5 -109t44 -54t53.5 -15q20 0 54 10.5t67 56.5l17 -6q-12 -40 -38.5 -79.5t-68.5 -65t-102 -25.5q-64 0 -116.5 26
t-83.5 86t-31 161q0 96 34 156.5t92.5 89t130.5 28.5zM358 13q-4 -4 -9 -8t-16 -9q-39 -19 -53.5 -42.5t-14.5 -43.5t10.5 -29t29.5 -9q17 0 36 6.5t30 16.5l13 -15q-29 -36 -64.5 -52t-88.5 -16q-49 0 -74 18.5t-25 52.5q0 44 47 74t131 46z" />
    <glyph glyph-name="Ecaron" unicode="&#x11a;" horiz-adv-x="650" 
d="M587 708q-4 -50 -5.5 -96.5t-1.5 -71.5q0 -21 1 -40t2 -32h-23q-12 83 -40 130.5t-65.5 67t-78.5 19.5h-13q-26 0 -39 -4.5t-17.5 -17.5t-4.5 -41v-536q0 -27 4.5 -40.5t17.5 -18t39 -4.5h33q33 0 69.5 21.5t67.5 73.5t47 142h23q-3 -36 -3 -92q0 -25 1 -71.5t6 -96.5
q-51 2 -115 2.5t-114 0.5h-96.5t-128 -0.5t-125.5 -2.5v20q31 2 46 8t20 24t5 54v496q0 37 -5 54.5t-20.5 24t-45.5 7.5v20q58 -1 125.5 -2t128 -1h96.5q46 0 104.5 0.5t104.5 2.5zM442 366v-10v-10h-170v10v10h170zM471 498q-4 -57 -3.5 -87t0.5 -55t1 -55t5 -87h-23
q-6 37 -24.5 67t-47.5 47.5t-67 17.5v20q38 0 66 21t46 51.5t24 59.5h23zM538 946l5 -15q-65 -31 -122.5 -77.5t-94.5 -94.5h-18q-35 47 -93 94t-124 78l5 15q69 -10 135.5 -27t105.5 -34q33 17 88.5 34t112.5 27z" />
    <glyph glyph-name="ecaron" unicode="&#x11b;" horiz-adv-x="503" 
d="M288 533q88 0 138.5 -51.5t50.5 -172.5h-313l-2 19h169q1 49 -4 90.5t-16 66.5t-30 25q-27 0 -44 -42.5t-22 -145.5l4 -8q-1 -10 -1 -20v-21q0 -70 17.5 -109t44 -54t53.5 -15q20 0 54 10.5t67 56.5l17 -6q-12 -40 -38.5 -79.5t-68.5 -65t-102 -25.5q-64 0 -116.5 26
t-83.5 86t-31 161q0 96 34 156.5t92.5 89t130.5 28.5zM457 832l8 -14q-56 -37 -105.5 -94.5t-81.5 -117.5h-18q-31 59 -80.5 117t-106.5 95l8 14q60 -10 117 -26.5t91 -33.5q29 17 74.5 33.5t93.5 26.5z" />
    <glyph glyph-name="Gcircumflex" unicode="&#x11c;" horiz-adv-x="756" 
d="M424 722q70 0 115 -19t79 -46q11 -9 20 -9q19 0 25 60h23q-2 -40 -3 -97.5t-1 -152.5h-23q-7 72 -24.5 120.5t-67.5 82.5q-21 14 -49 22t-54 8q-58 0 -96 -31.5t-60.5 -82t-32 -110t-9.5 -115.5q0 -180 44 -263t117 -83q16 0 28 3t21 9q11 8 16 20t5 30v100q0 49 -7.5 73
t-29.5 33t-64 10v20q23 -1 56 -1.5t69 -1t66 -0.5q48 0 88.5 1t65.5 2v-20q-25 -2 -33 -16t-8 -70v-198h-20q-1 17 -8 37t-23 20q-8 0 -22.5 -4t-45.5 -19q-39 -19 -82.5 -33.5t-86.5 -14.5q-188 0 -282 95.5t-94 266.5q0 112 49.5 196t137 131t201.5 47zM412 956
q35 -47 93 -93.5t124 -78.5l-5 -15q-69 11 -135.5 28t-105.5 33q-33 -16 -88.5 -33t-112.5 -28l-5 15q65 31 122.5 77.5t94.5 94.5h18z" />
    <glyph glyph-name="gcircumflex" unicode="&#x11d;" horiz-adv-x="570" 
d="M221 -188q-68 0 -117.5 10.5t-76.5 30t-27 47.5t28 52.5t89 38.5l10 -16q-16 -19 -21.5 -34.5t-5.5 -29.5q0 -39 35.5 -60.5t99.5 -21.5q45 0 75.5 12.5t46 34.5t15.5 50t-21 48t-85 20h-54q-46 0 -77 12t-47 33.5t-16 50.5q0 47 37 79t95 57l9 -8q-10 -7 -21 -17
t-11 -29q0 -32 36 -32h97q97 0 157 -32.5t60 -109.5q0 -50 -32.5 -92.5t-100.5 -68t-177 -25.5zM235 213q-93 0 -154 39t-61 121q0 83 61 121.5t154 38.5t154 -38.5t61 -121.5q0 -82 -61 -121t-154 -39zM235 231q19 0 30 31t11 111t-11 111t-30 31t-30 -31t-11 -111t11 -111
t30 -31zM398 445l-21 7q16 42 49.5 67.5t73.5 25.5q35 0 52 -19t17 -47q0 -29 -15.5 -45t-37.5 -16q-19 0 -34.5 13t-17.5 39t19 66l4 -7q-35 -13 -55 -32t-34 -52zM264 832q31 -59 80.5 -116.5t106.5 -95.5l-8 -14q-60 11 -116.5 27.5t-91.5 32.5q-28 -16 -74 -32.5
t-94 -27.5l-8 14q56 37 105.5 94.5t81.5 117.5h18z" />
    <glyph glyph-name="Gbreve" unicode="&#x11e;" horiz-adv-x="756" 
d="M424 722q70 0 115 -19t79 -46q11 -9 20 -9q19 0 25 60h23q-2 -40 -3 -97.5t-1 -152.5h-23q-7 72 -24.5 120.5t-67.5 82.5q-21 14 -49 22t-54 8q-58 0 -96 -31.5t-60.5 -82t-32 -110t-9.5 -115.5q0 -180 44 -263t117 -83q16 0 28 3t21 9q11 8 16 20t5 30v100q0 49 -7.5 73
t-29.5 33t-64 10v20q23 -1 56 -1.5t69 -1t66 -0.5q48 0 88.5 1t65.5 2v-20q-25 -2 -33 -16t-8 -70v-198h-20q-1 17 -8 37t-23 20q-8 0 -22.5 -4t-45.5 -19q-39 -19 -82.5 -33.5t-86.5 -14.5q-188 0 -282 95.5t-94 266.5q0 112 49.5 196t137 131t201.5 47zM620 920l12 -11
q-13 -33 -43.5 -67t-79 -56.5t-116.5 -22.5t-116.5 22.5t-79 56.5t-43.5 67l12 11q29 -19 84.5 -38.5t142.5 -19.5t142.5 19.5t84.5 38.5z" />
    <glyph glyph-name="gbreve" unicode="&#x11f;" horiz-adv-x="570" 
d="M221 -188q-68 0 -117.5 10.5t-76.5 30t-27 47.5t28 52.5t89 38.5l10 -16q-16 -19 -21.5 -34.5t-5.5 -29.5q0 -39 35.5 -60.5t99.5 -21.5q45 0 75.5 12.5t46 34.5t15.5 50t-21 48t-85 20h-54q-46 0 -77 12t-47 33.5t-16 50.5q0 47 37 79t95 57l9 -8q-10 -7 -21 -17
t-11 -29q0 -32 36 -32h97q97 0 157 -32.5t60 -109.5q0 -50 -32.5 -92.5t-100.5 -68t-177 -25.5zM235 213q-93 0 -154 39t-61 121q0 83 61 121.5t154 38.5t154 -38.5t61 -121.5q0 -82 -61 -121t-154 -39zM235 231q19 0 30 31t11 111t-11 111t-30 31t-30 -31t-11 -111t11 -111
t30 -31zM398 445l-21 7q16 42 49.5 67.5t73.5 25.5q35 0 52 -19t17 -47q0 -29 -15.5 -45t-37.5 -16q-19 0 -34.5 13t-17.5 39t19 66l4 -7q-35 -13 -55 -32t-34 -52zM436 788l17 -9q-11 -38 -34.5 -76.5t-63.5 -64t-101 -25.5t-101 25.5t-63.5 64t-34.5 76.5l17 9
q23 -19 66.5 -37.5t115.5 -18.5t115.5 18.5t66.5 37.5z" />
    <glyph glyph-name="Gdotaccent" unicode="&#x120;" horiz-adv-x="756" 
d="M424 722q70 0 115 -19t79 -46q11 -9 20 -9q19 0 25 60h23q-2 -40 -3 -97.5t-1 -152.5h-23q-7 72 -24.5 120.5t-67.5 82.5q-21 14 -49 22t-54 8q-58 0 -96 -31.5t-60.5 -82t-32 -110t-9.5 -115.5q0 -180 44 -263t117 -83q16 0 28 3t21 9q11 8 16 20t5 30v100q0 49 -7.5 73
t-29.5 33t-64 10v20q23 -1 56 -1.5t69 -1t66 -0.5q48 0 88.5 1t65.5 2v-20q-25 -2 -33 -16t-8 -70v-198h-20q-1 17 -8 37t-23 20q-8 0 -22.5 -4t-45.5 -19q-39 -19 -82.5 -33.5t-86.5 -14.5q-188 0 -282 95.5t-94 266.5q0 112 49.5 196t137 131t201.5 47zM417 932
q47 0 73 -21.5t26 -64.5t-26 -64.5t-73 -21.5q-48 0 -73.5 21.5t-25.5 64.5t25.5 64.5t73.5 21.5z" />
    <glyph glyph-name="gdotaccent" unicode="&#x121;" horiz-adv-x="570" 
d="M221 -188q-68 0 -117.5 10.5t-76.5 30t-27 47.5t28 52.5t89 38.5l10 -16q-16 -19 -21.5 -34.5t-5.5 -29.5q0 -39 35.5 -60.5t99.5 -21.5q45 0 75.5 12.5t46 34.5t15.5 50t-21 48t-85 20h-54q-46 0 -77 12t-47 33.5t-16 50.5q0 47 37 79t95 57l9 -8q-10 -7 -21 -17
t-11 -29q0 -32 36 -32h97q97 0 157 -32.5t60 -109.5q0 -50 -32.5 -92.5t-100.5 -68t-177 -25.5zM235 213q-93 0 -154 39t-61 121q0 83 61 121.5t154 38.5t154 -38.5t61 -121.5q0 -82 -61 -121t-154 -39zM235 231q19 0 30 31t11 111t-11 111t-30 31t-30 -31t-11 -111t11 -111
t30 -31zM398 445l-21 7q16 42 49.5 67.5t73.5 25.5q35 0 52 -19t17 -47q0 -29 -15.5 -45t-37.5 -16q-19 0 -34.5 13t-17.5 39t19 66l4 -7q-35 -13 -55 -32t-34 -52zM255 782q52 0 80.5 -21.5t28.5 -64.5t-28.5 -64.5t-80.5 -21.5t-80.5 21.5t-28.5 64.5t28.5 64.5t80.5 21.5
z" />
    <glyph glyph-name="uni0122" unicode="&#x122;" horiz-adv-x="756" 
d="M424 722q70 0 115 -19t79 -46q11 -9 20 -9q19 0 25 60h23q-2 -40 -3 -97.5t-1 -152.5h-23q-7 72 -24.5 120.5t-67.5 82.5q-21 14 -49 22t-54 8q-58 0 -96 -31.5t-60.5 -82t-32 -110t-9.5 -115.5q0 -180 44 -263t117 -83q16 0 28 3t21 9q11 8 16 20t5 30v100q0 49 -7.5 73
t-29.5 33t-64 10v20q23 -1 56 -1.5t69 -1t66 -0.5q48 0 88.5 1t65.5 2v-20q-25 -2 -33 -16t-8 -70v-198h-20q-1 17 -8 37t-23 20q-8 0 -22.5 -4t-45.5 -19q-39 -19 -82.5 -33.5t-86.5 -14.5q-188 0 -282 95.5t-94 266.5q0 112 49.5 196t137 131t201.5 47zM417 -45
q40 0 66.5 -20.5t26.5 -61.5q0 -50 -34 -82.5t-101 -34.5l-2 22q43 5 64.5 16.5t27.5 33.5q-7 -7 -19.5 -11t-33.5 -4q-40 0 -62 17.5t-22 51.5q0 35 23 54t66 19z" />
    <glyph glyph-name="uni0123" unicode="&#x123;" horiz-adv-x="570" 
d="M221 -188q-68 0 -117.5 10.5t-76.5 30t-27 47.5t28 52.5t89 38.5l10 -16q-16 -19 -21.5 -34.5t-5.5 -29.5q0 -39 35.5 -60.5t99.5 -21.5q45 0 75.5 12.5t46 34.5t15.5 50t-21 48t-85 20h-54q-46 0 -77 12t-47 33.5t-16 50.5q0 47 37 79t95 57l9 -8q-10 -7 -21 -17
t-11 -29q0 -32 36 -32h97q97 0 157 -32.5t60 -109.5q0 -50 -32.5 -92.5t-100.5 -68t-177 -25.5zM235 213q-93 0 -154 39t-61 121q0 83 61 121.5t154 38.5t154 -38.5t61 -121.5q0 -82 -61 -121t-154 -39zM235 231q19 0 30 31t11 111t-11 111t-30 31t-30 -31t-11 -111t11 -111
t30 -31zM398 445l-21 7q16 42 49.5 67.5t73.5 25.5q35 0 52 -19t17 -47q0 -29 -15.5 -45t-37.5 -16q-19 0 -34.5 13t-17.5 39t19 66l4 -7q-35 -13 -55 -32t-34 -52zM247 614q-40 0 -66.5 20.5t-26.5 61.5q0 50 34 82.5t101 34.5l2 -22q-43 -5 -64.5 -16.5t-27.5 -33.5
q7 7 19.5 11t33.5 4q40 0 62 -17.5t22 -51.5q0 -35 -23 -54t-66 -19z" />
    <glyph glyph-name="Hcircumflex" unicode="&#x124;" horiz-adv-x="829" 
d="M456 0v20q31 2 46 8t20 24t5 54v496q0 37 -5 54.5t-20.5 24t-45.5 7.5v20q31 -1 79.5 -2t97.5 -1q51 0 96 1t72 2v-20q-30 -1 -45.5 -7.5t-20.5 -24t-5 -54.5v-496q0 -36 5.5 -54t20.5 -24t45 -8v-20q-27 2 -72 2.5t-96 0.5q-49 0 -97.5 -0.5t-79.5 -2.5zM28 0v20
q31 2 46 8t20 24t5 54v496q0 37 -5 54.5t-20.5 24t-45.5 7.5v20q29 -1 76.5 -2t101.5 -1q47 0 92.5 1t74.5 2v-20q-30 -1 -45.5 -7.5t-20.5 -24t-5 -54.5v-496q0 -36 5.5 -54t20.5 -24t45 -8v-20q-29 2 -74.5 2.5t-92.5 0.5q-54 0 -101.5 -0.5t-76.5 -2.5zM217 346v20h395
v-20h-395zM426 956q35 -47 93 -93.5t124 -78.5l-5 -15q-69 11 -135.5 28t-105.5 33q-33 -16 -88.5 -33t-112.5 -28l-5 15q65 31 122.5 77.5t94.5 94.5h18z" />
    <glyph glyph-name="hcircumflex" unicode="&#x125;" horiz-adv-x="622" 
d="M254 782v-324q24 40 64.5 57.5t94.5 17.5q46 0 72.5 -11.5t40.5 -28.5q15 -18 22 -48t7 -81v-271q0 -42 12.5 -57t43.5 -15v-21q-20 1 -60.5 2.5t-79.5 1.5q-42 0 -82 -1.5t-60 -2.5v21q26 0 36 15t10 57v325q0 21 -5 35t-15.5 21t-28.5 7q-28 0 -50 -20t-22 -52v-316
q0 -42 10.5 -57t35.5 -15v-21q-19 1 -56 2.5t-76 1.5q-42 0 -85 -1.5t-65 -2.5v21q31 0 43.5 15t12.5 57v569q0 45 -12 66.5t-44 21.5v21q32 -3 62 -3q50 0 93.5 3.5t80.5 10.5zM308 1020q35 -47 93 -93.5t124 -78.5l-5 -15q-69 11 -135.5 28t-105.5 33q-33 -16 -88.5 -33
t-112.5 -28l-5 15q65 31 122.5 77.5t94.5 94.5h18z" />
    <glyph glyph-name="Hbar" unicode="&#x126;" horiz-adv-x="829" 
d="M456 0v20q31 2 46 8t20 24t5 54v496q0 37 -5 54.5t-20.5 24t-45.5 7.5v20q31 -1 79.5 -2t97.5 -1q51 0 96 1t72 2v-20q-30 -1 -45.5 -7.5t-20.5 -24t-5 -54.5v-496q0 -36 5.5 -54t20.5 -24t45 -8v-20q-27 2 -72 2.5t-96 0.5q-49 0 -97.5 -0.5t-79.5 -2.5zM28 0v20
q31 2 46 8t20 24t5 54v496q0 37 -5 54.5t-20.5 24t-45.5 7.5v20q29 -1 76.5 -2t101.5 -1q47 0 92.5 1t74.5 2v-20q-30 -1 -45.5 -7.5t-20.5 -24t-5 -54.5v-496q0 -36 5.5 -54t20.5 -24t45 -8v-20q-29 2 -74.5 2.5t-92.5 0.5q-54 0 -101.5 -0.5t-76.5 -2.5zM217 346v20h395
v-20h-395zM801 533v-20h-773v20h773z" />
    <glyph glyph-name="hbar" unicode="&#x127;" horiz-adv-x="622" 
d="M254 782v-324q24 40 64.5 57.5t94.5 17.5q46 0 72.5 -11.5t40.5 -28.5q15 -18 22 -48t7 -81v-271q0 -42 12.5 -57t43.5 -15v-21q-20 1 -60.5 2.5t-79.5 1.5q-42 0 -82 -1.5t-60 -2.5v21q26 0 36 15t10 57v325q0 21 -5 35t-15.5 21t-28.5 7q-28 0 -50 -20t-22 -52v-316
q0 -42 10.5 -57t35.5 -15v-21q-19 1 -56 2.5t-76 1.5q-42 0 -85 -1.5t-65 -2.5v21q31 0 43.5 15t12.5 57v569q0 45 -12 66.5t-44 21.5v21q32 -3 62 -3q50 0 93.5 3.5t80.5 10.5zM413 628v-20h-404v20h404z" />
    <glyph glyph-name="Itilde" unicode="&#x128;" horiz-adv-x="401" 
d="M373 708v-20q-30 -1 -45.5 -7.5t-20.5 -24t-5 -54.5v-496q0 -36 5.5 -54t20.5 -24t45 -8v-20q-29 2 -74.5 2.5t-92.5 0.5q-54 0 -101.5 -0.5t-76.5 -2.5v20q31 2 46 8t20 24t5 54v496q0 37 -5 54.5t-20.5 24t-45.5 7.5v20q29 -1 76.5 -2t101.5 -1q47 0 92.5 1t74.5 2z
M113 938q40 0 68 -10t50.5 -23t46.5 -23t56 -10q27 0 51 12.5t46 40.5l14 -7q-20 -82 -60.5 -117.5t-87.5 -35.5q-40 0 -68.5 10t-51 23.5t-46.5 23.5t-56 10q-27 0 -51 -12.5t-46 -41.5l-14 7q20 82 61 117.5t88 35.5z" />
    <glyph glyph-name="itilde" unicode="&#x129;" horiz-adv-x="330" 
d="M257 530v-437q0 -42 12.5 -57t43.5 -15v-21q-20 1 -60 2.5t-82 1.5t-85 -1.5t-65 -2.5v21q31 0 43.5 15t12.5 57v317q0 45 -12 66.5t-44 21.5v21q32 -3 62 -3q50 0 93.5 3.5t80.5 10.5zM93 798q33 0 55.5 -10t41.5 -23t38.5 -23t45.5 -10q21 0 40.5 12.5t36.5 40.5l14 -7
q-17 -87 -52 -125t-76 -38q-33 0 -56 10t-41.5 23.5t-38.5 23.5t-46 10q-21 0 -40.5 -12.5t-36.5 -41.5l-14 7q17 87 52.5 125t76.5 38z" />
    <glyph glyph-name="Imacron" unicode="&#x12a;" horiz-adv-x="401" 
d="M373 708v-20q-30 -1 -45.5 -7.5t-20.5 -24t-5 -54.5v-496q0 -36 5.5 -54t20.5 -24t45 -8v-20q-29 2 -74.5 2.5t-92.5 0.5q-54 0 -101.5 -0.5t-76.5 -2.5v20q31 2 46 8t20 24t5 54v496q0 37 -5 54.5t-20.5 24t-45.5 7.5v20q29 -1 76.5 -2t101.5 -1q47 0 92.5 1t74.5 2z
M422 844v-25h-432v25h432z" />
    <glyph glyph-name="imacron" unicode="&#x12b;" horiz-adv-x="330" 
d="M323 712v-25h-332v25h332zM257 530v-437q0 -42 12.5 -57t43.5 -15v-21q-20 1 -60 2.5t-82 1.5t-85 -1.5t-65 -2.5v21q31 0 43.5 15t12.5 57v317q0 45 -12 66.5t-44 21.5v21q32 -3 62 -3q50 0 93.5 3.5t80.5 10.5z" />
    <glyph glyph-name="Ibreve" unicode="&#x12c;" horiz-adv-x="401" 
d="M373 708v-20q-30 -1 -45.5 -7.5t-20.5 -24t-5 -54.5v-496q0 -36 5.5 -54t20.5 -24t45 -8v-20q-29 2 -74.5 2.5t-92.5 0.5q-54 0 -101.5 -0.5t-76.5 -2.5v20q31 2 46 8t20 24t5 54v496q0 37 -5 54.5t-20.5 24t-45.5 7.5v20q29 -1 76.5 -2t101.5 -1q47 0 92.5 1t74.5 2z
M423 920l12 -11q-13 -33 -43.5 -67t-79 -56.5t-116.5 -22.5t-116.5 22.5t-79 56.5t-43.5 67l12 11q29 -19 84.5 -38.5t142.5 -19.5t142.5 19.5t84.5 38.5z" />
    <glyph glyph-name="ibreve" unicode="&#x12d;" horiz-adv-x="330" 
d="M257 530v-437q0 -42 12.5 -57t43.5 -15v-21q-20 1 -60 2.5t-82 1.5t-85 -1.5t-65 -2.5v21q31 0 43.5 15t12.5 57v317q0 45 -12 66.5t-44 21.5v21q32 -3 62 -3q50 0 93.5 3.5t80.5 10.5zM349 788l17 -9q-11 -38 -34.5 -76.5t-63.5 -64t-101 -25.5t-101 25.5t-63.5 64
t-34.5 76.5l17 9q23 -19 66.5 -37.5t115.5 -18.5t115.5 18.5t66.5 37.5z" />
    <glyph glyph-name="Iogonek" unicode="&#x12e;" horiz-adv-x="401" 
d="M373 708v-20q-30 -1 -45.5 -7.5t-20.5 -24t-5 -54.5v-496q0 -36 5.5 -54t20.5 -24t45 -8v-20q-29 2 -74.5 2.5t-92.5 0.5q-54 0 -101.5 -0.5t-76.5 -2.5v20q31 2 46 8t20 24t5 54v496q0 37 -5 54.5t-20.5 24t-45.5 7.5v20q29 -1 76.5 -2t101.5 -1q47 0 92.5 1t74.5 2z
M354 3q-62 -21 -87.5 -46.5t-25.5 -46.5q0 -20 10 -29t30 -9q17 0 36 6.5t30 16.5l13 -15q-29 -36 -64.5 -52t-88.5 -16q-49 0 -74 18.5t-25 52.5q0 44 55.5 74t152.5 46h38z" />
    <glyph glyph-name="iogonek" unicode="&#x12f;" horiz-adv-x="330" 
d="M162 782q52 0 80.5 -21.5t28.5 -64.5t-28.5 -64.5t-80.5 -21.5t-80.5 21.5t-28.5 64.5t28.5 64.5t80.5 21.5zM257 530v-437q0 -42 12.5 -57t43.5 -15v-21q-20 1 -60 2.5t-82 1.5t-85 -1.5t-65 -2.5v21q31 0 43.5 15t12.5 57v317q0 45 -12 66.5t-44 21.5v21q32 -3 62 -3
q50 0 93.5 3.5t80.5 10.5zM308 13q-4 -4 -9 -8t-16 -9q-39 -19 -53.5 -42.5t-14.5 -43.5t10.5 -29t29.5 -9q17 0 36 6.5t30 16.5l13 -15q-29 -36 -64.5 -52t-88.5 -16q-49 0 -74 18.5t-25 52.5q0 44 47 74t131 46z" />
    <glyph glyph-name="Idotaccent" unicode="&#x130;" horiz-adv-x="401" 
d="M373 708v-20q-30 -1 -45.5 -7.5t-20.5 -24t-5 -54.5v-496q0 -36 5.5 -54t20.5 -24t45 -8v-20q-29 2 -74.5 2.5t-92.5 0.5q-54 0 -101.5 -0.5t-76.5 -2.5v20q31 2 46 8t20 24t5 54v496q0 37 -5 54.5t-20.5 24t-45.5 7.5v20q29 -1 76.5 -2t101.5 -1q47 0 92.5 1t74.5 2z
M206 971q52 0 80.5 -21.5t28.5 -64.5t-28.5 -64.5t-80.5 -21.5t-80.5 21.5t-28.5 64.5t28.5 64.5t80.5 21.5z" />
    <glyph glyph-name="dotlessi" unicode="&#x131;" horiz-adv-x="330" 
d="M257 530v-437q0 -42 12.5 -57t43.5 -15v-21q-20 1 -60 2.5t-82 1.5t-85 -1.5t-65 -2.5v21q31 0 43.5 15t12.5 57v317q0 45 -12 66.5t-44 21.5v21q32 -3 62 -3q50 0 93.5 3.5t80.5 10.5z" />
    <glyph glyph-name="Jcircumflex" unicode="&#x134;" horiz-adv-x="390" 
d="M-25 -188v21q36 5 63 23.5t41.5 65t14.5 133.5v547q0 37 -5 54.5t-20.5 24t-45.5 7.5v20q27 -1 72 -2t95 -1t98.5 1t79.5 2v-20q-30 -1 -45.5 -7.5t-20.5 -24t-5 -54.5v-366q0 -41 0.5 -88.5t-3 -92.5t-14.5 -80q-22 -69 -97 -116t-208 -47zM200 956q35 -47 93 -93.5
t124 -78.5l-5 -15q-69 11 -135.5 28t-105.5 33q-33 -16 -88.5 -33t-112.5 -28l-5 15q65 31 122.5 77.5t94.5 94.5h18z" />
    <glyph glyph-name="jcircumflex" unicode="&#x135;" horiz-adv-x="317" 
d="M-21 -188v20q40 0 67.5 28.5t27.5 97.5v452q0 45 -12 66.5t-44 21.5v21q32 -3 62 -3q50 0 93.5 3.5t80.5 10.5v-450q0 -88 -16 -136t-55 -82q-25 -22 -73 -36t-131 -14zM162 832q31 -59 80.5 -116.5t106.5 -95.5l-8 -14q-60 11 -116.5 27.5t-91.5 32.5q-28 -16 -74 -32.5
t-94 -27.5l-8 14q56 37 105.5 94.5t81.5 117.5h18z" />
    <glyph glyph-name="uni0136" unicode="&#x136;" horiz-adv-x="754" 
d="M739 708v-19q-34 -9 -75.5 -33t-88.5 -77l-184 -209l81 106l237 -395q13 -21 26 -35t35 -26v-20q-42 2 -89.5 2.5t-90.5 0.5q-23 0 -57 -0.5t-86 -2.5v20q47 2 54.5 11t-7.5 34l-145 245q-10 18 -18 27t-15.5 13t-19.5 5v21q44 2 83 29.5t94 89.5l34 38q42 47 44.5 81.5
t-21 54t-61.5 20.5v19q42 -1 77.5 -2t91.5 -1q61 0 101 3zM373 708v-20q-30 -1 -45.5 -7.5t-20.5 -24t-5 -54.5v-496q0 -36 5.5 -54t20.5 -24t45 -8v-20q-29 2 -74.5 2.5t-92.5 0.5q-54 0 -101.5 -0.5t-76.5 -2.5v20q31 2 46 8t20 24t5 54v496q0 37 -5 54.5t-20.5 24
t-45.5 7.5v20q29 -1 76.5 -2t101.5 -1q47 0 92.5 1t74.5 2zM430 -45q40 0 66.5 -20.5t26.5 -61.5q0 -50 -34 -82.5t-101 -34.5l-2 22q43 5 64.5 16.5t27.5 33.5q-7 -7 -19.5 -11t-33.5 -4q-40 0 -62 17.5t-22 51.5q0 35 23 54t66 19z" />
    <glyph glyph-name="uni0137" unicode="&#x137;" horiz-adv-x="609" 
d="M254 782v-689q0 -42 12.5 -57t43.5 -15v-21q-20 1 -60 2.5t-82 1.5t-85 -1.5t-65 -2.5v21q31 0 43.5 15t12.5 57v569q0 45 -12 66.5t-44 21.5v21q32 -3 62 -3q50 0 93.5 3.5t80.5 10.5zM586 519v-20q-36 -10 -73 -35t-75 -63l-35 -35l7 13l161 -306q8 -15 17 -29.5
t23 -22.5v-21q-17 1 -51.5 2.5t-69.5 1.5q-40 0 -80.5 -1.5t-60.5 -2.5v21q20 0 26.5 9t-1.5 25l-88 186q-7 14 -16 18t-21 4v19q14 0 26 2.5t22 12.5l77 72q35 32 35.5 60.5t-22 47.5t-58.5 22v20q29 -1 62.5 -2t57.5 -1q21 0 48 0.5t51.5 1t37.5 1.5zM347 -45
q40 0 66.5 -20.5t26.5 -61.5q0 -50 -34 -82.5t-101 -34.5l-2 22q43 5 64.5 16.5t27.5 33.5q-7 -7 -19.5 -11t-33.5 -4q-40 0 -62 17.5t-22 51.5q0 35 23 54t66 19z" />
    <glyph glyph-name="kgreenlandic" unicode="&#x138;" horiz-adv-x="609" 
d="M589 519v-20q-40 -4 -62.5 -15t-40.5 -34l-75 -92l153 -285q11 -23 22.5 -36t27.5 -16v-21q-17 1 -51.5 2.5t-69.5 1.5q-37 0 -74.5 -1.5t-56.5 -2.5v21q20 0 26.5 9t-1.5 25l-98 181q-7 14 -16 18t-21 4v19q35 1 57 14t42 38l76 89q25 30 12 54.5t-60 26.5v20
q26 -1 53.5 -2t49.5 -1q31 0 59.5 1t47.5 2zM257 530v-437q0 -42 12.5 -57t43.5 -15v-21q-20 1 -60 2.5t-82 1.5t-85 -1.5t-65 -2.5v21q31 0 43.5 15t12.5 57v317q0 45 -12 66.5t-44 21.5v21q32 -3 62 -3q50 0 93.5 3.5t80.5 10.5z" />
    <glyph glyph-name="Lacute" unicode="&#x139;" horiz-adv-x="626" 
d="M383 708v-20q-34 -1 -51.5 -7.5t-23.5 -24t-6 -54.5v-516q0 -27 4 -40.5t15 -18t32 -4.5h33q35 0 76 35t74 91.5t44 120.5h23q-3 -36 -3 -92q0 -26 1 -75.5t6 -102.5q-51 2 -115 2.5t-114 0.5h-96.5t-128 -0.5t-125.5 -2.5v20q31 2 46 8t20 24t5 54v496q0 37 -5 54.5
t-20.5 24t-45.5 7.5v20q29 -1 76.5 -2t101.5 -1q50 0 98 1t79 2zM283 939q22 11 51.5 4.5t42.5 -35.5q11 -24 1.5 -48.5t-33.5 -36.5q-23 -12 -50 -16t-65.5 -10.5t-97.5 -24.5l-7 12q49 41 74 71.5t42.5 51.5t41.5 32z" />
    <glyph glyph-name="lacute" unicode="&#x13a;" horiz-adv-x="328" 
d="M254 782v-689q0 -42 12.5 -57t43.5 -15v-21q-20 1 -60 2.5t-82 1.5t-85 -1.5t-65 -2.5v21q31 0 43.5 15t12.5 57v569q0 45 -12 66.5t-44 21.5v21q32 -3 62 -3q50 0 93.5 3.5t80.5 10.5zM239 989q22 11 51.5 4.5t42.5 -35.5q11 -24 1.5 -48.5t-33.5 -36.5q-23 -12 -50 -16
t-65.5 -10.5t-97.5 -24.5l-7 12q49 41 74 71.5t42.5 51.5t41.5 32z" />
    <glyph glyph-name="uni013B" unicode="&#x13b;" horiz-adv-x="626" 
d="M383 708v-20q-34 -1 -51.5 -7.5t-23.5 -24t-6 -54.5v-516q0 -27 4 -40.5t15 -18t32 -4.5h33q35 0 76 35t74 91.5t44 120.5h23q-3 -36 -3 -92q0 -26 1 -75.5t6 -102.5q-51 2 -115 2.5t-114 0.5h-96.5t-128 -0.5t-125.5 -2.5v20q31 2 46 8t20 24t5 54v496q0 37 -5 54.5
t-20.5 24t-45.5 7.5v20q29 -1 76.5 -2t101.5 -1q50 0 98 1t79 2zM366 -45q40 0 66.5 -20.5t26.5 -61.5q0 -50 -34 -82.5t-101 -34.5l-2 22q43 5 64.5 16.5t27.5 33.5q-7 -7 -19.5 -11t-33.5 -4q-40 0 -62 17.5t-22 51.5q0 35 23 54t66 19z" />
    <glyph glyph-name="uni013C" unicode="&#x13c;" horiz-adv-x="328" 
d="M254 782v-689q0 -42 12.5 -57t43.5 -15v-21q-20 1 -60 2.5t-82 1.5t-85 -1.5t-65 -2.5v21q31 0 43.5 15t12.5 57v569q0 45 -12 66.5t-44 21.5v21q32 -3 62 -3q50 0 93.5 3.5t80.5 10.5zM160 -45q40 0 66.5 -20.5t26.5 -61.5q0 -50 -34 -82.5t-101 -34.5l-2 22
q43 5 64.5 16.5t27.5 33.5q-7 -7 -19.5 -11t-33.5 -4q-40 0 -62 17.5t-22 51.5q0 35 23 54t66 19z" />
    <glyph glyph-name="Lcaron" unicode="&#x13d;" horiz-adv-x="626" 
d="M383 708v-20q-34 -1 -51.5 -7.5t-23.5 -24t-6 -54.5v-516q0 -27 4 -40.5t15 -18t32 -4.5h33q35 0 76 35t74 91.5t44 120.5h23q-3 -36 -3 -92q0 -26 1 -75.5t6 -102.5q-51 2 -115 2.5t-114 0.5h-96.5t-128 -0.5t-125.5 -2.5v20q31 2 46 8t20 24t5 54v496q0 37 -5 54.5
t-20.5 24t-45.5 7.5v20q29 -1 76.5 -2t101.5 -1q50 0 98 1t79 2zM595 714q2 -5 3.5 -16t1.5 -20q0 -32 -37.5 -80t-99.5 -120l-14 4q12 77 16 113.5t4 51.5q0 20 -5.5 30t-24.5 10v21q57 -4 90.5 -1.5t65.5 7.5z" />
    <glyph glyph-name="lcaron" unicode="&#x13e;" horiz-adv-x="328" 
d="M254 782v-689q0 -42 12.5 -57t43.5 -15v-21q-20 1 -60 2.5t-82 1.5t-85 -1.5t-65 -2.5v21q31 0 43.5 15t12.5 57v569q0 45 -12 66.5t-44 21.5v21q32 -3 62 -3q50 0 93.5 3.5t80.5 10.5zM440 784q2 -5 3.5 -18.5t1.5 -22.5q0 -29 -32 -72t-85 -108l-14 4q12 68 16 100
t4 45q0 20 -3.5 30t-16.5 10v21q46 -2 73.5 2t52.5 9z" />
    <glyph glyph-name="Ldot" unicode="&#x13f;" horiz-adv-x="627" 
d="M383 708v-20q-34 -1 -51.5 -7.5t-23.5 -24t-6 -54.5v-516q0 -27 4 -40.5t15 -18t32 -4.5h33q35 0 76 35t74 91.5t44 120.5h23q-3 -36 -3 -92q0 -26 1 -75.5t6 -102.5q-51 2 -115 2.5t-114 0.5h-96.5t-128 -0.5t-125.5 -2.5v20q31 2 46 8t20 24t5 54v496q0 37 -5 54.5
t-20.5 24t-45.5 7.5v20q29 -1 76.5 -2t101.5 -1q50 0 98 1t79 2zM509 524q47 0 73 -21.5t26 -64.5t-26 -64.5t-73 -21.5q-48 0 -73.5 21.5t-25.5 64.5t25.5 64.5t73.5 21.5z" />
    <glyph glyph-name="ldot" unicode="&#x140;" horiz-adv-x="551" 
d="M254 782v-689q0 -42 12.5 -57t43.5 -15v-21q-20 1 -60 2.5t-82 1.5t-85 -1.5t-65 -2.5v21q31 0 43.5 15t12.5 57v569q0 45 -12 66.5t-44 21.5v21q32 -3 62 -3q50 0 93.5 3.5t80.5 10.5zM442 403q47 0 73 -21.5t26 -64.5t-26 -64.5t-73 -21.5q-48 0 -73.5 21.5t-25.5 64.5
t25.5 64.5t73.5 21.5z" />
    <glyph glyph-name="Lslash" unicode="&#x141;" horiz-adv-x="626" 
d="M383 708v-20q-34 -1 -51.5 -7.5t-23.5 -24t-6 -54.5v-516q0 -27 4 -40.5t15 -18t32 -4.5h33q35 0 76 35t74 91.5t44 120.5h23q-3 -36 -3 -92q0 -26 1 -75.5t6 -102.5q-51 2 -115 2.5t-114 0.5h-96.5t-128 -0.5t-125.5 -2.5v20q31 2 46 8t20 24t5 54v496q0 37 -5 54.5
t-20.5 24t-45.5 7.5v20q29 -1 76.5 -2t101.5 -1q50 0 98 1t79 2zM470 473v-23l-284 -165v23zM186 318v-23l-161 -93v23z" />
    <glyph glyph-name="lslash" unicode="&#x142;" horiz-adv-x="328" 
d="M254 782v-689q0 -42 12.5 -57t43.5 -15v-21q-20 1 -60 2.5t-82 1.5t-85 -1.5t-65 -2.5v21q31 0 43.5 15t12.5 57v569q0 45 -12 66.5t-44 21.5v21q32 -3 62 -3q50 0 93.5 3.5t80.5 10.5zM345 528v-30l-177 -156v30zM168 424v-30l-175 -152v30z" />
    <glyph glyph-name="Nacute" unicode="&#x143;" horiz-adv-x="732" 
d="M708 708v-20q-30 -6 -45.5 -21t-20.5 -46.5t-5 -88.5v-532q-15 2 -32.5 2t-37.5 -2l-443 484v-288q0 -67 5.5 -102.5t27 -51t68.5 -22.5v-20q-20 2 -52 2.5t-60 0.5q-22 0 -45 -0.5t-38 -2.5v20q31 7 46 21.5t20 46.5t5 88v426q0 37 -5 54.5t-20.5 24t-45.5 7.5v20
q15 -1 38 -2t45 -1q25 0 49 1t43 2l409 -432v236q0 67 -5.5 102.5t-26.5 51.5t-69 22v20q20 -1 52 -2t60 -1q23 0 45.5 1t37.5 2zM459 939q22 11 51.5 4.5t42.5 -35.5q11 -24 1.5 -48.5t-33.5 -36.5q-23 -12 -50 -16t-65.5 -10.5t-97.5 -24.5l-7 12q49 41 74 71.5t42.5 51.5
t41.5 32z" />
    <glyph glyph-name="nacute" unicode="&#x144;" horiz-adv-x="625" 
d="M416 533q46 0 72.5 -11.5t40.5 -28.5q15 -18 22 -48t7 -81v-271q0 -42 12.5 -57t43.5 -15v-21q-20 1 -60.5 2.5t-79.5 1.5q-42 0 -82 -1.5t-60 -2.5v21q26 0 36 15t10 57v325q0 21 -5 35t-15.5 21t-28.5 7q-28 0 -50 -20t-22 -52v-316q0 -42 10.5 -57t35.5 -15v-21
q-19 1 -56 2.5t-76 1.5q-42 0 -85 -1.5t-65 -2.5v21q31 0 43.5 15t12.5 57v317q0 45 -12 66.5t-44 21.5v21q32 -3 62 -3q50 0 93.5 3.5t80.5 10.5v-72q24 40 64.5 57.5t94.5 17.5zM429 820q20 -16 20.5 -43t-16.5 -48q-16 -20 -39.5 -34.5t-56.5 -35t-80 -60.5l-11 9
q29 57 40 94.5t19 63.5t26 46q16 19 45.5 23.5t52.5 -15.5z" />
    <glyph glyph-name="uni0145" unicode="&#x145;" horiz-adv-x="732" 
d="M708 708v-20q-30 -6 -45.5 -21t-20.5 -46.5t-5 -88.5v-532q-15 2 -32.5 2t-37.5 -2l-443 484v-288q0 -67 5.5 -102.5t27 -51t68.5 -22.5v-20q-20 2 -52 2.5t-60 0.5q-22 0 -45 -0.5t-38 -2.5v20q31 7 46 21.5t20 46.5t5 88v426q0 37 -5 54.5t-20.5 24t-45.5 7.5v20
q15 -1 38 -2t45 -1q25 0 49 1t43 2l409 -432v236q0 67 -5.5 102.5t-26.5 51.5t-69 22v20q20 -1 52 -2t60 -1q23 0 45.5 1t37.5 2zM373 -45q40 0 66.5 -20.5t26.5 -61.5q0 -50 -34 -82.5t-101 -34.5l-2 22q43 5 64.5 16.5t27.5 33.5q-7 -7 -19.5 -11t-33.5 -4q-40 0 -62 17.5
t-22 51.5q0 35 23 54t66 19z" />
    <glyph glyph-name="uni0146" unicode="&#x146;" horiz-adv-x="625" 
d="M416 533q46 0 72.5 -11.5t40.5 -28.5q15 -18 22 -48t7 -81v-271q0 -42 12.5 -57t43.5 -15v-21q-20 1 -60.5 2.5t-79.5 1.5q-42 0 -82 -1.5t-60 -2.5v21q26 0 36 15t10 57v325q0 21 -5 35t-15.5 21t-28.5 7q-28 0 -50 -20t-22 -52v-316q0 -42 10.5 -57t35.5 -15v-21
q-19 1 -56 2.5t-76 1.5q-42 0 -85 -1.5t-65 -2.5v21q31 0 43.5 15t12.5 57v317q0 45 -12 66.5t-44 21.5v21q32 -3 62 -3q50 0 93.5 3.5t80.5 10.5v-72q24 40 64.5 57.5t94.5 17.5zM326 -45q40 0 66.5 -20.5t26.5 -61.5q0 -50 -34 -82.5t-101 -34.5l-2 22q43 5 64.5 16.5
t27.5 33.5q-7 -7 -19.5 -11t-33.5 -4q-40 0 -62 17.5t-22 51.5q0 35 23 54t66 19z" />
    <glyph glyph-name="Ncaron" unicode="&#x147;" horiz-adv-x="732" 
d="M708 708v-20q-30 -6 -45.5 -21t-20.5 -46.5t-5 -88.5v-532q-15 2 -32.5 2t-37.5 -2l-443 484v-288q0 -67 5.5 -102.5t27 -51t68.5 -22.5v-20q-20 2 -52 2.5t-60 0.5q-22 0 -45 -0.5t-38 -2.5v20q31 7 46 21.5t20 46.5t5 88v426q0 37 -5 54.5t-20.5 24t-45.5 7.5v20
q15 -1 38 -2t45 -1q25 0 49 1t43 2l409 -432v236q0 67 -5.5 102.5t-26.5 51.5t-69 22v20q20 -1 52 -2t60 -1q23 0 45.5 1t37.5 2zM600 946l5 -15q-65 -31 -122.5 -77.5t-94.5 -94.5h-18q-35 47 -93 94t-124 78l5 15q69 -10 135.5 -27t105.5 -34q33 17 88.5 34t112.5 27z" />
    <glyph glyph-name="ncaron" unicode="&#x148;" horiz-adv-x="625" 
d="M416 533q46 0 72.5 -11.5t40.5 -28.5q15 -18 22 -48t7 -81v-271q0 -42 12.5 -57t43.5 -15v-21q-20 1 -60.5 2.5t-79.5 1.5q-42 0 -82 -1.5t-60 -2.5v21q26 0 36 15t10 57v325q0 21 -5 35t-15.5 21t-28.5 7q-28 0 -50 -20t-22 -52v-316q0 -42 10.5 -57t35.5 -15v-21
q-19 1 -56 2.5t-76 1.5q-42 0 -85 -1.5t-65 -2.5v21q31 0 43.5 15t12.5 57v317q0 45 -12 66.5t-44 21.5v21q32 -3 62 -3q50 0 93.5 3.5t80.5 10.5v-72q24 40 64.5 57.5t94.5 17.5zM496 832l8 -14q-56 -37 -105.5 -94.5t-81.5 -117.5h-18q-31 59 -80.5 117t-106.5 95l8 14
q60 -10 117 -26.5t91 -33.5q29 17 74.5 33.5t93.5 26.5z" />
    <glyph glyph-name="napostrophe" unicode="&#x149;" horiz-adv-x="625" 
d="M416 533q46 0 72.5 -11.5t40.5 -28.5q15 -18 22 -48t7 -81v-271q0 -42 12.5 -57t43.5 -15v-21q-20 1 -60.5 2.5t-79.5 1.5q-42 0 -82 -1.5t-60 -2.5v21q26 0 36 15t10 57v325q0 21 -5 35t-15.5 21t-28.5 7q-28 0 -50 -20t-22 -52v-316q0 -42 10.5 -57t35.5 -15v-21
q-19 1 -56 2.5t-76 1.5q-42 0 -85 -1.5t-65 -2.5v21q31 0 43.5 15t12.5 57v317q0 45 -12 66.5t-44 21.5v21q32 -3 62 -3q50 0 93.5 3.5t80.5 10.5v-72q24 40 64.5 57.5t94.5 17.5zM-1 782q26 0 46.5 -9.5t32.5 -27.5q11 -14 18 -39t7 -56q0 -50 -26 -94.5t-80 -69.5l-9 18
q26 12 47 34.5t28 47.5q9 28 3 55q-26 -31 -73 -31q-40 0 -64 22.5t-24 63.5q0 39 26 62.5t68 23.5z" />
    <glyph glyph-name="Eng" unicode="&#x14a;" horiz-adv-x="729" 
d="M706 708v-20q-30 -1 -45 -7.5t-20.5 -24t-5.5 -54.5v-346l-16 -255q-12 1 -25.5 1t-28.5 -2l-443 484v-378q0 -36 6 -54t23.5 -24t51.5 -8v-20q-18 2 -42 2.5t-50 0.5q-22 0 -45 -0.5t-38 -2.5v20q30 2 45.5 8t20.5 24t5 54v496q0 37 -5 54.5t-20.5 24t-45.5 7.5v20
q15 -1 38 -2t45 -1q25 0 49 1t43 2l409 -432v326q0 37 -6 54.5t-23.5 24t-51.5 7.5v20q18 -1 42.5 -2t49.5 -1q23 0 45.5 1t37.5 2zM635 445v-399q0 -95 -17 -146t-49.5 -69.5t-80.5 -18.5q-57 0 -95 22t-38 70q0 38 27 58.5t71 20.5q41 0 65.5 -18.5t24.5 -53.5
q0 -24 -13.5 -45.5t-44.5 -32.5q5 -1 9.5 -1h8.5q57 0 83 47t26 150v416h11.5h11.5z" />
    <glyph glyph-name="eng" unicode="&#x14b;" horiz-adv-x="615" 
d="M416 533q46 0 72.5 -11.5t40.5 -28.5q15 -18 22 -48t7 -81v-284q0 -88 -16.5 -135.5t-54.5 -82.5q-22 -21 -64 -35.5t-128 -14.5q-17 0 -45 2.5t-56 10.5t-47 23.5t-19 41.5t26 49.5t78 23.5q44 0 74 -16.5t30 -48.5q0 -25 -19 -40.5t-48 -22.5q9 -1 17 -1.5t13 -0.5
q26 0 42 13.5t25 35.5q7 17 9.5 51.5t2.5 74.5v72v338q0 21 -5 35t-15.5 21t-28.5 7q-28 0 -50 -20t-22 -52v-316q0 -42 10.5 -57t35.5 -15v-21q-19 1 -56 2.5t-76 1.5q-42 0 -85 -1.5t-65 -2.5v21q31 0 43.5 15t12.5 57v317q0 45 -12 66.5t-44 21.5v21q32 -3 62 -3
q50 0 93.5 3.5t80.5 10.5v-72q24 40 64.5 57.5t94.5 17.5z" />
    <glyph glyph-name="Omacron" unicode="&#x14c;" horiz-adv-x="827" 
d="M414 722q113 0 198 -43t132 -123.5t47 -195.5q0 -112 -48 -196t-133.5 -131t-196.5 -47q-113 0 -198 43t-132 124t-47 195q0 112 48.5 196t133.5 131t196 47zM410 704q-50 0 -87 -45t-57 -124t-20 -183q0 -106 23 -184.5t62 -121t86 -42.5q50 0 87 45t57 124.5t20 182.5
q0 107 -23 185t-62 120.5t-86 42.5zM628 844v-25h-432v25h432z" />
    <glyph glyph-name="omacron" unicode="&#x14d;" horiz-adv-x="576" 
d="M288 533q78 0 135.5 -26.5t89.5 -86.5t32 -161t-32 -161t-89.5 -86t-135.5 -26q-77 0 -135 26t-90 86t-32 161t32 161t90 86.5t135 26.5zM288 513q-30 0 -50 -60t-20 -194t20 -193.5t50 -59.5t50 59.5t20 193.5t-20 194t-50 60zM461 712v-25h-352v25h352z" />
    <glyph glyph-name="Obreve" unicode="&#x14e;" horiz-adv-x="827" 
d="M414 722q113 0 198 -43t132 -123.5t47 -195.5q0 -112 -48 -196t-133.5 -131t-196.5 -47q-113 0 -198 43t-132 124t-47 195q0 112 48.5 196t133.5 131t196 47zM410 704q-50 0 -87 -45t-57 -124t-20 -183q0 -106 23 -184.5t62 -121t86 -42.5q50 0 87 45t57 124.5t20 182.5
q0 107 -23 185t-62 120.5t-86 42.5zM629 920l12 -11q-13 -33 -43.5 -67t-79 -56.5t-116.5 -22.5t-116.5 22.5t-79 56.5t-43.5 67l12 11q29 -19 84.5 -38.5t142.5 -19.5t142.5 19.5t84.5 38.5z" />
    <glyph glyph-name="obreve" unicode="&#x14f;" horiz-adv-x="576" 
d="M288 533q78 0 135.5 -26.5t89.5 -86.5t32 -161t-32 -161t-89.5 -86t-135.5 -26q-77 0 -135 26t-90 86t-32 161t32 161t90 86.5t135 26.5zM288 513q-30 0 -50 -60t-20 -194t20 -193.5t50 -59.5t50 59.5t20 193.5t-20 194t-50 60zM469 788l17 -9q-11 -38 -34.5 -76.5
t-63.5 -64t-101 -25.5t-101 25.5t-63.5 64t-34.5 76.5l17 9q23 -19 66.5 -37.5t115.5 -18.5t115.5 18.5t66.5 37.5z" />
    <glyph glyph-name="Ohungarumlaut" unicode="&#x150;" horiz-adv-x="827" 
d="M414 722q113 0 198 -43t132 -123.5t47 -195.5q0 -112 -48 -196t-133.5 -131t-196.5 -47q-113 0 -198 43t-132 124t-47 195q0 112 48.5 196t133.5 131t196 47zM410 704q-50 0 -87 -45t-57 -124t-20 -183q0 -106 23 -184.5t62 -121t86 -42.5q50 0 87 45t57 124.5t20 182.5
q0 107 -23 185t-62 120.5t-86 42.5zM587 943q23 16 51.5 11t44.5 -30q16 -24 9.5 -48.5t-30.5 -40.5q-26 -17 -68.5 -26t-113.5 -37l-10 11q34 41 53 72t33 53t31 35zM360 943q23 16 51.5 11t44.5 -30q16 -24 9.5 -48.5t-30.5 -40.5q-26 -17 -68.5 -26t-113.5 -37l-10 11
q34 41 53 72t33 53t31 35z" />
    <glyph glyph-name="ohungarumlaut" unicode="&#x151;" horiz-adv-x="576" 
d="M288 533q78 0 135.5 -26.5t89.5 -86.5t32 -161t-32 -161t-89.5 -86t-135.5 -26q-77 0 -135 26t-90 86t-32 161t32 161t90 86.5t135 26.5zM288 513q-30 0 -50 -60t-20 -194t20 -193.5t50 -59.5t50 59.5t20 193.5t-20 194t-50 60zM490 817q23 -16 27 -41t-12 -49
q-17 -26 -52.5 -51t-90.5 -78l-13 6q15 51 20 87.5t9.5 62t15.5 43.5q14 23 42.5 30t53.5 -10zM313 817q23 -16 27 -41t-12 -49q-17 -26 -52.5 -51t-90.5 -78l-13 6q15 51 20 87.5t9.5 62t15.5 43.5q14 23 42.5 30t53.5 -10z" />
    <glyph glyph-name="OE" unicode="&#x152;" horiz-adv-x="1040" 
d="M404 722q44 0 87 -16q80 -1 157 -1h120q46 0 104.5 0.5t104.5 2.5q-4 -44 -5.5 -85t-1.5 -63q0 -21 1 -40t2 -32h-23q-10 75 -32.5 118t-51.5 61t-60 18h-13q-29 0 -44.5 -5.5t-21 -23t-5.5 -54.5v-496q0 -36 5.5 -54t21 -23.5t44.5 -5.5h33q25 0 55 20t55 67.5t34 129.5
h23q-3 -36 -3 -92q0 -22 1 -63t6 -85q-51 2 -115 2.5t-114 0.5h-120t-157 -1q-19 -7 -42 -11.5t-46 -4.5q-110 0 -192.5 43t-128.5 124t-46 195q0 112 47 196t130 131t191 47zM400 704q-47 0 -81.5 -45t-53.5 -124t-19 -183q0 -106 21.5 -184.5t58.5 -121t81 -42.5
q23 0 49 8.5t44.5 26.5t18.5 47v526q0 39 -21 58.5t-49 26.5t-49 7zM852 366v-20h-160v20h160zM881 488q-4 -53 -3.5 -81t0.5 -51t1 -51t5 -81h-23q-5 30 -15 58t-29.5 46t-54.5 18v20q35 0 53.5 21.5t28 50t14.5 50.5h23z" />
    <glyph glyph-name="oe" unicode="&#x153;" horiz-adv-x="800" 
d="M278 533q63 0 109.5 -26.5t72 -86.5t25.5 -161t-25.5 -161t-72 -86t-109.5 -26q-74 0 -130 26t-86.5 86t-30.5 161t30.5 161t86.5 86.5t130 26.5zM278 513q-25 0 -42.5 -60t-17.5 -194t17.5 -193.5t42.5 -59.5q30 0 50 59t20 192q0 136 -20 196t-50 60zM585 533
q88 0 138.5 -51.5t50.5 -172.5h-293l-2 19h149q1 49 -4 90.5t-16 66.5t-30 25t-31 -42.5t-15 -145.5l4 -8q-1 -10 -1 -20v-21q0 -70 17.5 -109t44 -54t53.5 -15q17 0 45.5 10.5t55.5 56.5l17 -6q-11 -40 -35 -79.5t-62 -65t-92 -25.5q-55 0 -101 26t-73 86t-27 161
q0 96 28 156.5t75 89t104 28.5z" />
    <glyph glyph-name="Racute" unicode="&#x154;" horiz-adv-x="721" 
d="M28 708q29 -1 76.5 -2t95.5 -1q50 0 96 1t65 1q152 0 226.5 -42.5t74.5 -131.5q0 -37 -15 -72t-51 -63.5t-98.5 -45t-158.5 -16.5h-96v20h86q51 0 77.5 22.5t36 60t9.5 83.5q0 79 -21.5 122.5t-74.5 43.5q-34 0 -44 -17t-10 -69v-496q0 -36 5.5 -54t20.5 -24t45 -8v-20
q-29 2 -74.5 2.5t-92.5 0.5q-54 0 -101.5 -0.5t-76.5 -2.5v20q31 2 46 8t20 24t5 54v496q0 37 -5 54.5t-20.5 24t-45.5 7.5v20zM237 353q36 -1 68 -4t59 -5.5t46 -3.5q107 -5 160.5 -37t65.5 -94l21 -104q8 -37 18 -51t27 -14q10 0 17 3t14 10l13 -13q-31 -31 -67.5 -42.5
t-82.5 -11.5q-65 0 -105 23.5t-49 84.5l-15 100q-6 41 -15 73t-24 50.5t-41 18.5h-108zM419 939q22 11 51.5 4.5t42.5 -35.5q11 -24 1.5 -48.5t-33.5 -36.5q-23 -12 -50 -16t-65.5 -10.5t-97.5 -24.5l-7 12q49 41 74 71.5t42.5 51.5t41.5 32z" />
    <glyph glyph-name="racute" unicode="&#x155;" horiz-adv-x="481" 
d="M386 533q36 0 56 -15.5t28 -39t8 -46.5q0 -45 -25.5 -71.5t-66.5 -26.5q-44 0 -66.5 20t-22.5 52q0 34 14.5 56t36.5 37q-18 0 -32 -7q-16 -7 -29.5 -20.5t-21.5 -31t-8 -37.5v-300q0 -48 20 -65t66 -17v-21q-23 1 -68.5 2.5t-93.5 1.5q-45 0 -91 -1.5t-69 -2.5v21
q31 0 43.5 15t12.5 57v317q0 45 -12 66.5t-44 21.5v21q32 -3 62 -3q50 0 93.5 3.5t80.5 10.5v-72q13 26 32 42.5t43.5 24.5t53.5 8zM350 820q20 -16 20.5 -43t-16.5 -48q-16 -20 -39.5 -34.5t-56.5 -35t-80 -60.5l-11 9q29 57 40 94.5t19 63.5t26 46q16 19 45.5 23.5
t52.5 -15.5z" />
    <glyph glyph-name="uni0156" unicode="&#x156;" horiz-adv-x="721" 
d="M28 708q29 -1 76.5 -2t95.5 -1q50 0 96 1t65 1q152 0 226.5 -42.5t74.5 -131.5q0 -37 -15 -72t-51 -63.5t-98.5 -45t-158.5 -16.5h-96v20h86q51 0 77.5 22.5t36 60t9.5 83.5q0 79 -21.5 122.5t-74.5 43.5q-34 0 -44 -17t-10 -69v-496q0 -36 5.5 -54t20.5 -24t45 -8v-20
q-29 2 -74.5 2.5t-92.5 0.5q-54 0 -101.5 -0.5t-76.5 -2.5v20q31 2 46 8t20 24t5 54v496q0 37 -5 54.5t-20.5 24t-45.5 7.5v20zM237 353q36 -1 68 -4t59 -5.5t46 -3.5q107 -5 160.5 -37t65.5 -94l21 -104q8 -37 18 -51t27 -14q10 0 17 3t14 10l13 -13q-31 -31 -67.5 -42.5
t-82.5 -11.5q-65 0 -105 23.5t-49 84.5l-15 100q-6 41 -15 73t-24 50.5t-41 18.5h-108zM381 -45q40 0 66.5 -20.5t26.5 -61.5q0 -50 -34 -82.5t-101 -34.5l-2 22q43 5 64.5 16.5t27.5 33.5q-7 -7 -19.5 -11t-33.5 -4q-40 0 -62 17.5t-22 51.5q0 35 23 54t66 19z" />
    <glyph glyph-name="uni0157" unicode="&#x157;" horiz-adv-x="481" 
d="M386 533q36 0 56 -15.5t28 -39t8 -46.5q0 -45 -25.5 -71.5t-66.5 -26.5q-44 0 -66.5 20t-22.5 52q0 34 14.5 56t36.5 37q-18 0 -32 -7q-16 -7 -29.5 -20.5t-21.5 -31t-8 -37.5v-300q0 -48 20 -65t66 -17v-21q-23 1 -68.5 2.5t-93.5 1.5q-45 0 -91 -1.5t-69 -2.5v21
q31 0 43.5 15t12.5 57v317q0 45 -12 66.5t-44 21.5v21q32 -3 62 -3q50 0 93.5 3.5t80.5 10.5v-72q13 26 32 42.5t43.5 24.5t53.5 8zM172 -45q40 0 66.5 -20.5t26.5 -61.5q0 -50 -34 -82.5t-101 -34.5l-2 22q43 5 64.5 16.5t27.5 33.5q-7 -7 -19.5 -11t-33.5 -4
q-40 0 -62 17.5t-22 51.5q0 35 23 54t66 19z" />
    <glyph glyph-name="Rcaron" unicode="&#x158;" horiz-adv-x="721" 
d="M28 708q29 -1 76.5 -2t95.5 -1q50 0 96 1t65 1q152 0 226.5 -42.5t74.5 -131.5q0 -37 -15 -72t-51 -63.5t-98.5 -45t-158.5 -16.5h-96v20h86q51 0 77.5 22.5t36 60t9.5 83.5q0 79 -21.5 122.5t-74.5 43.5q-34 0 -44 -17t-10 -69v-496q0 -36 5.5 -54t20.5 -24t45 -8v-20
q-29 2 -74.5 2.5t-92.5 0.5q-54 0 -101.5 -0.5t-76.5 -2.5v20q31 2 46 8t20 24t5 54v496q0 37 -5 54.5t-20.5 24t-45.5 7.5v20zM237 353q36 -1 68 -4t59 -5.5t46 -3.5q107 -5 160.5 -37t65.5 -94l21 -104q8 -37 18 -51t27 -14q10 0 17 3t14 10l13 -13q-31 -31 -67.5 -42.5
t-82.5 -11.5q-65 0 -105 23.5t-49 84.5l-15 100q-6 41 -15 73t-24 50.5t-41 18.5h-108zM560 946l5 -15q-65 -31 -122.5 -77.5t-94.5 -94.5h-18q-35 47 -93 94t-124 78l5 15q69 -10 135.5 -27t105.5 -34q33 17 88.5 34t112.5 27z" />
    <glyph glyph-name="rcaron" unicode="&#x159;" horiz-adv-x="481" 
d="M386 533q36 0 56 -15.5t28 -39t8 -46.5q0 -45 -25.5 -71.5t-66.5 -26.5q-44 0 -66.5 20t-22.5 52q0 34 14.5 56t36.5 37q-18 0 -32 -7q-16 -7 -29.5 -20.5t-21.5 -31t-8 -37.5v-300q0 -48 20 -65t66 -17v-21q-23 1 -68.5 2.5t-93.5 1.5q-45 0 -91 -1.5t-69 -2.5v21
q31 0 43.5 15t12.5 57v317q0 45 -12 66.5t-44 21.5v21q32 -3 62 -3q50 0 93.5 3.5t80.5 10.5v-72q13 26 32 42.5t43.5 24.5t53.5 8zM417 832l8 -14q-56 -37 -105.5 -94.5t-81.5 -117.5h-18q-31 59 -80.5 117t-106.5 95l8 14q60 -10 117 -26.5t91 -33.5q29 17 74.5 33.5
t93.5 26.5z" />
    <glyph glyph-name="Sacute" unicode="&#x15a;" horiz-adv-x="613" 
d="M302 722q65 0 101 -13t61 -27q12 -7 19.5 -10.5t14.5 -3.5q16 0 22 44h23q-1 -21 -2.5 -49t-2 -74t-0.5 -121h-23q-4 55 -25.5 107t-59 86t-89.5 34q-44 0 -73 -24t-29 -69q0 -37 18 -63.5t56.5 -55.5t101.5 -73q45 -31 81.5 -62t58.5 -70t22 -94q0 -67 -37.5 -111
t-99.5 -65.5t-135 -21.5q-68 0 -108.5 12t-68.5 25q-22 14 -34 14q-16 0 -22 -44h-23q2 26 2.5 60.5t1 89.5t0.5 140h23q4 -70 22.5 -131t57 -98.5t102.5 -37.5q55 0 87.5 26t32.5 72q0 62 -41 103.5t-105 84.5q-47 32 -88 64t-65.5 72t-24.5 95q0 66 35 107.5t92 61.5
t121 20zM390 939q22 11 51.5 4.5t42.5 -35.5q11 -24 1.5 -48.5t-33.5 -36.5q-23 -12 -50 -16t-65.5 -10.5t-97.5 -24.5l-7 12q49 41 74 71.5t42.5 51.5t41.5 32z" />
    <glyph glyph-name="sacute" unicode="&#x15b;" horiz-adv-x="472" 
d="M231 533q44 0 77.5 -9.5t48.5 -17.5q35 -21 43 26h20q-2 -29 -3 -70.5t-1 -109.5h-20q-4 37 -17.5 73t-39 60t-66.5 24q-25 0 -42 -15t-17 -41q0 -30 18 -53.5t46 -45t56 -45.5q46 -37 77 -74t31 -95q0 -45 -27.5 -80t-73 -54.5t-101.5 -19.5q-35 0 -61 7.5t-42 17.5
q-16 8 -27.5 12.5t-22.5 4.5q-10 0 -17 -10.5t-11 -24.5h-20q2 32 3 78t1 122h20q6 -53 23.5 -94t45 -64.5t63.5 -23.5q23 0 40.5 13.5t17.5 41.5q0 44 -26.5 74t-66.5 66q-30 28 -56.5 54.5t-43.5 58t-17 70.5q0 45 26.5 77t69.5 49.5t92 17.5zM347 820q20 -16 20.5 -43
t-16.5 -48q-16 -20 -39.5 -34.5t-56.5 -35t-80 -60.5l-11 9q29 57 40 94.5t19 63.5t26 46q16 19 45.5 23.5t52.5 -15.5z" />
    <glyph glyph-name="Scircumflex" unicode="&#x15c;" horiz-adv-x="613" 
d="M302 722q65 0 101 -13t61 -27q12 -7 19.5 -10.5t14.5 -3.5q16 0 22 44h23q-1 -21 -2.5 -49t-2 -74t-0.5 -121h-23q-4 55 -25.5 107t-59 86t-89.5 34q-44 0 -73 -24t-29 -69q0 -37 18 -63.5t56.5 -55.5t101.5 -73q45 -31 81.5 -62t58.5 -70t22 -94q0 -67 -37.5 -111
t-99.5 -65.5t-135 -21.5q-68 0 -108.5 12t-68.5 25q-22 14 -34 14q-16 0 -22 -44h-23q2 26 2.5 60.5t1 89.5t0.5 140h23q4 -70 22.5 -131t57 -98.5t102.5 -37.5q55 0 87.5 26t32.5 72q0 62 -41 103.5t-105 84.5q-47 32 -88 64t-65.5 72t-24.5 95q0 66 35 107.5t92 61.5
t121 20zM322 956q35 -47 93 -93.5t124 -78.5l-5 -15q-69 11 -135.5 28t-105.5 33q-33 -16 -88.5 -33t-112.5 -28l-5 15q65 31 122.5 77.5t94.5 94.5h18z" />
    <glyph glyph-name="scircumflex" unicode="&#x15d;" horiz-adv-x="472" 
d="M231 533q44 0 77.5 -9.5t48.5 -17.5q35 -21 43 26h20q-2 -29 -3 -70.5t-1 -109.5h-20q-4 37 -17.5 73t-39 60t-66.5 24q-25 0 -42 -15t-17 -41q0 -30 18 -53.5t46 -45t56 -45.5q46 -37 77 -74t31 -95q0 -45 -27.5 -80t-73 -54.5t-101.5 -19.5q-35 0 -61 7.5t-42 17.5
q-16 8 -27.5 12.5t-22.5 4.5q-10 0 -17 -10.5t-11 -24.5h-20q2 32 3 78t1 122h20q6 -53 23.5 -94t45 -64.5t63.5 -23.5q23 0 40.5 13.5t17.5 41.5q0 44 -26.5 74t-66.5 66q-30 28 -56.5 54.5t-43.5 58t-17 70.5q0 45 26.5 77t69.5 49.5t92 17.5zM245 832q31 -59 80.5 -116.5
t106.5 -95.5l-8 -14q-60 11 -116.5 27.5t-91.5 32.5q-28 -16 -74 -32.5t-94 -27.5l-8 14q56 37 105.5 94.5t81.5 117.5h18z" />
    <glyph glyph-name="Scedilla" unicode="&#x15e;" horiz-adv-x="613" 
d="M302 722q65 0 101 -13t61 -27q12 -7 19.5 -10.5t14.5 -3.5q16 0 22 44h23q-1 -21 -2.5 -49t-2 -74t-0.5 -121h-23q-4 55 -25.5 107t-59 86t-89.5 34q-44 0 -73 -24t-29 -69q0 -37 18 -63.5t56.5 -55.5t101.5 -73q45 -31 81.5 -62t58.5 -70t22 -94q0 -67 -37.5 -111
t-99.5 -65.5t-135 -21.5q-68 0 -108.5 12t-68.5 25q-22 14 -34 14q-16 0 -22 -44h-23q2 26 2.5 60.5t1 89.5t0.5 140h23q4 -70 22.5 -131t57 -98.5t102.5 -37.5q55 0 87.5 26t32.5 72q0 62 -41 103.5t-105 84.5q-47 32 -88 64t-65.5 72t-24.5 95q0 66 35 107.5t92 61.5
t121 20zM316 5l-19 -65q20 8 42 11.5t47 3.5q43 0 63.5 -16.5t20.5 -41.5q0 -29 -24.5 -48t-66.5 -28t-97 -9q-30 0 -56 3.5t-44 9.5l6 18l24 -3t34 -2q33 0 62.5 9t29.5 29q0 14 -13 19.5t-35 5.5q-8 0 -17 -1.5t-16 -5.5l32 111h27z" />
    <glyph glyph-name="scedilla" unicode="&#x15f;" horiz-adv-x="472" 
d="M231 533q44 0 77.5 -9.5t48.5 -17.5q35 -21 43 26h20q-2 -29 -3 -70.5t-1 -109.5h-20q-4 37 -17.5 73t-39 60t-66.5 24q-25 0 -42 -15t-17 -41q0 -30 18 -53.5t46 -45t56 -45.5q46 -37 77 -74t31 -95q0 -45 -27.5 -80t-73 -54.5t-101.5 -19.5q-35 0 -61 7.5t-42 17.5
q-16 8 -27.5 12.5t-22.5 4.5q-10 0 -17 -10.5t-11 -24.5h-20q2 32 3 78t1 122h20q6 -53 23.5 -94t45 -64.5t63.5 -23.5q23 0 40.5 13.5t17.5 41.5q0 44 -26.5 74t-66.5 66q-30 28 -56.5 54.5t-43.5 58t-17 70.5q0 45 26.5 77t69.5 49.5t92 17.5zM221 0l-17 -60
q18 8 37.5 11.5t41.5 3.5q38 0 56 -16.5t18 -41.5q0 -29 -20.5 -48t-56 -28t-81.5 -9q-27 0 -50 3.5t-40 9.5l6 18q7 -1 20 -3t28 -2q22 0 42 9t20 29q0 25 -28 25q-8 0 -17 -1.5t-16 -5.5l30 106h27z" />
    <glyph glyph-name="Scaron" unicode="&#x160;" horiz-adv-x="613" 
d="M302 722q65 0 101 -13t61 -27q12 -7 19.5 -10.5t14.5 -3.5q16 0 22 44h23q-1 -21 -2.5 -49t-2 -74t-0.5 -121h-23q-4 55 -25.5 107t-59 86t-89.5 34q-44 0 -73 -24t-29 -69q0 -37 18 -63.5t56.5 -55.5t101.5 -73q45 -31 81.5 -62t58.5 -70t22 -94q0 -67 -37.5 -111
t-99.5 -65.5t-135 -21.5q-68 0 -108.5 12t-68.5 25q-22 14 -34 14q-16 0 -22 -44h-23q2 26 2.5 60.5t1 89.5t0.5 140h23q4 -70 22.5 -131t57 -98.5t102.5 -37.5q55 0 87.5 26t32.5 72q0 62 -41 103.5t-105 84.5q-47 32 -88 64t-65.5 72t-24.5 95q0 66 35 107.5t92 61.5
t121 20zM531 946l5 -15q-65 -31 -122.5 -77.5t-94.5 -94.5h-18q-35 47 -93 94t-124 78l5 15q69 -10 135.5 -27t105.5 -34q33 17 88.5 34t112.5 27z" />
    <glyph glyph-name="scaron" unicode="&#x161;" horiz-adv-x="472" 
d="M231 533q44 0 77.5 -9.5t48.5 -17.5q35 -21 43 26h20q-2 -29 -3 -70.5t-1 -109.5h-20q-4 37 -17.5 73t-39 60t-66.5 24q-25 0 -42 -15t-17 -41q0 -30 18 -53.5t46 -45t56 -45.5q46 -37 77 -74t31 -95q0 -45 -27.5 -80t-73 -54.5t-101.5 -19.5q-35 0 -61 7.5t-42 17.5
q-16 8 -27.5 12.5t-22.5 4.5q-10 0 -17 -10.5t-11 -24.5h-20q2 32 3 78t1 122h20q6 -53 23.5 -94t45 -64.5t63.5 -23.5q23 0 40.5 13.5t17.5 41.5q0 44 -26.5 74t-66.5 66q-30 28 -56.5 54.5t-43.5 58t-17 70.5q0 45 26.5 77t69.5 49.5t92 17.5zM414 832l8 -14
q-56 -37 -105.5 -94.5t-81.5 -117.5h-18q-31 59 -80.5 117t-106.5 95l8 14q60 -10 117 -26.5t91 -33.5q29 17 74.5 33.5t93.5 26.5z" />
    <glyph glyph-name="uni0162" unicode="&#x162;" horiz-adv-x="699" 
d="M676 708q-4 -59 -5.5 -114t-1.5 -84q0 -21 1 -40t2 -32h-23q-23 94 -55.5 148t-69 76.5t-72.5 22.5h-1v-572q0 -41 8.5 -61t32.5 -26t70 -6v-20q-35 1 -94.5 2t-124.5 1q-62 0 -117 -1t-89 -2v20q46 0 70 6t32.5 26t8.5 61v572h-1q-36 0 -72.5 -22.5t-68.5 -76
t-56 -148.5h-23q2 13 2.5 32t0.5 40q0 29 -1.5 84t-5.5 114q48 -1 106 -2t116 -1h105h105t116 1t105 2zM360 5l-19 -65q20 8 42 11.5t47 3.5q43 0 63.5 -16.5t20.5 -41.5q0 -29 -24.5 -48t-66.5 -28t-97 -9q-30 0 -56 3.5t-44 9.5l6 18l24 -3t34 -2q33 0 62.5 9t29.5 29
q0 14 -13 19.5t-35 5.5q-8 0 -17 -1.5t-16 -5.5l32 111h27z" />
    <glyph glyph-name="uni0163" unicode="&#x163;" horiz-adv-x="350" 
d="M252 681v-162h98v-20h-98v-415q0 -19 7 -27.5t23 -8.5q11 0 26 6.5t28 22.5l15 -12q-21 -36 -55.5 -57.5t-86.5 -21.5q-33 0 -59.5 8.5t-43.5 25.5q-22 22 -28 54.5t-6 84.5v340h-76v20h76v118q53 0 96.5 10.5t83.5 33.5zM201 0l-17 -60q18 8 37.5 11.5t41.5 3.5
q38 0 56 -16.5t18 -41.5q0 -29 -20.5 -48t-56 -28t-81.5 -9q-27 0 -50 3.5t-40 9.5l6 18q7 -1 20 -3t28 -2q22 0 42 9t20 29q0 25 -28 25q-8 0 -17 -1.5t-16 -5.5l30 106h27z" />
    <glyph glyph-name="Tcaron" unicode="&#x164;" horiz-adv-x="699" 
d="M676 708q-4 -59 -5.5 -114t-1.5 -84q0 -21 1 -40t2 -32h-23q-23 94 -55.5 148t-69 76.5t-72.5 22.5h-1v-572q0 -41 8.5 -61t32.5 -26t70 -6v-20q-35 1 -94.5 2t-124.5 1q-62 0 -117 -1t-89 -2v20q46 0 70 6t32.5 26t8.5 61v572h-1q-36 0 -72.5 -22.5t-68.5 -76
t-56 -148.5h-23q2 13 2.5 32t0.5 40q0 29 -1.5 84t-5.5 114q48 -1 106 -2t116 -1h105h105t116 1t105 2zM568 946l5 -15q-65 -31 -122.5 -77.5t-94.5 -94.5h-18q-35 47 -93 94t-124 78l5 15q69 -10 135.5 -27t105.5 -34q33 17 88.5 34t112.5 27z" />
    <glyph glyph-name="tcaron" unicode="&#x165;" horiz-adv-x="350" 
d="M252 681v-162h98v-20h-98v-415q0 -19 7 -27.5t23 -8.5q11 0 26 6.5t28 22.5l15 -12q-21 -36 -55.5 -57.5t-86.5 -21.5q-33 0 -59.5 8.5t-43.5 25.5q-22 22 -28 54.5t-6 84.5v340h-76v20h76v118q53 0 96.5 10.5t83.5 33.5zM426 783q2 -5 3.5 -18.5t1.5 -22.5
q0 -29 -32 -72t-85 -108l-14 4q12 68 16 100t4 45q0 20 -3.5 30t-16.5 10v21q46 -2 73.5 2t52.5 9z" />
    <glyph glyph-name="Tbar" unicode="&#x166;" horiz-adv-x="699" 
d="M676 708q-4 -59 -5.5 -114t-1.5 -84q0 -21 1 -40t2 -32h-23q-23 94 -55.5 148t-69 76.5t-72.5 22.5h-1v-572q0 -41 8.5 -61t32.5 -26t70 -6v-20q-35 1 -94.5 2t-124.5 1q-62 0 -117 -1t-89 -2v20q46 0 70 6t32.5 26t8.5 61v572h-1q-36 0 -72.5 -22.5t-68.5 -76
t-56 -148.5h-23q2 13 2.5 32t0.5 40q0 29 -1.5 84t-5.5 114q48 -1 106 -2t116 -1h105h105t116 1t105 2zM614.805 364v-20h-484.805v20h484.805z" />
    <glyph glyph-name="tbar" unicode="&#x167;" horiz-adv-x="353" 
d="M352 421v-20h-354v20h354zM254 681v-162h98v-20h-98v-415q0 -19 7 -27.5t23 -8.5q11 0 26 6.5t28 22.5l15 -12q-21 -36 -55.5 -57.5t-86.5 -21.5q-33 0 -59.5 8.5t-43.5 25.5q-22 22 -28 54.5t-6 84.5v340h-76v20h76v118q53 0 96.5 10.5t83.5 33.5z" />
    <glyph glyph-name="Utilde" unicode="&#x168;" horiz-adv-x="693" 
d="M681 708v-20q-30 -6 -45.5 -21t-20.5 -46.5t-5 -88.5v-241q0 -62 -8.5 -117t-32.5 -95q-26 -43 -77.5 -68t-137.5 -25q-46 0 -97 10t-91 38q-34 25 -52 61t-24 84t-6 109v314q0 37 -5 54.5t-20 24t-46 7.5v20q29 -1 76.5 -2t99.5 -1t100 1t79 2v-20q-34 -1 -51.5 -7.5
t-23.5 -24t-6 -54.5v-408q0 -66 14 -103.5t42 -53.5t69 -16q67 0 105 32.5t54 91t16 135.5v232q0 67 -5.5 102.5t-26.5 51.5t-69 22v20q20 -1 52 -2t60 -1q23 0 45.5 1t37.5 2zM268 938q40 0 68 -10t50.5 -23t46.5 -23t56 -10q27 0 51 12.5t46 40.5l14 -7
q-20 -82 -60.5 -117.5t-87.5 -35.5q-40 0 -68.5 10t-51 23.5t-46.5 23.5t-56 10q-27 0 -51 -12.5t-46 -41.5l-14 7q20 82 61 117.5t88 35.5z" />
    <glyph glyph-name="utilde" unicode="&#x169;" horiz-adv-x="622" 
d="M548 530v-421q0 -45 12.5 -66.5t43.5 -21.5v-21q-31 3 -62 3q-50 0 -93 -3t-81 -11v72q-24 -40 -64.5 -57.5t-94.5 -17.5q-46 0 -72.5 11.5t-40.5 28.5q-15 18 -22 48t-7 81v255q0 45 -12 66.5t-44 21.5v21q32 -3 62 -3q50 0 93.5 3.5t80.5 10.5v-429q0 -21 5 -35t16 -21
t28 -7q28 0 50 20.5t22 51.5v300q0 45 -12 66.5t-44 21.5v21q32 -3 62 -3q50 0 93.5 3.5t80.5 10.5zM220 798q33 0 55.5 -10t41.5 -23t38.5 -23t45.5 -10q21 0 40.5 12.5t36.5 40.5l14 -7q-17 -87 -52 -125t-76 -38q-33 0 -56 10t-41.5 23.5t-38.5 23.5t-46 10
q-21 0 -40.5 -12.5t-36.5 -41.5l-14 7q17 87 52.5 125t76.5 38z" />
    <glyph glyph-name="Umacron" unicode="&#x16a;" horiz-adv-x="693" 
d="M681 708v-20q-30 -6 -45.5 -21t-20.5 -46.5t-5 -88.5v-241q0 -62 -8.5 -117t-32.5 -95q-26 -43 -77.5 -68t-137.5 -25q-46 0 -97 10t-91 38q-34 25 -52 61t-24 84t-6 109v314q0 37 -5 54.5t-20 24t-46 7.5v20q29 -1 76.5 -2t99.5 -1t100 1t79 2v-20q-34 -1 -51.5 -7.5
t-23.5 -24t-6 -54.5v-408q0 -66 14 -103.5t42 -53.5t69 -16q67 0 105 32.5t54 91t16 135.5v232q0 67 -5.5 102.5t-26.5 51.5t-69 22v20q20 -1 52 -2t60 -1q23 0 45.5 1t37.5 2zM577 844v-25h-432v25h432z" />
    <glyph glyph-name="umacron" unicode="&#x16b;" horiz-adv-x="622" 
d="M548 530v-421q0 -45 12.5 -66.5t43.5 -21.5v-21q-31 3 -62 3q-50 0 -93 -3t-81 -11v72q-24 -40 -64.5 -57.5t-94.5 -17.5q-46 0 -72.5 11.5t-40.5 28.5q-15 18 -22 48t-7 81v255q0 45 -12 66.5t-44 21.5v21q32 -3 62 -3q50 0 93.5 3.5t80.5 10.5v-429q0 -21 5 -35t16 -21
t28 -7q28 0 50 20.5t22 51.5v300q0 45 -12 66.5t-44 21.5v21q32 -3 62 -3q50 0 93.5 3.5t80.5 10.5zM468 712v-25h-352v25h352z" />
    <glyph glyph-name="Ubreve" unicode="&#x16c;" horiz-adv-x="693" 
d="M681 708v-20q-30 -6 -45.5 -21t-20.5 -46.5t-5 -88.5v-241q0 -62 -8.5 -117t-32.5 -95q-26 -43 -77.5 -68t-137.5 -25q-46 0 -97 10t-91 38q-34 25 -52 61t-24 84t-6 109v314q0 37 -5 54.5t-20 24t-46 7.5v20q29 -1 76.5 -2t99.5 -1t100 1t79 2v-20q-34 -1 -51.5 -7.5
t-23.5 -24t-6 -54.5v-408q0 -66 14 -103.5t42 -53.5t69 -16q67 0 105 32.5t54 91t16 135.5v232q0 67 -5.5 102.5t-26.5 51.5t-69 22v20q20 -1 52 -2t60 -1q23 0 45.5 1t37.5 2zM578 920l12 -11q-13 -33 -43.5 -67t-79 -56.5t-116.5 -22.5t-116.5 22.5t-79 56.5t-43.5 67
l12 11q29 -19 84.5 -38.5t142.5 -19.5t142.5 19.5t84.5 38.5z" />
    <glyph glyph-name="ubreve" unicode="&#x16d;" horiz-adv-x="622" 
d="M548 530v-421q0 -45 12.5 -66.5t43.5 -21.5v-21q-31 3 -62 3q-50 0 -93 -3t-81 -11v72q-24 -40 -64.5 -57.5t-94.5 -17.5q-46 0 -72.5 11.5t-40.5 28.5q-15 18 -22 48t-7 81v255q0 45 -12 66.5t-44 21.5v21q32 -3 62 -3q50 0 93.5 3.5t80.5 10.5v-429q0 -21 5 -35t16 -21
t28 -7q28 0 50 20.5t22 51.5v300q0 45 -12 66.5t-44 21.5v21q32 -3 62 -3q50 0 93.5 3.5t80.5 10.5zM476 788l17 -9q-11 -38 -34.5 -76.5t-63.5 -64t-101 -25.5t-101 25.5t-63.5 64t-34.5 76.5l17 9q23 -19 66.5 -37.5t115.5 -18.5t115.5 18.5t66.5 37.5z" />
    <glyph glyph-name="Uring" unicode="&#x16e;" horiz-adv-x="693" 
d="M681 708v-20q-30 -6 -45.5 -21t-20.5 -46.5t-5 -88.5v-241q0 -62 -8.5 -117t-32.5 -95q-26 -43 -77.5 -68t-137.5 -25q-46 0 -97 10t-91 38q-34 25 -52 61t-24 84t-6 109v314q0 37 -5 54.5t-20 24t-46 7.5v20q29 -1 76.5 -2t99.5 -1t100 1t79 2v-20q-34 -1 -51.5 -7.5
t-23.5 -24t-6 -54.5v-408q0 -66 14 -103.5t42 -53.5t69 -16q67 0 105 32.5t54 91t16 135.5v232q0 67 -5.5 102.5t-26.5 51.5t-69 22v20q20 -1 52 -2t60 -1q23 0 45.5 1t37.5 2zM361 990q47 0 82 -27t35 -74t-35 -74.5t-82 -27.5q-46 0 -81 27.5t-35 74.5t35 74t81 27z
M361 969q-31 0 -59.5 -21t-28.5 -60q0 -40 28.5 -60t59.5 -20q32 0 60.5 20t28.5 60q0 39 -28.5 60t-60.5 21z" />
    <glyph glyph-name="uring" unicode="&#x16f;" horiz-adv-x="622" 
d="M548 530v-421q0 -45 12.5 -66.5t43.5 -21.5v-21q-31 3 -62 3q-50 0 -93 -3t-81 -11v72q-24 -40 -64.5 -57.5t-94.5 -17.5q-46 0 -72.5 11.5t-40.5 28.5q-15 18 -22 48t-7 81v255q0 45 -12 66.5t-44 21.5v21q32 -3 62 -3q50 0 93.5 3.5t80.5 10.5v-429q0 -21 5 -35t16 -21
t28 -7q28 0 50 20.5t22 51.5v300q0 45 -12 66.5t-44 21.5v21q32 -3 62 -3q50 0 93.5 3.5t80.5 10.5zM295 801q47 0 82 -27t35 -74t-35 -74.5t-82 -27.5q-46 0 -81 27.5t-35 74.5t35 74t81 27zM295 780q-31 0 -59.5 -21t-28.5 -60q0 -40 28.5 -60t59.5 -20q32 0 60.5 20
t28.5 60q0 39 -28.5 60t-60.5 21z" />
    <glyph glyph-name="Uhungarumlaut" unicode="&#x170;" horiz-adv-x="693" 
d="M681 708v-20q-30 -6 -45.5 -21t-20.5 -46.5t-5 -88.5v-241q0 -62 -8.5 -117t-32.5 -95q-26 -43 -77.5 -68t-137.5 -25q-46 0 -97 10t-91 38q-34 25 -52 61t-24 84t-6 109v314q0 37 -5 54.5t-20 24t-46 7.5v20q29 -1 76.5 -2t99.5 -1t100 1t79 2v-20q-34 -1 -51.5 -7.5
t-23.5 -24t-6 -54.5v-408q0 -66 14 -103.5t42 -53.5t69 -16q67 0 105 32.5t54 91t16 135.5v232q0 67 -5.5 102.5t-26.5 51.5t-69 22v20q20 -1 52 -2t60 -1q23 0 45.5 1t37.5 2zM536 943q23 16 51.5 11t44.5 -30q16 -24 9.5 -48.5t-30.5 -40.5q-26 -17 -68.5 -26t-113.5 -37
l-10 11q34 41 53 72t33 53t31 35zM309 943q23 16 51.5 11t44.5 -30q16 -24 9.5 -48.5t-30.5 -40.5q-26 -17 -68.5 -26t-113.5 -37l-10 11q34 41 53 72t33 53t31 35z" />
    <glyph glyph-name="uhungarumlaut" unicode="&#x171;" horiz-adv-x="622" 
d="M548 530v-421q0 -45 12.5 -66.5t43.5 -21.5v-21q-31 3 -62 3q-50 0 -93 -3t-81 -11v72q-24 -40 -64.5 -57.5t-94.5 -17.5q-46 0 -72.5 11.5t-40.5 28.5q-15 18 -22 48t-7 81v255q0 45 -12 66.5t-44 21.5v21q32 -3 62 -3q50 0 93.5 3.5t80.5 10.5v-429q0 -21 5 -35t16 -21
t28 -7q28 0 50 20.5t22 51.5v300q0 45 -12 66.5t-44 21.5v21q32 -3 62 -3q50 0 93.5 3.5t80.5 10.5zM497 817q23 -16 27 -41t-12 -49q-17 -26 -52.5 -51t-90.5 -78l-13 6q15 51 20 87.5t9.5 62t15.5 43.5q14 23 42.5 30t53.5 -10zM320 817q23 -16 27 -41t-12 -49
q-17 -26 -52.5 -51t-90.5 -78l-13 6q15 51 20 87.5t9.5 62t15.5 43.5q14 23 42.5 30t53.5 -10z" />
    <glyph glyph-name="Uogonek" unicode="&#x172;" horiz-adv-x="693" 
d="M681 708v-20q-30 -6 -45.5 -21t-20.5 -46.5t-5 -88.5v-241q0 -62 -8.5 -117t-32.5 -95q-26 -43 -77.5 -68t-137.5 -25q-46 0 -97 10t-91 38q-34 25 -52 61t-24 84t-6 109v314q0 37 -5 54.5t-20 24t-46 7.5v20q29 -1 76.5 -2t99.5 -1t100 1t79 2v-20q-34 -1 -51.5 -7.5
t-23.5 -24t-6 -54.5v-408q0 -66 14 -103.5t42 -53.5t69 -16q67 0 105 32.5t54 91t16 135.5v232q0 67 -5.5 102.5t-26.5 51.5t-69 22v20q20 -1 52 -2t60 -1q23 0 45.5 1t37.5 2zM472 3q-62 -21 -87.5 -46.5t-25.5 -46.5q0 -20 10 -29t30 -9q17 0 36 6.5t30 16.5l13 -15
q-29 -36 -64.5 -52t-88.5 -16q-49 0 -74 18.5t-25 52.5q0 44 55.5 74t152.5 46h38z" />
    <glyph glyph-name="uogonek" unicode="&#x173;" horiz-adv-x="622" 
d="M548 530v-421q0 -45 12.5 -66.5t43.5 -21.5v-21q-31 3 -62 3q-50 0 -93 -3t-81 -11v72q-24 -40 -64.5 -57.5t-94.5 -17.5q-46 0 -72.5 11.5t-40.5 28.5q-15 18 -22 48t-7 81v255q0 45 -12 66.5t-44 21.5v21q32 -3 62 -3q50 0 93.5 3.5t80.5 10.5v-429q0 -21 5 -35t16 -21
t28 -7q28 0 50 20.5t22 51.5v300q0 45 -12 66.5t-44 21.5v21q32 -3 62 -3q50 0 93.5 3.5t80.5 10.5zM590 13q-4 -4 -9 -8t-16 -9q-39 -19 -53.5 -42.5t-14.5 -43.5t10.5 -29t29.5 -9q17 0 36 6.5t30 16.5l13 -15q-29 -36 -64.5 -52t-88.5 -16q-49 0 -74 18.5t-25 52.5
q0 44 47 74t131 46z" />
    <glyph glyph-name="Wcircumflex" unicode="&#x174;" horiz-adv-x="1010" 
d="M1018 708v-20q-23 -11 -48 -43t-45 -97l-168 -548q-12 1 -25.5 1.5t-27.5 0.5q-13 0 -26.5 -0.5t-25.5 -1.5l-210 641q-8 26 -21 36t-30 11v20q34 -1 80 -2t93 -1t88.5 1t66.5 2v-20q-31 -1 -48 -7.5t-19.5 -24t9.5 -52.5l137 -416l-29 -61l101 323q28 89 27 140.5
t-24 74t-63 23.5v20q38 -1 67.5 -2t63.5 -1q20 0 41 1t36 2zM295 708v-20q-17 -3 -22.5 -17.5t-3 -33t7.5 -33.5l151 -425l-28 -43l120 325l14 -29l-153 -432q-12 1 -25.5 1.5t-27.5 0.5q-13 0 -26.5 -0.5t-25.5 -1.5l-232 624q-13 35 -29 49t-30 15v20q36 -1 84.5 -2
t92.5 -1t78 1t55 2zM534 956q35 -47 93 -93.5t124 -78.5l-5 -15q-69 11 -135.5 28t-105.5 33q-33 -16 -88.5 -33t-112.5 -28l-5 15q65 31 122.5 77.5t94.5 94.5h18z" />
    <glyph glyph-name="wcircumflex" unicode="&#x175;" horiz-adv-x="798" 
d="M297 519v-21q-21 0 -35.5 -2.5t-19.5 -10.5t-1 -25l89 -297l-17 -23l97 378l21 -11l-133 -507q-24 2 -48.5 2t-48.5 -2l-154 442q-14 40 -30.5 48t-27.5 8v21q40 -3 83 -4.5t95 -1.5q31 0 65.5 2t64.5 4zM801 519v-21q-19 -7 -37 -27t-34 -70l-125 -401q-24 2 -48.5 2
t-48.5 -2l-127 369l30 149q26 -2 53 -1.5t53 1.5l124 -398l-13 22l46 153q31 103 7 151t-72 52v21q14 -1 36.5 -2t44.5 -1.5t34 -0.5q18 0 42 1t35 3zM420 832q31 -59 80.5 -116.5t106.5 -95.5l-8 -14q-60 11 -116.5 27.5t-91.5 32.5q-28 -16 -74 -32.5t-94 -27.5l-8 14
q56 37 105.5 94.5t81.5 117.5h18z" />
    <glyph glyph-name="Ycircumflex" unicode="&#x176;" horiz-adv-x="644" 
d="M636 709v-20q-23 -11 -49 -41.5t-57 -91.5l-180 -357h-67l-234 433q-17 32 -32 44t-26 12v21q31 -3 64.5 -4.5t73.5 -1.5q51 0 110.5 2t109.5 4v-21q-25 0 -46 -2t-30 -9.5t0 -26.5l151 -290l-47 -62l84 168q42 83 46.5 131t-17.5 69.5t-62 22.5v20q38 -1 67.5 -2
t63.5 -1q20 0 41 1t36 2zM437 393v-287q0 -36 5.5 -54t20.5 -24t45 -8v-20q-29 2 -77 2.5t-95 0.5q-51 0 -98.5 -0.5t-74.5 -2.5v20q31 2 46 8t20 24t5 54v205l109 -62zM357 956q35 -47 93 -93.5t124 -78.5l-5 -15q-69 11 -135.5 28t-105.5 33q-33 -16 -88.5 -33t-112.5 -28
l-5 15q65 31 122.5 77.5t94.5 94.5h18z" />
    <glyph glyph-name="ycircumflex" unicode="&#x177;" horiz-adv-x="529" 
d="M525 519v-21q-19 -7 -36.5 -27.5t-34.5 -69.5l-125 -372l-51 -117l-240 530q-17 38 -32 47t-26 9v21q40 -3 83 -4.5t80 -1.5q47 0 81 2t64 4v-21q-18 0 -34 -2t-23 -9.5t1 -26.5l128 -304l-11 -8l48 147q34 101 12 150.5t-66 52.5v21q21 -2 54 -3t51 -1t42 1t35 3z
M329 29l-42 -121q-18 -52 -44 -72q-13 -10 -34.5 -17t-58.5 -7q-28 0 -59.5 9t-54 29.5t-22.5 55.5t27 56t71 21q41 0 65.5 -18.5t24.5 -55.5q0 -22 -15.5 -44t-49.5 -33q8 -1 18 -1.5t16 -0.5q32 0 57 19.5t38 60.5l35 109zM269 832q31 -59 80.5 -116.5t106.5 -95.5l-8 -14
q-60 11 -116.5 27.5t-91.5 32.5q-28 -16 -74 -32.5t-94 -27.5l-8 14q56 37 105.5 94.5t81.5 117.5h18z" />
    <glyph glyph-name="Ydieresis" unicode="&#x178;" horiz-adv-x="644" 
d="M636 709v-20q-23 -11 -49 -41.5t-57 -91.5l-180 -357h-67l-234 433q-17 32 -32 44t-26 12v21q31 -3 64.5 -4.5t73.5 -1.5q51 0 110.5 2t109.5 4v-21q-25 0 -46 -2t-30 -9.5t0 -26.5l151 -290l-47 -62l84 168q42 83 46.5 131t-17.5 69.5t-62 22.5v20q38 -1 67.5 -2
t63.5 -1q20 0 41 1t36 2zM437 393v-287q0 -36 5.5 -54t20.5 -24t45 -8v-20q-29 2 -77 2.5t-95 0.5q-51 0 -98.5 -0.5t-74.5 -2.5v20q31 2 46 8t20 24t5 54v205l109 -62zM477 936q35 0 61 -26t26 -61q0 -36 -26 -61.5t-61 -25.5q-36 0 -61.5 25.5t-25.5 61.5q0 35 25.5 61
t61.5 26zM219 936q35 0 61 -26t26 -61q0 -36 -26 -61.5t-61 -25.5q-36 0 -61.5 25.5t-25.5 61.5q0 35 25.5 61t61.5 26z" />
    <glyph glyph-name="Zacute" unicode="&#x179;" horiz-adv-x="607" 
d="M561 708v-20l-303 -665h42q26 0 63.5 12t75.5 39t67 72.5t36 113.5h23q-3 -36 -3 -92q0 -25 1 -71.5t6 -96.5q-55 2 -124.5 2.5t-124.5 0.5q-68 0 -142.5 -0.5t-140.5 -2.5v20l303 665h-50q-41 0 -89 -19t-85.5 -66t-49.5 -132h-23q2 13 2.5 32t0.5 40q0 25 -1.5 71.5
t-5.5 96.5q47 -2 105 -2.5t104 -0.5q75 0 157.5 0.5t155.5 2.5zM383 939q22 11 51.5 4.5t42.5 -35.5q11 -24 1.5 -48.5t-33.5 -36.5q-23 -12 -50 -16t-65.5 -10.5t-97.5 -24.5l-7 12q49 41 74 71.5t42.5 51.5t41.5 32z" />
    <glyph glyph-name="zacute" unicode="&#x17a;" horiz-adv-x="472" 
d="M447 523l-224 -508h14q38 0 75.5 17t65 58.5t32.5 115.5h20q0 -79 1 -127.5t3 -82.5q-46 2 -96 3t-100 1q-52 0 -107 -1.5t-105 -3.5l224 508h-20q-37 0 -73.5 -17t-62 -58.5t-31.5 -115.5h-20q0 80 -1 128t-3 82q47 -2 97 -3t99 -1q53 0 107.5 1.5t104.5 3.5zM363 820
q20 -16 20.5 -43t-16.5 -48q-16 -20 -39.5 -34.5t-56.5 -35t-80 -60.5l-11 9q29 57 40 94.5t19 63.5t26 46q16 19 45.5 23.5t52.5 -15.5z" />
    <glyph glyph-name="Zdotaccent" unicode="&#x17b;" horiz-adv-x="607" 
d="M561 708v-20l-303 -665h42q26 0 63.5 12t75.5 39t67 72.5t36 113.5h23q-3 -36 -3 -92q0 -25 1 -71.5t6 -96.5q-55 2 -124.5 2.5t-124.5 0.5q-68 0 -142.5 -0.5t-140.5 -2.5v20l303 665h-50q-41 0 -89 -19t-85.5 -66t-49.5 -132h-23q2 13 2.5 32t0.5 40q0 25 -1.5 71.5
t-5.5 96.5q47 -2 105 -2.5t104 -0.5q75 0 157.5 0.5t155.5 2.5zM306 971q52 0 80.5 -21.5t28.5 -64.5t-28.5 -64.5t-80.5 -21.5t-80.5 21.5t-28.5 64.5t28.5 64.5t80.5 21.5z" />
    <glyph glyph-name="zdotaccent" unicode="&#x17c;" horiz-adv-x="472" 
d="M447 523l-224 -508h14q38 0 75.5 17t65 58.5t32.5 115.5h20q0 -79 1 -127.5t3 -82.5q-46 2 -96 3t-100 1q-52 0 -107 -1.5t-105 -3.5l224 508h-20q-37 0 -73.5 -17t-62 -58.5t-31.5 -115.5h-20q0 80 -1 128t-3 82q47 -2 97 -3t99 -1q53 0 107.5 1.5t104.5 3.5zM252 782
q52 0 80.5 -21.5t28.5 -64.5t-28.5 -64.5t-80.5 -21.5t-80.5 21.5t-28.5 64.5t28.5 64.5t80.5 21.5z" />
    <glyph glyph-name="Zcaron" unicode="&#x17d;" horiz-adv-x="607" 
d="M561 708v-20l-303 -665h42q26 0 63.5 12t75.5 39t67 72.5t36 113.5h23q-3 -36 -3 -92q0 -25 1 -71.5t6 -96.5q-55 2 -124.5 2.5t-124.5 0.5q-68 0 -142.5 -0.5t-140.5 -2.5v20l303 665h-50q-41 0 -89 -19t-85.5 -66t-49.5 -132h-23q2 13 2.5 32t0.5 40q0 25 -1.5 71.5
t-5.5 96.5q47 -2 105 -2.5t104 -0.5q75 0 157.5 0.5t155.5 2.5zM524 946l5 -15q-65 -31 -122.5 -77.5t-94.5 -94.5h-18q-35 47 -93 94t-124 78l5 15q69 -10 135.5 -27t105.5 -34q33 17 88.5 34t112.5 27z" />
    <glyph glyph-name="zcaron" unicode="&#x17e;" horiz-adv-x="472" 
d="M447 523l-224 -508h14q38 0 75.5 17t65 58.5t32.5 115.5h20q0 -79 1 -127.5t3 -82.5q-46 2 -96 3t-100 1q-52 0 -107 -1.5t-105 -3.5l224 508h-20q-37 0 -73.5 -17t-62 -58.5t-31.5 -115.5h-20q0 80 -1 128t-3 82q47 -2 97 -3t99 -1q53 0 107.5 1.5t104.5 3.5zM430 832
l8 -14q-56 -37 -105.5 -94.5t-81.5 -117.5h-18q-31 59 -80.5 117t-106.5 95l8 14q60 -10 117 -26.5t91 -33.5q29 17 74.5 33.5t93.5 26.5z" />
    <glyph glyph-name="longs" unicode="&#x17f;" horiz-adv-x="365" 
d="M20 0v21q31 0 43.5 15t12.5 57v405h-60v20h60q0 89 16 134.5t55 79.5q23 20 63 35t86 15q40 0 69 -10t51 -27q14 -11 25.5 -32.5t11.5 -50.5q0 -31 -23 -56t-60 -25q-41 0 -65.5 22t-24.5 61q0 29 17 53.5t52 35.5q-3 4 -9.5 6.5t-17.5 2.5q-17 0 -28 -5t-19 -14
q-9 -11 -14 -31t-5 -60v-549q0 -49 23 -65.5t63 -16.5v-21q-28 1 -78 2.5t-106 1.5q-40 0 -79 -1.5t-59 -2.5z" />
    <glyph glyph-name="uni018F" unicode="&#x18f;" horiz-adv-x="775" 
d="M372 -14q-89 0 -167 33.5t-124.5 104t-44.5 180.5h550l2 -19h-341q-6 -72 8 -135t48 -102t86 -39q59 0 97 63t47 219l-2 8q1 10 1 20.5v21.5q0 102 -21 169.5t-56.5 106t-78.5 54.5t-88 16q-31 0 -56.5 -6.5t-47.5 -19.5q-51 -30 -68 -80.5t-24 -122.5h-23q0 95 -1 152.5
t-3 97.5h23q5 -46 14.5 -54.5t30.5 3.5q14 8 41.5 24t73.5 29t115 13q103 0 188.5 -38t136.5 -118.5t51 -208.5q0 -129 -51.5 -211t-135 -121.5t-180.5 -39.5z" />
    <glyph glyph-name="florin" unicode="&#x192;" horiz-adv-x="612" 
d="M417 782q26 0 57 -4.5t59.5 -17t47 -35t18.5 -57.5q0 -37 -24 -62t-64 -25q-41 0 -65.5 22.5t-24.5 57.5q0 68 65 92q-4 4 -14.5 6.5t-24.5 2.5q-16 0 -34 -8t-28 -24q-13 -22 -15.5 -69t-2.5 -147v-434q0 -88 -16 -136t-55 -82q-25 -22 -70 -36t-119 -14q-21 0 -49 3.5
t-53.5 13t-42.5 28.5t-17 49q0 35 27 56t71 21q41 0 65.5 -18.5t24.5 -55.5q0 -22 -13.5 -43t-44.5 -32q7 -1 14 -1.5t13 -0.5q20 0 38.5 8t28.5 24q14 23 16 69.5t2 146.5v434q0 89 16 136.5t55 81.5q25 22 67.5 36t91.5 14zM558 518v-20h-517v20h517z" />
    <glyph glyph-name="Ohorn" unicode="&#x1a0;" horiz-adv-x="827" 
d="M526 699q60 -3 102.5 3t79.5 18l-3 -9q-25 11 -46.5 33.5t-21.5 55.5q0 35 23 55.5t54 20.5q32 0 56 -21.5t24 -60.5q0 -28 -15 -50.5t-47 -36.5q-25 -11 -71 -20.5t-110 -8.5zM414 722q113 0 198 -43t132 -123.5t47 -195.5q0 -112 -48 -196t-133.5 -131t-196.5 -47
q-113 0 -198 43t-132 124t-47 195q0 112 48.5 196t133.5 131t196 47zM410 704q-50 0 -87 -45t-57 -124t-20 -183q0 -106 23 -184.5t62 -121t86 -42.5q50 0 87 45t57 124.5t20 182.5q0 107 -23 185t-62 120.5t-86 42.5z" />
    <glyph glyph-name="ohorn" unicode="&#x1a1;" horiz-adv-x="576" 
d="M401 482l-5 20q44 0 73.5 4.5t53.5 11.5l-3 -9q-22 11 -40 32t-18 51q0 32 22.5 52t56.5 20q30 0 54 -17t24 -54q0 -28 -16 -49t-48 -35q-27 -11 -67 -18t-87 -9zM288 533q78 0 135.5 -26.5t89.5 -86.5t32 -161t-32 -161t-89.5 -86t-135.5 -26q-77 0 -135 26t-90 86
t-32 161t32 161t90 86.5t135 26.5zM288 513q-30 0 -50 -60t-20 -194t20 -193.5t50 -59.5t50 59.5t20 193.5t-20 194t-50 60z" />
    <glyph glyph-name="Uhorn" unicode="&#x1af;" horiz-adv-x="693" 
d="M354 -14q-46 0 -97 10t-91 38q-34 25 -52 61t-24 84t-6 109v314q0 37 -5 54.5t-20 24t-46 7.5v20q29 -1 76.5 -2t99.5 -1t100 1t79 2v-20q-34 -1 -51.5 -7.5t-23.5 -24t-6 -54.5v-408q0 -66 14 -103.5t42 -53.5t69 -16q67 0 105 32.5t54 91t16 135.5v410l2 -6
q-26 0 -52.5 0.5t-51.5 3.5l5 20q23 -1 37 -2.5t36 -1.5q38 0 65 4t51 17l-3 -8q-25 11 -46.5 33.5t-21.5 55.5q0 35 23 55.5t54 20.5q32 0 56 -21.5t24 -59.5q0 -31 -17.5 -52.5t-44.5 -35.5q-25 -13 -50.5 -19.5t-50.5 -8.5l8 5v-399q0 -62 -8.5 -117t-32.5 -95
q-26 -43 -77.5 -68t-137.5 -25z" />
    <glyph glyph-name="uhorn" unicode="&#x1b0;" horiz-adv-x="622" 
d="M469 498l-5 20q44 2 73.5 10t53.5 21l-3 -9q-22 11 -40 32t-18 51q0 32 22.5 52t56.5 20q30 0 54 -17t24 -52q0 -27 -17 -48t-46 -38q-27 -15 -67.5 -27.5t-87.5 -14.5zM548 530v-421q0 -45 12.5 -66.5t43.5 -21.5v-21q-31 3 -62 3q-50 0 -93 -3t-81 -11v72
q-24 -40 -64.5 -57.5t-94.5 -17.5q-46 0 -72.5 11.5t-40.5 28.5q-15 18 -22 48t-7 81v255q0 45 -12 66.5t-44 21.5v21q32 -3 62 -3q50 0 93.5 3.5t80.5 10.5v-429q0 -21 5 -35t16 -21t28 -7q28 0 50 20.5t22 51.5v300q0 45 -12 66.5t-44 21.5v21q32 -3 62 -3q50 0 93.5 3.5
t80.5 10.5z" />
    <glyph glyph-name="uni01B7" unicode="&#x1b7;" horiz-adv-x="607" 
d="M561 708v-20l-157 -347l-31 57q64 -21 109 -49t69.5 -64.5t24.5 -84.5q0 -56 -34.5 -105t-100.5 -79t-162 -30q-58 0 -101.5 11t-69.5 26q-6 4 -15.5 9t-17.5 5q-10 0 -15 -11t-8 -33h-23q2 26 2.5 60.5t1 89.5t0.5 140h23q4 -71 24 -132t60 -98t102 -37q53 0 86 26
t48 66.5t15 83.5q0 80 -47.5 127t-133.5 61v20l130 285h-50q-41 0 -89 -19t-85.5 -66t-49.5 -132h-23q2 13 2.5 32t0.5 38q0 27 -1.5 73.5t-5.5 96.5q47 -2 105 -2.5t104 -0.5q75 0 157.5 0.5t155.5 2.5z" />
    <glyph glyph-name="uni01CD" unicode="&#x1cd;" horiz-adv-x="692" 
d="M398 708l242 -624q14 -34 30 -48.5t29 -15.5v-20q-36 2 -84 2.5t-98 0.5q-51 0 -96 -0.5t-72 -2.5v20q51 2 64.5 17.5t-6.5 66.5l-160 443l20 35l-138 -359q-33 -86 -32.5 -129t25.5 -57.5t65 -16.5v-20q-37 2 -66.5 2.5t-64.5 0.5q-19 0 -40.5 -0.5t-36.5 -2.5v20
q23 4 45.5 29.5t46.5 87.5l222 571q24 -2 52.5 -2t52.5 2zM433 288v-20h-298l10 20h288zM563 946l5 -15q-65 -31 -122.5 -77.5t-94.5 -94.5h-18q-35 47 -93 94t-124 78l5 15q69 -10 135.5 -27t105.5 -34q33 17 88.5 34t112.5 27z" />
    <glyph glyph-name="uni01CE" unicode="&#x1ce;" horiz-adv-x="531" 
d="M151 -7q-68 0 -98.5 36.5t-30.5 84.5q0 43 19 70t49.5 44t64.5 28.5t64.5 22.5t49.5 25.5t19 37.5v89q0 16 -5.5 35t-20.5 33t-45 14q-16 0 -30.5 -4.5t-25.5 -12.5q35 -13 51 -36.5t16 -51.5q0 -40 -28 -63t-66 -23q-40 0 -62 25t-22 62q0 31 15.5 52.5t46.5 39.5
q30 17 72 24.5t88 7.5q49 0 91 -9.5t72 -40.5q21 -22 27 -55t6 -85v-268q0 -25 3.5 -34t12.5 -9q8 0 15.5 5t14.5 10l10 -17q-22 -19 -54.5 -28t-68.5 -9q-65 0 -86.5 23t-23.5 53q-20 -33 -54 -54.5t-86 -21.5zM251 73q11 0 19.5 3.5t17.5 13.5v211q-10 -18 -25 -31.5
t-29.5 -29t-24 -38t-9.5 -57.5q0 -40 14.5 -56t36.5 -16zM447 832l8 -14q-56 -37 -105.5 -94.5t-81.5 -117.5h-18q-31 59 -80.5 117t-106.5 95l8 14q60 -10 117 -26.5t91 -33.5q29 17 74.5 33.5t93.5 26.5z" />
    <glyph glyph-name="uni01D3" unicode="&#x1d3;" horiz-adv-x="693" 
d="M681 708v-20q-30 -6 -45.5 -21t-20.5 -46.5t-5 -88.5v-241q0 -62 -8.5 -117t-32.5 -95q-26 -43 -77.5 -68t-137.5 -25q-46 0 -97 10t-91 38q-34 25 -52 61t-24 84t-6 109v314q0 37 -5 54.5t-20 24t-46 7.5v20q29 -1 76.5 -2t99.5 -1t100 1t79 2v-20q-34 -1 -51.5 -7.5
t-23.5 -24t-6 -54.5v-408q0 -66 14 -103.5t42 -53.5t69 -16q67 0 105 32.5t54 91t16 135.5v232q0 67 -5.5 102.5t-26.5 51.5t-69 22v20q20 -1 52 -2t60 -1q23 0 45.5 1t37.5 2zM579 946l5 -15q-65 -31 -122.5 -77.5t-94.5 -94.5h-18q-35 47 -93 94t-124 78l5 15
q69 -10 135.5 -27t105.5 -34q33 17 88.5 34t112.5 27z" />
    <glyph glyph-name="uni01D4" unicode="&#x1d4;" horiz-adv-x="622" 
d="M548 530v-421q0 -45 12.5 -66.5t43.5 -21.5v-21q-31 3 -62 3q-50 0 -93 -3t-81 -11v72q-24 -40 -64.5 -57.5t-94.5 -17.5q-46 0 -72.5 11.5t-40.5 28.5q-15 18 -22 48t-7 81v255q0 45 -12 66.5t-44 21.5v21q32 -3 62 -3q50 0 93.5 3.5t80.5 10.5v-429q0 -21 5 -35t16 -21
t28 -7q28 0 50 20.5t22 51.5v300q0 45 -12 66.5t-44 21.5v21q32 -3 62 -3q50 0 93.5 3.5t80.5 10.5zM473 832l8 -14q-56 -37 -105.5 -94.5t-81.5 -117.5h-18q-31 59 -80.5 117t-106.5 95l8 14q60 -10 117 -26.5t91 -33.5q29 17 74.5 33.5t93.5 26.5z" />
    <glyph glyph-name="uni01E4" unicode="&#x1e4;" horiz-adv-x="756" 
d="M424 722q70 0 115 -19t79 -46q11 -9 20 -9q19 0 25 60h23q-2 -40 -3 -97.5t-1 -152.5h-23q-7 72 -24.5 120.5t-67.5 82.5q-21 14 -49 22t-54 8q-58 0 -96 -31.5t-60.5 -82t-32 -110t-9.5 -115.5q0 -180 44 -263t117 -83q16 0 28 3t21 9q11 8 16 20t5 30v130q0 49 -7.5 73
t-29.5 33t-64 10v20q23 -1 56 -1.5t69 -1t66 -0.5q48 0 88.5 1t65.5 2v-20q-25 -2 -33 -16t-8 -70v-228h-20q-1 17 -8 37t-23 20q-8 0 -22.5 -4t-45.5 -19q-39 -19 -82.5 -33.5t-86.5 -14.5q-188 0 -282 95.5t-94 266.5q0 112 49.5 196t137 131t201.5 47zM391 178v20h365
v-20h-365z" />
    <glyph glyph-name="uni01E5" unicode="&#x1e5;" horiz-adv-x="560" 
d="M598 -85v-20h-648v20h648zM221 -188q-68 0 -117.5 10.5t-76.5 30t-27 47.5t28 52.5t89 38.5l10 -16q-16 -19 -21.5 -34.5t-5.5 -29.5q0 -39 35.5 -60.5t99.5 -21.5q45 0 75.5 12.5t46 34.5t15.5 50t-21 48t-85 20h-54q-46 0 -77 12t-47 33.5t-16 50.5q0 47 37 79t95 57
l9 -8q-10 -7 -21 -17t-11 -29q0 -32 36 -32h97q97 0 157 -32.5t60 -109.5q0 -50 -32.5 -92.5t-100.5 -68t-177 -25.5zM235 213q-93 0 -154 39t-61 121q0 83 61 121.5t154 38.5t154 -38.5t61 -121.5q0 -82 -61 -121t-154 -39zM235 231q19 0 30 31t11 111t-11 111t-30 31
t-30 -31t-11 -111t11 -111t30 -31zM398 445l-21 7q16 42 49.5 67.5t73.5 25.5q35 0 52 -19t17 -47q0 -29 -15.5 -45t-37.5 -16q-19 0 -34.5 13t-17.5 39t19 66l4 -7q-35 -13 -55 -32t-34 -52z" />
    <glyph glyph-name="Gcaron" unicode="&#x1e6;" horiz-adv-x="756" 
d="M424 722q70 0 115 -19t79 -46q11 -9 20 -9q19 0 25 60h23q-2 -40 -3 -97.5t-1 -152.5h-23q-7 72 -24.5 120.5t-67.5 82.5q-21 14 -49 22t-54 8q-58 0 -96 -31.5t-60.5 -82t-32 -110t-9.5 -115.5q0 -180 44 -263t117 -83q16 0 28 3t21 9q11 8 16 20t5 30v100q0 49 -7.5 73
t-29.5 33t-64 10v20q23 -1 56 -1.5t69 -1t66 -0.5q48 0 88.5 1t65.5 2v-20q-25 -2 -33 -16t-8 -70v-198h-20q-1 17 -8 37t-23 20q-8 0 -22.5 -4t-45.5 -19q-39 -19 -82.5 -33.5t-86.5 -14.5q-188 0 -282 95.5t-94 266.5q0 112 49.5 196t137 131t201.5 47zM621 946l5 -15
q-65 -31 -122.5 -77.5t-94.5 -94.5h-18q-35 47 -93 94t-124 78l5 15q69 -10 135.5 -27t105.5 -34q33 17 88.5 34t112.5 27z" />
    <glyph glyph-name="gcaron" unicode="&#x1e7;" horiz-adv-x="570" 
d="M221 -188q-68 0 -117.5 10.5t-76.5 30t-27 47.5t28 52.5t89 38.5l10 -16q-16 -19 -21.5 -34.5t-5.5 -29.5q0 -39 35.5 -60.5t99.5 -21.5q45 0 75.5 12.5t46 34.5t15.5 50t-21 48t-85 20h-54q-46 0 -77 12t-47 33.5t-16 50.5q0 47 37 79t95 57l9 -8q-10 -7 -21 -17
t-11 -29q0 -32 36 -32h97q97 0 157 -32.5t60 -109.5q0 -50 -32.5 -92.5t-100.5 -68t-177 -25.5zM235 213q-93 0 -154 39t-61 121q0 83 61 121.5t154 38.5t154 -38.5t61 -121.5q0 -82 -61 -121t-154 -39zM235 231q19 0 30 31t11 111t-11 111t-30 31t-30 -31t-11 -111t11 -111
t30 -31zM398 445l-21 7q16 42 49.5 67.5t73.5 25.5q35 0 52 -19t17 -47q0 -29 -15.5 -45t-37.5 -16q-19 0 -34.5 13t-17.5 39t19 66l4 -7q-35 -13 -55 -32t-34 -52zM433 832l8 -14q-56 -37 -105.5 -94.5t-81.5 -117.5h-18q-31 59 -80.5 117t-106.5 95l8 14q60 -10 117 -26.5
t91 -33.5q29 17 74.5 33.5t93.5 26.5z" />
    <glyph glyph-name="uni01E8" unicode="&#x1e8;" horiz-adv-x="754" 
d="M739 708v-19q-34 -9 -75.5 -33t-88.5 -77l-184 -209l81 106l237 -395q13 -21 26 -35t35 -26v-20q-42 2 -89.5 2.5t-90.5 0.5q-23 0 -57 -0.5t-86 -2.5v20q47 2 54.5 11t-7.5 34l-145 245q-10 18 -18 27t-15.5 13t-19.5 5v21q44 2 83 29.5t94 89.5l34 38q42 47 44.5 81.5
t-21 54t-61.5 20.5v19q42 -1 77.5 -2t91.5 -1q61 0 101 3zM373 708v-20q-30 -1 -45.5 -7.5t-20.5 -24t-5 -54.5v-496q0 -36 5.5 -54t20.5 -24t45 -8v-20q-29 2 -74.5 2.5t-92.5 0.5q-54 0 -101.5 -0.5t-76.5 -2.5v20q31 2 46 8t20 24t5 54v496q0 37 -5 54.5t-20.5 24
t-45.5 7.5v20q29 -1 76.5 -2t101.5 -1q47 0 92.5 1t74.5 2zM649 946l5 -15q-65 -31 -122.5 -77.5t-94.5 -94.5h-18q-35 47 -93 94t-124 78l5 15q69 -10 135.5 -27t105.5 -34q33 17 88.5 34t112.5 27z" />
    <glyph glyph-name="uni01E9" unicode="&#x1e9;" horiz-adv-x="609" 
d="M254 782v-689q0 -42 12.5 -57t43.5 -15v-21q-20 1 -60 2.5t-82 1.5t-85 -1.5t-65 -2.5v21q31 0 43.5 15t12.5 57v569q0 45 -12 66.5t-44 21.5v21q32 -3 62 -3q50 0 93.5 3.5t80.5 10.5zM586 519v-20q-36 -10 -73 -35t-75 -63l-35 -35l7 13l161 -306q8 -15 17 -29.5
t23 -22.5v-21q-17 1 -51.5 2.5t-69.5 1.5q-40 0 -80.5 -1.5t-60.5 -2.5v21q20 0 26.5 9t-1.5 25l-88 186q-7 14 -16 18t-21 4v19q14 0 26 2.5t22 12.5l77 72q35 32 35.5 60.5t-22 47.5t-58.5 22v20q29 -1 62.5 -2t57.5 -1q21 0 48 0.5t51.5 1t37.5 1.5zM506 1071l8 -14
q-56 -37 -105.5 -94.5t-81.5 -117.5h-18q-31 59 -80.5 117t-106.5 95l8 14q60 -10 117 -26.5t91 -33.5q29 17 74.5 33.5t93.5 26.5z" />
    <glyph glyph-name="uni01EE" unicode="&#x1ee;" horiz-adv-x="607" 
d="M561 708v-20l-157 -347l-31 57q64 -21 109 -49t69.5 -64.5t24.5 -84.5q0 -56 -34.5 -105t-100.5 -79t-162 -30q-58 0 -101.5 11t-69.5 26q-6 4 -15.5 9t-17.5 5q-10 0 -15 -11t-8 -33h-23q2 26 2.5 60.5t1 89.5t0.5 140h23q4 -71 24 -132t60 -98t102 -37q53 0 86 26
t48 66.5t15 83.5q0 80 -47.5 127t-133.5 61v20l130 285h-50q-41 0 -89 -19t-85.5 -66t-49.5 -132h-23q2 13 2.5 32t0.5 38q0 27 -1.5 73.5t-5.5 96.5q47 -2 105 -2.5t104 -0.5q75 0 157.5 0.5t155.5 2.5zM524 946l5 -15q-65 -31 -122.5 -77.5t-94.5 -94.5h-18q-35 47 -93 94
t-124 78l5 15q69 -10 135.5 -27t105.5 -34q33 17 88.5 34t112.5 27z" />
    <glyph glyph-name="uni01EF" unicode="&#x1ef;" horiz-adv-x="462" 
d="M108 205q68 0 104.5 -29t36.5 -99q0 -61 -25 -105t-64.5 -72t-86 -42.5t-89.5 -17.5v-21q79 0 158.5 17.5t145.5 50t106 78.5t40 104q0 41 -21 71.5t-60 50.5t-92 28l28 -31l148 335q-50 -2 -104.5 -3.5t-114.5 -1.5q-42 0 -92 1t-97 3q2 -34 3 -82t1 -128h20
q6 74 31.5 115.5t62 58.5t73.5 17h20zM420 832l8 -14q-56 -37 -105.5 -94.5t-81.5 -117.5h-18q-31 59 -80.5 117t-106.5 95l8 14q60 -10 117 -26.5t91 -33.5q29 17 74.5 33.5t93.5 26.5z" />
    <glyph glyph-name="uni01F4" unicode="&#x1f4;" horiz-adv-x="756" 
d="M424 722q70 0 115 -19t79 -46q11 -9 20 -9q19 0 25 60h23q-2 -40 -3 -97.5t-1 -152.5h-23q-7 72 -24.5 120.5t-67.5 82.5q-21 14 -49 22t-54 8q-58 0 -96 -31.5t-60.5 -82t-32 -110t-9.5 -115.5q0 -180 44 -263t117 -83q16 0 28 3t21 9q11 8 16 20t5 30v100q0 49 -7.5 73
t-29.5 33t-64 10v20q23 -1 56 -1.5t69 -1t66 -0.5q48 0 88.5 1t65.5 2v-20q-25 -2 -33 -16t-8 -70v-198h-20q-1 17 -8 37t-23 20q-8 0 -22.5 -4t-45.5 -19q-39 -19 -82.5 -33.5t-86.5 -14.5q-188 0 -282 95.5t-94 266.5q0 112 49.5 196t137 131t201.5 47zM480 939
q22 11 51.5 4.5t42.5 -35.5q11 -24 1.5 -48.5t-33.5 -36.5q-23 -12 -50 -16t-65.5 -10.5t-97.5 -24.5l-7 12q49 41 74 71.5t42.5 51.5t41.5 32z" />
    <glyph glyph-name="uni01F5" unicode="&#x1f5;" horiz-adv-x="570" 
d="M221 -188q-68 0 -117.5 10.5t-76.5 30t-27 47.5t28 52.5t89 38.5l10 -16q-16 -19 -21.5 -34.5t-5.5 -29.5q0 -39 35.5 -60.5t99.5 -21.5q45 0 75.5 12.5t46 34.5t15.5 50t-21 48t-85 20h-54q-46 0 -77 12t-47 33.5t-16 50.5q0 47 37 79t95 57l9 -8q-10 -7 -21 -17
t-11 -29q0 -32 36 -32h97q97 0 157 -32.5t60 -109.5q0 -50 -32.5 -92.5t-100.5 -68t-177 -25.5zM235 213q-93 0 -154 39t-61 121q0 83 61 121.5t154 38.5t154 -38.5t61 -121.5q0 -82 -61 -121t-154 -39zM235 231q19 0 30 31t11 111t-11 111t-30 31t-30 -31t-11 -111t11 -111
t30 -31zM398 445l-21 7q16 42 49.5 67.5t73.5 25.5q35 0 52 -19t17 -47q0 -29 -15.5 -45t-37.5 -16q-19 0 -34.5 13t-17.5 39t19 66l4 -7q-35 -13 -55 -32t-34 -52zM366 820q20 -16 20.5 -43t-16.5 -48q-16 -20 -39.5 -34.5t-56.5 -35t-80 -60.5l-11 9q29 57 40 94.5
t19 63.5t26 46q16 19 45.5 23.5t52.5 -15.5z" />
    <glyph glyph-name="Oslashacute" unicode="&#x1fe;" horiz-adv-x="827" 
d="M414 722q113 0 198 -43t132 -123.5t47 -195.5q0 -112 -48 -196t-133.5 -131t-196.5 -47q-113 0 -198 43t-132 124t-47 195q0 112 48.5 196t133.5 131t196 47zM410 704q-50 0 -87 -45t-57 -124t-20 -183q0 -106 23 -184.5t62 -121t86 -42.5q50 0 87 45t57 124.5t20 182.5
q0 107 -23 185t-62 120.5t-86 42.5zM572 640l15 -20l-338 -545l-18 18zM216 93l18 -18l-114 -158l-21 14zM676 783l19 -13l-101 -150l-15 20zM489 939q22 11 51.5 4.5t42.5 -35.5q11 -24 1.5 -48.5t-33.5 -36.5q-23 -12 -50 -16t-65.5 -10.5t-97.5 -24.5l-7 12
q49 41 74 71.5t42.5 51.5t41.5 32z" />
    <glyph glyph-name="oslashacute" unicode="&#x1ff;" horiz-adv-x="576" 
d="M288 533q78 0 135.5 -26.5t89.5 -86.5t32 -161t-32 -161t-89.5 -86t-135.5 -26q-77 0 -135 26t-90 86t-32 161t32 161t90 86.5t135 26.5zM288 513q-30 0 -50 -60t-20 -194t20 -193.5t50 -59.5t50 59.5t20 193.5t-20 194t-50 60zM390 466l15 -20l-213 -383l-16 21zM149 73
l15 -20l-88 -126l-19 13zM500 592l19 -13l-92 -133l-15 20zM399 820q20 -16 20.5 -43t-16.5 -48q-16 -20 -39.5 -34.5t-56.5 -35t-80 -60.5l-11 9q29 57 40 94.5t19 63.5t26 46q16 19 45.5 23.5t52.5 -15.5z" />
    <glyph glyph-name="uni0218" unicode="&#x218;" horiz-adv-x="613" 
d="M302 722q65 0 101 -13t61 -27q12 -7 19.5 -10.5t14.5 -3.5q16 0 22 44h23q-1 -21 -2.5 -49t-2 -74t-0.5 -121h-23q-4 55 -25.5 107t-59 86t-89.5 34q-44 0 -73 -24t-29 -69q0 -37 18 -63.5t56.5 -55.5t101.5 -73q45 -31 81.5 -62t58.5 -70t22 -94q0 -67 -37.5 -111
t-99.5 -65.5t-135 -21.5q-68 0 -108.5 12t-68.5 25q-22 14 -34 14q-16 0 -22 -44h-23q2 26 2.5 60.5t1 89.5t0.5 140h23q4 -70 22.5 -131t57 -98.5t102.5 -37.5q55 0 87.5 26t32.5 72q0 62 -41 103.5t-105 84.5q-47 32 -88 64t-65.5 72t-24.5 95q0 66 35 107.5t92 61.5
t121 20zM310 -45q40 0 66.5 -20.5t26.5 -61.5q0 -50 -34 -82.5t-101 -34.5l-2 22q43 5 64.5 16.5t27.5 33.5q-7 -7 -19.5 -11t-33.5 -4q-40 0 -62 17.5t-22 51.5q0 35 23 54t66 19z" />
    <glyph glyph-name="uni0219" unicode="&#x219;" horiz-adv-x="472" 
d="M231 533q44 0 77.5 -9.5t48.5 -17.5q35 -21 43 26h20q-2 -29 -3 -70.5t-1 -109.5h-20q-4 37 -17.5 73t-39 60t-66.5 24q-25 0 -42 -15t-17 -41q0 -30 18 -53.5t46 -45t56 -45.5q46 -37 77 -74t31 -95q0 -45 -27.5 -80t-73 -54.5t-101.5 -19.5q-35 0 -61 7.5t-42 17.5
q-16 8 -27.5 12.5t-22.5 4.5q-10 0 -17 -10.5t-11 -24.5h-20q2 32 3 78t1 122h20q6 -53 23.5 -94t45 -64.5t63.5 -23.5q23 0 40.5 13.5t17.5 41.5q0 44 -26.5 74t-66.5 66q-30 28 -56.5 54.5t-43.5 58t-17 70.5q0 45 26.5 77t69.5 49.5t92 17.5zM234 -45q40 0 66.5 -20.5
t26.5 -61.5q0 -50 -34 -82.5t-101 -34.5l-2 22q43 5 64.5 16.5t27.5 33.5q-7 -7 -19.5 -11t-33.5 -4q-40 0 -62 17.5t-22 51.5q0 35 23 54t66 19z" />
    <glyph glyph-name="uni021A" unicode="&#x21a;" horiz-adv-x="699" 
d="M676 708q-4 -59 -5.5 -114t-1.5 -84q0 -21 1 -40t2 -32h-23q-23 94 -55.5 148t-69 76.5t-72.5 22.5h-1v-572q0 -41 8.5 -61t32.5 -26t70 -6v-20q-35 1 -94.5 2t-124.5 1q-62 0 -117 -1t-89 -2v20q46 0 70 6t32.5 26t8.5 61v572h-1q-36 0 -72.5 -22.5t-68.5 -76
t-56 -148.5h-23q2 13 2.5 32t0.5 40q0 29 -1.5 84t-5.5 114q48 -1 106 -2t116 -1h105h105t116 1t105 2zM344 -45q40 0 66.5 -20.5t26.5 -61.5q0 -50 -34 -82.5t-101 -34.5l-2 22q43 5 64.5 16.5t27.5 33.5q-7 -7 -19.5 -11t-33.5 -4q-40 0 -62 17.5t-22 51.5q0 35 23 54
t66 19z" />
    <glyph glyph-name="uni021B" unicode="&#x21b;" horiz-adv-x="350" 
d="M252 681v-162h98v-20h-98v-415q0 -19 7 -27.5t23 -8.5q11 0 26 6.5t28 22.5l15 -12q-21 -36 -55.5 -57.5t-86.5 -21.5q-33 0 -59.5 8.5t-43.5 25.5q-22 22 -28 54.5t-6 84.5v340h-76v20h76v118q53 0 96.5 10.5t83.5 33.5zM214 -45q40 0 66.5 -20.5t26.5 -61.5
q0 -50 -34 -82.5t-101 -34.5l-2 22q43 5 64.5 16.5t27.5 33.5q-7 -7 -19.5 -11t-33.5 -4q-40 0 -62 17.5t-22 51.5q0 35 23 54t66 19z" />
    <glyph glyph-name="uni021E" unicode="&#x21e;" horiz-adv-x="829" 
d="M456 0v20q31 2 46 8t20 24t5 54v496q0 37 -5 54.5t-20.5 24t-45.5 7.5v20q31 -1 79.5 -2t97.5 -1q51 0 96 1t72 2v-20q-30 -1 -45.5 -7.5t-20.5 -24t-5 -54.5v-496q0 -36 5.5 -54t20.5 -24t45 -8v-20q-27 2 -72 2.5t-96 0.5q-49 0 -97.5 -0.5t-79.5 -2.5zM28 0v20
q31 2 46 8t20 24t5 54v496q0 37 -5 54.5t-20.5 24t-45.5 7.5v20q29 -1 76.5 -2t101.5 -1q47 0 92.5 1t74.5 2v-20q-30 -1 -45.5 -7.5t-20.5 -24t-5 -54.5v-496q0 -36 5.5 -54t20.5 -24t45 -8v-20q-29 2 -74.5 2.5t-92.5 0.5q-54 0 -101.5 -0.5t-76.5 -2.5zM217 346v20h395
v-20h-395zM635 946l5 -15q-65 -31 -122.5 -77.5t-94.5 -94.5h-18q-35 47 -93 94t-124 78l5 15q69 -10 135.5 -27t105.5 -34q33 17 88.5 34t112.5 27z" />
    <glyph glyph-name="uni021F" unicode="&#x21f;" horiz-adv-x="622" 
d="M254 782v-324q24 40 64.5 57.5t94.5 17.5q46 0 72.5 -11.5t40.5 -28.5q15 -18 22 -48t7 -81v-271q0 -42 12.5 -57t43.5 -15v-21q-20 1 -60.5 2.5t-79.5 1.5q-42 0 -82 -1.5t-60 -2.5v21q26 0 36 15t10 57v325q0 21 -5 35t-15.5 21t-28.5 7q-28 0 -50 -20t-22 -52v-316
q0 -42 10.5 -57t35.5 -15v-21q-19 1 -56 2.5t-76 1.5q-42 0 -85 -1.5t-65 -2.5v21q31 0 43.5 15t12.5 57v569q0 45 -12 66.5t-44 21.5v21q32 -3 62 -3q50 0 93.5 3.5t80.5 10.5zM482 1071l8 -14q-56 -37 -105.5 -94.5t-81.5 -117.5h-18q-31 59 -80.5 117t-106.5 95l8 14
q60 -10 117 -26.5t91 -33.5q29 17 74.5 33.5t93.5 26.5z" />
    <glyph glyph-name="uni0237" unicode="&#x237;" horiz-adv-x="317" 
d="M-21 -188v20q40 0 67.5 28.5t27.5 97.5v452q0 45 -12 66.5t-44 21.5v21q32 -3 62 -3q50 0 93.5 3.5t80.5 10.5v-450q0 -88 -16 -136t-55 -82q-25 -22 -73 -36t-131 -14z" />
    <glyph glyph-name="uni0259" unicode="&#x259;" horiz-adv-x="503" 
d="M215 -14q-88 0 -138.5 51.5t-50.5 172.5h313l2 -19h-169q-1 -49 4 -90.5t16 -66.5t30 -25q27 0 44 42.5t22 145.5l-4 8q1 10 1 20v21q0 70 -17.5 109t-44 54t-53.5 15q-20 0 -54 -10.5t-67 -56.5l-17 6q12 40 38.5 79.5t68.5 65t102 25.5q64 0 116.5 -26t83.5 -86
t31 -161q0 -96 -34 -156.5t-92.5 -89t-130.5 -28.5z" />
    <glyph glyph-name="uni0292" unicode="&#x292;" horiz-adv-x="462" 
d="M108 205q68 0 104.5 -29t36.5 -99q0 -61 -25 -105t-64.5 -72t-86 -42.5t-89.5 -17.5v-21q79 0 158.5 17.5t145.5 50t106 78.5t40 104q0 41 -21 71.5t-60 50.5t-92 28l28 -31l148 335q-50 -2 -104.5 -3.5t-114.5 -1.5q-42 0 -92 1t-97 3q2 -34 3 -82t1 -128h20
q6 74 31.5 115.5t62 58.5t73.5 17h20z" />
    <glyph glyph-name="uni02BC" unicode="&#x2bc;" horiz-adv-x="258" 
d="M120 722q26 0 46.5 -9.5t32.5 -27.5q11 -14 18 -39t7 -56q0 -50 -26 -94.5t-80 -69.5l-9 18q26 12 47 34.5t28 47.5q9 28 3 55q-26 -31 -73 -31q-40 0 -64 22.5t-24 63.5q0 39 26 62.5t68 23.5z" />
    <glyph glyph-name="circumflex" unicode="&#x2c6;" horiz-adv-x="492" 
d="M255 832q31 -59 80.5 -116.5t106.5 -95.5l-8 -14q-60 11 -116.5 27.5t-91.5 32.5q-28 -16 -74 -32.5t-94 -27.5l-8 14q56 37 105.5 94.5t81.5 117.5h18z" />
    <glyph glyph-name="caron" unicode="&#x2c7;" horiz-adv-x="492" 
d="M434 832l8 -14q-56 -37 -105.5 -94.5t-81.5 -117.5h-18q-31 59 -80.5 117t-106.5 95l8 14q60 -10 117 -26.5t91 -33.5q29 17 74.5 33.5t93.5 26.5z" />
    <glyph glyph-name="breve" unicode="&#x2d8;" horiz-adv-x="600" 
d="M396 788l17 -9q-11 -38 -34.5 -76.5t-63.5 -64t-101 -25.5t-101 25.5t-63.5 64t-34.5 76.5l17 9q23 -19 66.5 -37.5t115.5 -18.5t115.5 18.5t66.5 37.5z" />
    <glyph glyph-name="dotaccent" unicode="&#x2d9;" horiz-adv-x="600" 
d="M99 782q52 0 80.5 -21.5t28.5 -64.5t-28.5 -64.5t-80.5 -21.5t-80.5 21.5t-28.5 64.5t28.5 64.5t80.5 21.5z" />
    <glyph glyph-name="ring" unicode="&#x2da;" horiz-adv-x="600" 
d="M131 801q47 0 82 -27t35 -74t-35 -74.5t-82 -27.5q-46 0 -81 27.5t-35 74.5t35 74t81 27zM131 780q-31 0 -59.5 -21t-28.5 -60q0 -40 28.5 -60t59.5 -20q32 0 60.5 20t28.5 60q0 39 -28.5 60t-60.5 21z" />
    <glyph glyph-name="ogonek" unicode="&#x2db;" horiz-adv-x="600" 
d="M211 13q-4 -4 -9 -8t-16 -9q-39 -19 -53.5 -42.5t-14.5 -43.5t10.5 -29t29.5 -9q17 0 36 6.5t30 16.5l13 -15q-29 -36 -64.5 -52t-88.5 -16q-49 0 -74 18.5t-25 52.5q0 44 47 74t131 46z" />
    <glyph glyph-name="tilde" unicode="&#x2dc;" horiz-adv-x="600" 
d="M134 798q33 0 55.5 -10t41.5 -23t38.5 -23t45.5 -10q21 0 40.5 12.5t36.5 40.5l14 -7q-17 -87 -52 -125t-76 -38q-33 0 -56 10t-41.5 23.5t-38.5 23.5t-46 10q-21 0 -40.5 -12.5t-36.5 -41.5l-14 7q17 87 52.5 125t76.5 38z" />
    <glyph glyph-name="hungarumlaut" unicode="&#x2dd;" horiz-adv-x="600" 
d="M359 817q23 -16 27 -41t-12 -49q-17 -26 -52.5 -51t-90.5 -78l-13 6q15 51 20 87.5t9.5 62t15.5 43.5q14 23 42.5 30t53.5 -10zM182 817q23 -16 27 -41t-12 -49q-17 -26 -52.5 -51t-90.5 -78l-13 6q15 51 20 87.5t9.5 62t15.5 43.5q14 23 42.5 30t53.5 -10z" />
    <glyph glyph-name="gravecomb" unicode="&#x300;" 
d="M20 820q23 21 52.5 15.5t45.5 -23.5q18 -20 26 -46t19.5 -63.5t39.5 -94.5l-11 -9q-47 40 -80 60.5t-56 35t-40 34.5q-17 21 -16.5 47.5t20.5 43.5z" />
    <glyph glyph-name="acutecomb" unicode="&#x301;" 
d="M203 820q20 -16 20.5 -43t-16.5 -48q-16 -20 -39.5 -34.5t-56.5 -35t-80 -60.5l-11 9q29 57 40 94.5t19 63.5t26 46q16 19 45.5 23.5t52.5 -15.5z" />
    <glyph glyph-name="uni0302" unicode="&#x302;" 
d="M210 832q31 -59 80.5 -116.5t106.5 -95.5l-8 -14q-60 11 -116.5 27.5t-91.5 32.5q-28 -16 -74 -32.5t-94 -27.5l-8 14q56 37 105.5 94.5t81.5 117.5h18z" />
    <glyph glyph-name="tildecomb" unicode="&#x303;" 
d="M134 798q33 0 55.5 -10t41.5 -23t38.5 -23t45.5 -10q21 0 40.5 12.5t36.5 40.5l14 -7q-17 -87 -52 -125t-76 -38q-33 0 -56 10t-41.5 23.5t-38.5 23.5t-46 10q-21 0 -40.5 -12.5t-36.5 -41.5l-14 7q17 87 52.5 125t76.5 38z" />
    <glyph glyph-name="uni0304" unicode="&#x304;" 
d="M357 712v-25h-352v25h352z" />
    <glyph glyph-name="uni0306" unicode="&#x306;" 
d="M396 788l17 -9q-11 -38 -34.5 -76.5t-63.5 -64t-101 -25.5t-101 25.5t-63.5 64t-34.5 76.5l17 9q23 -19 66.5 -37.5t115.5 -18.5t115.5 18.5t66.5 37.5z" />
    <glyph glyph-name="uni0307" unicode="&#x307;" 
d="M99 782q52 0 80.5 -21.5t28.5 -64.5t-28.5 -64.5t-80.5 -21.5t-80.5 21.5t-28.5 64.5t28.5 64.5t80.5 21.5z" />
    <glyph glyph-name="uni0308" unicode="&#x308;" 
d="M314 772q35 0 61 -26t26 -61q0 -36 -26 -61.5t-61 -25.5q-36 0 -61.5 25.5t-25.5 61.5q0 35 25.5 61t61.5 26zM76 772q35 0 61 -26t26 -61q0 -36 -26 -61.5t-61 -25.5q-36 0 -61.5 25.5t-25.5 61.5q0 35 25.5 61t61.5 26z" />
    <glyph glyph-name="hookabovecomb" unicode="&#x309;" 
d="M144 600v55q41 19 58.5 40.5t17.5 51.5q0 37 -21 54t-52 17q-15 0 -28.5 -3t-18.5 -6q26 -8 40.5 -23t14.5 -38q0 -26 -17.5 -41.5t-43.5 -15.5q-27 0 -43 16.5t-16 41.5t13 41t28 25q20 12 46 17.5t57 5.5q68 0 109 -23.5t41 -62.5q0 -43 -47.5 -68.5t-117.5 -37.5v-46
h-20z" />
    <glyph glyph-name="uni030A" unicode="&#x30a;" 
d="M131 801q47 0 82 -27t35 -74t-35 -74.5t-82 -27.5q-46 0 -81 27.5t-35 74.5t35 74t81 27zM131 780q-31 0 -59.5 -21t-28.5 -60q0 -40 28.5 -60t59.5 -20q32 0 60.5 20t28.5 60q0 39 -28.5 60t-60.5 21z" />
    <glyph glyph-name="uni030B" unicode="&#x30b;" 
d="M359 817q23 -16 27 -41t-12 -49q-17 -26 -52.5 -51t-90.5 -78l-13 6q15 51 20 87.5t9.5 62t15.5 43.5q14 23 42.5 30t53.5 -10zM182 817q23 -16 27 -41t-12 -49q-17 -26 -52.5 -51t-90.5 -78l-13 6q15 51 20 87.5t9.5 62t15.5 43.5q14 23 42.5 30t53.5 -10z" />
    <glyph glyph-name="uni030C" unicode="&#x30c;" 
d="M389 832l8 -14q-56 -37 -105.5 -94.5t-81.5 -117.5h-18q-31 59 -80.5 117t-106.5 95l8 14q60 -10 117 -26.5t91 -33.5q29 17 74.5 33.5t93.5 26.5z" />
    <glyph glyph-name="dotbelowcomb" unicode="&#x323;" 
d="M98 -191q-40 0 -62.5 18t-22.5 54q0 35 22.5 54.5t65.5 19.5q41 0 63 -18t22 -54q0 -35 -22.5 -54.5t-65.5 -19.5z" />
    <glyph glyph-name="uni0326" unicode="&#x326;" 
d="M104 -45q40 0 66.5 -20.5t26.5 -61.5q0 -50 -34 -82.5t-101 -34.5l-2 22q43 5 64.5 16.5t27.5 33.5q-7 -7 -19.5 -11t-33.5 -4q-40 0 -62 17.5t-22 51.5q0 35 23 54t66 19z" />
    <glyph glyph-name="uni0327" unicode="&#x327;" 
d="M100 0l-17 -60q18 8 37.5 11.5t41.5 3.5q38 0 56 -16.5t18 -41.5q0 -29 -20.5 -48t-56 -28t-81.5 -9q-27 0 -50 3.5t-40 9.5l6 18q7 -1 20 -3t28 -2q22 0 42 9t20 29q0 25 -28 25q-8 0 -17 -1.5t-16 -5.5l30 106h27z" />
    </font>
</defs>
</svg>
