<?xml version="1.0" standalone="no"?>
<!DOCTYPE svg PUBLIC "-//W3C//DTD SVG 1.1//EN" "http://www.w3.org/Graphics/SVG/1.1/DTD/svg11.dtd" >
<svg xmlns="http://www.w3.org/2000/svg" xmlns:xlink="http://www.w3.org/1999/xlink" version="1.1">
<metadata>
Created by FontForge 20190801 at Sun Nov 21 10:26:48 2004
 By Jimmy Wärting
Copyright (c)  M Klein   9.03&#62;11.04
</metadata>
<defs>
<font id="GeosansLight-Oblique" horiz-adv-x="392" >
  <font-face 
    font-family="GeosansLight"
    font-weight="500"
    font-style="oblique"
    font-stretch="normal"
    units-per-em="1000"
    panose-1="2 0 6 3 3 0 0 9 0 3"
    ascent="800"
    descent="-200"
    x-height="413"
    cap-height="714"
    bbox="-41 -212 1137 903"
    underline-thickness="19"
    underline-position="-142"
    slope="-11"
    unicode-range="U+0005-E007"
  />
<missing-glyph horiz-adv-x="1000" 
 />
    <glyph glyph-name=".notdef" horiz-adv-x="1000" 
 />
    <glyph glyph-name="breve" horiz-adv-x="362" 
d="M297 531l-15 22q-41 -37 -90 -37q-52 0 -85 39l-25 -24q36 -44 102 -44q69 0 113 44z" />
    <glyph glyph-name="dotaccent" horiz-adv-x="311" 
d="M226 529q-3 33 -29 33q-34 -6 -37 -33q-1 -15 6 -24q10 -9 22 -9q32 0 38 33z" />
    <glyph glyph-name="ring" horiz-adv-x="296" 
d="M236 538q4 32 -17 58q-21 25 -54 25q-34 0 -62 -25q-29 -26 -33 -58t17 -58q21 -25 54 -25q34 0 62 25q29 26 33 58zM215 539q-3 -24 -25 -43q-20 -19 -46 -19q-24 0 -40 19t-13 43q3 22 25 43q22 19 46 19t40 -19t13 -43z" />
    <glyph glyph-name="hungarumlaut" unicode="&#xa;" horiz-adv-x="513" 
d="M479 206q12 91 -41 152q-52 61 -142 61q-106 0 -182 -84l57 405h-41l-132 -934h41l38 271q55 -84 159 -84q89 0 160 62q69 59 83 151zM439 206q-10 -71 -68 -123q-59 -50 -130 -50q-70 0 -115 51q-44 51 -33 122q9 71 67 123q59 50 130 50t115 -51q43 -51 34 -122z" />
    <glyph glyph-name="ogonek" horiz-adv-x="265" 
d="M187 -126l5 40l-25 -15q-15 -6 -25 -6q-17 0 -23 10q-5 15 -2 26q1 8 3.5 16.5t6.5 16.5l25 38h-46q-25 -36 -26 -42l-8 -22l-4 -22q-3 -29 10 -46q15 -18 41 -18l20 2l19 6q11 3 17.5 7t11.5 9z" />
    <glyph glyph-name="caron" horiz-adv-x="378" 
d="M316 559l-18 22l-114 -99l-86 99l-24 -22l104 -120z" />
    <glyph glyph-name="dotlessi" unicode="&#xd;" horiz-adv-x="184" 
d="M84 0l58 413h-41l-58 -413h41z" />
    <glyph glyph-name="fraction" horiz-adv-x="822" 
d="M746 -101l-138 161q156 102 183 297q24 161 -65 265q-89 102 -251 102q-163 0 -279 -103q-116 -101 -140 -264q-22 -162 66 -265q87 -102 250 -102q108 0 200 49l119 -140h55zM720 248q-44 -97 -138 -158l-114 132h-53l130 -152q-78 -39 -167 -39q-144 0 -222 92t-59 234
q21 145 125 235q106 92 247 92q146 0 223 -92q75 -87 60 -224q-3 3 -4 5q-22 25 -55 25t-61 -25t-34 -58q-4 -32 17 -58q22 -25 55 -25q27 0 50 16zM744 322q-2 -6 -3 -12.5t-3 -12.5q-8 -14 -19 -24q-22 -19 -46 -19q-25 0 -40 19q-17 20 -13 43q3 24 25 43q20 19 45 19
t41 -19q14 -18 13 -37zM404 315q6 32 -16 58q-22 25 -55 25t-61 -25t-34 -58q-4 -32 17 -58q22 -25 55 -25t61 25q29 26 33 58zM384 316q-4 -24 -25 -43q-22 -19 -46 -19q-25 0 -40 19q-17 20 -13 43q3 24 25 43q20 19 45 19t41 -19t13 -43zM307 299q-1 -9 4.5 -15.5
t14.5 -6.5t16.5 6.5t8.5 15.5q2 9 -4 15.5t-15 6.5t-16 -6.5t-9 -15.5zM668 296q-2 -9 4 -15.5t15 -6.5t16 6.5t9 15.5t-4 15.5t-15 6.5t-16 -6.5t-9 -15.5z" />
    <glyph glyph-name="fi" horiz-adv-x="471" 
d="M442 372l6 41h-126l33 237q6 46 -26 72q-29 24 -76 24q-48 0 -84 -27q-36 -26 -44 -74l-32 -232h-56l-6 -41h56l-52 -372h41l52 372h148l-52 -372h40l52 372h126zM282 413h-148l31 225q11 68 83 68q75 0 66 -66z" />
    <glyph glyph-name="fl" horiz-adv-x="459" 
d="M478 696l5 39l-25 4q-4 1 -10 1.5t-15 0.5q-28 0 -58 -14q-34 -17 -40 -44q-22 37 -85 37q-51 0 -87 -30q-36 -31 -42 -81l-28 -196h-56l-6 -41h56l-52 -372h41l52 372h153l-52 -372h40l52 372h98l6 41h-98l32 225q4 37 26 52q16 12 42 12l32 -3zM287 413h-153l27 191
q10 76 83 76q28 0 48 -13q20 -12 26 -33z" />
    <glyph glyph-name="Lslash" horiz-adv-x="572" 
d="M275 142l81 572h-41l-80 -570q-17 -111 -91 -111q-47 0 -68 46l-38 -22q26 -65 101 -65q115 0 136 150zM226 615q4 32 -17 58q-21 25 -55 25q-33 0 -61 -25q-29 -26 -33 -58q-5 -34 17 -58q21 -25 54 -25q34 0 62 25q29 26 33 58zM205 616q-3 -22 -25 -43
q-22 -19 -46 -19t-40 19t-13 43q3 22 25 43q20 19 46 19q24 0 40 -19t13 -43zM586 615q4 32 -17 58q-21 25 -55 25q-33 0 -61 -25q-29 -26 -33 -58q-5 -34 17 -58q21 -25 54 -25q34 0 62 25q29 26 33 58zM565 616q-3 -22 -25 -43q-22 -19 -46 -19t-40 19t-13 43q3 22 25 43
q20 19 46 19q24 0 40 -19t13 -43zM129 599q-2 -9 3.5 -15.5t14.5 -6.5q10 0 17 6.5t9 15.5q1 9 -4.5 15.5t-14.5 6.5t-16.5 -6.5t-8.5 -15.5zM489 596q-2 -9 4 -15.5t15 -6.5t16 6.5t9 15.5t-4 15.5t-15 6.5t-16 -6.5t-9 -15.5z" />
    <glyph glyph-name="lslash" horiz-adv-x="748" 
d="M-15 -10h502l6 41h-426l525 657l-30 26zM324 515q5 34 -17 58q-21 25 -54 25q-34 0 -62 -25q-29 -26 -33 -58t17 -58q21 -25 54 -25q34 0 62 25q29 26 33 58zM303 516q-3 -24 -25 -43q-20 -19 -46 -19q-24 0 -40 19t-13 43q3 22 25 43q22 19 46 19t40 -19t13 -43z
M684 515q5 34 -17 58q-21 25 -54 25q-34 0 -62 -25q-29 -26 -33 -58t17 -58q21 -25 54 -25q34 0 62 25q29 26 33 58zM663 516q-3 -24 -25 -43q-20 -19 -46 -19q-24 0 -40 19t-13 43q3 22 25 43q22 19 46 19t40 -19t13 -43zM227 499q-2 -9 4 -15.5t15 -6.5t16 6.5t9 15.5
t-4 15.5t-15 6.5t-16 -6.5t-9 -15.5zM587 496q-1 -9 4.5 -15.5t14.5 -6.5t16.5 6.5t8.5 15.5q2 9 -3.5 15.5t-15.5 6.5q-9 0 -16 -6.5t-9 -15.5zM429 -139l-15 22q-41 -37 -90 -37q-52 0 -85 39l-25 -24q35 -44 102 -44q69 0 113 44z" />
    <glyph glyph-name="Zcaron" horiz-adv-x="822" 
d="M785 357q27 185 -92 290l50 60l-33 23l-49 -58q-80 52 -192 52q-163 0 -279 -103q-118 -102 -140 -264q-12 -89 12 -165q26 -82 87 -130l-48 -58l32 -24l48 58q82 -48 185 -48q163 0 279 103q118 102 140 264zM633 638l-455 -542q-53 43 -76 110t-11 151q21 145 125 235
q104 92 247 92q94 0 170 -46zM746 373q0 -6 -2 -16q-19 -143 -124 -236q-104 -90 -249 -90q-90 0 -161 41l454 541q62 -56 78 -134q-19 19 -49 19q-33 0 -61 -25t-34 -58q-4 -32 17 -58q22 -25 55 -25t61 25q10 8 15 16zM744 416q-4 -24 -25 -43q-22 -19 -46 -19
q-25 0 -40 19q-17 20 -13 43q3 24 25 43q20 19 45 19t41 -19t13 -43zM404 415q6 32 -16 58q-22 25 -55 25t-61 -25t-34 -58q-4 -32 17 -58q22 -25 55 -25t61 25q29 26 33 58zM384 416q-4 -24 -25 -43q-22 -19 -46 -19q-25 0 -40 19q-17 20 -13 43q3 24 25 43q20 19 45 19
t41 -19t13 -43zM307 399q-2 -9 4 -15.5t15 -6.5t16 6.5t9 15.5t-4 15.5t-15 6.5t-16 -6.5t-9 -15.5zM668 396q-2 -9 4 -15.5t15 -6.5t16 6.5t9 15.5q1 9 -4.5 15.5t-14.5 6.5t-16.5 -6.5t-8.5 -15.5zM587 151l-15 22q-41 -37 -90 -37q-52 0 -85 39l-25 -24q36 -44 102 -44
q69 0 113 44z" />
    <glyph glyph-name="zcaron" horiz-adv-x="572" 
d="M189 615q4 32 -17 58q-21 25 -54 25q-34 0 -62 -25q-29 -26 -33 -58t17 -58q21 -25 54 -25q34 0 62 25q29 26 33 58zM168 616q-3 -24 -25 -43q-20 -19 -46 -19q-24 0 -40 19t-13 43q3 22 25 43q22 19 46 19t40 -19t13 -43zM549 615q4 32 -17 58q-21 25 -54 25
q-34 0 -62 -25q-29 -26 -33 -58t17 -58q21 -25 54 -25q34 0 62 25q29 26 33 58zM528 616q-3 -24 -25 -43q-20 -19 -46 -19q-24 0 -40 19t-13 43q3 22 25 43q22 19 46 19t40 -19t13 -43zM92 599q-2 -9 4 -15.5t15 -6.5t16 6.5t9 15.5q1 9 -4.5 15.5t-14.5 6.5t-16.5 -6.5
t-8.5 -15.5zM452 596q-1 -9 4.5 -15.5t14.5 -6.5t16.5 6.5t8.5 15.5q2 9 -3.5 15.5t-15.5 6.5q-9 0 -16 -6.5t-9 -15.5zM337 231l-15 22q-41 -37 -90 -37q-52 0 -85 39l-25 -24q36 -44 102 -44q69 0 113 44z" />
    <glyph glyph-name="space" unicode=" " horiz-adv-x="255" 
 />
    <glyph glyph-name="exclam" unicode="!" horiz-adv-x="204" 
d="M93 148l79 566h-40l-79 -566h40zM94 32q-2 19 -8 25q-9 11 -23 11q-38 -6 -41 -36q-6 -36 31 -36q37 6 41 36z" />
    <glyph glyph-name="quotedbl" unicode="&#x22;" horiz-adv-x="270" 
d="M225 727h-41l-11 -160h20zM113 727h-41l-12 -160h21z" />
    <glyph glyph-name="numbersign" unicode="#" horiz-adv-x="541" 
d="M534 516h-131l48 127h-24l-49 -127h-139l48 127h-24l-49 -127h-139l-12 -24h141l-44 -115h-128l-11 -25h130l-48 -126h24l49 126h140l-52 -131h25l51 131h134l11 25h-136l44 115h129zM369 492l-44 -115h-140l43 115h141z" />
    <glyph glyph-name="dollar" unicode="$" horiz-adv-x="474" 
d="M425 195q19 139 -145 207l38 275q72 -11 96 -70l41 17q-35 93 -131 93l7 53h-40l-7 -53q-69 0 -121 -48q-52 -47 -61 -116q-10 -73 28 -117q15 -17 41 -32.5t65 -29.5l-48 -340q-122 0 -138 127l-43 -14q7 -72 54 -114q47 -41 121 -41l-7 -53h40l7 54q85 0 141 60
q48 53 62 142zM242 418q-53 23 -74 47q-31 33 -25 84q7 52 45 87q35 33 90 41zM384 195q-10 -68 -47 -112q-42 -49 -109 -49l45 324q126 -54 111 -163z" />
    <glyph glyph-name="percent" unicode="%" horiz-adv-x="531" 
d="M323 572q7 50 -25 88q-31 37 -83 37t-92 -37q-42 -37 -49 -88q-7 -48 25 -86q33 -37 81 -37q52 0 94 36q41 34 49 87zM541 714h-40l-489 -714h40zM459 115q6 51 -25 88t-83 37t-93 -37q-42 -39 -48 -88q-7 -49 25 -86q33 -37 81 -37q52 0 94 36q42 35 49 87zM282 572
q-4 -32 -33 -58q-33 -24 -63 -24q-33 0 -54 25q-22 23 -17 57q4 33 33 59q26 25 62 25q34 0 55 -25q21 -26 17 -59zM418 115q-6 -33 -34 -58q-29 -24 -62 -24t-55 25t-16 57q4 33 32 59q28 25 62 25q35 0 56 -25q21 -26 17 -59z" />
    <glyph glyph-name="ampersand" unicode="&#x26;" horiz-adv-x="602" 
d="M542 205l-17 29l-116 -85l-123 237l80 50q97 61 106 130q10 67 -27 104q-38 36 -106 36q-61 0 -108 -40q-48 -39 -57 -99q-5 -32 7 -63l22 -51l32 -60l-125 -83q-89 -74 -101 -157q-9 -70 29 -113q39 -44 112 -44q103 0 240 98l50 -94h47l-63 119zM435 566q-5 -20 -9 -27
l-17 -26q-12 -14 -26 -25.5t-30 -21.5l-83 -51l-31 59l-21 45q-8 16 -5 48q6 43 43 73q37 29 79 29q51 0 80 -26q28 -26 20 -77zM374 124q-39 -27 -62 -40q-83 -49 -155 -49q-54 0 -84 33q-31 32 -23 85q9 66 82 130q15 13 44 32.5t74 47.5z" />
    <glyph glyph-name="quotesingle" unicode="'" horiz-adv-x="164" 
d="M114 714h-42l-12 -159h22z" />
    <glyph glyph-name="parenleft" unicode="(" horiz-adv-x="184" 
d="M91 -62q-48 198 -18 408q5 35 15 79t26 96q19 66 42 123.5t49 109.5h-35q-102 -200 -132 -408q-5 -39 -8 -84t-1 -96q0 -26 1.5 -43t2.5 -27q2 -19 2 -32t1 -21q4 -27 8.5 -53t11.5 -52h35z" />
    <glyph glyph-name="parenright" unicode=")" horiz-adv-x="194" 
d="M164 346q6 44 9 87.5t2 88.5q-2 61 -8.5 118.5t-20.5 113.5h-35q46 -206 18 -408q-5 -38 -15.5 -82t-25.5 -94q-38 -127 -91 -232h35q102 193 132 408z" />
    <glyph glyph-name="asterisk" unicode="*" horiz-adv-x="289" 
d="M264 557q-2 29 -43 45q-10 5 -27 9t-41 9l77 23q50 23 51 40q3 23 -19 23q-52 -11 -113 -76q12 17 13 27l11 31l11 41q6 38 -21 38q-26 -4 -32 -38l-1 -49l9 -50l-41 48q-24 28 -51 28q-23 -6 -26 -25q-3 -24 42 -42l31 -12l38 -7q-123 -30 -128 -62q-3 -24 18 -24
q33 6 60 30l54 45l-29 -66q-5 -8 -8 -32q-6 -39 23 -37q24 2 30 39l1 44l-7 52l43 -47q23 -26 49 -26q23 0 26 21z" />
    <glyph glyph-name="plus" unicode="+" horiz-adv-x="378" 
d="M313 244l6 41h-102l14 102h-46l-14 -102h-102l-6 -41h102l-14 -102h46l14 102h102z" />
    <glyph glyph-name="comma" unicode="," horiz-adv-x="179" 
d="M165 54l-43 15l-87 -163l12 -9z" />
    <glyph glyph-name="hyphen" unicode="-" horiz-adv-x="271" 
d="M226 225l6 41h-211l-6 -41h211z" />
    <glyph glyph-name="period" unicode="." horiz-adv-x="113" 
d="M84 27q-3 33 -28 33q-33 -6 -38 -33q0 -17 7 -24q10 -9 21 -9q33 0 38 33z" />
    <glyph glyph-name="slash" unicode="/" horiz-adv-x="287" 
d="M323 729h-39l-312 -729h41z" />
    <glyph glyph-name="zero" unicode="0" horiz-adv-x="556" 
d="M542 363q19 142 -24 247q-54 127 -186 127t-220 -127q-75 -105 -94 -247q-20 -143 24 -246q54 -127 186 -127t221 126q73 103 93 247zM499 363q-20 -137 -87 -228q-76 -103 -179 -103q-112 0 -154 116q-35 92 -17 215q19 134 87 229q75 104 178 104q113 0 155 -116
q35 -93 17 -217z" />
    <glyph glyph-name="one" unicode="1" horiz-adv-x="545" 
d="M286 0l100 714h-135l-33 -41h121l-94 -673h41z" />
    <glyph glyph-name="two" unicode="2" horiz-adv-x="545" 
d="M518 530q12 84 -41 137q-55 53 -139 53q-100 0 -169 -66q-51 -50 -66 -103h45q17 47 50 77q53 52 134 52q66 0 109 -43q45 -43 36 -107q-9 -65 -60 -125l-407 -405h432l6 41h-342l238 232q32 32 53 53.5t32 32.5q77 86 89 171z" />
    <glyph glyph-name="three" unicode="3" horiz-adv-x="545" 
d="M450 193q21 150 -113 192q139 30 157 163q12 82 -36 132t-130 50q-79 0 -137 -45q-60 -46 -79 -122h47q43 126 163 126q63 0 97 -40q35 -40 26 -101q-9 -65 -51 -99q-21 -17 -47.5 -28.5t-58.5 -11.5h-42l-8 -49h42q23 0 44 -11.5t41 -28.5q52 -47 40 -127
q-9 -65 -62 -112q-53 -45 -120 -45q-50 0 -89 33q-40 34 -46 82h-44q6 -73 52 -115q47 -41 121 -41q88 0 155 55q66 54 78 143z" />
    <glyph glyph-name="four" unicode="4" horiz-adv-x="545" 
d="M506 136l6 40h-83l77 548l-492 -588h367l-19 -136h42l19 136h83zM387 176h-284l345 416z" />
    <glyph glyph-name="five" unicode="5" horiz-adv-x="545" 
d="M500 255q16 115 -54 182q-69 66 -166 60l-42 -3l-41 -5l69 184h242l6 41h-274l-110 -277q39 14 73 14q16 4 24 4h15l33 1q82 3 138 -51q60 -57 46 -150q-12 -93 -82 -159q-70 -65 -162 -65q-79 0 -122 36q-35 29 -56 88l-40 -15q42 -150 212 -150q114 0 195 75
q81 77 96 190z" />
    <glyph glyph-name="six" unicode="6" horiz-adv-x="545" 
d="M503 229q15 105 -46 175q-60 70 -165 70l-46 -4l-45 -12l-45 -21l191 277h-47l-224 -321q-11 -17 -21.5 -35.5t-18.5 -39.5q-7 -17 -11 -28t-6 -17q-1 -6 -2 -11.5t-2 -10.5l-3 -22q-15 -110 43 -178q59 -68 168 -68q106 0 185 70q80 70 95 176zM463 229
q-12 -87 -79 -147q-68 -59 -156 -59t-138 59q-50 58 -38 147q12 85 81 145q67 60 153 60t137 -61q52 -61 40 -144z" />
    <glyph glyph-name="seven" unicode="7" horiz-adv-x="545" 
d="M584 714h-502l-6 -41h426l-525 -657l30 -26z" />
    <glyph glyph-name="eight" unicode="8" horiz-adv-x="545" 
d="M459 190q10 79 -31 131q-30 38 -80 57q54 17 91 62q37 47 44 102q12 82 -32 133t-126 51q-81 0 -139 -52q-58 -50 -70 -132q-7 -54 15 -100q24 -49 71 -64q-64 -23 -108 -73q-42 -50 -51 -115q-13 -90 38 -147q51 -56 142 -56q89 0 157 57q65 56 79 146zM443 542
q-9 -63 -55 -103q-23 -20 -50.5 -32t-59.5 -12q-30 0 -54 13t-41 33q-36 40 -27 101q9 63 55 103q47 41 108 41q62 0 98 -41q35 -41 26 -103zM419 190q-10 -70 -65 -117q-55 -46 -127 -46q-73 0 -113 48q-41 48 -31 115q9 67 65 117q29 24 60 38.5t65 14.5q35 0 62.5 -14.5
t49.5 -39.5q43 -48 34 -116z" />
    <glyph glyph-name="nine" unicode="9" horiz-adv-x="545" 
d="M538 473q15 106 -45 176t-166 70t-186 -70q-79 -70 -94 -176t45 -176q60 -69 166 -69l46 4l44 12l45 21l-178 -257l36 -18l223 319q12 18 22 36.5t18 38.5q18 46 24 89zM498 473q-12 -87 -80 -146t-154 -59q-88 0 -139 60q-50 60 -38 145q12 89 79 147q68 59 156 59
t138 -59q50 -58 38 -147z" />
    <glyph glyph-name="colon" unicode=":" horiz-adv-x="163" 
d="M138 322q-3 33 -29 33q-34 -6 -37 -33q0 -17 6 -24q12 -9 22 -9q33 0 38 33zM96 27q-2 33 -28 33q-33 -6 -38 -33q0 -17 7 -24q10 -9 22 -9q32 0 37 33z" />
    <glyph glyph-name="semicolon" unicode=";" horiz-adv-x="204" 
d="M164 322q-3 33 -29 33q-34 -6 -37 -33q-1 -15 6 -24q10 -9 22 -9q32 0 38 33zM140 54l-33 15l-97 -163l12 -9z" />
    <glyph glyph-name="less" unicode="&#x3c;" horiz-adv-x="316" 
d="M261 110l7 45l-163 108l193 108l7 45l-273 -153z" />
    <glyph glyph-name="equal" unicode="=" horiz-adv-x="296" 
d="M269 305l5 41h-226l-5 -41h226zM252 183l5 40h-226l-5 -40h226z" />
    <glyph glyph-name="greater" unicode="&#x3e;" horiz-adv-x="316" 
d="M297 263l-229 153l-7 -45l162 -108l-192 -108l-7 -45z" />
    <glyph glyph-name="question" unicode="?" horiz-adv-x="469" 
d="M462 572q11 75 -41 116q-45 36 -124 36q-144 0 -219 -133l36 -17q34 48 66 72q52 38 111 38t96 -26q42 -30 34 -86q-6 -43 -47 -84q-10 -10 -31 -25t-53 -37l-94 -63q-77 -53 -86 -117q-6 -46 22 -71q29 -26 68 -23l29 2l24 6q26 11 38 22l-19 33q-30 -21 -66 -21
q-24 0 -40 14q-15 14 -12 38q7 52 62 88l93 61q79 52 92 65q52 51 61 112zM213 32q-2 35 -30 35q-35 -6 -40 -35q2 -35 30 -35q35 0 40 35z" />
    <glyph glyph-name="at" unicode="@" horiz-adv-x="596" 
d="M527 105q30 42 39 104q15 105 -55 177q-68 68 -176 68q-110 0 -198 -74t-103 -183q-15 -106 41 -179q61 -80 187 -80q62 0 113 19q53 19 78 44l-17 19q-26 -28 -82 -44q-47 -12 -87 -12q-106 0 -164 64t-43 169q14 98 93 164q77 67 179 67q98 0 158 -61q63 -64 50 -158
q-8 -52 -32 -85q-31 -44 -68 -44q-20 0 -30 15q-12 20 -5 54l37 163h-25l-12 -54q-20 60 -95 60q-59 0 -104 -39t-53 -98q-9 -58 17 -93q25 -35 83 -35q80 0 121 57q0 -20 12 -36q15 -21 46 -21q58 0 95 52zM368 265q21 -27 15 -69q-7 -50 -41 -84q-33 -32 -85 -32
q-92 0 -77 101q6 46 43 78q37 33 83 33q42 0 62 -27z" />
    <glyph glyph-name="A" unicode="A" horiz-adv-x="633" 
d="M550 0l-182 737l-389 -737h45l113 214h320l52 -214h41zM446 255h-287l194 368z" />
    <glyph glyph-name="B" unicode="B" horiz-adv-x="559" 
d="M502 207q11 77 -27 130t-111 68q82 43 96 138q12 82 -34 128q-42 43 -126 43h-174l-100 -714h223q93 0 166 58q73 57 87 149zM419 543q-7 -58 -51 -94t-101 -36h-143l36 260h137q60 0 95 -36q36 -35 27 -94zM462 207q-10 -73 -71 -120q-59 -46 -135 -46h-184l46 331h184
q77 0 122 -44q49 -47 38 -121z" />
    <glyph glyph-name="C" unicode="C" horiz-adv-x="702" 
d="M629 77l6 47q-33 -22 -59 -37t-45 -24q-70 -32 -160 -32q-143 0 -221 92q-79 91 -59 234t125 235q104 92 247 92q43 0 81.5 -8t73.5 -23q47 -22 84 -56l7 51q-36 32 -78 49q-69 27 -162 27q-163 0 -279 -103q-118 -102 -140 -264q-22 -161 65 -265q88 -102 250 -102
q15 0 28 0.5t24 1.5q97 9 159 50z" />
    <glyph glyph-name="D" unicode="D" horiz-adv-x="688" 
d="M633 358q21 145 -50 248q-75 108 -219 108h-238l-100 -714h238q145 0 250 108q98 101 119 250zM592 358q-21 -148 -120 -235q-91 -82 -202 -82h-198l89 633h198q126 0 191 -96q60 -90 42 -220z" />
    <glyph glyph-name="E" unicode="E" horiz-adv-x="473" 
d="M364 0l6 41h-302l46 328h302l6 44h-302l36 260h302l6 41h-343l-100 -714h343z" />
    <glyph glyph-name="F" unicode="F" horiz-adv-x="433" 
d="M388 372l6 41h-270l36 260h270l6 41h-310l-100 -714h40l52 372h270z" />
    <glyph glyph-name="G" unicode="G" horiz-adv-x="822" 
d="M783 345h-281l-5 -41h236q-25 -97 -105 -172q-107 -101 -257 -101q-141 0 -221 92q-80 91 -60 234q19 141 126 234q106 93 247 93q173 0 250 -132l37 25q-90 147 -281 147q-160 0 -278 -104q-119 -104 -141 -263q-22 -161 65 -265q88 -102 250 -102q170 0 289 109
q110 101 129 246z" />
    <glyph glyph-name="H" unicode="H" horiz-adv-x="615" 
d="M500 0l100 714h-41l-42 -301h-393l42 301h-40l-100 -714h40l52 372h393l-52 -372h41z" />
    <glyph glyph-name="I" unicode="I" horiz-adv-x="192" 
d="M67 0l100 714h-40l-100 -714h40z" />
    <glyph glyph-name="J" unicode="J" horiz-adv-x="315" 
d="M225 142l81 572h-41l-80 -570q-17 -111 -91 -111q-47 0 -68 46l-38 -22q26 -65 101 -65q115 0 136 150z" />
    <glyph glyph-name="K" unicode="K" horiz-adv-x="524" 
d="M464 0l-320 373l390 341h-58l-363 -317l44 317h-41l-100 -714h41l47 339l7 6l296 -345h57z" />
    <glyph glyph-name="L" unicode="L" horiz-adv-x="356" 
d="M267 0l6 41h-201l94 673h-40l-100 -714h241z" />
    <glyph glyph-name="M" unicode="M" horiz-adv-x="902" 
d="M831 0l-83 736l-333 -638l-153 637l-289 -735h41l237 601l148 -619l322 618l68 -600h42z" />
    <glyph glyph-name="N" unicode="N" horiz-adv-x="715" 
d="M600 -12l102 726h-41l-87 -620l-446 625l-101 -719h40l85 606z" />
    <glyph glyph-name="O" unicode="O" horiz-adv-x="822" 
d="M785 357q22 162 -66 265q-89 102 -250 102q-163 0 -279 -103q-118 -102 -140 -264q-22 -161 65 -265q88 -102 250 -102q164 0 280 103q118 102 140 264zM744 357q-21 -145 -124 -236q-104 -90 -249 -90q-143 0 -221 92q-79 91 -59 234t125 235q104 92 247 92t223 -92
q78 -91 58 -235z" />
    <glyph glyph-name="P" unicode="P" horiz-adv-x="490" 
d="M469 537q12 80 -37 129q-50 48 -132 48h-174l-100 -714h40l50 357h134q81 0 145 50q63 48 74 130zM428 537q-9 -66 -58 -103q-48 -36 -115 -36h-133l38 275h133q67 0 104 -34q40 -37 31 -102z" />
    <glyph glyph-name="Q" unicode="Q" horiz-adv-x="822" 
d="M799 357q22 162 -66 265q-89 102 -250 102q-163 0 -279 -103q-118 -102 -140 -264q-22 -161 65 -265q88 -102 250 -102q164 0 280 103q118 102 140 264zM758 357q-21 -145 -124 -236q-104 -90 -249 -90q-143 0 -221 92q-79 91 -59 234t125 235q104 92 247 92t223 -92
q79 -92 58 -235zM639 -126l20 36l-195 79l-21 -36z" />
    <glyph glyph-name="R" unicode="R" horiz-adv-x="484" 
d="M418 0l-179 357q43 0 80.5 10.5t67 32.5t49 56t25.5 81q6 43 -4.5 76t-34 55.5t-57.5 34t-74 11.5h-165l-100 -714h40l50 357h77l177 -357h48zM419 538q-9 -68 -53.5 -104t-108.5 -36h-135l38 275h124q32 0 59 -8.5t45.5 -25t27 -42t3.5 -59.5z" />
    <glyph glyph-name="S" unicode="S" horiz-adv-x="498" 
d="M434 185q12 86 -38 142q-18 21 -49 41.5t-75 41.5q-72 35 -92 54q-39 38 -32 89q7 57 55 92q43 33 103 33q56 0 88 -22q13 -8 23 -20.5t18 -28.5l41 17q-39 94 -165 94q-76 0 -134 -46q-59 -45 -70 -119t35 -119q28 -28 107 -66q84 -41 108 -65q46 -46 36 -118
q-11 -75 -60 -114q-50 -38 -127 -38q-135 0 -152 128l-43 -14q26 -155 189 -155q54 0 94 14q122 44 140 179z" />
    <glyph glyph-name="T" unicode="T" horiz-adv-x="441" 
d="M452 716l-6 -45h-156l-95 -673h-44l95 674h-157l6 44h357z" />
    <glyph glyph-name="U" unicode="U" horiz-adv-x="555" 
d="M465 178l76 536h-41l-76 -536q-9 -67 -66 -107q-52 -37 -121 -37q-71 0 -111 36q-44 38 -35 108l76 536h-40l-76 -536q-12 -87 42 -138q50 -47 138 -47q90 0 152 46q70 52 82 139z" />
    <glyph glyph-name="V" unicode="V" horiz-adv-x="526" 
d="M548 714h-43l-271 -590l-104 590h-42l127 -726z" />
    <glyph glyph-name="W" unicode="W" horiz-adv-x="876" 
d="M901 714h-42l-269 -584l-96 597l-265 -597l-105 584h-40l127 -724l263 599l94 -599z" />
    <glyph glyph-name="X" unicode="X" horiz-adv-x="530" 
d="M454 0l-159 366l247 348h-47l-220 -309l-133 309h-47l150 -345l-262 -369h46l234 331l144 -331h47z" />
    <glyph glyph-name="Y" unicode="Y" horiz-adv-x="511" 
d="M531 714h-47l-221 -309l-133 309h-47l153 -357l-50 -357h41l50 357z" />
    <glyph glyph-name="Z" unicode="Z" horiz-adv-x="554" 
d="M575 714h-459l-6 -42h375l-493 -672h481l6 41h-398z" />
    <glyph glyph-name="bracketleft" unicode="[" horiz-adv-x="214" 
d="M114 -46l4 34h-70l103 732h67l5 35h-108l-112 -801h111z" />
    <glyph glyph-name="backslash" unicode="\" horiz-adv-x="281" 
d="M217 0l-104 714h-40l105 -714h39z" />
    <glyph glyph-name="bracketright" unicode="]" horiz-adv-x="214" 
d="M116 -46l112 801h-108l-5 -35h68l-103 -732h-71l-4 -34h111z" />
    <glyph glyph-name="asciicircum" unicode="^" horiz-adv-x="352" 
d="M296 377l-81 281h-33l-161 -281h26l141 206l81 -206h27z" />
    <glyph glyph-name="underscore" unicode="_" horiz-adv-x="357" 
d="M365 -212l6 36h-368l-6 -36h368z" />
    <glyph glyph-name="grave" unicode="`" horiz-adv-x="332" 
d="M239 492l-115 134l-25 -24l112 -133z" />
    <glyph glyph-name="a" unicode="a" horiz-adv-x="510" 
d="M425 0l58 413h-41l-10 -72q-56 78 -154 78q-89 0 -160 -62t-83 -151q-12 -91 40 -152t143 -61q99 0 176 78l-10 -71h41zM421 206q-11 -73 -68 -123q-58 -50 -129 -50q-72 0 -115 51q-44 52 -34 122q11 73 68 123q58 50 129 50t115 -51q44 -52 34 -122z" />
    <glyph glyph-name="b" unicode="b" horiz-adv-x="517" 
d="M455 206q13 89 -40 152q-52 61 -143 61q-105 0 -180 -83l56 404h-41l-104 -740h41l11 76q54 -83 158 -83q89 0 160 62q70 63 82 151zM415 206q-9 -71 -67 -123q-59 -50 -130 -50q-70 0 -115 51q-43 51 -34 122q10 71 68 123q59 50 130 50q70 0 115 -51q44 -51 33 -122z
" />
    <glyph glyph-name="c" unicode="c" horiz-adv-x="438" 
d="M362 29l7 51q-60 -48 -132 -48q-76 0 -119 49q-41 49 -31 125t66 126q55 48 132 48q35 0 71 -13l26 -15l23 -17l7 49q-42 36 -121 36q-93 0 -161 -61q-69 -60 -83 -153q-13 -90 39 -153q52 -61 145 -61q70 0 131 37z" />
    <glyph glyph-name="d" unicode="d" horiz-adv-x="521" 
d="M413 0l104 740h-41l-56 -402q-57 81 -157 81q-89 0 -160 -62q-69 -61 -83 -151q-12 -91 41 -152q52 -61 143 -61q101 0 179 81l-11 -74h41zM406 206q-9 -71 -67 -123q-59 -50 -130 -50q-70 0 -115 51q-43 51 -34 122q10 71 68 123q59 50 130 50q70 0 115 -51
q44 -51 33 -122z" />
    <glyph glyph-name="e" unicode="e" horiz-adv-x="490" 
d="M462 215q13 91 -39 148q-53 57 -145 57q-94 0 -162 -61q-68 -60 -82 -153q-14 -92 39 -153q52 -61 145 -61q38 0 71 10q85 25 134 100l-34 17q-43 -55 -87 -73q-37 -14 -78 -14q-83 0 -122 50q-39 49 -27 133h387zM422 254h-335q57 126 185 126q61 0 104 -34
q43 -35 46 -92z" />
    <glyph glyph-name="f" unicode="f" horiz-adv-x="271" 
d="M295 693l6 41q-15 7 -26 7q-6 2 -28 2q-95 0 -109 -95l-33 -235h-56l-6 -41h56l-52 -372h41l52 372h98l6 41h-98l31 223q9 66 65 66l27 -3z" />
    <glyph glyph-name="g" unicode="g" horiz-adv-x="510" 
d="M440 9l57 404h-41l-11 -72q-54 78 -154 78q-89 0 -160 -62q-70 -63 -82 -151q-14 -91 40 -152q52 -61 143 -61q99 0 176 78l-9 -61q-10 -76 -59 -120q-49 -43 -126 -43q-57 0 -95 19q-50 24 -53 73h-41q15 -133 183 -133q91 0 155 56q63 55 77 147zM435 206
q-10 -71 -68 -123q-59 -50 -130 -50q-70 0 -115 51q-44 51 -33 122q9 71 67 123q59 50 130 50q70 0 115 -51q43 -51 34 -122z" />
    <glyph glyph-name="h" unicode="h" horiz-adv-x="456" 
d="M349 -1l35 253q24 167 -139 167q-86 0 -132 -61l54 382h-41l-104 -740h41l38 269q8 51 48 80q40 30 90 30q122 0 104 -131l-35 -249h41z" />
    <glyph glyph-name="i" unicode="i" horiz-adv-x="184" 
d="M161 520q-2 33 -28 33q-33 -6 -38 -33q0 -17 7 -24q10 -9 22 -9q32 0 37 33zM75 0l58 413h-41l-58 -413h41z" />
    <glyph glyph-name="j" unicode="j" horiz-adv-x="185" 
d="M174 520q-3 33 -28 33q-35 -6 -38 -33q0 -17 6 -24q12 -9 22 -9q33 0 38 33zM63 -180l84 593h-41l-84 -593h41z" />
    <glyph glyph-name="k" unicode="k" horiz-adv-x="417" 
d="M349 0l-209 243l213 186h-58l-204 -178l69 489h-41l-104 -740h41l27 192l26 23l186 -215h54z" />
    <glyph glyph-name="l" unicode="l" horiz-adv-x="192" 
d="M65 0l104 740h-40l-104 -740h40z" />
    <glyph glyph-name="m" unicode="m" horiz-adv-x="643" 
d="M548 0l40 285q9 63 -24 99q-33 35 -96 35q-81 0 -126 -65q-27 65 -109 65q-67 0 -103 -47l6 41h-41l-58 -413h41l40 285q6 43 37 68q31 26 73 26q41 0 65 -27q24 -25 19 -67l-40 -285h41l40 285q12 94 110 94q46 0 67 -28q22 -26 17 -66l-40 -285h41z" />
    <glyph glyph-name="n" unicode="n" horiz-adv-x="451" 
d="M356 0l35 251q12 79 -23 123t-112 44q-91 0 -127 -55l7 50h-41l-58 -413h41l35 251q9 60 44 93q34 34 93 34q118 0 100 -131l-35 -247h41z" />
    <glyph glyph-name="o" unicode="o" horiz-adv-x="498" 
d="M460 206q13 89 -40 152q-53 62 -142 62q-90 0 -160 -63q-70 -61 -84 -151q-12 -91 41 -152q52 -61 143 -61q89 0 160 62q70 63 82 151zM420 206q-9 -71 -67 -123q-59 -50 -130 -50q-70 0 -115 51q-43 51 -34 122q10 69 69 122q58 52 129 52q72 0 116 -51q42 -50 32 -123z
" />
    <glyph glyph-name="p" unicode="p" horiz-adv-x="513" 
d="M501 206q13 89 -40 152q-52 61 -143 61q-106 0 -182 -84l11 78h-41l-85 -607h41l38 271q55 -84 158 -84q90 0 160 62q71 62 83 151zM461 206q-11 -73 -68 -123q-58 -50 -129 -50q-72 0 -115 51q-44 52 -34 122q11 73 68 123q58 50 129 50t115 -51q45 -51 34 -122z" />
    <glyph glyph-name="q" unicode="q" horiz-adv-x="502" 
d="M409 -194l85 607h-41l-10 -75q-57 81 -157 81q-89 0 -160 -62q-69 -61 -83 -151q-12 -91 40 -152q54 -61 143 -61q102 0 180 81l-38 -268h41zM429 206q-11 -73 -68 -123q-58 -50 -129 -50q-72 0 -115 51q-44 52 -34 122q11 73 68 123q58 50 129 50t115 -51
q45 -51 34 -122z" />
    <glyph glyph-name="r" unicode="r" horiz-adv-x="310" 
d="M308 386q-23 18 -41.5 25t-50.5 7q-25 0 -48.5 -19t-39.5 -42l8 56h-41l-58 -413h41l38 272q2 16 11 35t22.5 34.5t30 26t33.5 10.5q20 0 37 -7t31 -19z" />
    <glyph glyph-name="s" unicode="s" horiz-adv-x="331" 
d="M295 113q7 56 -30 89q-11 8 -31.5 18.5t-52.5 22.5q-18 7 -31.5 13.5t-21.5 13.5q-20 18 -15 46q7 63 80 63q53 0 83 -34l33 26q-41 48 -110 48q-50 0 -85 -31q-38 -31 -42 -72q-8 -50 21 -75q19 -17 67 -36q52 -20 70 -31q29 -26 24 -61q-11 -80 -105 -80q-43 0 -65 19
q-23 19 -35 48l-38 -21q36 -87 132 -87q57 0 100 34q44 33 52 87z" />
    <glyph glyph-name="t" unicode="t" horiz-adv-x="250" 
d="M235 372l5 41h-96l26 181h-41l-26 -181h-66l-5 -41h66l-53 -372h41l53 372h96z" />
    <glyph glyph-name="u" unicode="u" horiz-adv-x="429" 
d="M362 155l37 258h-40l-37 -258q-17 -123 -132 -123q-58 0 -81 32q-22 30 -14 91l37 258h-41l-37 -258q-10 -76 23 -120q34 -43 107 -43q75 0 122 44q46 44 56 119z" />
    <glyph glyph-name="v" unicode="v" horiz-adv-x="435" 
d="M448 413h-46l-197 -329l-104 329h-44l135 -431z" />
    <glyph glyph-name="w" unicode="w" horiz-adv-x="684" 
d="M690 413h-46l-182 -319l-86 332l-180 -333l-94 320h-44l125 -431l177 330l83 -330z" />
    <glyph glyph-name="x" unicode="x" horiz-adv-x="361" 
d="M318 0l-111 209l166 204h-48l-138 -171l-91 171h-48l109 -205l-170 -208h49l141 173l93 -173h48z" />
    <glyph glyph-name="y" unicode="y" horiz-adv-x="445" 
d="M465 413h-45l-198 -326l-108 326h-44l122 -375l-140 -232h46z" />
    <glyph glyph-name="z" unicode="z" horiz-adv-x="457" 
d="M453 413h-361l-5 -39h278l-348 -374h373l6 41h-288z" />
    <glyph glyph-name="braceleft" unicode="{" horiz-adv-x="193" 
d="M122 -51l5 37q-51 0 -67 16q-16 15 -10 64l28 199q3 22 -6 48q-9 27 -22 42q46 35 53 90l26 183q8 48 29 66q23 19 70 19l5 37q-68 0 -99 -28q-33 -27 -42 -94l-26 -183q-8 -54 -57 -90q9 -11 15.5 -20t9.5 -17q10 -28 7 -53l-28 -201q-9 -67 16 -91q24 -24 93 -24z" />
    <glyph glyph-name="bar" unicode="|" horiz-adv-x="133" 
d="M33 -46l112 801h-35l-112 -801h35z" />
    <glyph glyph-name="braceright" unicode="}" horiz-adv-x="193" 
d="M186 355q-20 22 -25 35q-11 25 -8 55l26 183q9 65 -16 93q-24 29 -91 29l-5 -37q48 0 64 -19q18 -20 11 -66l-26 -183q-3 -32 4 -52q8 -22 25 -38q-46 -42 -54 -90l-28 -199q-6 -48 -28 -65q-21 -15 -71 -15l-5 -37q67 0 100 24q32 24 41 91l28 201q4 25 24 54
q15 23 34 36z" />
    <glyph glyph-name="asciitilde" unicode="~" horiz-adv-x="429" 
d="M403 359l-28 27q-39 -36 -82 -36l-18 2l-16 5l-32 16l-38 18q-17 6 -36 6q-66 0 -124 -51l24 -29l21 17l19 11q27 12 55 12q22 0 40 -11l23 -13l39 -19q10 -5 39 -5q59 0 114 50z" />
    <glyph glyph-name="quotesinglbase" unicode="&#x201a;" horiz-adv-x="158" 
d="M111 15l17 117h-53l-11 -72h33l-6 -45q-3 -27 -25 -47h20q11 7 16 21q8 11 9 26z" />
    <glyph glyph-name="florin" unicode="&#x192;" horiz-adv-x="594" 
d="M214 530l-75 -530h241l6 41h-201l95 673h-40l-11 -74l-2 3q-21 25 -55 25q-33 0 -61 -25q-29 -26 -33 -58q-5 -33 16 -58q22 -25 55 -25q35 0 61 25zM223 597l-3 -22q-7 -18 -22 -32q-22 -19 -46 -19t-40 19q-17 20 -13 43q3 24 25 43q20 19 45 19t41 -19q13 -16 13 -32z
M146 569q-1 -9 4.5 -15.5t14.5 -6.5t16.5 6.5t8.5 15.5q2 9 -3.5 15.5t-15.5 6.5q-9 0 -16 -6.5t-9 -15.5zM604 585q4 32 -17 58q-22 25 -55 25t-61 -25q-29 -26 -33 -58q-5 -33 16 -58q22 -25 55 -25t61 25q30 27 34 58zM583 586q-4 -24 -25 -43q-22 -19 -46 -19t-40 19
q-17 20 -13 43q3 24 25 43q20 19 45 19t41 -19t13 -43zM507 566q-2 -9 4 -15.5t15 -6.5t16 6.5t9 15.5t-4 15.5t-15 6.5t-16 -6.5t-9 -15.5zM298 -149l-14 22q-43 -37 -91 -37q-52 0 -85 39l-25 -24q36 -44 102 -44q69 0 113 44z" />
    <glyph glyph-name="quotedblbase" unicode="&#x201e;" horiz-adv-x="301" 
d="M229 15l17 117h-53l-11 -72h33l-6 -45q-3 -27 -25 -47h20q11 7 16 21q8 11 9 26zM114 15l17 117h-53l-11 -72h33l-6 -45q-3 -27 -25 -47h20q11 7 16 21q8 11 9 26z" />
    <glyph glyph-name="ellipsis" unicode="&#x2026;" horiz-adv-x="418" 
d="M62 27q-3 33 -28 33q-33 -6 -38 -33q0 -17 7 -24q10 -9 21 -9q33 0 38 33zM205 27q-3 33 -28 33q-33 -6 -38 -33q0 -17 7 -24q10 -9 21 -9q33 0 38 33zM348 27q-3 33 -28 33q-33 -6 -38 -33q0 -17 7 -24q10 -9 21 -9q33 0 38 33z" />
    <glyph glyph-name="dagger" unicode="&#x2020;" horiz-adv-x="245" 
d="M219 547l4 27h-67l23 162h-28l-23 -162h-67l-4 -27h67l-55 -393h28l55 393h67z" />
    <glyph glyph-name="daggerdbl" unicode="&#x2021;" horiz-adv-x="245" 
d="M206 365l4 28h-67l21 149h67l4 27h-67l23 167h-28l-23 -167h-67l-4 -27h67l-21 -149h-67l-4 -28h67l-42 -298h28l42 298h67z" />
    <glyph glyph-name="circumflex" unicode="&#x2c6;" horiz-adv-x="378" 
d="M305 496l-103 120l-137 -120l17 -22l114 99l86 -99z" />
    <glyph glyph-name="perthousand" unicode="&#x2030;" horiz-adv-x="827" 
d="M765 115q6 51 -25 88t-83 37t-93 -37q-42 -39 -48 -88q-7 -49 25 -86q33 -37 81 -37q52 0 94 36q42 35 49 87zM329 572q7 50 -25 88q-31 37 -83 37t-92 -37q-42 -37 -49 -88q-7 -48 25 -86q33 -37 81 -37q52 0 94 36q41 34 49 87zM648 714h-50l-627 -714h50zM465 115
q6 51 -25 88t-83 37t-93 -37q-42 -39 -48 -88q-7 -49 25 -86q33 -37 81 -37q52 0 94 36q42 35 49 87zM724 115q-6 -33 -34 -58q-29 -24 -62 -24t-56 23q-20 27 -15 59q4 33 32 59q28 25 62 25q35 0 56 -25q21 -26 17 -59zM288 572q-4 -32 -33 -58q-33 -24 -63 -24
q-33 0 -54 25q-22 23 -17 57q4 33 33 59q26 25 62 25q34 0 55 -25q21 -26 17 -59zM424 115q-6 -33 -34 -58q-29 -24 -62 -24t-56 23q-20 27 -15 59q4 33 32 59q28 25 62 25q35 0 56 -25q21 -26 17 -59z" />
    <glyph glyph-name="Scaron" unicode="&#x160;" horiz-adv-x="498" 
d="M443 859l-18 22l-113 -99l-87 99l-24 -22l105 -120zM423 185q12 85 -38 142q-36 40 -125 83q-72 35 -92 54q-38 37 -32 89q9 58 55 92q45 33 103 33q56 0 88 -22q26 -17 41 -49l41 17q-39 94 -164 94q-76 0 -135 -46q-60 -46 -70 -119q-11 -74 36 -119q26 -28 106 -66
q84 -41 108 -65q46 -46 37 -118q-10 -74 -61 -114q-50 -38 -127 -38q-134 0 -152 128l-43 -14q26 -155 190 -155q52 0 94 14q121 44 140 179z" />
    <glyph glyph-name="guilsinglleft" unicode="&#x2039;" horiz-adv-x="281" 
d="M258 423l-18 21l-214 -189l158 -185l24 21l-142 164z" />
    <glyph glyph-name="OE" unicode="&#x152;" horiz-adv-x="1148" 
d="M1037 0l6 41h-302l46 328h302l6 44h-302l36 260h302l6 41h-343l-25 -179q-35 94 -116 142q-79 47 -184 47q-163 0 -279 -103q-118 -102 -140 -264q-22 -161 65 -265q88 -102 250 -102q110 0 198 47q93 49 156 142l-25 -179h343zM744 357q-21 -145 -124 -236
q-104 -90 -249 -90q-143 0 -221 92q-79 91 -59 234t125 235q104 92 247 92t223 -92q78 -91 58 -235z" />
    <glyph glyph-name="quoteleft" unicode="&#x2018;" horiz-adv-x="163" 
d="M98 564l11 72h-33l6 45q3 27 25 47h-20q-20 -13 -25 -47l-17 -117h53z" />
    <glyph glyph-name="quoteright" unicode="&#x2019;" horiz-adv-x="158" 
d="M111 619l17 117h-53l-11 -72h33l-6 -45q-3 -27 -25 -47h20q22 22 25 47z" />
    <glyph glyph-name="quotedblleft" unicode="&#x201c;" horiz-adv-x="286" 
d="M217 564l11 72h-33l6 45q3 27 25 47h-20q-20 -13 -25 -47l-17 -117h53zM102 564l11 72h-33l6 45q3 27 25 47h-20q-20 -13 -25 -47l-17 -117h53z" />
    <glyph glyph-name="quotedblright" unicode="&#x201d;" horiz-adv-x="301" 
d="M229 619l17 117h-53l-11 -72h33l-6 -45q-3 -27 -25 -47h20q22 22 25 47zM114 619l17 117h-53l-11 -72h33l-6 -45q-3 -27 -25 -47h20q22 22 25 47z" />
    <glyph glyph-name="bullet" unicode="&#x2022;" horiz-adv-x="294" 
d="M214 328q6 33 -16 59q-21 24 -55 24q-35 0 -62 -24q-29 -26 -33 -59q-5 -35 16 -59t55 -24q36 0 63 24t32 59z" />
    <glyph glyph-name="endash" unicode="&#x2013;" horiz-adv-x="372" 
d="M330 244l6 41h-291l-6 -41h291z" />
    <glyph glyph-name="emdash" unicode="&#x2014;" horiz-adv-x="617" 
d="M569 244l6 41h-520l-6 -41h520z" />
    <glyph glyph-name="tilde" unicode="&#x2dc;" horiz-adv-x="423" 
d="M378 535l-26 22q-12 -11 -20 -16.5t-12 -7.5l-13 -4h-23l-34 4l-27 12q-5 3 -9 5t-7 4q-26 10 -51 10q-66 0 -102 -51l25 -22q30 33 67 33q21 0 35 -6l27 -12q28 -18 75 -18q30 0 56 14l17 13z" />
    <glyph glyph-name="trademark" unicode="&#x2122;" horiz-adv-x="337" 
d="M304 547l-10 161l-73 -148l-30 148l-59 -161h7l50 138l29 -146l71 146l8 -138h7zM159 700l1 6h-109l-1 -6h51l-22 -154h7l22 154h51z" />
    <glyph glyph-name="scaron" unicode="&#x161;" horiz-adv-x="331" 
d="M329 559l-18 22l-114 -99l-86 99l-24 -22l104 -120zM284 113q7 56 -31 89q-20 17 -83 41q-38 14 -53 27q-19 17 -16 46q9 63 81 63q54 0 82 -34l34 26q-42 48 -110 48q-49 0 -86 -31q-36 -30 -42 -72q-6 -50 22 -75q20 -18 67 -36q53 -20 69 -31q30 -25 25 -61
q-12 -80 -106 -80q-42 0 -65 19q-22 17 -34 48l-38 -21q36 -87 132 -87q56 0 100 34q45 34 52 87z" />
    <glyph glyph-name="guilsinglright" unicode="&#x203a;" horiz-adv-x="281" 
d="M254 255l-163 189l-23 -21l145 -168l-187 -164l17 -21z" />
    <glyph glyph-name="oe" unicode="&#x153;" horiz-adv-x="883" 
d="M850 215q14 92 -40 147q-53 56 -144 56q-64 0 -123 -32q-58 -32 -90 -89q-21 55 -67 89q-47 33 -108 33q-89 0 -160 -62q-69 -61 -83 -151q-12 -91 40 -152q54 -61 143 -61q62 0 119 33t90 89q19 -58 67 -91q47 -32 112 -32q38 0 71 10q85 25 134 100l-34 17
q-43 -55 -87 -73q-37 -14 -78 -14q-83 0 -122 50q-39 49 -27 133h387zM810 254h-335q58 124 185 124q74 0 115 -44q30 -33 35 -80zM421 206q-11 -73 -68 -123q-58 -50 -129 -50q-72 0 -115 51q-44 52 -34 122q11 73 68 123q58 50 129 50t115 -51q44 -52 34 -122z" />
    <glyph glyph-name="Ydieresis" unicode="&#x178;" horiz-adv-x="511" 
d="M408 796q-3 33 -29 33q-34 -6 -37 -33q-1 -15 6 -24q10 -9 22 -9q33 0 38 33zM271 796q-3 33 -29 33q-34 -6 -37 -33q-1 -15 6 -24q10 -9 22 -9q33 0 38 33zM523 714h-47l-221 -309l-133 309h-47l153 -357l-50 -357h41l50 357z" />
    <glyph glyph-name="exclamdown" unicode="&#xa1;" horiz-adv-x="204" 
d="M184 608q0 18 -7 25q-9 11 -24 11q-37 -6 -41 -36q-5 -36 31 -36q38 6 41 36zM74 -74l79 566h-40l-79 -566h40z" />
    <glyph glyph-name="cent" unicode="&#xa2;" horiz-adv-x="423" 
d="M388 469l7 49q-19 20 -48 29q-25 11 -59 11l7 49h-42l-7 -50q-83 -10 -140 -67q-56 -56 -68 -139q-10 -76 27 -131q46 -69 124 -69l-8 -59h42l8 58l32 3l31 7q34 13 52 24l6 46q-65 -41 -116 -41l46 326q28 0 58 -14l24 -15zM195 190q-61 10 -91 54q-31 43 -22 107
q9 61 52 109q43 45 106 54z" />
    <glyph glyph-name="sterling" unicode="&#xa3;" horiz-adv-x="474" 
d="M405 50l-23 26q-48 -42 -95 -42q-22 0 -38 6l-36 17q-14 10 -34 18l-16 7l-14 1q17 16 32.5 34t28.5 39q27 42 33 88h112l6 43h-114q-3 36 -24 73l-41 78q-32 60 -33 96l1 32q17 113 147 113q57 0 87 -23q38 -27 30 -80h40q10 72 -36 109q-40 34 -115 34q-76 0 -129 -38
q-57 -41 -68 -115q-5 -38 7 -77l30 -71l29 -51q31 -52 32 -80h-104l-6 -43h107q-10 -80 -105 -163q-23 0 -55 -17q-31 -17 -48 -37l22 -28q27 23 45 31q34 13 59 12l23 -2l22 -6q13 -3 26 -12q43 -28 91 -28q38 0 73 18q14 10 27 19t24 19z" />
    <glyph glyph-name="currency" unicode="&#xa4;" horiz-adv-x="702" 
d="M653 273l6 40h-562q1 11 1.5 22t2.5 22q2 10 3.5 19.5t3.5 18.5h563l5 41h-556q32 92 106 156q104 92 247 92q43 0 81.5 -8t73.5 -23q47 -22 84 -56l7 51q-36 32 -78 49q-69 27 -162 27q-163 0 -279 -103q-87 -75 -122 -185h-66l-6 -41h61q-2 -9 -3.5 -18.5t-3.5 -19.5
q-2 -11 -3 -22t-1 -22h-61l-6 -40h67q4 -104 69 -181q88 -102 250 -102q15 0 28 0.5t24 1.5q97 9 159 50l53 35l6 47q-33 -22 -59 -37t-45 -24q-70 -32 -160 -32q-143 0 -221 92q-54 62 -62 150h555z" />
    <glyph glyph-name="currency" unicode="&#x20ac;" horiz-adv-x="702" 
d="M653 273l6 40h-562q1 11 1.5 22t2.5 22q2 10 3.5 19.5t3.5 18.5h563l5 41h-556q32 92 106 156q104 92 247 92q43 0 81.5 -8t73.5 -23q47 -22 84 -56l7 51q-36 32 -78 49q-69 27 -162 27q-163 0 -279 -103q-87 -75 -122 -185h-66l-6 -41h61q-2 -9 -3.5 -18.5t-3.5 -19.5
q-2 -11 -3 -22t-1 -22h-61l-6 -40h67q4 -104 69 -181q88 -102 250 -102q15 0 28 0.5t24 1.5q97 9 159 50l53 35l6 47q-33 -22 -59 -37t-45 -24q-70 -32 -160 -32q-143 0 -221 92q-54 62 -62 150h555z" />
    <glyph glyph-name="yen" unicode="&#xa5;" horiz-adv-x="514" 
d="M531 714h-47l-221 -310l-133 310h-47l151 -352h-98l-6 -41h101l-6 -45h-101l-6 -41h101l-33 -235h41l33 235h102l6 41h-102l6 45h102l6 41h-99z" />
    <glyph glyph-name="brokenbar" unicode="&#xa6;" horiz-adv-x="133" 
d="M97 436l45 319h-35l-45 -319h35zM36 0l46 327h-35l-46 -327h35z" />
    <glyph glyph-name="section" unicode="&#xa7;" horiz-adv-x="380" 
d="M347 348q19 134 -131 160q-89 15 -79 97q6 36 34 61q28 24 64 24q62 0 89 -66l33 20q-30 84 -116 84q-54 0 -97 -35q-42 -35 -49 -90q-10 -75 55 -115q-47 -23 -66 -44q-39 -39 -46 -99q-9 -58 26 -101q34 -41 93 -49q103 -13 90 -115q-6 -41 -37 -66q-32 -24 -73 -24
q-44 0 -63 22q-21 24 -28 55l-40 -17q12 -48 43 -73q31 -26 82 -26q61 0 107 35q45 35 54 94q12 93 -50 130q93 49 105 138zM302 345q-8 -48 -41 -74q-35 -26 -82 -26q-46 0 -73 29q-28 28 -22 76q7 45 39 75q31 30 77 30q117 0 102 -110z" />
    <glyph glyph-name="dieresis" unicode="&#xa8;" horiz-adv-x="429" 
d="M321 520q-3 33 -28 33q-33 -6 -38 -33q0 -17 7 -24q10 -9 21 -9q33 0 38 33zM184 520q-3 33 -28 33q-33 -6 -38 -33q0 -17 7 -24q10 -9 21 -9q33 0 38 33z" />
    <glyph glyph-name="copyright" unicode="&#xa9;" horiz-adv-x="588" 
d="M560 389q15 111 -50 187q-67 76 -176 76t-197 -77t-103 -186q-15 -111 50 -187q66 -76 176 -76q109 0 197 77t103 186zM541 390q-14 -102 -95 -173q-79 -70 -182 -70q-101 0 -163 71q-60 70 -46 172q15 104 95 173q79 70 182 70q101 0 163 -71q61 -71 46 -172zM381 308
l3 24q-41 -39 -100 -39q-54 0 -78 30t-18 71q6 46 42 73t82 27l28 -3q13 -2 27 -9l19 -10l16 -12l3 24l-18 12l-16 8q-19 10 -56 10q-56 0 -98 -33q-41 -31 -49 -87q-8 -54 25 -88q33 -33 88 -33q59 0 100 35z" />
    <glyph glyph-name="ordfeminine" unicode="&#xaa;" horiz-adv-x="373" 
d="M297 424l35 248h-25l-6 -43q-30 47 -92 47q-55 0 -96 -37q-42 -37 -49 -91t24 -91q30 -37 85 -37q62 0 106 47l-7 -43h25zM310 336l4 29h-284l-4 -29h284zM295 548q-6 -41 -41 -73q-35 -31 -78 -31q-41 0 -68 31q-26 32 -20 73q6 42 41 73q34 31 77 31q41 0 68 -31
t21 -73z" />
    <glyph glyph-name="guillemotleft" unicode="&#xab;" horiz-adv-x="439" 
d="M415 423l-18 21l-214 -189l158 -185l24 21l-142 164zM270 423l-17 21l-215 -189l158 -185l24 21l-141 164z" />
    <glyph glyph-name="logicalnot" unicode="&#xac;" horiz-adv-x="942" 
d="M387 77q-5 2 -9 4.5t-8 5.5h17q2 -3 8 -7zM499 7l-15 10l19 -10h-4zM413 0l15 -4l-15 1v3zM398 -156q-8 -1 -9 2t-1 10q0 26 8 51t13 50q5 -2 15 -4q-1 -4 -1 -8t-2 -7l1 -2q-3 -14 -3 -28l3 -3q4 1 5.5 12.5t1.5 15.5l4 -2q0 -29 -2.5 -57t-14.5 -54q-6 4 -9.5 10
t-5.5 12zM407 -3v2v-2zM394 -77l-2 2q-2 -1 -4.5 -8t-4.5 -15.5t-4 -16.5t-2 -11q4 22 8.5 43.5t10.5 43.5l7 -3q-2 -8 -4.5 -17t-4.5 -18zM384 -122q-2 -8 -3 -14.5t-4 -14.5zM439 -50q18 -4 36 -7.5t37 -6.5q-19 2 -37 3l-36 2v9zM399 -8l-6 -20q-11 5 -20 12t-19 12
q11 -2 22.5 -2.5t22.5 -1.5zM407 -9v-12t-2 -12l-7 2l7 22h2zM432 -11l-4 -27l-2 -3q-8 1 -15 6q2 6 2 13v13zM487 0l10 1l13 -9zM446 41l-1 -3q0 -2 6.5 -6.5t14 -9.5t14.5 -10t9 -6q-12 -1 -25 3t-25.5 10.5t-25 14l-22.5 13.5q14 -2 27.5 -3t27.5 -3zM401 75l10 -9
q-8 1 -17 7zM392 67l-14 1l8 2zM406 83l-4 -1l-3 2zM562 466q0 2 0.5 4.5t0.5 4.5l6 6l1 -2q-2 -8 -8 -13zM558 446h1l-1 -1v1zM285 668h69q-2 -49 -10 -97t-14 -97h-12q-11 98 -33 194zM421 474h-20q1 15 2 35t4.5 39.5t10.5 36.5t21 27q4 -5 2.5 -24.5t-5.5 -42
t-8.5 -43.5t-6.5 -28zM380 411q5 5 8.5 10.5t5.5 11.5h16q-5 -17 -9 -34t-7 -34q-7 9 -9.5 22t-4.5 24zM327 453v1v-1zM370 474h-8q2 7 4 13t4 13v-26zM380 419l-2 14h10q-3 -7 -8 -14zM340 402l-1 25l3 -3q2 0 3 3.5t2 5.5h25l2 -20q-8 -5 -16.5 -7.5t-17.5 -3.5zM312 474
h-44q-11 47 -10 97t9 97h12q23 -97 33 -194zM319 404q-22 7 -35 29q7 0 11 -0.5t10 -2.5l1 3h11zM334 402l-6 1l3 30h2zM273 433h4q7 -12 17.5 -21.5t24.5 -13.5q1 -26 5 -29t4 28l6 -1q2 -45 6 -88q-18 31 -34 62t-33 63zM472 469l-1 -1zM476 510l-1 -13zM476 433h1
q0 -2 -0.5 -3t-0.5 -3v6zM462 383l2 -6v-4l-4 2zM456 400v-1v-2v3zM486 476h-4v5zM521 492q-12 -9 -28 -14l-10 11q0 5 0.5 18t-4.5 15l-2 -8h-6q0 -10 -2 -20t-5 -20h-37q8 32 14 64t6 64q0 4 -1 10t-6 6q-14 0 -22.5 -18.5t-13 -43t-6.5 -48.5t-3 -34h-19q0 3 0.5 12.5
t0.5 18.5q0 10 -1 18t-4 9q-3 -3 -5 -10.5t-4.5 -16.5t-4.5 -17.5t-3 -13.5h-14q3 49 10 97t9 97q30 0 65 1.5t64.5 -5.5t49.5 -28t20 -65q0 -14 -3 -27.5t-11 -25.5q-4 3 -8 -6t-6 -11q0 3 -0.5 10t-1.5 14.5t-2.5 14t-3.5 7.5l-4 -3v-26t2 -26zM557 459l-1 -1l-4 7l5 4
q-1 -2 -0.5 -5t0.5 -5zM543 449v10l3 2q2 -3 4 -7t2 -8q-2 1 -3.5 1.5t-3.5 1.5h-2zM526 417l4 -3l-5 -4zM537 450v1v-1zM577 484q0 2 0.5 6t2.5 6l4 -4zM795 589v-18q1 5 0.5 9t-0.5 9zM451 355v9l2 2zM182 433h40q-5 -16 -19 -33q-14 13 -21 33zM65 465q-2 -1 -2 -7v-7
q-2 11 -2 22q0 12 2 23q2 -8 2 -15v-16zM64 414h1q0 -14 0.5 -28t2.5 -28q-3 14 -3 28t-1 28zM71 419l6 7q3 -22 5 -43.5t2 -44.5h6l-5 108l2 -21h6l8 33q7 -14 10.5 -30t8.5 -31l6 1q9 39 24 74l3 -21l6 -1l9 29q2 -23 8 -46.5t25 -39.5h4l23 40h38q18 -35 36.5 -70
t38.5 -70l6 2l-7 101l35 10q4 -25 19 -49l5 2q3 19 7.5 37.5t9.5 36.5h26l5 -7l-8 -67l2 -4l-3 -15l6 -2l2 8l2 -22h6l5 43l1 -14l6 -1q6 20 7.5 40t9.5 40l29 -7l5 -6l-2 -59l7 39l12 11q15 -14 20 -34t5 -40q0 -41 -26 -69t-68 -28h-425v-41h339l6 -6l-345 -344v-57
l367 366l3 -17l-17 -3l15 -14l-13 3l-3 -5l12 -12l-20 1l-2 -5l18 -12h-40l-2 -5l21 -14l-18 -5v-6l19 -6h-17v-6q6 0 19 -6t27.5 -13.5t28 -15.5t21.5 -11l-46 1l-6 13l-7 -21l-60 6l-2 -5l25 -15l-8 -3l36 -18q-9 -34 -16 -68t-12 -69l-15 16l-9 -24l-9 43h-6l-12 -27
l6 -2l7 18l11 -44l6 1l9 27l11 -17l-3 -28l6 -1q1 15 4 31t14 29q11 -6 18.5 -15.5t13.5 -19.5l5 1q13 26 16 54t3 57l21 -11l3 6l-24 14v1q27 -1 54.5 -4t54.5 -3l1 6q-28 7 -55.5 11.5t-54.5 10.5v33l21 -3l1 6l-22 7q26 2 45.5 -5t42.5 -15l3 6l-24 16l8 7l-64 32l1 8
l-34 7l17 3q-8 4 -14.5 9t-12.5 10l25 8l-1 6l-20 1l-16 12l17 -2l2 6l-11 10l22 -8l3 4l-25 21q6 -2 13.5 -0.5t13.5 3.5l-14 1l-4 24h1l341 -342v58l-317 319h317v41h-187q17 20 24.5 45.5t7.5 51.5q0 16 -3.5 28.5t-9 24t-12 23t-12.5 25.5l10 28h2l1 7l15 18l-7 12l8 19
l7 -45h6l8 39q-2 -13 -0.5 -26t5.5 -26h6l22 72v-48q0 -24 3 -48t11 -46.5t25 -40.5l5 2q0 54 -1.5 107t14.5 104l19 -46l6 2q-4 19 -4.5 38t-1.5 39q6 -8 8.5 -30t3 -48t1 -50.5t1.5 -36.5h6q4 26 8.5 51.5t12.5 50.5q11 -23 20.5 -47.5t10.5 -51.5l6 -1l16 -76h6l2 49
q1 21 -2 42t-1 42l14 -16l9 29l59 -34l3 5q-6 3 -16.5 10t-21.5 13.5t-21.5 11t-16.5 3.5l4 -20l-3 -10l-12 26q-4 -10 -4.5 -27t0 -36t2 -37.5t0.5 -30.5q-6 26 -11.5 47.5t1.5 49.5l4 1q1 22 4.5 43t6.5 43l-6 1l-6 -38l2 24l-6 1l-7 -67q-2 27 -2 53q0 27 -3 53
q-2 -21 -5.5 -49t-0.5 -48l-22 52l-6 -1q-8 -20 -12.5 -40.5t-7.5 -41.5q-1 36 -1.5 73.5t-19.5 69.5l-3 -3v-29t2 -29l-12 31l-6 -1q-18 -51 -17.5 -105t1.5 -106q-26 35 -29 79t-3 86v7v13q0 7 -1.5 10.5t-4.5 -0.5q-5 -22 -11.5 -43t-13.5 -41q-5 23 -1.5 43.5t6.5 43.5
l-6 1q-11 -35 -18 -69q-2 11 -4 21t-2 21q0 20 0.5 38.5t-2.5 35.5t-12.5 32t-28.5 27h41v41h-319l-2 9l-6 -9h-86v-41h81q-8 -48 -9 -96.5t10 -96.5q-8 2 -19 2q-10 0 -21.5 -0.5t-22.5 -1.5t-19 -1v-34q-4 14 -5 27.5t-2 27.5l-6 1l-10 -30l-3 17h-6q-8 -18 -14 -36
t-11 -38q-5 15 -8.5 29t-10.5 28l-13 -18l-2 14h-6l-1 -4q-2 20 -3 40.5t-1 40.5l-6 1l-5 -33l-8 8q-1 -20 -4 -40t-10 -40l6 -1l3 14q3 -25 2.5 -51t12.5 -49q5 18 4 35.5t-2 35.5zM71 459l4 -23q-2 -6 -4 -8v31zM76 467q-3 11 -4 19.5t1 20.5q0 -21 3 -40zM452 365l-1 -1
v-2z" />
    <glyph glyph-name="registered" unicode="&#xae;" horiz-adv-x="399" 
d="M357 539q9 66 -30 112q-40 46 -106 46t-118 -46q-53 -47 -62 -112q-9 -66 30 -112q40 -46 106 -46t118 46q53 47 62 112zM342 539q-7 -56 -57 -100q-49 -43 -106 -43t-94 43q-37 42 -29 100q7 56 57 100q49 43 106 43t94 -43q37 -42 29 -100zM253 452l-47 84h8
q51 0 57 49q4 21 -9 36q-12 13 -35 13h-70l-25 -182h14l12 84h31l46 -84h18zM257 585q-5 -35 -40 -35h-57l9 70h57q37 0 31 -35z" />
    <glyph glyph-name="macron" unicode="&#xaf;" horiz-adv-x="393" 
d="M339 474l6 36h-285l-6 -36h285z" />
    <glyph glyph-name="degree" unicode="&#xb0;" horiz-adv-x="212" 
d="M189 615q4 32 -17 58q-21 25 -54 25q-34 0 -62 -25q-29 -26 -33 -58t17 -58q21 -25 54 -25q34 0 62 25q29 26 33 58zM168 616q-3 -24 -25 -43q-20 -19 -46 -19q-24 0 -40 19t-13 43q3 22 25 43q22 19 46 19t40 -19t13 -43z" />
    <glyph glyph-name="plusminus" unicode="&#xb1;" horiz-adv-x="388" 
d="M320 323l5 41h-102l15 102h-46l-15 -102h-102l-5 -41h102l-15 -102h46l15 102h102zM301 142l6 41h-257l-6 -41h257z" />
    <glyph glyph-name="twosuperior" unicode="&#xb2;" 
d="M308 656q5 39 -20 62q-24 24 -62 24q-36 0 -65 -22q-31 -21 -40 -54h20q27 58 82 58q29 0 49 -20q20 -19 17 -48q-5 -26 -27 -56l-183 -182h194l3 18h-154l108 105q20 20 32.5 33t17.5 19q24 32 28 63z" />
    <glyph glyph-name="threesuperior" unicode="&#xb3;" 
d="M280 507q11 68 -51 86q62 16 71 74q5 38 -16 60q-24 22 -59 22t-62 -21q-26 -19 -34 -55h21q16 57 73 57q28 0 43 -18q15 -17 12 -45l-8 -25l-14 -19q-20 -17 -49 -17h-19l-3 -26h19l20 -4q7 -3 18 -12q24 -20 18 -57q-5 -31 -28 -51q-25 -20 -54 -20q-26 0 -41 17
q-16 16 -19 35h-20q9 -70 78 -70q41 0 69 25q31 24 35 64z" />
    <glyph glyph-name="acute" unicode="&#xb4;" horiz-adv-x="408" 
d="M321 602l-21 24l-152 -133l21 -24z" />
    <glyph glyph-name="mu" unicode="&#xb5;" horiz-adv-x="785" 
d="M530 530q12 84 -41 137q-55 53 -139 53q-99 0 -169 -66q-51 -50 -66 -103h45q17 45 50 77q53 52 134 52q66 0 110 -43q44 -44 35 -107q-9 -65 -60 -125l-406 -405h432l5 41h-342l238 232q32 32 53 53.5t32 32.5q77 84 89 171zM363 445q5 34 -17 58q-21 25 -54 25
q-34 0 -62 -25q-29 -26 -33 -58t17 -58q21 -25 54 -25q34 0 62 25q29 26 33 58zM342 446q-3 -24 -25 -43q-20 -19 -45 -19t-41 19t-13 43q3 22 25 43q22 19 46 19t40 -19t13 -43zM723 445q5 34 -17 58q-21 25 -54 25q-34 0 -62 -25q-29 -26 -33 -58t17 -58q21 -25 54 -25
q34 0 62 25q29 26 33 58zM702 446q-3 -24 -25 -43q-20 -19 -45 -19t-41 19t-13 43q3 22 25 43q22 19 46 19t40 -19t13 -43zM266 429q-2 -9 4 -15.5t15 -6.5t16 6.5t9 15.5t-4 15.5t-15 6.5t-16 -6.5t-9 -15.5zM626 426q-1 -9 4.5 -15.5t14.5 -6.5t16.5 6.5t8.5 15.5
q2 9 -3.5 15.5t-14.5 6.5q-10 0 -17 -6.5t-9 -15.5zM529 -129l-14 22q-43 -37 -91 -37q-52 0 -85 39l-25 -24q36 -44 102 -44q69 0 113 44z" />
    <glyph glyph-name="paragraph" unicode="&#xb6;" horiz-adv-x="505" 
d="M392 -61l108 775h-41l-108 -775h41zM297 -61l108 775h-108q-82 0 -143 -48q-64 -50 -76 -131q-11 -83 37 -130q48 -48 132 -48h67l-58 -418h41z" />
    <glyph glyph-name="periodcentered" unicode="&#xb7;" horiz-adv-x="276" 
d="M177 324q-3 33 -29 33q-34 -6 -37 -33q0 -17 6 -24q12 -9 22 -9q33 0 38 33z" />
    <glyph glyph-name="periodcentered" unicode="&#x2219;" horiz-adv-x="276" 
d="M177 324q-3 33 -29 33q-34 -6 -37 -33q0 -17 6 -24q12 -9 22 -9q33 0 38 33z" />
    <glyph glyph-name="cedilla" unicode="&#xb8;" horiz-adv-x="260" 
d="M192 -94q6 41 -30 53l20 41h-45l-23 -49q34 -13 31 -35q-3 -24 -32 -24l-23 7q-14 9 -19 15l-6 -40q25 -25 61 -25q27 0 44 16q19 16 22 41z" />
    <glyph glyph-name="onesuperior" unicode="&#xb9;" 
d="M196 419l46 322h-60l-15 -19h54l-43 -303h18z" />
    <glyph glyph-name="ordmasculine" unicode="&#xba;" horiz-adv-x="373" 
d="M321 552q7 54 -24 91t-86 37t-96 -37q-43 -38 -50 -91q-7 -54 24 -91q33 -37 86 -37q55 0 96 37q42 37 50 91zM304 336l4 29h-282l-4 -29h282zM297 552q-6 -41 -41 -73q-35 -31 -77 -31t-69 31t-21 73q6 41 41 73q35 31 78 31t68 -31q27 -31 21 -73z" />
    <glyph glyph-name="guillemotright" unicode="&#xbb;" horiz-adv-x="439" 
d="M413 255l-163 189l-23 -21l145 -168l-187 -164l18 -21zM263 255l-163 189l-23 -21l145 -168l-187 -164l18 -21z" />
    <glyph glyph-name="onequarter" unicode="&#xbc;" 
d="M226 419l45 322h-60l-15 -19h54l-42 -303h18zM331 354l3 26h-254l-3 -26h254zM244 60l3 18h-28l35 247l-222 -265h165l-8 -61h19l8 61h28zM200 78h-132l158 187z" />
    <glyph glyph-name="onehalf" unicode="&#xbd;" 
d="M232 419l45 322h-60l-15 -19h54l-42 -303h18zM333 354l3 26h-254l-3 -26h254zM282 238q6 38 -19 62q-24 24 -63 24q-34 0 -65 -22q-30 -21 -39 -54h20q27 58 82 58q29 0 49 -20q21 -19 16 -48q-3 -25 -26 -56l-183 -182h194l2 18h-154l108 105q43 42 51 52q22 30 27 63z
" />
    <glyph glyph-name="threequarters" unicode="&#xbe;" 
d="M310 507q9 68 -51 86q62 17 70 74q6 37 -16 60q-22 22 -58 22q-35 0 -62 -21q-27 -20 -35 -55h21q16 57 73 57q27 0 44 -18q15 -17 11 -45l-7 -25l-15 -19q-19 -17 -48 -17h-19l-4 -26h19l20 -4q9 -4 19 -12q22 -20 18 -57q-5 -31 -28 -51q-25 -20 -54 -20q-27 0 -42 17
q-16 18 -19 35h-20q9 -70 78 -70q41 0 70 25t35 64zM324 354l4 26h-255l-4 -26h255zM248 60l2 18h-28l35 247l-221 -265h165l-9 -61h19l9 61h28zM203 78h-132l159 187z" />
    <glyph glyph-name="questiondown" unicode="&#xbf;" horiz-adv-x="469" 
d="M326 612q-2 35 -30 35q-35 -6 -40 -35q2 -35 30 -35q35 6 40 35zM391 53l-36 17q-35 -48 -66 -72q-52 -38 -111 -38q-58 0 -95 26q-43 30 -35 86q6 43 47 84q10 10 31 25t53 37l94 63q77 53 86 117q6 43 -20 69q-27 25 -70 25q-57 0 -91 -30l19 -33q16 13 30 16
q12 5 36 5t40 -14q15 -14 12 -38q-7 -52 -62 -88l-93 -61q-80 -53 -92 -65q-52 -51 -61 -112q-11 -78 40 -117q44 -35 125 -35q144 0 219 133z" />
    <glyph glyph-name="Agrave" unicode="&#xc0;" horiz-adv-x="633" 
d="M389 772l-104 121l-23 -22l101 -119zM539 0l-182 737l-389 -737h40l113 214h325l52 -214h41zM435 255h-292l199 378z" />
    <glyph glyph-name="Aacute" unicode="&#xc1;" horiz-adv-x="633" 
d="M485 865l-17 20l-127 -112l17 -19zM540 0l-183 737l-388 -737h40l113 214h325l52 -214h41zM436 255h-292l199 378z" />
    <glyph glyph-name="Acircumflex" unicode="&#xc2;" horiz-adv-x="633" 
d="M484 757l-104 121l-138 -121l18 -21l114 99l86 -99zM540 0l-182 737l-389 -737h40l113 214h325l52 -214h41zM436 255h-292l199 378z" />
    <glyph glyph-name="Atilde" unicode="&#xc3;" horiz-adv-x="628" 
d="M530 800l-26 22q-12 -11 -20 -16.5t-12 -7.5l-13 -4h-23l-34 4l-27 12q-5 3 -9 5t-7 4q-26 10 -51 10q-66 0 -102 -51l25 -22q30 33 67 33q21 0 35 -6l27 -12q27 -18 75 -18q30 0 56 14l17 13zM544 0l-183 737l-388 -737h40l113 214h325l52 -214h41zM440 255h-292
l199 378z" />
    <glyph glyph-name="Adieresis" unicode="&#xc4;" horiz-adv-x="628" 
d="M468 796q-3 33 -29 33q-34 -6 -37 -33q-1 -15 6 -24q10 -9 22 -9q33 0 38 33zM331 796q-3 33 -29 33q-34 -6 -37 -33q-1 -15 6 -24q10 -9 22 -9q33 0 38 33zM544 0l-183 737l-388 -737h40l113 214h325l52 -214h41zM440 255h-292l199 378z" />
    <glyph glyph-name="Aring" unicode="&#xc5;" horiz-adv-x="633" 
d="M436 813q5 29 -13 48q-17 20 -45 20t-51 -20t-27 -48q-3 -29 14 -48q17 -20 45 -20q26 0 51 20q23 20 26 48zM540 0l-182 737l-389 -737h40l113 214h325l52 -214h41zM418 814q-1 -18 -20 -35q-17 -16 -37 -16q-22 0 -34 15q-12 13 -9 36q3 20 20 36q17 14 38 14
q20 0 32 -15q13 -15 10 -35zM436 255h-292l199 378z" />
    <glyph glyph-name="AE" unicode="&#xc6;" horiz-adv-x="740" 
d="M636 0l6 41h-303l46 331h303l6 41h-302l36 260h302l6 41h-339l-418 -714h40l192 327h127l-46 -327h344zM343 367h-108l143 243z" />
    <glyph glyph-name="Ccedilla" unicode="&#xc7;" horiz-adv-x="702" 
d="M639 77l6 47q-33 -22 -59 -37t-45 -24q-70 -32 -160 -32q-142 0 -222 92q-78 91 -58 234t124 235q106 92 248 92q43 0 81.5 -8t73.5 -23q47 -22 84 -56l7 51q-36 32 -78 49q-69 27 -163 27q-162 0 -278 -103q-118 -102 -140 -264q-22 -157 60 -257q90 -110 227 -110
l-21 -37q12 -3 21 -15q9 -10 7 -23q-3 -24 -32 -24q-22 0 -37 19l-21 -33q24 -28 65 -28q60 0 69 60q5 30 -24 53l15 28q88 0 160 31l36 21z" />
    <glyph glyph-name="Egrave" unicode="&#xc8;" horiz-adv-x="473" 
d="M311 772l-103 121l-24 -22l102 -119zM351 0l6 41h-302l46 328h302l6 44h-302l37 260h302l6 41h-343l-101 -714h343z" />
    <glyph glyph-name="Eacute" unicode="&#xc9;" horiz-adv-x="473" 
d="M413 865l-18 22l-128 -116l19 -17zM352 0l5 41h-302l47 328h302l6 44h-302l36 260h302l6 41h-343l-100 -714h343z" />
    <glyph glyph-name="Ecircumflex" unicode="&#xca;" horiz-adv-x="473" 
d="M413 777l-103 121l-138 -121l18 -21l114 99l86 -99zM351 0l6 41h-302l46 328h302l6 44h-302l36 260h302l6 41h-343l-100 -714h343z" />
    <glyph glyph-name="Edieresis" unicode="&#xcb;" horiz-adv-x="473" 
d="M400 796q-3 33 -29 33q-34 -6 -37 -33q-1 -15 6 -24q10 -9 22 -9q33 0 38 33zM263 796q-3 33 -29 33q-34 -6 -37 -33q-1 -15 6 -24q10 -9 22 -9q33 0 38 33zM356 0l6 41h-302l46 328h302l6 44h-302l36 260h302l6 41h-343l-100 -714h343z" />
    <glyph glyph-name="Igrave" unicode="&#xcc;" horiz-adv-x="192" 
d="M175 772l-103 121l-24 -22l102 -119zM54 0l101 714h-40l-101 -714h40z" />
    <glyph glyph-name="Iacute" unicode="&#xcd;" horiz-adv-x="192" 
d="M260 865l-16 20l-128 -112l18 -19zM55 0l100 714h-40l-100 -714h40z" />
    <glyph glyph-name="Icircumflex" unicode="&#xce;" horiz-adv-x="192" 
d="M261 757l-103 121l-139 -121l19 -21l114 99l86 -99zM55 0l101 714h-40l-101 -714h40z" />
    <glyph glyph-name="Idieresis" unicode="&#xcf;" horiz-adv-x="192" 
d="M251 796q-3 33 -29 33q-34 -6 -37 -33q-1 -15 6 -24q10 -9 22 -9q33 0 38 33zM114 796q-3 33 -29 33q-34 -6 -37 -33q-1 -15 6 -24q10 -9 22 -9q33 0 38 33zM59 0l100 714h-40l-100 -714h40z" />
    <glyph glyph-name="Eth" unicode="&#xd0;" horiz-adv-x="688" 
d="M633 358q21 145 -50 248q-75 108 -219 108h-238l-47 -334h-44l-6 -41h44l-47 -339h238q145 0 250 108q98 101 119 250zM592 358q-21 -148 -120 -235q-91 -82 -202 -82h-198l41 298h127l6 41h-127l42 294h198q126 0 191 -96q60 -90 42 -220z" />
    <glyph glyph-name="Ntilde" unicode="&#xd1;" horiz-adv-x="715" 
d="M576 800l-26 22q-13 -11 -20.5 -16.5t-11.5 -7.5l-13 -4h-23l-34 4l-28 12q-9 6 -15 9q-27 10 -51 10q-66 0 -102 -51l25 -22q30 33 66 33q22 0 36 -6l27 -12q27 -18 74 -18q31 0 56 14l18 13zM592 -12l102 726h-41l-87 -620l-445 625l-101 -719h40l85 606z" />
    <glyph glyph-name="Ograve" unicode="&#xd2;" horiz-adv-x="822" 
d="M478 772l-104 121l-23 -22l102 -119zM773 357q22 162 -66 265q-89 102 -250 102q-163 0 -279 -103q-118 -102 -140 -264q-22 -161 65 -265q88 -102 251 -102t279 103q118 102 140 264zM732 357q-19 -143 -124 -236q-104 -90 -249 -90q-143 0 -221 92q-79 91 -59 234
q21 145 125 235q104 92 247 92t223 -92q79 -92 58 -235z" />
    <glyph glyph-name="Oacute" unicode="&#xd3;" horiz-adv-x="822" 
d="M571 865l-16 20l-127 -112l16 -19zM774 357q22 162 -66 265q-89 102 -251 102q-163 0 -279 -103q-116 -102 -139 -264q-23 -163 65 -265t250 -102t280 103q118 102 140 264zM733 357q-21 -145 -124 -236q-105 -90 -249 -90q-142 0 -222 92q-79 93 -58 234q20 143 124 235
q106 92 248 92q144 0 222 -92q79 -90 59 -235z" />
    <glyph glyph-name="Ocircumflex" unicode="&#xd4;" horiz-adv-x="822" 
d="M582 782l-104 121l-138 -121l18 -21l114 99l86 -99zM772 357q24 161 -65 265q-89 102 -251 102q-163 0 -279 -103q-116 -101 -140 -264q-22 -162 66 -265q87 -102 250 -102t279 103q117 101 140 264zM731 357q-19 -143 -124 -236q-104 -90 -248 -90t-222 92t-59 234
q21 145 125 235q106 92 247 92q145 0 223 -92q79 -92 58 -235z" />
    <glyph glyph-name="Otilde" unicode="&#xd5;" horiz-adv-x="822" 
d="M622 812l-26 22q-13 -11 -21 -16.5t-12 -7.5l-12 -4h-23l-35 4l-27 12q-10 6 -16 9q-26 10 -50 10q-66 0 -102 -51l25 -22q28 33 66 33q21 0 35 -6l28 -12q27 -18 74 -18q30 0 56 14l18 13zM777 357q22 162 -66 265q-89 102 -251 102q-163 0 -279 -103
q-117 -103 -139 -264q-23 -163 65 -265t250 -102t280 103q118 102 140 264zM736 357q-21 -145 -124 -236q-104 -90 -249 -90q-142 0 -222 92q-79 93 -58 234q20 143 124 235q106 92 248 92q144 0 222 -92q79 -90 59 -235z" />
    <glyph glyph-name="Odieresis" unicode="&#xd6;" horiz-adv-x="822" 
d="M569 796q-2 33 -28 33q-33 -6 -38 -33q0 -17 7 -24q10 -9 22 -9q32 0 37 33zM432 796q-2 33 -28 33q-33 -6 -38 -33q0 -17 7 -24q10 -9 22 -9q32 0 37 33zM778 357q22 162 -66 265q-89 102 -251 102q-163 0 -279 -103q-116 -102 -139 -264q-24 -161 65 -265
q88 -102 250 -102q163 0 279 103q117 101 141 264zM737 357q-21 -145 -124 -236q-105 -90 -249 -90q-142 0 -222 92q-79 93 -58 234q20 143 124 235q106 92 248 92q144 0 222 -92q79 -90 59 -235z" />
    <glyph glyph-name="multiply" unicode="&#xd7;" 
d="M212 419l46 322h-60l-15 -19h54l-43 -303h18zM316 354l4 26h-254l-4 -26h254zM248 82q9 62 -50 85q23 5 41 29q16 20 19 45q6 36 -14 59t-56 23q-37 0 -63 -23q-26 -22 -32 -59q-3 -23 8 -46q10 -21 31 -28q-63 -23 -72 -85q-6 -38 16 -65q21 -26 65 -26q42 0 71 25
q30 25 36 66zM240 241q-3 -26 -24 -46q-23 -18 -49 -18q-27 0 -43 19q-16 18 -13 45q5 27 26 46q21 18 48 18q28 0 43 -19q16 -18 12 -45zM230 82q-4 -30 -29 -52q-26 -21 -57 -21q-33 0 -51 21q-20 20 -15 52q4 30 30 53q25 22 57 22q31 0 50 -22t15 -53z" />
    <glyph glyph-name="Oslash" unicode="&#xd8;" horiz-adv-x="822" 
d="M785 357q27 185 -92 290l50 60l-33 23l-49 -58q-80 52 -192 52q-163 0 -279 -103q-118 -102 -140 -264q-12 -89 12 -165q26 -82 87 -130l-48 -58l32 -24l48 58q82 -48 185 -48q163 0 279 103q118 102 140 264zM744 357q-19 -143 -124 -236q-104 -90 -249 -90
q-90 0 -161 41l454 541q104 -93 80 -256zM633 638l-455 -542q-53 43 -76 110t-11 151q21 145 125 235q104 92 247 92q94 0 170 -46z" />
    <glyph glyph-name="Ugrave" unicode="&#xd9;" horiz-adv-x="555" 
d="M360 772l-103 121l-24 -22l102 -119zM453 178l75 536h-41l-75 -536q-9 -67 -66 -107q-53 -37 -121 -37q-71 0 -111 36q-46 40 -35 108l75 536h-40l-75 -536q-12 -88 41 -138q52 -47 139 -47q90 0 151 46q71 53 83 139z" />
    <glyph glyph-name="Uacute" unicode="&#xda;" horiz-adv-x="555" 
d="M458 865l-16 20l-128 -112l17 -19zM453 178l76 536h-41l-76 -536q-9 -67 -66 -107q-52 -37 -121 -37q-71 0 -111 36q-44 38 -35 108l76 536h-40l-76 -536q-12 -87 42 -138q50 -47 138 -47q90 0 152 46q70 52 82 139z" />
    <glyph glyph-name="Ucircumflex" unicode="&#xdb;" horiz-adv-x="555" 
d="M451 782l-103 121l-139 -121l19 -21l114 99l86 -99zM452 178l75 536h-41l-75 -536q-9 -67 -66 -107q-52 -37 -121 -37q-71 0 -111 36q-44 38 -35 108l75 536h-40l-75 -536q-12 -87 42 -138q50 -47 138 -47q90 0 152 46q70 53 82 139z" />
    <glyph glyph-name="Udieresis" unicode="&#xdc;" horiz-adv-x="555" 
d="M436 796q-2 33 -28 33q-33 -6 -38 -33q0 -17 7 -24q10 -9 21 -9q33 0 38 33zM299 796q-2 33 -28 33q-33 -6 -38 -33q0 -17 7 -24q10 -9 21 -9q33 0 38 33zM457 178l76 536h-41l-76 -536q-9 -67 -66 -107q-52 -37 -121 -37q-71 0 -111 36q-44 38 -35 108l76 536h-40
l-76 -536q-12 -87 42 -138q50 -47 138 -47q90 0 152 46q70 52 82 139z" />
    <glyph glyph-name="Yacute" unicode="&#xdd;" horiz-adv-x="511" 
d="M438 865l-18 22l-128 -116l19 -17zM519 714h-47l-221 -309l-133 309h-47l153 -357l-50 -357h41l50 357z" />
    <glyph glyph-name="Thorn" unicode="&#xde;" horiz-adv-x="490" 
d="M445 363q11 82 -38 129q-48 48 -131 48h-134l24 174h-40l-100 -714h40l26 183h134q81 0 145 50q62 48 74 130zM404 363q-9 -65 -58 -103q-48 -36 -116 -36h-133l39 275h133q68 0 103 -34q41 -38 32 -102z" />
    <glyph glyph-name="germandbls" unicode="&#xdf;" horiz-adv-x="539" 
d="M484 210q14 89 -36 142q-38 43 -106 52q88 53 100 148q11 69 -33 116q-44 46 -114 46q-80 0 -129 -49q-50 -47 -62 -128l-17 -124h-57l-6 -41h57l-52 -372h40l75 536q20 137 145 137q52 0 87 -35q32 -34 25 -86q-7 -55 -48 -97t-95 -42l-6 -40q215 0 191 -163
q-9 -68 -57 -118q-51 -51 -118 -51h-114l-6 -41h113q90 0 152 60q59 58 71 150z" />
    <glyph glyph-name="agrave" unicode="&#xe0;" horiz-adv-x="510" 
d="M310 492l-116 134l-25 -24l112 -133zM411 0l58 413h-41l-11 -72q-54 78 -154 78q-89 0 -160 -62q-69 -61 -83 -151q-12 -91 41 -152q52 -61 143 -61q100 0 175 78l-9 -71h41zM406 206q-9 -71 -67 -123q-59 -50 -130 -50q-70 0 -115 51q-43 51 -34 122q10 71 68 123
q59 50 130 50q70 0 115 -51q44 -51 33 -122z" />
    <glyph glyph-name="aacute" unicode="&#xe1;" horiz-adv-x="510" 
d="M413 602l-19 24l-152 -134l21 -23zM411 0l58 413h-41l-11 -72q-54 78 -154 78q-89 0 -160 -62q-69 -61 -83 -151q-12 -91 41 -152q52 -61 143 -61q100 0 175 78l-9 -71h41zM406 206q-9 -71 -67 -123q-59 -50 -130 -50q-70 0 -115 51q-43 51 -34 122q10 71 68 123
q59 50 130 50q70 0 115 -51q44 -51 33 -122z" />
    <glyph glyph-name="acircumflex" unicode="&#xe2;" horiz-adv-x="510" 
d="M392 496l-103 120l-139 -120l19 -22l114 99l86 -99zM411 0l58 413h-41l-10 -72q-56 78 -154 78q-89 0 -160 -62q-69 -61 -83 -151q-12 -91 40 -152q54 -61 143 -61q101 0 176 78l-10 -71h41zM407 206q-11 -73 -68 -123q-58 -50 -129 -50q-72 0 -115 51t-34 122
q11 73 68 123q58 50 129 50t115 -51q45 -51 34 -122z" />
    <glyph glyph-name="atilde" unicode="&#xe3;" horiz-adv-x="510" 
d="M447 535l-25 22q-29 -28 -73 -28l-30 4l-27 13q-13 10 -27 14q-7 2 -16.5 3t-22.5 1q-66 0 -102 -51l24 -22q36 33 73 33l29 -4q7 -2 13.5 -5.5t13.5 -8.5q24 -18 68 -18q34 0 62 14l18 13zM415 0l58 413h-41l-10 -72q-56 78 -154 78q-90 0 -160 -62q-71 -62 -83 -151
q-13 -89 40 -152q52 -61 143 -61q99 0 176 78l-10 -71h41zM411 206q-10 -71 -68 -123q-58 -50 -130 -50q-71 0 -114 51q-45 51 -34 122q11 73 68 123q58 50 129 50t115 -51q43 -51 34 -122z" />
    <glyph glyph-name="adieresis" unicode="&#xe4;" horiz-adv-x="510" 
d="M376 520q-3 33 -29 33q-34 -6 -37 -33q0 -17 6 -24q10 -9 22 -9q33 0 38 33zM239 520q-3 33 -29 33q-34 -6 -37 -33q0 -17 6 -24q10 -9 22 -9q33 0 38 33zM416 0l58 413h-41l-10 -72q-56 78 -154 78q-90 0 -161 -62q-70 -63 -82 -151q-13 -89 40 -152q52 -61 143 -61
q99 0 176 78l-10 -71h41zM412 206q-10 -71 -68 -123q-59 -50 -130 -50q-70 0 -115 51q-44 51 -33 122q9 71 67 123q59 50 130 50t115 -51q43 -51 34 -122z" />
    <glyph glyph-name="aring" unicode="&#xe5;" horiz-adv-x="510" 
d="M359 538q6 32 -16 58q-22 25 -55 25t-61 -25t-34 -58q-4 -32 17 -58q22 -25 55 -25t61 25q29 26 33 58zM411 0l58 413h-41l-10 -72q-56 78 -154 78q-90 0 -160 -62q-71 -62 -83 -151q-13 -89 40 -152q52 -61 143 -61q99 0 176 78l-10 -71h41zM339 539q-4 -24 -25 -43
q-22 -19 -46 -19q-25 0 -40 19q-17 20 -13 43q3 24 25 43q20 19 45 19t41 -19t13 -43zM407 206q-10 -71 -68 -123q-58 -50 -130 -50q-71 0 -114 51q-45 51 -34 122q11 73 68 123q58 50 129 50t115 -51q43 -51 34 -122z" />
    <glyph glyph-name="ae" unicode="&#xe6;" horiz-adv-x="878" 
d="M844 215q14 92 -40 147q-53 56 -144 56q-116 0 -188 -86l11 81h-41l-10 -72q-56 78 -154 78q-89 0 -160 -62q-69 -61 -83 -151q-12 -91 40 -152q54 -61 143 -61q99 0 176 78l-10 -71h41l11 78q50 -86 164 -86q38 0 71 10q85 25 134 100l-34 17q-43 -55 -87 -73
q-37 -14 -78 -14q-83 0 -122 50q-39 49 -27 133h387zM804 254h-335q58 124 185 124q74 0 115 -44q30 -33 35 -80zM421 206q-11 -73 -68 -123q-58 -50 -129 -50q-72 0 -115 51q-44 52 -34 122q11 73 68 123q58 50 129 50t115 -51q44 -52 34 -122z" />
    <glyph glyph-name="ccedilla" unicode="&#xe7;" horiz-adv-x="438" 
d="M372 29l7 54l-34 -25q-47 -25 -99 -25q-75 0 -117 49t-31 124q10 75 66 125q55 49 131 49q53 0 93 -25l13 -12l13 -13l8 54l-30 18q-42 18 -91 18q-92 0 -162 -61t-82 -153q-13 -87 32 -146t130 -68l-19 -39l17 -15q9 -10 7 -21l-3 -8l-4 -6q-8 -8 -17 -8q-12 0 -19 6
l-14 14l-18 -35q16 -25 47 -25q24 0 44 16q21 16 24 39q0 38 -20 49l18 34q40 0 78 18z" />
    <glyph glyph-name="egrave" unicode="&#xe8;" horiz-adv-x="490" 
d="M318 492l-115 134l-26 -24l112 -133zM448 215q12 92 -40 148q-53 57 -144 57q-94 0 -162 -61q-70 -61 -82 -153q-14 -92 39 -153q51 -61 144 -61q39 0 72 10q85 26 134 100l-35 17q-41 -55 -87 -73q-36 -14 -78 -14q-83 0 -121 50q-39 49 -27 133h387zM407 254h-335
q58 126 186 126q60 0 103 -34t46 -92z" />
    <glyph glyph-name="eacute" unicode="&#xe9;" horiz-adv-x="490" 
d="M397 602l-18 24l-153 -134l20 -23zM448 215q12 92 -40 148q-53 57 -144 57q-94 0 -162 -61q-70 -61 -82 -153q-14 -92 39 -153q51 -61 144 -61q39 0 72 10q85 26 134 100l-35 17q-41 -55 -87 -73q-36 -14 -78 -14q-83 0 -121 50q-39 49 -27 133h387zM407 254h-335
q58 126 186 126q60 0 103 -34t46 -92z" />
    <glyph glyph-name="ecircumflex" unicode="&#xea;" horiz-adv-x="490" 
d="M399 496l-103 120l-138 -120l18 -22l114 99l86 -99zM448 215q13 91 -39 148q-53 57 -145 57q-94 0 -162 -61q-68 -60 -82 -153q-12 -92 39 -153q52 -61 145 -61q39 0 72 10q85 26 134 100l-35 17q-43 -55 -87 -73q-37 -14 -78 -14q-83 0 -122 50q-37 49 -27 133h387z
M408 254h-335q57 126 186 126q60 0 103 -34t46 -92z" />
    <glyph glyph-name="edieresis" unicode="&#xeb;" horiz-adv-x="490" 
d="M383 520q-3 33 -29 33q-34 -6 -37 -33q0 -17 6 -24q12 -9 22 -9q33 0 38 33zM246 520q-3 33 -29 33q-34 -6 -37 -33q0 -17 6 -24q12 -9 22 -9q33 0 38 33zM453 215q12 92 -40 148q-53 57 -144 57q-94 0 -162 -61q-70 -61 -82 -153q-14 -92 39 -153q51 -61 145 -61
q38 0 71 10q85 26 134 100l-35 17q-41 -55 -87 -73q-36 -14 -78 -14q-83 0 -121 50q-39 49 -27 133h387zM412 254h-335q58 126 186 126q62 0 103 -34q45 -35 46 -92z" />
    <glyph glyph-name="igrave" unicode="&#xec;" horiz-adv-x="184" 
d="M143 492l-114 134l-26 -24l113 -133zM70 0l58 413h-41l-58 -413h41z" />
    <glyph glyph-name="iacute" unicode="&#xed;" horiz-adv-x="184" 
d="M271 602l-20 24l-153 -134l22 -23zM70 0l58 413h-41l-58 -413h41z" />
    <glyph glyph-name="icircumflex" unicode="&#xee;" horiz-adv-x="255" 
d="M276 496l-103 120l-139 -120l19 -22l114 99l86 -99zM105 0l58 413h-41l-58 -413h41z" />
    <glyph glyph-name="idieresis" unicode="&#xef;" horiz-adv-x="184" 
d="M227 520q-2 33 -28 33q-33 -6 -38 -33q0 -17 7 -24q10 -9 22 -9q32 0 37 33zM90 520q-2 33 -28 33q-33 -7 -38 -33q1 -33 29 -33q32 0 37 33zM75 0l58 413h-41l-58 -413h41z" />
    <glyph glyph-name="eth" unicode="&#xf0;" horiz-adv-x="498" 
d="M444 206q11 73 9.5 130.5t-13.5 102.5q-21 73 -86 138l99 57l-36 26l-96 -55q-45 36 -98 51l-41 -35l48 -21l42 -23l-95 -55l37 -26l93 54q91 -73 100 -198q-55 67 -146 67q-89 0 -160 -62t-83 -151q-12 -91 40 -152q54 -61 143 -61q90 0 160 62q71 62 83 151zM404 206
q-11 -73 -68 -123q-58 -50 -129 -50q-72 0 -115 51q-44 52 -34 122q11 73 68 123q58 50 129 50t115 -51q44 -52 34 -122z" />
    <glyph glyph-name="ntilde" unicode="&#xf1;" horiz-adv-x="451" 
d="M421 535l-26 22q-13 -11 -21 -16.5t-12 -7.5l-12 -4h-23l-35 4l-27 12q-10 6 -16 9q-26 10 -50 10q-66 0 -103 -51l25 -22q30 33 67 33q21 0 35 -6l27 -12q28 -18 75 -18q30 0 56 14l18 13zM345 0l36 251q10 79 -24 123q-33 44 -112 44q-91 0 -127 -55l7 50h-41l-58 -413
h41l36 251q7 57 43 93q35 34 93 34q118 0 100 -131l-35 -247h41z" />
    <glyph glyph-name="ograve" unicode="&#xf2;" horiz-adv-x="498" 
d="M317 492l-116 134l-25 -24l112 -133zM446 206q14 91 -40 152q-53 62 -142 62q-90 0 -160 -63q-70 -61 -84 -151q-12 -91 41 -152q52 -61 143 -61q89 0 160 62q70 63 82 151zM406 206q-9 -71 -67 -123q-59 -50 -130 -50q-70 0 -115 51q-43 51 -34 122q10 69 69 122
q58 52 129 52q72 0 116 -51q42 -50 32 -123z" />
    <glyph glyph-name="oacute" unicode="&#xf3;" horiz-adv-x="498" 
d="M401 602l-19 24l-152 -134l21 -23zM446 206q14 91 -40 152q-53 62 -142 62q-90 0 -160 -63q-70 -61 -84 -151q-12 -91 41 -152q52 -61 143 -61q89 0 160 62q70 63 82 151zM406 206q-9 -71 -67 -123q-59 -50 -130 -50q-70 0 -115 51q-43 51 -34 122q10 69 69 122
q58 52 129 52q72 0 116 -51q42 -50 32 -123z" />
    <glyph glyph-name="ocircumflex" unicode="&#xf4;" horiz-adv-x="498" 
d="M392 496l-103 120l-139 -120l19 -22l114 99l86 -99zM447 206q13 89 -40 152q-53 62 -143 62q-88 0 -160 -63q-71 -62 -83 -151q-12 -91 40 -152q54 -61 143 -61q90 0 160 62q71 62 83 151zM407 206q-11 -73 -68 -123q-58 -50 -129 -50q-72 0 -115 51t-34 122
q10 69 69 122q58 52 129 52q72 0 116 -51q42 -50 32 -123z" />
    <glyph glyph-name="otilde" unicode="&#xf5;" horiz-adv-x="498" 
d="M439 535l-26 22q-13 -11 -20.5 -16.5t-11.5 -7.5l-13 -4h-23l-34 4l-28 12q-9 6 -15 9q-27 10 -51 10q-66 0 -102 -51l25 -22q30 33 67 33q21 0 35 -6l27 -12q27 -18 74 -18q31 0 56 14l18 13zM451 206q12 91 -40 152q-54 62 -143 62q-90 0 -160 -63q-71 -62 -83 -151
q-13 -89 40 -152q52 -61 143 -61q89 0 160 62q69 61 83 151zM411 206q-10 -71 -68 -123q-58 -50 -130 -50q-71 0 -114 51q-45 51 -34 122q9 69 68 122q59 52 129 52q74 0 116 -51q43 -50 33 -123z" />
    <glyph glyph-name="odieresis" unicode="&#xf6;" horiz-adv-x="498" 
d="M380 520q-3 33 -29 33q-34 -6 -37 -33q0 -17 6 -24q10 -9 22 -9q33 0 38 33zM243 520q-3 33 -29 33q-34 -6 -37 -33q0 -17 6 -24q10 -9 22 -9q33 0 38 33zM452 206q12 91 -41 152q-53 62 -142 62q-90 0 -160 -63q-71 -62 -83 -151q-13 -89 40 -152q52 -61 143 -61
q89 0 160 62q69 61 83 151zM412 206q-10 -71 -68 -123q-59 -50 -130 -50q-70 0 -115 51q-44 51 -33 122q9 69 68 122q58 52 129 52q72 0 116 -51q42 -48 33 -123z" />
    <glyph glyph-name="divide" unicode="&#xf7;" horiz-adv-x="362" 
d="M235 381q-3 33 -29 33q-34 -6 -37 -33q-1 -15 6 -24q10 -9 22 -9q32 0 38 33zM311 239l7 51h-257l-7 -51h257zM201 146q-2 33 -28 33q-34 -6 -38 -33q0 -15 7 -24q10 -9 22 -9q32 0 37 33z" />
    <glyph glyph-name="oslash" unicode="&#xf8;" horiz-adv-x="498" 
d="M461 206q13 94 -48 158l49 59l-32 24l-48 -57q-46 29 -104 29q-89 0 -160 -62t-83 -151q-14 -101 54 -164l-43 -52l30 -25l45 53q43 -25 97 -25q89 0 160 62t83 151zM421 206q-11 -73 -68 -123q-58 -50 -129 -50l-40 4l-18 6l-17 8l237 280q45 -50 35 -125zM354 357
l-237 -282q-53 51 -42 131q11 73 68 123q58 50 129 50q44 0 82 -22z" />
    <glyph glyph-name="ugrave" unicode="&#xf9;" horiz-adv-x="429" 
d="M270 492l-115 134l-26 -24l112 -133zM347 155l37 258h-40l-37 -258q-17 -123 -132 -123q-58 0 -81 32q-22 30 -14 91l37 258h-41l-37 -258q-10 -76 23 -120q34 -43 107 -43q75 0 122 44q46 44 56 119z" />
    <glyph glyph-name="uacute" unicode="&#xfa;" horiz-adv-x="429" 
d="M392 602l-18 24l-153 -134l20 -23zM347 155l37 258h-40l-37 -258q-17 -123 -132 -123q-58 0 -81 32q-22 30 -14 91l37 258h-41l-37 -258q-10 -76 23 -120q34 -43 107 -43q75 0 122 44q46 44 56 119z" />
    <glyph glyph-name="ucircumflex" unicode="&#xfb;" horiz-adv-x="429" 
d="M363 496l-104 120l-138 -120l18 -22l114 99l86 -99zM348 155l36 258h-40l-36 -258q-17 -123 -132 -123q-60 0 -81 32q-23 32 -14 91l36 258h-41l-36 -258q-10 -76 23 -120q34 -43 107 -43q75 0 121 44q47 44 57 119z" />
    <glyph glyph-name="udieresis" unicode="&#xfc;" horiz-adv-x="429" 
d="M350 520q-3 33 -29 33q-34 -6 -37 -33q0 -17 6 -24q12 -9 22 -9q33 0 38 33zM213 520q-3 33 -29 33q-34 -6 -37 -33q0 -17 6 -24q12 -9 22 -9q33 0 38 33zM352 155l37 258h-40l-37 -258q-17 -123 -132 -123q-58 0 -81 32q-22 30 -14 91l37 258h-41l-37 -258
q-11 -77 24 -120q33 -43 107 -43t121 44q46 44 56 119z" />
    <glyph glyph-name="yacute" unicode="&#xfd;" horiz-adv-x="612" 
d="M299 0l101 714h-135l-33 -41h121l-95 -673h41zM255 515q4 32 -17 58q-22 25 -55 25t-61 -25q-29 -26 -33 -58q-5 -33 16 -58q22 -25 55 -25t61 25q30 27 34 58zM234 516q-3 -22 -25 -43q-22 -19 -46 -19t-40 19t-13 43t25 43q20 19 45 19t41 -19t13 -43zM615 515
q4 32 -17 58q-22 25 -55 25t-61 -25q-29 -26 -33 -58q-5 -33 16 -58q22 -25 55 -25t61 25q30 27 34 58zM594 516q-3 -22 -25 -43q-22 -19 -46 -19t-40 19t-13 43t25 43q20 19 45 19t41 -19t13 -43zM157 499q-1 -9 4.5 -15.5t14.5 -6.5t16.5 6.5t8.5 15.5q2 9 -3.5 15.5
t-15.5 6.5q-9 0 -16 -6.5t-9 -15.5zM518 496q-2 -9 4 -15.5t15 -6.5t16 6.5t9 15.5t-4 15.5t-15 6.5t-16 -6.5t-9 -15.5zM392 -71l-18 22l-114 -99l-86 99l-24 -22l104 -120z" />
    <glyph glyph-name="thorn" unicode="&#xfe;" horiz-adv-x="513" 
d="M479 206q12 91 -41 152q-52 61 -142 61q-106 0 -182 -84l57 405h-41l-132 -934h41l38 271q55 -84 159 -84q89 0 160 62q69 61 83 151zM439 206q-10 -71 -68 -123q-59 -50 -130 -50q-70 0 -115 51q-44 51 -33 122q9 71 67 123q59 50 130 50t115 -51q43 -51 34 -122z" />
    <glyph glyph-name="ydieresis" unicode="&#xff;" horiz-adv-x="445" 
d="M379 520q-3 33 -29 33q-34 -6 -37 -33q0 -17 6 -24q12 -9 22 -9q33 0 38 33zM242 520q-3 33 -29 33q-34 -6 -37 -33q0 -17 6 -24q12 -9 22 -9q33 0 38 33zM456 413h-45l-198 -326l-108 326h-44l121 -375l-139 -232h46z" />
    <glyph glyph-name="minus" unicode="&#xe000;" horiz-adv-x="318" 
d="M265 244l6 41h-211l-6 -41h211z" />
    <glyph glyph-name="greaterequal" unicode="&#xe001;" horiz-adv-x="490" 
d="M445 363q11 82 -38 129q-48 48 -131 48h-134l24 174h-40l-100 -714h40l26 183h134q81 0 145 50q62 48 74 130zM404 363q-9 -65 -58 -103q-48 -36 -116 -36h-133l39 275h133q68 0 103 -34q41 -38 32 -102z" />
    <glyph glyph-name="partialdiff" unicode="&#xe002;" 
d="M232 419l45 322h-60l-15 -19h54l-42 -303h18zM333 354l3 26h-254l-3 -26h254zM282 238q6 38 -19 62q-24 24 -63 24q-34 0 -65 -22q-30 -21 -39 -54h20q27 58 82 58q29 0 49 -20q21 -18 16 -48q-3 -25 -26 -56l-183 -182h194l2 18h-154l108 105q43 42 51 52q22 30 27 63z
" />
    <glyph glyph-name="summation" unicode="&#xe003;" 
d="M226 419l45 322h-60l-15 -19h54l-42 -303h18zM331 354l3 26h-254l-3 -26h254zM244 60l3 18h-28l35 247l-222 -265h165l-8 -61h19l8 61h28zM200 78h-132l158 187z" />
    <glyph glyph-name="product" unicode="&#xe004;" 
d="M196 419l46 322h-60l-15 -19h54l-43 -303h18z" />
    <glyph glyph-name="pi" unicode="&#xe005;" 
d="M310 507q9 68 -51 86q62 17 70 74q6 35 -16 60q-22 22 -58 22q-35 0 -62 -21q-27 -20 -35 -55h21q16 57 73 57q27 0 44 -18q15 -17 11 -45l-7 -25l-15 -19q-19 -17 -48 -17h-19l-4 -26h19l20 -4q9 -4 19 -12q22 -20 18 -57q-5 -31 -28 -51q-25 -20 -54 -20q-27 0 -42 17
q-16 18 -19 35h-20q9 -70 78 -70q41 0 70 25t35 64zM324 354l4 26h-255l-4 -26h255zM248 60l2 18h-28l35 247l-221 -265h165l-9 -61h19l9 61h28zM203 78h-132l159 187z" />
    <glyph glyph-name="integral" unicode="&#xe006;" 
d="M280 507q11 68 -51 86q62 16 71 74q4 37 -16 60q-24 22 -59 22t-62 -21q-26 -19 -34 -55h21q16 57 73 57q28 0 43 -18q15 -17 12 -45l-8 -25l-14 -19q-20 -17 -49 -17h-19l-3 -26h19l20 -4q7 -3 18 -12q24 -20 18 -57q-5 -31 -28 -51q-25 -20 -54 -20q-26 0 -41 17
q-16 16 -19 35h-20q9 -70 78 -70q41 0 69 25q31 24 35 64z" />
    <glyph glyph-name="Omega" unicode="&#xe007;" 
d="M308 656q5 39 -20 62q-24 24 -62 24q-36 0 -65 -22q-31 -21 -40 -54h20q27 58 82 58q29 0 49 -20q20 -17 17 -48q-5 -26 -27 -56l-183 -182h194l3 18h-154l108 105q20 20 32.5 33t17.5 19q24 32 28 63z" />
    </font>
</defs>
</svg>
