<?xml version="1.0" standalone="no"?>
<!DOCTYPE svg PUBLIC "-//W3C//DTD SVG 1.1//EN" "http://www.w3.org/Graphics/SVG/1.1/DTD/svg11.dtd">
<svg xmlns="http://www.w3.org/2000/svg">
<metadata>Generated by Fontastic.me</metadata>
<defs>
<font id="ec-international" horiz-adv-x="512">
<font-face font-family="ec-international" units-per-em="512" ascent="480" descent="-32"/>
<missing-glyph horiz-adv-x="512" />

<glyph glyph-name="5-bureau" unicode="&#97;" d="M263 371l0-69c0-4-3-7-8-7-4 0-7 3-7 7l0 69-61 0c-5 0-8 3-8 8l0 22-84 0c-12 0-23-10-23-22l0-77c0-4-3-7-7-7-5 0-8 3-8 7l0 77c0 21 17 38 38 38l84 0 0 22c0 5 3 8 8 8l137 0c4 0 8-3 8-8l0-22 84 0c21 0 38-17 38-38l0-77c0-4-4-7-8-7-4 0-8 3-8 7l0 77c0 12-10 22-22 22l-84 0 0-22c0-5-4-8-8-8z m-69 15l122 0 0 46-122 0z m252-205c-21 0-38 17-38 38 0 21 17 38 38 38 21 0 38-17 38-38 0-21-17-38-38-38z m0 15c13 0 23 10 23 23 0 12-10 23-23 23-13 0-23-11-23-23 0-13 10-23 23-23z m-381-15c-21 0-39 17-39 38 0 21 18 38 39 38 21 0 38-17 38-38 0-21-17-38-38-38z m0 15c12 0 23 10 23 23 0 12-11 23-23 23-13 0-23-11-23-23 0-13 10-23 23-23z m190-15c-21 0-38 17-38 38 0 21 17 38 38 38 21 0 39-17 39-38 0-21-18-38-39-38z m0 15c13 0 23 10 23 23 0 12-10 23-23 23-12 0-23-11-23-23 0-13 11-23 23-23z m61-122c0-4-3-7-7-7-4 0-8 3-8 7l0 15c0 22-15 39-34 39l-19 0c-23 0-38-16-38-39l0-15c0-4-4-7-8-7-4 0-8 3-8 7l0 15c0 31 23 54 54 54l19 0c28 0 49-23 49-54z m-190 0c0-4-4-7-8-7-4 0-8 3-8 7l0 15c0 22-15 39-34 39l-19 0c-22 0-38-16-38-39l0-15c0-4-4-7-8-7-4 0-7 3-7 7l0 15c0 31 22 54 53 54l19 0c28 0 50-23 50-54z m381 0c0-4-3-7-7-7-5 0-8 3-8 7l0 15c0 22-15 39-34 39l-20 0c-22 0-38-16-38-39l0-15c0-4-3-7-7-7-5 0-8 3-8 7l0 15c0 31 23 54 53 54l20 0c27 0 49-23 49-54z"/>
<glyph glyph-name="arrow-down" unicode="&#98;" d="M256 0c7 0 11 2 14 5l174 145c9 6 10 22 3 32-8 9-22 10-31 2l-138-115 0 421c0 12-10 22-22 22-12 0-22-10-22-22l0-421-138 115c-9 9-24 6-32-3-6-7-4-26 5-31l173-145c5-4 8-5 14-5z"/>
<glyph glyph-name="arrow-left" unicode="&#99;" d="M0 256c0-7 2-11 5-14l145-174c6-9 22-10 32-3 9 8 10 22 2 31l-115 138 421 0c12 0 22 10 22 22 0 12-10 22-22 22l-421 0 115 138c9 9 6 24-3 32-7 6-26 4-31-5l-145-173c-4-5-5-8-5-14z"/>
<glyph glyph-name="arrow-right" unicode="&#100;" d="M512 256c0 7-2 11-5 14l-145 174c-6 9-22 10-32 3-9-8-10-22-2-31l115-138-421 0c-12 0-22-10-22-22 0-12 10-22 22-22l421 0-115-138c-9-9-6-24 3-32 7-6 26-4 31 5l145 173c4 5 5 8 5 14z"/>
<glyph glyph-name="arrow-top" unicode="&#101;" d="M256 512c-7 0-11-2-14-5l-174-145c-9-6-10-22-3-32 8-9 22-10 31-2l138 115 0-421c0-12 10-22 22-22 12 0 22 10 22 22l0 421 138-115c9-9 24-6 32 3 6 7 4 26-5 31l-173 145c-5 4-8 5-14 5z"/>
<glyph glyph-name="bin" unicode="&#102;" d="M322 108l0 252c0 11-9 20-20 20-12 0-20-9-20-20l0-252c0-11 8-21 20-21 11 0 20 10 20 21z m-92 0l0 252c0 11-9 20-20 20-11 0-20-9-20-20l0-252c0-11 9-21 20-21 11 0 20 10 20 21z m181 272c-11 0-20-9-20-20l0-305c0-8-7-15-15-15l-240 0c-8 0-15 7-15 15l0 305c0 11-9 20-20 20-11 0-20-9-20-20l0-305c0-30 24-55 55-55l240 0c30 0 55 25 55 55l0 305c0 11-9 20-20 20z m44 63l-90 0 0 49c0 11-9 20-20 20l-178 0c-11 0-20-9-20-20l0-49-90 0c-11 0-20-9-20-20 0-11 9-20 20-20l398 0c11 0 20 9 20 20 0 11-9 20-20 20z m-130 0l-138 0 0 29 138 0z"/>
<glyph glyph-name="calendar" unicode="&#103;" d="M131 501c-6 0-11-5-11-11l0-69c-19-5-33-22-33-43 0-24 20-44 44-44 24 0 43 20 43 44 0 21-14 38-32 43l0 69c0 6-5 11-11 11z m250 0c-6 0-10-5-10-11l0-69c-19-5-33-22-33-43 0-24 20-44 43-44 24 0 44 20 44 44 0 21-14 38-33 43l0 69c0 6-5 11-11 11z m-326-34c-30 0-55-25-55-55l0-345c0-31 25-56 55-56l402 0c30 0 55 25 55 56l0 345c0 30-25 55-55 55l-32 0c-6 1-11-5-11-11 0-6 5-11 11-11l32 0c19 0 33-15 33-33l0-100-468 0 0 100c0 18 14 33 33 33l32 0c6 0 11 5 11 11 0 6-5 12-11 11z m119 0c-6 0-11-5-11-11 0-6 5-11 11-11l164 0c6 0 11 5 11 11 0 6-5 11-11 11z m-43-66c12 0 22-10 22-23 0-12-10-22-22-22-12 0-22 10-22 22 0 13 10 23 22 23z m250 0c13 0 22-10 22-23 0-12-9-22-22-22-12 0-21 10-21 22 0 13 9 23 21 23z m-359-112l468 0 0-222c0-19-14-34-33-34l-402 0c-19 0-33 15-33 34z"/>
<glyph glyph-name="circle-add" unicode="&#104;" d="M447 454c-15 0-29-7-40-18l-222-233-77 64c-25 21-62 17-83-10-20-26-16-65 10-87 0 0 0 0 0 0l117-98c24-20 58-18 79 4l259 272c23 24 24 63 1 87-11 13-27 20-44 19z"/>
<glyph glyph-name="circle-validate" unicode="&#105;" d="M256 0c-141 0-256 115-256 256 0 141 115 256 256 256 141 0 256-115 256-256 0-141-115-256-256-256z m0 485c-126 0-229-103-229-229 0-126 103-229 229-229 126 0 229 103 229 229 0 126-103 229-229 229z m-50-342c-2-3-6-4-9-4-4 0-7 1-10 4l-89 89c-5 5-5 14 0 19 5 5 14 5 19 0l80-80 198 198c5 5 14 5 19 0 5-5 5-14 0-19z"/>
<glyph glyph-name="client" unicode="&#106;" d="M256 512c-64 0-117-53-117-117 0-64 53-117 117-117 64 0 117 53 117 117 0 64-53 117-117 117z m0-29c48 0 87-39 87-88 0-49-39-88-87-88-48 0-87 39-87 88 0 49 39 88 87 88z m0-278c-120 0-219-91-219-205l30 0c0 97 84 176 189 176 105 0 189-79 189-176l30 0c0 114-99 205-219 205z"/>
<glyph glyph-name="cog" unicode="&#107;" d="M50 411c-27 0-50-22-50-48l0-224c0-27 23-48 50-48l412 0c27 0 50 21 50 48l0 224c0 26-23 48-50 48z m0-32l412 0c10 0 17-7 17-16l0-224c0-9-7-16-17-16l-412 0c-10 0-17 7-17 16l0 224c0 9 7 16 17 16z m385-31c-4 0-9-2-12-5l-154-130c-8-7-19-6-26 0l-154 130c-3 3-8 4-12 4-10 0-17-8-16-17 0-4 2-8 6-11l82-70-82-66c-7-6-8-16-2-22 6-7 16-8 24-2 0 0 0 0 0 0l85 69 47-39c20-17 50-17 70 0l47 39 85-69c7-6 18-5 24 1 6 7 5 17-2 23 0 0 0 0 0 0l-82 67 82 69c7 5 9 15 4 22-4 4-8 7-14 7z"/>
<glyph glyph-name="cube-connected" unicode="&#108;" d="M256 476c-20 0-36-16-36-36 0-17 13-32 30-35l0-80-110-55c-2-1-3-3-3-5l0-133-71-41c-6 10-18 16-30 16-20 0-36-16-36-35 0-20 16-36 36-36 19 0 35 16 35 36 0 2 0 5 0 7l72 42 110-66c2-2 4-2 6 0l110 66 72-42c0-2 0-5 0-7 0-20 16-36 35-36 20 0 36 16 36 36 0 19-16 35-36 35-12 0-24-6-30-16l-71 41 0 133c0 2-1 4-3 5l-78 39c-3 1-6 0-8-3-1-3 0-6 3-8l67-33-100-56-100 56 103 51c2 1 3 3 3 5l0 84c17 3 30 18 30 35 0 20-16 36-36 36z m0-12c13 0 24-10 24-24 0-13-11-23-24-23-13 0-24 10-24 23 0 14 11 24 24 24z m-107-209l101-56 0-129-101 61z m214 0l0-124-101-61 0 129z m-327-160c13 0 24-10 24-23 0-14-11-24-24-24-14 0-24 10-24 24 0 13 10 23 24 23z m440 0c14 0 24-10 24-23 0-14-10-24-24-24-13 0-24 10-24 24 0 13 11 23 24 23z"/>
<glyph glyph-name="delais" unicode="&#109;" d="M512 256c0-141-115-256-256-256-141 0-256 115-256 256 0 7 5 13 13 13 8 0 13-5 13-13 0-127 103-230 230-230 127 0 230 103 230 230 0 60-23 117-64 160-5 5-5 13 1 18 5 5 14 5 18 0 46-48 71-111 71-178z m-402 0c0 7 6 13 14 13l93 0c0 1 0 1 1 2 0 0 0 2 1 3 1 1 1 2 2 4 1 1 1 2 2 3 1 1 2 3 3 4 1 1 1 1 1 2 8 7 19 12 30 12 0 0 0 0 0 0 2 0 3 0 4 0 1 0 1 0 3-1 0 0 1 0 1 0 1 0 2 0 3 0 0 0 0 0 1 0 1 0 2-1 3-1 0 0 0 0 0-1 1 0 3 0 3-1l82 82c5 4 13 4 18 0 5-5 5-13 0-19l-81-82c3-5 5-12 5-18 0-23-19-42-42-42-3 0-6 0-8 1 0 0 0 0-1 0-2 0-4 1-6 2-1 0-1 0-2 0-2 1-4 2-5 3-1 1-2 1-2 1-2 2-4 2-5 4-1 0-1 1-2 1 0 0 0 0 0 1-2 1-2 3-4 4 0 1-1 2-2 3 0 1-1 2-2 5 0 0 0 2-1 2 0 1 0 1-1 2l-93 0c-7-2-13 4-13 11z m146 16c-9 0-16-7-16-16 0-8 7-15 15-15 4 0 9 1 11 4 3 3 5 7 5 11 0 4-1 9-5 11-2 2-4 4-8 4-1 0-1 0-1 0 0 1 0 1-1 1z m-14 214l0 0c7 1 13 7 13 14-1 7-7 12-14 12-7-1-12-7-12-14 0-7 6-12 13-12z m-52-8c1 0 2 0 4 0 6 2 11 9 8 16-2 7-8 11-15 9-7-2-11-9-9-16 1-6 7-9 12-9z m150-7c1-1 3-1 5-1 5 0 10 4 12 8 3 7-1 15-8 18-6 2-14-1-16-8-3-7 0-14 7-17z m44-23c2-1 4-2 7-2 4 0 8 2 11 6 4 6 2 13-3 17-6 5-14 2-18-3-5-6-3-14 3-18z m-92 36c0 0 1 0 2 0 6 0 11 5 13 11 1 7-4 14-11 15-7 1-14-3-15-11-1-8 4-14 11-15z m-276-188c0 0 2 0 3 0 6 0 11 4 12 11 1 6-3 13-10 15-7 1-13-3-15-10-1-8 3-14 10-16z m14 50c2 0 4-1 6-1 4 0 9 3 11 8 3 6 0 14-6 17-6 3-14 0-17-6-3-7-1-14 6-18z m68 82c3 0 6 2 8 4 6 4 7 13 2 18-5 6-13 6-19 2-5-5-6-13-1-19 3-3 7-5 10-5z m-43-35c2-2 5-3 7-3 5 0 8 2 11 5 4 6 3 14-3 19-6 4-14 3-18-3-4-5-3-14 3-18z m86 65c2 0 4 0 7 1 6 4 8 11 5 18-3 6-11 9-18 6-6-4-9-12-5-18 2-4 7-7 11-7z"/>
<glyph glyph-name="dimension" unicode="&#110;" d="M475 352l16 6c4-10 8-21 11-32l-16-5c-3 10-7 21-11 31z m-34 55l13 11c8-9 14-19 21-29l-15-9c-6 10-12 19-19 27z m-47 44l9 14c10-6 19-14 28-22l-12-12c-8 7-17 14-25 20z m-58 30l5 16c11-4 22-8 33-14l-8-15c-10 5-20 10-30 13z m74-216l0-18-52 0c-4-49-44-89-93-93l0-52-18 0 0 52c-49 4-89 44-93 93l-52 0 0 18 52 0c4 49 44 89 93 93l0 52 18 0 0-52c49-4 89-44 93-93z m-154 76c-47 0-85-38-85-85 0-47 38-85 85-85 47 0 85 38 85 85 0 47-38 85-85 85z m0-119c-19 0-34 15-34 34 0 19 15 34 34 34 19 0 34-15 34-34 0-19-15-34-34-34z m0 51c-9 0-17-8-17-17 0-9 8-17 17-17 9 0 17 8 17 17 0 9-8 17-17 17z m16 221l1 17c12 0 23-2 35-4l-4-17c-10 2-21 4-32 4z m12-90l-28 28-28-28-12 12 34 34c3 3 9 3 12 0l34-34z m-267-148l-17 0c0 141 115 256 256 256l0-17c-132 0-239-107-239-239z m9-65l-16-5c-3 11-6 23-8 34l17 3c2-11 4-22 7-32z m26-60l-14-9c-6 10-12 21-16 31l15 7c5-10 10-20 15-29z m41-50l-11-13c-9 8-17 17-24 26l13 11c7-9 15-17 22-24z m-31 181l34 34 12-12-28-28 28-28-12-12-34 34c-3 3-3 9 0 12z m85-219l-8-15c-10 6-20 12-30 18l10 14c9-6 18-12 28-17z m61-21l-3-17c-12 2-23 6-34 9l6 17c10-4 20-7 31-9z m48 58l28 28 12-12-34-34c-3-3-9-3-12 0l-34 34 12 12z m148 148l28 28-28 28 12 12 34-34c3-3 3-9 0-12l-34-34z m91 28l17 0c0-141-115-256-256-256l0 17c132 0 239 107 239 239z"/>
<glyph glyph-name="dot-connected" unicode="&#111;" d="M478 463c-18 0-33-15-33-33 0-9 3-17 9-23l-84-120c-4 1-8 2-13 2-16 0-30-11-33-26l-136 0c-3 15-17 26-33 26-19 0-34-15-34-33 0-9 4-17 10-23l-84-120c-4 1-9 2-13 2-19 0-34-15-34-33 0-18 15-33 34-33 18 0 33 15 33 33 0 9-3 17-9 23l84 120c4-2 8-2 13-2 16 0 30 11 33 26l136 0c3-15 17-26 33-26 19 0 34 15 34 33 0 9-4 17-10 23l84 120c4-2 9-2 13-2 19 0 34 15 34 33 0 18-15 33-34 33z m0-13c12 0 21-9 21-20 0-11-9-20-21-20-11 0-20 9-20 20 0 11 9 20 20 20z m-323-174c11 0 20-9 20-20 0-11-9-20-20-20-11 0-20 9-20 20 0 11 9 20 20 20z m202 0c11 0 20-9 20-20 0-11-9-20-20-20-11 0-20 9-20 20 0 11 9 20 20 20z m-323-174c11 0 20-9 20-20 0-11-9-20-20-20-12 0-21 9-21 20 0 11 9 20 21 20z"/>
<glyph glyph-name="file" unicode="&#112;" d="M457 351l-161 150c-8 7-17 11-28 11l-167 0c-38 0-68-31-68-69l0-373c0-39 30-70 68-70l301 0c38 0 68 31 68 70l0 250c0 12-4 23-13 31z m-164 116l129-121-88 0c-23 0-41 19-41 42z m150-397c0-23-18-42-41-42l-301 0c-23 0-41 19-41 42l0 373c0 23 18 41 41 41l164 0 0-96c0-38 31-69 69-69l109 0 0-249z"/>
<glyph glyph-name="global" unicode="&#113;" d="M437 437c-49 49-113 75-181 75-68 0-132-26-181-75-49-49-75-113-75-181 0-68 26-132 75-181 49-49 113-75 181-75 68 0 132 26 181 75 49 49 75 113 75 181 0 68-26 132-75 181z m57-172l-52 0c-1 35-7 67-16 98 19-5 36-11 51-17 10-26 15-52 17-81z m-28 104c-15 5-32 10-48 13-8 20-18 38-29 54-10 14-20 26-32 36 46-21 84-58 109-103z m-136-104c0 41-3 80-8 115 29-3 56-7 82-13 12-31 18-65 20-102z m93-18c-1-37-7-72-19-102-26-6-54-10-83-13 5 35 8 74 8 115z m-27 140c-25 6-50 9-78 11-2 12-5 24-7 35-7 24-15 43-23 56 45-12 83-50 108-102z m-196-122c0 42 3 81 9 116 15 1 32 2 47 2 16 0 32-1 47-2 5-35 8-74 9-116z m112-18c0-42-3-81-9-116-15-1-32-2-47-2-15 0-32 1-47 2-5 35-8 74-9 116z m-56 247c9 0 25-17 38-66 2-9 4-18 6-29-14 0-29 0-44 0-15 0-30 0-44 0 1 10 4 20 6 29 13 49 29 66 38 66z m-32-4c-9-14-17-33-23-57-3-11-6-23-8-34-27-3-53-6-78-11 26 51 64 89 109 102z m-42-225l-93 0c1 37 7 72 19 102 26 6 54 10 83 13-6-35-9-75-9-115z m8-133c-29 3-56 7-82 13-12 31-18 65-20 102l93 0c1-40 4-80 9-115z m-34 340c-12-10-22-22-32-36-12-16-22-34-29-54-17-4-34-8-48-13 24 45 62 82 109 103z m-121-127c16 7 33 12 51 17-10-30-15-63-16-97l-52 0c2 29 7 55 17 80z m-17-98l52 0c1-35 7-67 16-98-18 5-36 11-51 17-10 26-15 52-17 81z m28-104c15-5 32-10 48-13 8-20 18-38 29-54 10-14 20-26 32-36-46 21-84 58-109 103z m70-18c25-6 50-9 78-11 2-12 5-24 7-35 7-24 15-43 23-56-45 12-83 50-108 102z m140-107c-9 0-25 17-38 66-2 9-4 18-6 29 14 0 29 0 44 0 15 0 30 0 44 0-1-10-4-20-6-29-13-49-29-66-38-66z m32 4c9 14 17 33 23 57 3 11 6 23 8 34 27 3 53 6 78 11-26-51-64-89-109-102z m68 18c12 10 22 22 32 36 12 16 22 34 29 54 17 4 34 8 48 13-24-45-62-82-109-103z m121 127c-16-7-33-12-51-17 10 30 15 63 16 97l52 0c-2-29-7-55-17-80z"/>
<glyph glyph-name="list-validate" unicode="&#114;" d="M447 454c-15 0-29-7-40-18l-222-233-77 64c-25 21-62 17-83-10-20-26-16-65 10-87 0 0 0 0 0 0l117-98c24-20 58-18 79 4l259 272c23 24 24 63 1 87-11 13-27 20-44 19z"/>
<glyph glyph-name="mail" unicode="&#115;" d="M50 411c-27 0-50-22-50-48l0-224c0-27 23-48 50-48l412 0c27 0 50 21 50 48l0 224c0 26-23 48-50 48z m0-32l412 0c10 0 17-7 17-16l0-224c0-9-7-16-17-16l-412 0c-10 0-17 7-17 16l0 224c0 9 7 16 17 16z m385-31c-4 0-9-2-12-5l-154-130c-8-7-19-6-26 0l-154 130c-3 3-8 4-12 4-10 0-17-8-16-17 0-4 2-8 6-11l82-70-82-66c-7-6-8-16-2-22 6-7 16-8 24-2 0 0 0 0 0 0l85 69 47-39c20-17 50-17 70 0l47 39 85-69c7-6 18-5 24 1 6 7 5 17-2 23 0 0 0 0 0 0l-82 67 82 69c7 5 9 15 4 22-4 4-8 7-14 7z"/>
<glyph glyph-name="menu-hamburger" unicode="&#116;" d="M497 421l-482 0c-4 0-8 2-11 4-2 3-4 7-4 11 0 9 7 16 15 16l482 0c8 0 15-7 15-16 0-8-7-15-15-15z m-482-150l365 0c8 0 15-6 15-15 0-9-7-15-15-15l-365 0c-4 0-8 1-11 4-2 3-4 7-4 11 0 9 7 15 15 15z m0-180l248 0c8 0 15-7 15-15 0-9-7-16-15-16l-248 0c-4 0-8 2-11 5-2 3-4 7-4 11 0 8 7 15 15 15z"/>
<glyph glyph-name="people-connected" unicode="&#117;" d="M256 452c-26 0-48-21-48-47 0-13 6-24 15-32-33-15-56-51-56-93 0-3 2-6 6-6l166 0c4 0 6 3 6 6 0 42-23 78-56 93 9 8 15 19 15 32 0 26-22 47-48 47z m0-11c20 0 36-16 36-36 0-12-6-23-15-29-3-2-4-6-2-9 1 0 2-1 3-2 30-10 52-41 54-79l-152 0c2 38 24 69 54 79 3 1 4 5 3 8 0 1-1 2-2 3-9 6-15 17-15 29 0 20 16 36 36 36z m-1-197c0 0 0 0 0 0-3-1-5-3-5-6l0-62-51-28c-2-2-3-5-2-8 2-3 6-4 8-2l51 28 51-28c2-2 6-1 8 2 1 3 0 6-2 8l-51 28 0 62c0 3-2 6-6 6 0 0 0 0-1 0z m-166-6c-26 0-47-21-47-47 0-13 6-24 14-33-33-15-56-50-56-93 0-3 3-5 6-5l167 0c3 0 6 2 6 5 0 43-23 78-56 93 8 9 14 20 14 33 0 26-21 47-48 47z m334 0c-27 0-48-21-48-47 0-13 6-24 14-33-33-15-56-50-56-93 0-3 3-5 6-5l167 0c3 0 6 2 6 5 0 43-23 78-56 93 8 9 14 20 14 33 0 26-21 47-47 47z m-334-12c20 0 36-16 36-35 0-12-6-23-15-30-3-1-3-5-1-8 0-1 1-2 3-2 30-10 52-41 54-80l-153 0c2 39 24 70 54 80 3 1 5 4 4 8-1 1-1 2-2 2-9 7-15 18-15 30 0 19 16 35 35 35z m334 0c20 0 35-16 35-35 0-12-6-23-15-30-2-1-3-5-1-8 1-1 2-2 3-2 30-10 52-41 54-80l-153 0c2 39 24 70 54 80 3 1 5 4 4 8 0 1-1 2-2 2-9 7-15 18-15 30 0 19 16 35 36 35z"/>
<glyph glyph-name="phone" unicode="&#118;" d="M111 512c-61 0-111-50-111-111 0-217 173-393 389-400l0-1 12 0c61 0 111 50 111 111 0 6-1 12-2 18 0 2 0 3 0 4-3 13-12 23-24 27l0 0c-26 10-92 33-119 43-13 5-27 0-34-12l-31-46c-71 28-129 83-157 154-1 1 0 1 0 2l0 0 47 32c11 7 16 21 11 34l0 0-42 119c-5 12-15 21-28 24l0 0 0 0c-1 0-3 0-4 0-6 1-12 2-18 2z m0-28c5 0 9-1 14-2l0 0c1 0 1 0 2 0 3-1 6-3 7-6l42-118 0 0c0-1 0-2 0-2l-47-32c-12-8-16-23-11-36 32-79 98-143 178-173l0 0c10-3 21 0 26 9l34 52c1 0 1 0 2 0 26-9 92-33 118-42 3-1 5-4 6-7l0 0 0 0c0-1 0-1 0-2l0 0 0 0c1-5 2-9 2-14 0-46-37-83-83-83-206 0-373 167-373 373 0 46 37 83 83 83z"/>
<glyph glyph-name="separator" unicode="&#119;" d="M246 508l17 0 0-504-17 0z"/>
<glyph glyph-name="triangle-down-copie-2" unicode="&#120;" d="M322 108l0 252c0 11-9 20-20 20-12 0-20-9-20-20l0-252c0-11 8-21 20-21 11 0 20 10 20 21z m-92 0l0 252c0 11-9 20-20 20-11 0-20-9-20-20l0-252c0-11 9-21 20-21 11 0 20 10 20 21z m181 272c-11 0-20-9-20-20l0-305c0-8-7-15-15-15l-240 0c-8 0-15 7-15 15l0 305c0 11-9 20-20 20-11 0-20-9-20-20l0-305c0-30 24-55 55-55l240 0c30 0 55 25 55 55l0 305c0 11-9 20-20 20z m44 63l-90 0 0 49c0 11-9 20-20 20l-178 0c-11 0-20-9-20-20l0-49-90 0c-11 0-20-9-20-20 0-11 9-20 20-20l398 0c11 0 20 9 20 20 0 11-9 20-20 20z m-130 0l-138 0 0 29 138 0z"/>
<glyph glyph-name="triangle-left" unicode="&#121;" d="M56 265l400 245 0-490z"/>
<glyph glyph-name="triangle-right" unicode="&#122;" d="M456 247l-400-245 0 490z"/>
<glyph glyph-name="triangle-up" unicode="&#65;" d="M265 456l245-400-490 0z"/>
<glyph glyph-name="validation" unicode="&#66;" d="M256 0c-68 0-134 27-181 76-100 99-100 262 0 362 47 47 113 74 181 74 68 0 133-27 181-76 100-99 100-262 0-362-48-47-113-74-181-74z m0 486c-62 0-119-24-163-67-90-90-90-236 0-327 44-42 101-66 163-66 62 0 119 24 163 67 90 90 90 236 0 327-44 42-101 66-163 66z m117-143c-5 5-13 4-18-1l-126-144-72 72c-5 5-13 5-18 0-5-5-5-13 0-18l82-82c2-1 2-1 3-1 0 0 1 0 1-1 1 0 3-2 5-2 2 0 4 0 5 2l2 1c1 0 1 1 2 1l135 154c4 6 4 14-1 19z"/>
<glyph glyph-name="we" unicode="&#67;" d="M58 170l-56 158c-1 4-2 9-2 13 0 11 9 22 23 22l258 0c13 0 22-11 22-22 0-4-1-9-2-11l-56-160c-5-15-15-21-26-21l-2 0c-11 0-21 6-26 20l-24 77c0 0-3 11-16 11-12 0-15-11-15-11l-25-77c-5-14-14-20-26-20l-1 0c-12 0-22 6-26 21z m431 36c-6 1-10 0-14-3-10-6-26-14-46-14-31 0-59 20-63 57 0 0 28-13 72-12 25 1 46 7 60 16 13 8 16 22 13 37-7 48-39 81-92 81-63 0-107-46-107-112 0-61 43-112 113-112 34 0 58 13 72 22 5 3 9 8 10 15 1 12-6 23-18 25z"/>
<glyph glyph-name="download" unicode="&#68;" d="M271 95l-3-2-1 0-3-2-1 0c-1 0-2 0-3-1-1 0-2 0-4 0-1 0-3 0-4 0-1 1-2 1-3 1l-1 0-3 2-1 0c-1 0-2 1-3 2l-167 169c-9 8-9 22 0 30 8 8 21 8 30 0l131-133 0 330c0 11 9 21 21 21 12 0 21-10 21-21l0-329 132 132c8 8 21 8 30 0 8-8 8-22 0-30z m-182-52l335 0c11 0 21-10 21-22 0-11-10-21-21-21l-335 0c-12 0-22 10-22 21 0 12 10 22 22 22z"/>
<glyph glyph-name="chevron-bottom" unicode="&#69;" d="M508 378l-236-267c-4-3-8-5-13-5-1 0-2 0-3 0-1 0-2 0-3 0-5 0-9 2-13 5l-236 267c-6 7-5 18 2 24 7 6 18 6 24-1l226-256 226 256c6 7 17 7 24 1 7-6 8-17 2-24z"/>
<glyph glyph-name="chevron-left" unicode="&#70;" d="M401 482l-256-226 256-226c7-6 7-17 1-24-6-7-17-8-24-2l-267 236c-3 4-5 8-5 13 0 1 0 2 0 3 0 1 0 2 0 3 0 5 2 9 5 13l267 236c7 6 18 5 24-2 6-7 6-18-1-24z"/>
<glyph glyph-name="chevron-right" unicode="&#71;" d="M406 253c0-5-2-9-5-13l-267-236c-7-6-18-5-24 2-6 7-6 18 1 24l256 226-256 226c-7 6-7 17-1 24 6 7 17 8 24 2l267-236c3-4 5-8 5-13 0-1 0-2 0-3 0-1 0-2 0-3z"/>
<glyph glyph-name="chevron-top" unicode="&#72;" d="M506 110c-7-6-18-6-24 1l-226 256-226-256c-6-7-17-7-24-1-7 6-8 17-2 24l236 267c4 3 8 5 13 5 1 0 2 0 3 0 1 0 2 0 3 0 5 0 9-2 13-5l236-267c6-7 5-18-2-24z"/>
<glyph glyph-name="cross" unicode="&#73;" d="M11 476l25 25 465-465-25-25z"/>
<glyph glyph-name="cross-1" unicode="&#74;" d="M501 36l-25-25-220 220-219-219-25 25 219 219-220 220 25 25 220-220 219 219 25-25-219-219z"/>
</font>
</defs>
</svg>
