<?xml version="1.0" standalone="no"?>
<!DOCTYPE svg PUBLIC "-//W3C//DTD SVG 1.1//EN" "http://www.w3.org/Graphics/SVG/1.1/DTD/svg11.dtd" >
<svg xmlns="http://www.w3.org/2000/svg" xmlns:xlink="http://www.w3.org/1999/xlink" version="1.1">
<metadata>
Created by FontForge 20170731 at Fri Dec  2 11:32:35 2016
 By Aleksey,,,
Digitized data copyright 2012-2016, The Mozilla Foundation and Telefonica S.A.
</metadata>
<defs>
<font id="FiraSans-ThinItalic" horiz-adv-x="560" >
  <font-face 
    font-family="Fira Sans Thin"
    font-weight="250"
    font-style="italic"
    font-stretch="normal"
    units-per-em="1000"
    panose-1="2 11 3 3 5 0 0 2 0 4"
    ascent="800"
    descent="-200"
    x-height="519"
    cap-height="681"
    bbox="-749 -350 1417 1050"
    underline-thickness="50"
    underline-position="-150"
    slope="-8"
    unicode-range="U+000D-FEFF"
  />
<missing-glyph horiz-adv-x="666" 
d="M654 1050l-198 -1400h-420l198 1400h420zM610 1012h-341l-188 -1324h341zM424 426.5q23 -24.5 23 -65.5q0 -8 -2 -26q-7 -53 -33 -81.5t-77 -35.5l-7 -46q-1 -11 -9.5 -17t-17.5 -6q-11 0 -17.5 7t-5.5 18l11 83q53 3 75 20t28 58q1 7 1 20q0 23 -11.5 35.5t-40.5 12.5
t-53 -12l-13 -2q-12 0 -18 7t-4 17q2 19 32.5 28.5t64.5 9.5q51 0 74 -24.5zM316.5 111.5q8.5 -8.5 8.5 -22.5q0 -17 -11 -29t-27 -12t-24.5 11t-6.5 27q1 15 12 24.5t26 9.5q14 0 22.5 -8.5z" />
    <glyph glyph-name="fi" unicode="fi" horiz-adv-x="549" 
d="M394 0h-22l71 499h-267l-69 -494q-8 -63 -24.5 -99t-42.5 -57.5t-72 -43.5l-7 18q41 20 64 40t38 53.5t23 90.5l69 492h-90l2 20h90l14 98q8 58 47.5 89t102.5 31q68 0 128 -40l-10 -16q-58 36 -119 36q-114 0 -128 -103l-13 -95h289z" />
    <glyph glyph-name="fl" unicode="fl" horiz-adv-x="575" 
d="M491 19l6 -19q-28 -10 -48 -10q-31 0 -48 16.5t-17 48.5q0 6 2 20l87 614q-39 14 -73.5 21t-76.5 7q-117 0 -131 -103l-13 -95h147l-6 -20h-144l-69 -494q-8 -63 -24.5 -99t-42.5 -57.5t-72 -43.5l-7 18q41 20 64 40t38 53.5t23 90.5l69 492h-90l2 20h90l14 98
q8 58 48.5 89t105.5 31q79 0 152 -31l20 3l-89 -636q-1 -6 -1 -18q0 -44 43 -44q17 0 41 8z" />
    <glyph glyph-name=".notdef" horiz-adv-x="666" 
d="M654 1050l-198 -1400h-420l198 1400h420zM610 1012h-341l-188 -1324h341zM424 426.5q23 -24.5 23 -65.5q0 -8 -2 -26q-7 -53 -33 -81.5t-77 -35.5l-7 -46q-1 -11 -9.5 -17t-17.5 -6q-11 0 -17.5 7t-5.5 18l11 83q53 3 75 20t28 58q1 7 1 20q0 23 -11.5 35.5t-40.5 12.5
t-53 -12l-13 -2q-12 0 -18 7t-4 17q2 19 32.5 28.5t64.5 9.5q51 0 74 -24.5zM316.5 111.5q8.5 -8.5 8.5 -22.5q0 -17 -11 -29t-27 -12t-24.5 11t-6.5 27q1 15 12 24.5t26 9.5q14 0 22.5 -8.5z" />
    <glyph glyph-name=".null" horiz-adv-x="0" 
 />
    <glyph glyph-name="nonmarkingreturn" unicode="&#xd;" horiz-adv-x="296" 
 />
    <glyph glyph-name="space" unicode=" " horiz-adv-x="296" 
 />
    <glyph glyph-name="exclam" unicode="!" horiz-adv-x="238" 
d="M101 202l66 479h21l-66 -479h-21zM70 -2q-6 6 -6 15q0 11 7 18t18 7q10 0 16 -6.5t6 -15.5q0 -11 -7 -17.5t-18 -6.5q-10 0 -16 6z" />
    <glyph glyph-name="quotedbl" unicode="&#x22;" horiz-adv-x="327" 
d="M111 441l31 240h23l-36 -240h-18zM249 441l31 240h23l-36 -240h-18z" />
    <glyph glyph-name="numbersign" unicode="#" horiz-adv-x="488" 
d="M501 459h-83l-65 -239h78l-4 -20h-80l-54 -200h-25l54 200h-209l-54 -200h-24l54 200h-82l3 20h85l65 239h-80l2 20h83l50 183h24l-50 -183h209l50 183h25l-50 -183h80zM328 220l65 239h-209l-65 -239h209z" />
    <glyph glyph-name="dollar" unicode="$" horiz-adv-x="523" 
d="M182 610.5q-47 -40.5 -47 -106.5q0 -50 33 -80.5t112 -56.5q84 -28 124 -67.5t40 -101.5q0 -51 -21.5 -97t-69.5 -77t-123 -34l-19 -136h-20l19 136q-55 1 -101.5 22t-81.5 57l15 14q32 -34 75.5 -53t96.5 -19q75 0 121.5 27.5t66.5 69.5t20 89q0 54 -35 88.5t-113 61.5
q-87 29 -124 64.5t-37 92.5q0 72 51 118.5t143 47.5l19 141h20l-19 -141q47 -3 83.5 -20t70.5 -48l-15 -15q-34 33 -71 48.5t-83 15.5q-83 0 -130 -40.5z" />
    <glyph glyph-name="percent" unicode="%" horiz-adv-x="760" 
d="M666 695l-559 -699l18 -11l559 699zM128 394.5q-31 33.5 -31 91.5q0 42 16 85t51.5 72.5t89.5 29.5q55 0 85.5 -33t30.5 -92q0 -42 -16 -85t-51.5 -72.5t-89.5 -29.5t-85 33.5zM292 408q30 28 43 67t13 75q0 48 -23 76t-70 28q-49 0 -79.5 -28t-43 -67t-12.5 -75
q0 -47 23 -75.5t70 -28.5q49 0 79 28zM440.5 23.5q-30.5 33.5 -30.5 92.5q0 42 16 84.5t51.5 72t89.5 29.5t85 -33t31 -91q0 -42 -16 -85.5t-51.5 -73t-89.5 -29.5q-55 0 -85.5 33.5zM604.5 37q30.5 28 43.5 67.5t13 74.5q0 48 -23 76t-71 28q-49 0 -79.5 -28t-43 -66.5
t-12.5 -74.5q0 -48 23.5 -76.5t70.5 -28.5q48 0 78.5 28z" />
    <glyph glyph-name="ampersand" unicode="&#x26;" horiz-adv-x="719" 
d="M454.5 656.5q40.5 -35.5 40.5 -89.5q0 -41 -16.5 -72t-58.5 -62.5t-120 -71.5l205 -221q30 46 52.5 92t45.5 104l20 -8q-26 -63 -49.5 -110.5t-55.5 -92.5l110 -119l-20 -13l-104 115q-46 -57 -103 -87.5t-131 -30.5q-80 0 -128 44t-48 114q0 66 38.5 117.5t134.5 100.5
q-41 46 -60.5 85.5t-19.5 81.5q0 40 19 76.5t57 59.5t90 23q61 0 101.5 -35.5zM272.5 651.5q-32.5 -20.5 -48 -52.5t-15.5 -66q0 -37 17 -73.5t61 -84.5q75 38 115 67.5t55 58.5t15 66q0 48 -34 76.5t-85 28.5q-48 0 -80.5 -20.5zM152.5 258q-35.5 -49 -35.5 -111
q0 -60 40.5 -98t112.5 -38q69 0 122.5 28.5t97.5 83.5l-209 229q-93 -45 -128.5 -94z" />
    <glyph glyph-name="quotesingle" unicode="'" horiz-adv-x="189" 
d="M111 441l31 240h23l-36 -240h-18z" />
    <glyph glyph-name="parenleft" unicode="(" horiz-adv-x="325" 
d="M334 820q-84 -103 -134.5 -188t-77.5 -181.5t-27 -216.5q0 -71 14 -130.5t36 -108.5t58 -116l-16 -8q-39 69 -62 118.5t-37.5 110.5t-14.5 134q0 123 28 221.5t80.5 184.5t139.5 190z" />
    <glyph glyph-name="parenright" unicode=")" horiz-adv-x="325" 
d="M225.5 710q22.5 -49 37 -109.5t14.5 -133.5q0 -124 -27.5 -222.5t-80 -184.5t-139.5 -190l-14 10q84 103 135 188.5t77.5 181.5t26.5 217q0 71 -14 130.5t-36 109t-57 114.5l16 8q39 -70 61.5 -119z" />
    <glyph glyph-name="asterisk" unicode="*" horiz-adv-x="432" 
d="M431 603l-159 -46l77 -128l-19 -13l-73 130l-110 -130l-18 13l114 127l-145 47l8 19l144 -50l22 160h22l-24 -160l156 52z" />
    <glyph glyph-name="plus" unicode="+" horiz-adv-x="485" 
d="M288 496l-22 -155h153l-3 -21h-153l-22 -155h-23l22 155h-154l4 21h153l22 155h23z" />
    <glyph glyph-name="comma" unicode="," horiz-adv-x="161" 
d="M63 31.5q6 -6.5 6 -15.5q0 -7 -3.5 -15.5t-9.5 -18.5l-60 -112h-18l56 124q-12 4 -12 20q0 10 7.5 17t17.5 7t16 -6.5z" />
    <glyph glyph-name="hyphen" unicode="-" horiz-adv-x="399" 
d="M84 302l3 21h243l-3 -21h-243z" />
    <glyph glyph-name="period" unicode="." horiz-adv-x="163" 
d="M29 -2q-6 6 -6 15q0 11 7 18t18 7q10 0 16 -6.5t6 -15.5q0 -11 -7 -17.5t-18 -6.5q-10 0 -16 6z" />
    <glyph glyph-name="slash" unicode="/" horiz-adv-x="520" 
d="M441 798l20 -6l-357 -887l-19 5z" />
    <glyph glyph-name="zero" unicode="0" horiz-adv-x="541" 
d="M188 603q-57 -70 -84 -175.5t-27 -212.5q0 -111 40 -168t115 -57q84 0 141 69.5t84 175t27 212.5q0 112 -39 169t-115 57q-85 0 -142 -70zM461 449q0 -105 -25 -205.5t-76.5 -166.5t-127.5 -66q-132 0 -132 203q0 104 25 205t77 167t128 66q131 0 131 -203z" />
    <glyph glyph-name="one" unicode="1" horiz-adv-x="393" 
d="M316 661l-93 -661h-22l89 634l-188 -110l-10 18l206 119h18z" />
    <glyph glyph-name="two" unicode="2" horiz-adv-x="464" 
d="M386.5 632.5q41.5 -40.5 41.5 -105.5q0 -60 -28.5 -115.5t-107 -140.5t-249.5 -250l329 1l-8 -22h-353l3 22q176 168 256.5 255.5t107.5 140t27 108.5q0 58 -35 92t-96 34q-50 0 -90.5 -20t-78.5 -59l-17 14q44 44 88.5 65t97.5 21q71 0 112.5 -40.5z" />
    <glyph glyph-name="three" unicode="3" horiz-adv-x="474" 
d="M383 635q39 -38 39 -103q0 -40 -17.5 -79t-54.5 -66.5t-90 -33.5q60 -2 97 -39.5t37 -106.5q0 -50 -23.5 -100t-73.5 -83.5t-125 -33.5q-57 0 -97.5 20.5t-72.5 62.5l17 13q30 -41 66 -58t86 -17q72 0 116.5 31t64 76.5t19.5 90.5q0 67 -38.5 100t-108.5 33h-38l6 20h32
q57 0 96.5 25t59.5 64.5t20 81.5q0 56 -33.5 88.5t-92.5 32.5q-45 0 -85 -16.5t-84 -52.5l-12 15q43 37 87 55t95 18q69 0 108 -38z" />
    <glyph glyph-name="four" unicode="4" horiz-adv-x="503" 
d="M456 207l-3 -20h-94l-26 -187h-22l27 187h-297l3 18l270 468l19 -8l-265 -458h273l32 211h19l-30 -211h94z" />
    <glyph glyph-name="five" unicode="5" horiz-adv-x="474" 
d="M443 641h-280l-38 -265q61 39 128 39q74 0 115.5 -45.5t41.5 -122.5q0 -59 -23.5 -118t-75 -99t-130.5 -40q-104 0 -165 76l17 13q26 -34 62 -51t87 -17q71 0 117.5 37t67.5 91.5t21 107.5q0 70 -36.5 109t-98.5 39q-39 0 -69 -9.5t-65 -31.5h-18l42 307h306z" />
    <glyph glyph-name="six" unicode="6" horiz-adv-x="514" 
d="M411.5 386q40.5 -41 40.5 -119q0 -60 -22.5 -124t-70.5 -108.5t-121 -44.5q-85 0 -124.5 57.5t-39.5 155.5q0 111 34.5 220t99.5 179.5t152 70.5q33 0 57.5 -9.5t47.5 -28.5l-14 -16q-40 34 -92 34q-63 0 -115.5 -45t-88 -123t-51.5 -175q40 54 90.5 85.5t110.5 31.5
q66 0 106.5 -41zM348 53q43 42 62 101.5t19 111.5q0 69 -34 105t-91 36q-110 0 -203 -132q-4 -35 -4 -74q0 -90 34 -140t107 -50q67 0 110 42z" />
    <glyph glyph-name="seven" unicode="7" horiz-adv-x="432" 
d="M445 661l-2 -18l-365 -649l-22 8l361 639h-325l2 20h351z" />
    <glyph glyph-name="eight" unicode="8" horiz-adv-x="526" 
d="M421 279.5q31 -35.5 31 -89.5q0 -59 -28.5 -104.5t-80 -70.5t-117.5 -25q-83 0 -130.5 43t-47.5 113q0 68 42.5 124.5t141.5 91.5q-55 24 -80 56.5t-25 81.5q0 51 27 90.5t71.5 61t94.5 21.5q65 0 108.5 -36.5t43.5 -101.5q0 -63 -34.5 -107t-116.5 -83q69 -30 100 -65.5
zM173.5 424.5q24.5 -29.5 83.5 -53.5l45 -18q80 38 114 81.5t34 101.5q0 56 -36.5 86.5t-93.5 30.5q-45 0 -84.5 -19t-63 -54t-23.5 -80q0 -46 24.5 -75.5zM330 32.5q46 21.5 72.5 62t26.5 96.5q0 53 -31.5 84.5t-104.5 61.5l-38 15q-106 -38 -145 -90t-39 -117
q0 -63 42 -98.5t114 -35.5q57 0 103 21.5z" />
    <glyph glyph-name="nine" unicode="9" horiz-adv-x="508" 
d="M462 480q0 -174 -82 -305.5t-293 -189.5l-5 18q146 45 233.5 129t115.5 231q-40 -53 -89.5 -80.5t-105.5 -27.5q-67 0 -108.5 46.5t-41.5 124.5q0 57 23 114t72 95t122 38q159 0 159 -193zM342 306q48 30 92 88q5 40 5 85q0 85 -32.5 129.5t-103.5 44.5q-68 0 -111.5 -36
t-63.5 -88t-20 -103q0 -70 35 -110t95 -40q56 0 104 30z" />
    <glyph glyph-name="colon" unicode=":" horiz-adv-x="163" 
d="M29 -2q-6 6 -6 15q0 11 7 18t18 7q10 0 16 -6.5t6 -15.5q0 -11 -7 -17.5t-18 -6.5q-10 0 -16 6zM88 413q-6 6 -6 15q0 11 7 18t18 7q10 0 16 -6.5t6 -15.5q0 -11 -7 -17.5t-18 -6.5q-10 0 -16 6z" />
    <glyph glyph-name="semicolon" unicode=";" horiz-adv-x="163" 
d="M63 31.5q6 -6.5 6 -15.5q0 -7 -3.5 -15.5t-9.5 -18.5l-60 -112h-18l56 124q-12 4 -12 20q0 10 7.5 17t17.5 7t16 -6.5zM88 413q-6 6 -6 15q0 11 7 18t18 7q10 0 16 -6.5t6 -15.5q0 -11 -7 -17.5t-18 -6.5q-10 0 -16 6z" />
    <glyph glyph-name="less" unicode="&#x3c;" horiz-adv-x="493" 
d="M440 503l6 -19l-332 -152l289 -155l-11 -18l-303 166l2 16z" />
    <glyph glyph-name="equal" unicode="=" horiz-adv-x="486" 
d="M98 399l3 21h330l-3 -21h-330zM75 241l3 21h330l-3 -21h-330z" />
    <glyph glyph-name="greater" unicode="&#x3e;" horiz-adv-x="495" 
d="M122 503l305 -162l-2 -16l-351 -166l-7 19l334 156l-290 151z" />
    <glyph glyph-name="question" unicode="?" horiz-adv-x="441" 
d="M390.5 658.5q35.5 -32.5 35.5 -82.5q0 -43 -17 -74.5t-41.5 -52t-64.5 -46.5q-52 -34 -77 -61.5t-25 -70.5q0 -20 7 -53l-19 -5q-10 32 -10 59q0 34 14.5 59.5t36.5 43.5t58 42q38 25 61 44.5t38.5 47.5t15.5 66q0 43 -29.5 70t-81.5 27q-50 0 -89 -18.5t-82 -59.5
l-15 14q44 43 87.5 63t98.5 20q63 0 98.5 -32.5zM169 -3q-6 6 -6 15q0 11 7 18t18 7q10 0 16 -6.5t6 -15.5q0 -11 -7 -17.5t-18 -6.5q-10 0 -16 6z" />
    <glyph glyph-name="at" unicode="@" horiz-adv-x="1020" 
d="M770.5 648.5q79.5 -43.5 119.5 -119t40 -170.5q0 -83 -22.5 -162t-69.5 -130.5t-117 -51.5q-47 0 -73.5 33t-26.5 90q-64 -121 -166 -121q-61 0 -99.5 43t-38.5 123q0 67 25 134.5t78 113.5t133 46q67 0 126 -34l-35 -260q-3 -21 -3 -42q0 -48 19 -77.5t61 -29.5
q62 0 104.5 49.5t62.5 124.5t20 151q0 90 -38 161t-112.5 111t-180.5 40q-156 0 -260.5 -77.5t-154 -192t-49.5 -225.5q0 -108 45.5 -187.5t127 -122t186.5 -42.5q99 0 189 32l4 -20q-96 -33 -194 -33q-110 0 -196.5 45.5t-135 129.5t-48.5 197q0 117 51.5 236.5t161 200
t273.5 80.5q114 0 193.5 -43.5zM550 73.5q43 36.5 69 95.5l38 261q-50 26 -103 26q-74 0 -122.5 -44t-70 -107.5t-21.5 -124.5q0 -69 31.5 -106t84.5 -37q51 0 94 36.5z" />
    <glyph glyph-name="A" unicode="A" horiz-adv-x="557" 
d="M469 0l-41 203h-315l-98 -203h-24l333 681h27l142 -681h-24zM123 224h301l-89 438z" />
    <glyph glyph-name="B" unicode="B" horiz-adv-x="587" 
d="M477 318.5q40 -36.5 40 -103.5q0 -55 -24 -103.5t-81 -80t-149 -31.5h-177l96 681h147q95 0 146.5 -36.5t51.5 -108.5q0 -71 -43 -118.5t-113 -56.5q66 -6 106 -42.5zM161 370h166q54 0 94 22t62 59.5t22 83.5q0 63 -45 94t-129 31h-129zM441 77.5q53 56.5 53 138.5
q0 65 -44 99.5t-119 34.5h-173l-46 -329h154q122 0 175 56.5z" />
    <glyph glyph-name="C" unicode="C" horiz-adv-x="538" 
d="M490.5 676.5q35.5 -14.5 65.5 -43.5l-14 -16q-31 28 -61.5 40.5t-76.5 12.5q-104 0 -171 -64.5t-97 -159t-30 -188.5q0 -119 54 -182.5t146 -63.5q53 0 90.5 15.5t74.5 43.5l13 -18q-81 -63 -179 -63q-101 0 -161.5 69.5t-60.5 197.5q0 100 32.5 199.5t104.5 167
t183 67.5q52 0 87.5 -14.5z" />
    <glyph glyph-name="D" unicode="D" horiz-adv-x="619" 
d="M489 627q71 -54 71 -196q0 -112 -34.5 -209.5t-112.5 -159.5t-200 -62h-127l96 681h121q115 0 186 -54zM202 660l-90 -639h104q114 0 186 59.5t103.5 152.5t31.5 199q0 133 -65.5 180.5t-172.5 47.5h-97z" />
    <glyph glyph-name="E" unicode="E" horiz-adv-x="494" 
d="M503 681l-6 -21h-295l-41 -290h255l-3 -21h-255l-46 -328h306l-4 -21h-328l96 681h321z" />
    <glyph glyph-name="F" unicode="F" horiz-adv-x="471" 
d="M498 681l-6 -21h-290l-43 -304h251l-3 -21h-251l-47 -335h-23l96 681h316z" />
    <glyph glyph-name="G" unicode="G" horiz-adv-x="605" 
d="M493.5 676.5q38.5 -14.5 74.5 -44.5l-14 -15q-33 27 -68 40t-81 13q-97 0 -164 -61t-100.5 -156t-33.5 -196q0 -121 55 -183t154 -62q48 0 87 10.5t77 30.5l40 280h-145v21h171l-44 -314q-93 -50 -186 -50q-109 0 -171 69t-62 200q0 106 37 205.5t110 163t175 63.5
q50 0 88.5 -14.5z" />
    <glyph glyph-name="H" unicode="H" horiz-adv-x="660" 
d="M109 0h-23l96 681h23l-44 -309h369l43 309h23l-96 -681h-23l50 351h-369z" />
    <glyph glyph-name="I" unicode="I" horiz-adv-x="268" 
d="M205 681l-96 -681h-23l96 681h23z" />
    <glyph glyph-name="J" unicode="J" horiz-adv-x="278" 
d="M137 87q-8 -53 -22.5 -84.5t-45.5 -55t-89 -47.5l-6 17q50 22 78 44t41.5 51.5t20.5 77.5l83 591h23z" />
    <glyph glyph-name="K" unicode="K" horiz-adv-x="510" 
d="M86 0l96 681h23l-96 -681h-23zM442 0l-278 367l356 314h29l-357 -316l277 -365h-27z" />
    <glyph glyph-name="L" unicode="L" horiz-adv-x="452" 
d="M205 681l-93 -659h289l-8 -22h-307l96 681h23z" />
    <glyph glyph-name="M" unicode="M" horiz-adv-x="762" 
d="M647 0h-22l10 346q5 203 12 317l-280 -579h-22l-119 578q-8 -37 -45 -186q-22 -84 -31 -123l-87 -353h-22l169 681h33l116 -571l274 571h35z" />
    <glyph glyph-name="N" unicode="N" horiz-adv-x="661" 
d="M502 0h-28l-277 658q-2 -41 -22 -182l-67 -476h-22l96 681h29l276 -656q7 78 22 180l66 476h22z" />
    <glyph glyph-name="O" unicode="O" horiz-adv-x="689" 
d="M570 623q60 -68 60 -196q0 -99 -31.5 -199t-104 -169t-186.5 -69q-105 0 -165 69.5t-60 197.5q0 96 32.5 196t105 169t183.5 69q106 0 166 -68zM233 604.5q-67 -66.5 -97 -162t-30 -186.5q0 -118 53.5 -181t148.5 -63q108 0 175 66.5t95 161.5t28 187q0 119 -53 181.5
t-149 62.5q-104 0 -171 -66.5z" />
    <glyph glyph-name="P" unicode="P" horiz-adv-x="558" 
d="M480.5 641.5q54.5 -39.5 54.5 -122.5q0 -102 -63.5 -169.5t-211.5 -67.5h-111l-40 -282h-23l96 681h137q107 0 161.5 -39.5zM454.5 364q56.5 61 56.5 155q0 75 -48 108t-146 33h-115l-50 -357h111q135 0 191.5 61z" />
    <glyph glyph-name="Q" unicode="Q" horiz-adv-x="674" 
d="M605.5 251.5q-24.5 -89.5 -80.5 -158.5t-143 -89q65 -2 116 -17.5t87 -50.5l-17 -18q-43 42 -101.5 57.5t-155.5 14.5h-3q-105 0 -165 69.5t-60 197.5q0 96 32.5 196t105 169t183.5 69q106 0 166 -68t60 -196q0 -86 -24.5 -175.5zM160 75q54 -63 148 -63q108 0 175 66.5
t95 161.5t28 188q0 118 -53 180.5t-149 62.5q-104 0 -171 -66.5t-97 -162.5t-30 -187q0 -117 54 -180z" />
    <glyph glyph-name="R" unicode="R" horiz-adv-x="572" 
d="M486 397q-47 -58 -141 -71l146 -326h-25l-145 324h-166l-46 -324h-23l96 681h154q197 0 197 -150q0 -76 -47 -134zM302 345q72 0 118.5 27t67.5 69t21 90q0 64 -41.5 96.5t-134.5 32.5h-131l-44 -315h144z" />
    <glyph glyph-name="S" unicode="S" horiz-adv-x="536" 
d="M420.5 673q40.5 -18 74.5 -52l-14 -15q-33 34 -70 49.5t-87 15.5q-58 0 -99.5 -20.5t-63 -55t-21.5 -74.5q0 -55 33.5 -85.5t116.5 -56.5q88 -29 128 -69.5t40 -109.5q0 -49 -25 -97.5t-78.5 -80.5t-132.5 -32q-64 0 -110 21t-84 62l15 14q35 -37 77 -56t101 -19
q75 0 123 29.5t69.5 72.5t21.5 86q0 61 -36 96.5t-118 62.5q-91 30 -127.5 65.5t-36.5 96.5q0 44 23.5 83t70.5 63t113 24q56 0 96.5 -18z" />
    <glyph glyph-name="T" unicode="T" horiz-adv-x="476" 
d="M522 681l-7 -22h-210l-93 -659h-22l93 659h-210l2 22h447z" />
    <glyph glyph-name="U" unicode="U" horiz-adv-x="641" 
d="M521 207q-14 -100 -73 -158.5t-163 -58.5q-93 0 -138 45.5t-45 124.5q0 14 4 48l66 473h23l-66 -472q-3 -24 -3 -46q0 -72 38.5 -111.5t120.5 -39.5q95 0 148 53.5t65 144.5l66 471h23z" />
    <glyph glyph-name="V" unicode="V" horiz-adv-x="534" 
d="M565 681l-321 -681h-28l-129 681h23l123 -660l308 660h24z" />
    <glyph glyph-name="W" unicode="W" horiz-adv-x="790" 
d="M811 681l-255 -681h-26l-79 659l-264 -659h-27l-63 681h23l58 -655l262 655h28l78 -657l242 657h23z" />
    <glyph glyph-name="X" unicode="X" horiz-adv-x="486" 
d="M496 681l-226 -311l162 -370h-24l-154 353l-249 -353h-25l261 370l-141 311h25l132 -295l214 295h25z" />
    <glyph glyph-name="Y" unicode="Y" horiz-adv-x="494" 
d="M532 681l-271 -410l-38 -271h-23l38 270l-158 411h25l146 -388l254 388h27z" />
    <glyph glyph-name="Z" unicode="Z" horiz-adv-x="509" 
d="M5 0l3 21l479 639h-352l3 21h380l-2 -19l-480 -640h376l-6 -22h-401z" />
    <glyph glyph-name="bracketleft" unicode="[" horiz-adv-x="312" 
d="M305 796l-2 -17h-107l-123 -868h107l-2 -17h-127l128 902h126z" />
    <glyph glyph-name="backslash" unicode="\" horiz-adv-x="520" 
d="M229 798l108 -888l-21 -5l-107 887z" />
    <glyph glyph-name="bracketright" unicode="]" horiz-adv-x="312" 
d="M285 796l-127 -902h-127l2 17h107l123 868h-107l2 17h127z" />
    <glyph glyph-name="asciicircum" unicode="^" horiz-adv-x="524" 
d="M348 823l136 -296h-27l-120 269l-195 -269h-29l219 296h16z" />
    <glyph glyph-name="underscore" unicode="_" horiz-adv-x="520" 
d="M-8 -100l3 21h436l-3 -21h-436z" />
    <glyph glyph-name="grave" unicode="`" horiz-adv-x="244" 
d="M110 761l162 -92l-9 -15l-166 84z" />
    <glyph glyph-name="a" unicode="a" horiz-adv-x="548" 
d="M406 518.5q34 -10.5 67 -30.5l-54 -376q-4 -32 -4 -44q0 -23 8 -38t28 -23l-7 -17q-25 10 -37 28.5t-12 49.5q0 7 2 29q-31 -50 -75 -78.5t-94 -28.5q-75 0 -117.5 53.5t-42.5 146.5q0 78 26.5 156t85 130.5t148.5 52.5q44 0 78 -10.5zM192.5 460q-53.5 -50 -78 -123.5
t-24.5 -145.5q0 -85 36 -132.5t102 -47.5q102 0 172 124l49 342q-53 33 -121 33q-82 0 -135.5 -50z" />
    <glyph glyph-name="b" unicode="b" horiz-adv-x="565" 
d="M458.5 480.5q39.5 -48.5 39.5 -141.5q0 -78 -25 -158t-82 -135.5t-146 -55.5q-43 0 -78.5 7.5t-81.5 26.5l100 709l22 3l-41 -300q79 93 179 93q74 0 113.5 -48.5zM247.5 483.5q-42.5 -25.5 -86.5 -75.5l-51 -369q33 -14 63.5 -21t70.5 -7q83 0 135 53t74.5 128.5
t22.5 146.5q0 83 -33.5 126.5t-97.5 43.5q-55 0 -97.5 -25.5z" />
    <glyph glyph-name="c" unicode="c" horiz-adv-x="464" 
d="M449 479l-14 -14q-46 44 -116 44q-76 0 -127.5 -47.5t-75.5 -119.5t-24 -145q0 -91 41.5 -138.5t113.5 -47.5t135 48l12 -16q-68 -53 -148 -53q-81 0 -129 54t-48 153q0 78 27 154.5t83.5 127t140.5 50.5q79 0 129 -50z" />
    <glyph glyph-name="d" unicode="d" horiz-adv-x="569" 
d="M518 733l-104 -733h-18l15 130q-36 -63 -81 -101.5t-108 -38.5q-71 0 -112.5 53t-41.5 147q0 76 24.5 154t79.5 131.5t139 53.5q55 0 90 -24t54 -60l41 291zM185.5 459q-49.5 -50 -72.5 -123.5t-23 -144.5q0 -86 35.5 -133t97.5 -47q61 0 105.5 41t88.5 119l34 245
q-42 93 -140 93q-76 0 -125.5 -50z" />
    <glyph glyph-name="e" unicode="e" horiz-adv-x="509" 
d="M374 274q-97 -49 -284 -60v-18q0 -92 41 -138.5t113 -46.5q45 0 79.5 13.5t75.5 42.5l12 -16q-41 -31 -80.5 -46t-86.5 -15q-83 0 -129.5 53t-46.5 152q0 76 28 153t87 129t145 52q65 0 104 -32t39 -86q0 -88 -97 -137zM205 468q-51 -41 -78.5 -103.5t-34.5 -130.5
q356 21 356 176q0 46 -31.5 72.5t-88.5 26.5q-72 0 -123 -41z" />
    <glyph glyph-name="f" unicode="f" horiz-adv-x="307" 
d="M231 691.5q-32 -25.5 -39 -77.5l-13 -95h147l-6 -20h-144l-69 -494q-8 -63 -24.5 -99t-42.5 -57.5t-72 -43.5l-7 18q41 20 64 40t38 53.5t23 90.5l69 492h-90l2 20h90l14 98q8 58 46 89t95 31q59 0 112 -35l-10 -16q-28 16 -51 23.5t-50 7.5q-50 0 -82 -25.5z" />
    <glyph glyph-name="g" unicode="g" horiz-adv-x="555" 
d="M406.5 518.5q33.5 -10.5 67.5 -30.5l-71 -493q-28 -192 -193 -192q-84 0 -164 47l9 16q38 -21 74 -32.5t81 -11.5q67 0 112.5 40.5t58.5 130.5l17 115q-31 -51 -75 -79.5t-94 -28.5q-75 0 -117.5 55t-42.5 148q0 74 26.5 149.5t85 126t147.5 50.5q45 0 78.5 -10.5z
M193 461.5q-54 -48.5 -78 -120t-23 -140.5q0 -83 36 -131.5t101 -48.5q103 0 174 123l48 333q-53 33 -122 33q-82 0 -136 -48.5z" />
    <glyph glyph-name="h" unicode="h" horiz-adv-x="581" 
d="M457.5 498q29.5 -31 29.5 -90q0 -18 -3 -39l-52 -369h-22l52 367q3 21 3 39q0 104 -99 104q-62 0 -115.5 -49.5t-102.5 -145.5l-45 -315h-22l104 733l22 3l-53 -377q42 84 97.5 127t117.5 43q59 0 88.5 -31z" />
    <glyph glyph-name="i" unicode="i" horiz-adv-x="258" 
d="M177 519l-74 -519h-22l74 519h22zM178 689.5q-5 4.5 -5 12.5q0 9 6 15.5t15 6.5t14 -5t5 -13t-6 -14.5t-16 -6.5q-8 0 -13 4.5z" />
    <glyph glyph-name="j" unicode="j" horiz-adv-x="258" 
d="M-41 -178q40 20 63.5 40t38 54t22.5 91l72 512h22l-72 -514q-9 -63 -25.5 -99t-42.5 -57.5t-72 -43.5zM178 689.5q-5 4.5 -5 12.5q0 9 6 15.5t15 6.5t14 -5t5 -13t-6 -14.5t-16 -6.5q-8 0 -13 4.5z" />
    <glyph glyph-name="k" unicode="k" horiz-adv-x="505" 
d="M152 347q45 92 100 137t115 45q51 0 80.5 -28t29.5 -77q0 -125 -182 -184l121 -240h-24l-125 250q188 54 188 174q0 40 -22 63t-67 23q-122 0 -221 -212l-42 -298h-22l104 733l22 3z" />
    <glyph glyph-name="l" unicode="l" horiz-adv-x="276" 
d="M109 73q-1 -6 -1 -18q0 -44 43 -44q17 0 41 8l6 -19q-28 -10 -48 -10q-31 0 -48 16.5t-17 48.5q0 6 2 20l93 658l22 3z" />
    <glyph glyph-name="m" unicode="m" horiz-adv-x="847" 
d="M725.5 498.5q26.5 -30.5 26.5 -87.5q0 -19 -3 -42l-51 -369h-22l51 367q3 23 3 42q0 50 -21 75.5t-62 25.5q-55 0 -104.5 -48.5t-97.5 -144.5l-45 -317h-22l52 367q3 23 3 41q0 50 -21.5 76t-61.5 26q-106 0 -202 -195l-45 -315h-22l74 519h18l-20 -161q43 85 93 128
t106 43q50 0 76.5 -30.5t26.5 -87.5q0 -19 -3 -42l-1 -4q42 81 93 122.5t105 41.5q50 0 76.5 -30.5z" />
    <glyph glyph-name="n" unicode="n" horiz-adv-x="581" 
d="M457 497.5q30 -31.5 30 -90.5q0 -18 -3 -38l-52 -369h-22l52 367q3 21 3 38q0 105 -97 105q-62 0 -116.5 -50t-103.5 -145l-45 -315h-22l74 519h18l-20 -161q44 85 99 128t117 43q58 0 88 -31.5z" />
    <glyph glyph-name="o" unicode="o" horiz-adv-x="561" 
d="M115 44q-46 54 -46 152q0 75 25 151.5t81 129t143 52.5q83 0 129 -52t46 -150q0 -74 -24.5 -151.5t-80.5 -131.5t-144 -54q-83 0 -129 54zM375 61q51 50 73.5 122.5t22.5 143.5q0 88 -39.5 135t-113.5 47q-80 0 -131 -50.5t-73.5 -122.5t-22.5 -141q0 -88 40 -136
t113 -48q80 0 131 50z" />
    <glyph glyph-name="p" unicode="p" horiz-adv-x="564" 
d="M155 519h19l-10 -82q82 92 180 92q75 0 114.5 -49t39.5 -141q0 -78 -25.5 -158t-82.5 -135.5t-146 -55.5q-71 0 -138 27l-30 -211l-22 -3zM378.5 64q52.5 53 75 128.5t22.5 146.5q0 84 -33.5 127t-98.5 43q-55 0 -97.5 -25.5t-85.5 -75.5l-52 -369q63 -28 134 -28
q83 0 135.5 53z" />
    <glyph glyph-name="q" unicode="q" horiz-adv-x="556" 
d="M398 97q-31 -51 -75 -79t-96 -28q-75 0 -117 53.5t-42 146.5q0 78 26.5 156t85 130.5t148.5 52.5q45 0 80 -10.5t68 -30.5l-97 -682l-22 -3zM403 135l49 342q-51 33 -124 33q-82 0 -135.5 -50t-78 -123.5t-24.5 -145.5q0 -85 36 -132.5t102 -47.5q104 0 175 124z" />
    <glyph glyph-name="r" unicode="r" horiz-adv-x="362" 
d="M381 522l-6 -19q-20 6 -42 6q-60 0 -102.5 -44.5t-81.5 -140.5l-46 -324h-22l74 519h19l-21 -148q32 80 75 119t105 39q22 0 48 -7z" />
    <glyph glyph-name="s" unicode="s" horiz-adv-x="460" 
d="M340 516q36 -13 67 -40l-15 -14q-30 24 -61 35.5t-73 11.5q-64 0 -104.5 -30t-40.5 -81q0 -39 26.5 -64.5t98.5 -47.5q78 -25 110.5 -57.5t32.5 -85.5q0 -66 -48.5 -109.5t-138.5 -43.5q-58 0 -98.5 17.5t-74.5 48.5l13 14q35 -29 71 -44t87 -15q73 0 119.5 33.5
t46.5 97.5q0 46 -27.5 74t-101.5 51q-78 25 -108.5 55.5t-30.5 75.5q0 58 48 94.5t120 36.5q46 0 82 -13z" />
    <glyph glyph-name="t" unicode="t" horiz-adv-x="324" 
d="M114 118q-2 -20 -2 -29q0 -79 77 -79q45 0 95 27l8 -17q-53 -30 -105 -30q-46 0 -71.5 25.5t-25.5 73.5q0 8 2 28l53 382h-85l2 20h86l24 131l17 2l-19 -133h144l-6 -20h-140z" />
    <glyph glyph-name="u" unicode="u" horiz-adv-x="576" 
d="M126.5 22.5q-31.5 32.5 -31.5 92.5q0 17 3 35l51 369h22l-51 -369q-3 -19 -3 -36q0 -51 26.5 -77t73.5 -26q64 0 118 51.5t94 141.5l44 315h22l-73 -519h-17l21 164q-35 -80 -90 -127t-121 -47q-57 0 -88.5 32.5z" />
    <glyph glyph-name="v" unicode="v" horiz-adv-x="447" 
d="M461 519l-255 -519h-29l-117 519h23l110 -500l242 500h26z" />
    <glyph glyph-name="w" unicode="w" horiz-adv-x="680" 
d="M684 519l-210 -519h-28l-71 497l-210 -497h-30l-65 519h22l61 -498l211 498h28l71 -498l198 498h23z" />
    <glyph glyph-name="x" unicode="x" horiz-adv-x="433" 
d="M427 519l-195 -242l147 -277h-25l-137 263l-210 -263h-26l224 279l-125 240h24l116 -226l180 226h27z" />
    <glyph glyph-name="y" unicode="y" horiz-adv-x="444" 
d="M205 -2q-30 -61 -55.5 -96t-61 -58t-92.5 -39l-2 19q53 15 84.5 35.5t53 51t51.5 89.5h-10l-113 519h23l108 -503l242 503h25z" />
    <glyph glyph-name="z" unicode="z" horiz-adv-x="410" 
d="M410 519l-3 -18l-380 -480h305l-5 -21h-332l3 18l381 481h-287l3 20h315z" />
    <glyph glyph-name="braceleft" unicode="{" horiz-adv-x="328" 
d="M321 801q-42 0 -64.5 -22t-29.5 -68l-38 -271q-6 -44 -27 -65t-61 -26q32 -5 48 -20.5t16 -47.5q0 -6 -2 -24l-38 -271q-2 -20 -2 -27q0 -32 16.5 -47t52.5 -15l-1 -17q-88 0 -88 80q0 7 2 23l40 284q1 5 1 15q0 57 -71 57l2 20q37 0 61.5 18t30.5 56l39 283
q7 53 35.5 77.5t78.5 24.5z" />
    <glyph glyph-name="bar" unicode="|" horiz-adv-x="413" 
d="M293 801l-125 -899h-22l125 899h22z" />
    <glyph glyph-name="braceright" unicode="}" horiz-adv-x="328" 
d="M32 -103q42 0 64.5 22t29.5 68l38 271q6 44 27 65t61 26q-32 5 -48 20.5t-16 47.5q0 6 2 24l38 271q2 20 2 27q0 32 -16.5 47t-52.5 15l1 17q41 0 64.5 -20t23.5 -61q0 -6 -2 -22l-40 -284q-1 -5 -1 -15q0 -57 71 -57l-2 -20q-37 0 -61 -18t-30 -56l-40 -283
q-14 -102 -113 -102v17z" />
    <glyph glyph-name="asciitilde" unicode="~" horiz-adv-x="457" 
d="M274.5 287q-16.5 7 -41.5 22q-22 13 -36.5 19.5t-29.5 6.5q-24 0 -40 -10.5t-36 -32.5l-14 10q22 27 42.5 41t47.5 14q19 0 36.5 -7.5t40.5 -21.5q23 -13 36.5 -19.5t28.5 -6.5q22 0 37.5 10t35.5 32l14 -10q-22 -27 -41.5 -40.5t-45.5 -13.5q-18 0 -34.5 7z" />
    <glyph glyph-name="uni00A0" unicode="&#xa0;" horiz-adv-x="297" 
 />
    <glyph glyph-name="exclamdown" unicode="&#xa1;" horiz-adv-x="238" 
d="M129 412q-6 6 -6 15q0 11 7 18t18 7q10 0 16 -6.5t6 -15.5q0 -11 -7 -17.5t-18 -6.5q-10 0 -16 6zM132 252l-63 -444h-21l63 444h21z" />
    <glyph glyph-name="cent" unicode="&#xa2;" horiz-adv-x="464" 
d="M191.5 461.5q-51.5 -47.5 -75.5 -119.5t-24 -145q0 -91 41.5 -138.5t113.5 -47.5t135 48l12 -16q-68 -53 -148 -53h-2l-19 -136h-20l19 137q-72 8 -113.5 61.5t-41.5 144.5q0 75 25 149t77.5 125t130.5 57l20 148h19l-20 -147q40 0 71 -12t57 -38l-14 -14q-46 44 -116 44
q-76 0 -127.5 -47.5z" />
    <glyph glyph-name="sterling" unicode="&#xa3;" horiz-adv-x="498" 
d="M434.5 656q32.5 -17 57.5 -51l-17 -12q-22 30 -49.5 44.5t-69.5 14.5q-65 0 -105 -41t-49 -107l-19 -140h215l-3 -21h-215l-29 -207q-7 -48 -27 -72.5t-61 -42.5h338l-7 -21h-368l2 21q50 21 72.5 45.5t28.5 69.5l29 207h-63l2 21h63l20 142q10 73 56 120t120 47
q46 0 78.5 -17z" />
    <glyph glyph-name="currency" unicode="&#xa4;" 
d="M407 213l80 -79l-15 -15l-81 80q-44 -38 -111 -38q-65 0 -111 38l-81 -80l-15 15l81 80q-22 24 -34 57t-12 69q0 73 44 125l-79 79l15 15l79 -80q46 41 113 41t113 -40l79 79l15 -15l-79 -79q22 -24 33.5 -56t11.5 -69q0 -75 -46 -127zM170.5 225q40.5 -44 109.5 -44
q71 0 111 44t40 115t-39.5 115.5t-111.5 44.5q-70 0 -110 -44.5t-40 -115.5t40.5 -115z" />
    <glyph glyph-name="yen" unicode="&#xa5;" horiz-adv-x="485" 
d="M520 661l-245 -333h122l-2 -20h-133l-16 -118h132l-3 -22h-132l-24 -168h-23l24 168h-132l3 22h132l16 118h-131l2 20h123l-156 333h27l149 -331l241 331h26z" />
    <glyph glyph-name="brokenbar" unicode="&#xa6;" horiz-adv-x="413" 
d="M294 801l-51 -358h-22l51 358h22zM218 262l-50 -360h-22l50 360h22z" />
    <glyph glyph-name="section" unicode="&#xa7;" horiz-adv-x="531" 
d="M222.5 620.5q-34.5 -31.5 -34.5 -76.5q0 -40 25 -64t96 -50q70 -26 99 -56t29 -76q0 -44 -23 -77t-79 -65q25 -17 36 -38t11 -49q0 -56 -43 -94.5t-126 -38.5q-45 0 -81 11t-69 33l13 17q55 -40 137 -40q77 0 112 32t35 80q0 36 -25.5 61t-90.5 49q-76 28 -107 56.5
t-31 74.5q0 43 25 76t83 67q-27 18 -38 39.5t-11 51.5q0 34 18.5 63.5t55 47t88.5 17.5q43 0 76 -11t66 -32l-12 -17q-30 21 -60.5 30.5t-69.5 9.5q-70 0 -104.5 -31.5zM390.5 362q-24.5 27 -87.5 50q-48 18 -73 32q-56 -34 -78.5 -64t-22.5 -70q0 -38 27 -63.5t96 -50.5
q39 -14 67 -30q56 32 76 62.5t20 69.5q0 37 -24.5 64z" />
    <glyph glyph-name="dieresis" unicode="&#xa8;" horiz-adv-x="265" 
d="M96 677.5q-5 4.5 -5 12.5q0 9 6 15.5t15 6.5t14 -5t5 -13t-6.5 -14.5t-15.5 -6.5q-8 0 -13 4.5zM261 677.5q-5 4.5 -5 12.5q0 9 6 15.5t16 6.5q8 0 13 -5t5 -13q0 -9 -6 -15t-16 -6q-8 0 -13 4.5z" />
    <glyph glyph-name="copyright" unicode="&#xa9;" horiz-adv-x="810" 
d="M572.5 685.5q63.5 -36.5 99.5 -101.5t36 -149q0 -82 -36 -147.5t-99.5 -102.5t-142.5 -37t-142.5 36.5t-99.5 101.5t-36 149q0 82 36 147.5t99.5 102.5t142.5 37t142.5 -36.5zM298.5 667q-58.5 -34 -91.5 -94.5t-33 -137.5q0 -78 33 -138.5t91.5 -94t132.5 -33.5
q73 0 131 34t91 94.5t33 137.5q0 78 -33 138.5t-91 94t-131 33.5q-74 0 -132.5 -34zM477.5 598.5q20.5 -7.5 38.5 -21.5l-11 -15q-16 12 -33 18t-42 6q-26 0 -51 -14.5t-42 -48t-17 -86.5q0 -75 30.5 -113.5t79.5 -38.5q28 0 48 7.5t37 21.5l10 -17q-40 -32 -95 -32
q-59 0 -96 46t-37 126q0 57 20 95t50.5 56t62.5 18q27 0 47.5 -7.5z" />
    <glyph glyph-name="ordfeminine" unicode="&#xaa;" horiz-adv-x="505" 
d="M139 305.5q-29 28.5 -29 74.5q0 62 47 99.5t132 37.5h96l6 45q2 18 2 24q0 39 -21.5 57t-66.5 18q-55 0 -120 -24l-6 19q69 25 127 25q109 0 109 -93q0 -7 -2 -25l-27 -196q-3 -18 -3 -32q0 -15 6 -26t22 -17l-6 -15q-25 7 -34 23.5t-8 48.5q-29 -37 -63.5 -54.5
t-79.5 -17.5q-52 0 -81 28.5zM366 378l16 118h-93q-77 0 -116.5 -30.5t-39.5 -85.5q0 -39 23 -61t64 -22q89 0 146 81zM51 0l3 21h330l-3 -21h-330z" />
    <glyph glyph-name="guillemotleft" unicode="&#xab;" horiz-adv-x="533" 
d="M274 503l14 -9l-169 -206l112 -205l-16 -9l-122 207l1 14zM463 503l14 -9l-169 -206l112 -205l-16 -9l-122 207l1 14z" />
    <glyph glyph-name="logicalnot" unicode="&#xac;" horiz-adv-x="496" 
d="M427 330l-18 -132h-23l15 111h-316l3 21h339z" />
    <glyph glyph-name="uni00AD" unicode="&#xad;" horiz-adv-x="399" 
d="M84 302l3 21h243l-3 -21h-243z" />
    <glyph glyph-name="registered" unicode="&#xae;" horiz-adv-x="637" 
d="M466 692.5q51 -28.5 80 -78.5t29 -112q0 -61 -28.5 -112.5t-79.5 -81.5t-115 -30q-63 0 -113.5 28.5t-79.5 79t-29 112.5q0 61 28.5 112t79.5 81t114 30t114 -28.5zM456.5 324.5q46.5 27.5 72.5 74.5t26 103t-26.5 102t-72.5 72t-104 26q-57 0 -103.5 -27.5t-72.5 -74
t-26 -102.5q0 -57 26.5 -102.5t73 -72t102.5 -26.5q58 0 104.5 27.5zM378 489l74 -120h-27l-69 118h-55v-118h-22v269h60q102 0 102 -78q0 -58 -63 -71zM301 506h55q63 0 63 54q0 31 -19 44.5t-57 13.5h-42v-112z" />
    <glyph glyph-name="macron" unicode="&#xaf;" horiz-adv-x="267" 
d="M297 685h-207l3 21h207z" />
    <glyph glyph-name="degree" unicode="&#xb0;" horiz-adv-x="520" 
d="M157 442.5q-33 31.5 -33 87.5q0 46 21.5 83t56.5 57.5t74 20.5q53 0 85.5 -31t32.5 -86q0 -47 -21 -84.5t-56 -58t-75 -20.5q-52 0 -85 31.5zM334.5 471.5q36.5 39.5 36.5 102.5q0 45 -25 71t-70 26q-35 0 -65 -18t-47.5 -50t-17.5 -73q0 -46 26 -72t70 -26
q56 0 92.5 39.5z" />
    <glyph glyph-name="plusminus" unicode="&#xb1;" horiz-adv-x="487" 
d="M41 0l3 21h330l-3 -21h-330zM289 496l-22 -155h153l-3 -21h-153l-22 -155h-23l22 155h-154l4 21h153l22 155h23z" />
    <glyph glyph-name="uni00B2" unicode="&#xb2;" horiz-adv-x="400" 
d="M336.5 711.5q26.5 -26.5 26.5 -67.5q0 -44 -25 -85.5t-64 -79.5t-115 -104q-2 -2 -38 -32h211l-7 -21h-233l3 21l36 32q78 68 118.5 107.5t65.5 80t25 81.5q0 35 -20.5 54.5t-57.5 19.5q-58 0 -109 -49l-15 14q31 29 61 42t64 13q47 0 73.5 -26.5z" />
    <glyph glyph-name="uni00B3" unicode="&#xb3;" horiz-adv-x="400" 
d="M341 716q27 -24 27 -64q0 -46 -29.5 -76t-73.5 -35q38 -2 61.5 -24t23.5 -62q0 -61 -41 -100.5t-107 -39.5q-36 0 -63 13.5t-49 39.5l16 11q20 -24 43 -34t53 -10q58 0 92 34t34 87q0 38 -24 56t-68 18h-26l5 19h20q45 0 78 29t33 75q0 31 -21.5 49t-57.5 18
q-29 0 -54.5 -9t-53.5 -30l-12 14q28 23 57 34t64 11q46 0 73 -24z" />
    <glyph glyph-name="acute" unicode="&#xb4;" horiz-adv-x="247" 
d="M274 761l9 -23l-190 -84l-7 15z" />
    <glyph glyph-name="uni00B5" unicode="&#xb5;" horiz-adv-x="582" 
d="M437 88q0 -44 10 -89l-20 -3q-11 50 -11 90q0 9 2 37q-40 -62 -88 -97.5t-109 -35.5q-94 0 -111 78q-5 -54 -16 -133l-18 -127l-22 -2l101 713h22l-53 -378q-3 -18 -3 -33q0 -51 28 -74t73 -23q58 0 107.5 38t89.5 105l52 365h22l-49 -350q-7 -43 -7 -81z" />
    <glyph glyph-name="paragraph" unicode="&#xb6;" horiz-adv-x="686" 
d="M576 681l-122 -873l-23 -4l120 857h-142l-120 -853l-22 -4l71 502q-101 3 -146.5 45.5t-45.5 112.5q0 101 67 159t179 58h184z" />
    <glyph glyph-name="periodcentered" unicode="&#xb7;" horiz-adv-x="163" 
d="M73 310q-6 6 -6 15q0 11 7 18t18 7q10 0 16 -6.5t6 -15.5q0 -11 -7 -17.5t-18 -6.5q-10 0 -16 6z" />
    <glyph glyph-name="cedilla" unicode="&#xb8;" horiz-adv-x="214" 
d="M43 -74q43 -3 63.5 -18.5t20.5 -45.5q0 -34 -26 -54t-67 -20q-40 0 -67 18l10 16q23 -14 57 -14q32 0 51 14t19 40q0 25 -19 35.5t-64 11.5l20 100h17z" />
    <glyph glyph-name="uni00B9" unicode="&#xb9;" horiz-adv-x="400" 
d="M307 732l-58 -410h-21l54 385l-118 -65l-10 16l136 74h17z" />
    <glyph glyph-name="ordmasculine" unicode="&#xba;" horiz-adv-x="500" 
d="M414.5 641q37.5 -40 37.5 -115q0 -68 -23.5 -125t-69 -90.5t-106.5 -33.5q-68 0 -105.5 41.5t-37.5 115.5q0 67 23.5 123.5t68.5 90t106 33.5q69 0 106.5 -40zM212.5 630q-39.5 -31 -59.5 -83t-20 -113q0 -66 31 -101.5t89 -35.5q57 0 96.5 32t59.5 84.5t20 114.5
q0 65 -31 99t-89 34q-57 0 -96.5 -31zM48 0l3 21h330l-3 -21h-330z" />
    <glyph glyph-name="guillemotright" unicode="&#xbb;" horiz-adv-x="533" 
d="M138 503l122 -208l-2 -14l-180 -207l-14 9l169 205l-111 206zM327 503l122 -208l-2 -14l-180 -207l-14 9l169 205l-111 206z" />
    <glyph glyph-name="onequarter" unicode="&#xbc;" horiz-adv-x="892" 
d="M300 681l-58 -410h-21l54 385l-118 -65l-10 16l136 74h17zM708 742l17 -9l-519 -799l-17 9zM810 132l-3 -20h-59l-16 -112h-21l16 112h-192l2 18l173 288l18 -7l-167 -279h169l20 127h19l-18 -127h59z" />
    <glyph glyph-name="onehalf" unicode="&#xbd;" horiz-adv-x="892" 
d="M300 681l-58 -410h-21l54 385l-118 -65l-10 16l136 74h17zM708 742l17 -9l-519 -799l-17 9zM783.5 389.5q26.5 -26.5 26.5 -67.5q0 -44 -25 -85.5t-64 -79.5t-115 -104q-2 -2 -38 -32h211l-7 -21h-233l3 21l36 32q78 68 118.5 107.5t65.5 80t25 81.5q0 35 -20.5 54.5
t-57.5 19.5q-58 0 -109 -49l-15 14q31 29 61 42t64 13q47 0 73.5 -26.5z" />
    <glyph glyph-name="threequarters" unicode="&#xbe;" horiz-adv-x="892" 
d="M334 665q27 -24 27 -64q0 -46 -29.5 -76t-73.5 -35q38 -2 61.5 -24t23.5 -62q0 -61 -41 -100.5t-107 -39.5q-36 0 -63 13.5t-49 39.5l16 11q20 -24 43 -34t53 -10q58 0 92 34t34 87q0 38 -24 56t-68 18h-26l5 19h20q45 0 78 29t33 75q0 31 -21.5 49t-57.5 18
q-29 0 -54.5 -9t-53.5 -30l-12 14q28 23 57 34t64 11q46 0 73 -24zM708 742l17 -9l-519 -799l-17 9zM810 132l-3 -20h-59l-16 -112h-21l16 112h-192l2 18l173 288l18 -7l-167 -279h169l20 127h19l-18 -127h59z" />
    <glyph glyph-name="questiondown" unicode="&#xbf;" horiz-adv-x="440" 
d="M268 497q6 -6 6 -15q0 -11 -7 -18t-18 -7q-10 0 -16 6.5t-6 15.5q0 11 7 17.5t18 6.5q10 0 16 -6zM46.5 -165q-35.5 33 -35.5 83q0 43 17 74t41 51.5t65 47.5q51 34 76.5 61t25.5 70q0 26 -8 54l20 5q10 -32 10 -58q0 -34 -15 -60t-37 -44.5t-58 -42.5
q-39 -26 -61.5 -44.5t-38 -46.5t-15.5 -66q0 -42 30 -69.5t82 -27.5q50 0 89 18.5t82 59.5l15 -14q-45 -44 -88.5 -64t-97.5 -20q-63 0 -98.5 33z" />
    <glyph glyph-name="Agrave" unicode="&#xc0;" horiz-adv-x="557" 
d="M469 0l-41 203h-315l-98 -203h-24l333 681h27l142 -681h-24zM123 224h301l-89 438zM282 860l163 -81l-8 -15l-167 72z" />
    <glyph glyph-name="Aacute" unicode="&#xc1;" horiz-adv-x="557" 
d="M469 0l-41 203h-315l-98 -203h-24l333 681h27l142 -681h-24zM123 224h301l-89 438zM434 861l9 -25l-189 -72l-6 15z" />
    <glyph glyph-name="Acircumflex" unicode="&#xc2;" horiz-adv-x="557" 
d="M469 0l-41 203h-315l-98 -203h-24l333 681h27l142 -681h-24zM123 224h301l-89 438zM231 766l-10 14l132 89h12l107 -90l-12 -13l-102 79z" />
    <glyph glyph-name="Atilde" unicode="&#xc3;" horiz-adv-x="557" 
d="M469 0l-41 203h-315l-98 -203h-24l333 681h27l142 -681h-24zM123 224h301l-89 438zM387 809.5q-13 5.5 -34 17.5q-16 10 -27 15t-23 5q-19 0 -31.5 -7.5t-33.5 -28.5l-13 10q20 23 39 34.5t39 11.5q14 0 26 -5t30 -16t30.5 -16.5t26.5 -5.5q16 0 31 9.5t33 31.5l14 -9
q-20 -28 -38.5 -40t-39.5 -12q-16 0 -29 5.5z" />
    <glyph glyph-name="Adieresis" unicode="&#xc4;" horiz-adv-x="557" 
d="M469 0l-41 203h-315l-98 -203h-24l333 681h27l142 -681h-24zM123 224h301l-89 438zM260 803.5q-5 4.5 -5 12.5q0 9 6 15.5t15 6.5t14 -5t5 -13t-6.5 -14.5t-15.5 -6.5q-8 0 -13 4.5zM425 803.5q-5 4.5 -5 12.5q0 9 6 15.5t16 6.5q8 0 13 -5t5 -13q0 -9 -6 -15t-16 -6
q-8 0 -13 4.5z" />
    <glyph glyph-name="Aring" unicode="&#xc5;" horiz-adv-x="557" 
d="M469 0l-41 203h-315l-98 -203h-24l333 681h27l142 -681h-24zM123 224h301l-89 438zM424 909q19 -18 19 -48q0 -40 -25.5 -65.5t-63.5 -25.5q-33 0 -52 19t-19 49q0 39 25.5 64t64.5 25q32 0 51 -18zM322.5 888.5q-18.5 -20.5 -18.5 -51.5q0 -23 13 -36t37 -13q32 0 50 21
t18 50q0 24 -13 37t-37 13q-31 0 -49.5 -20.5z" />
    <glyph glyph-name="AE" unicode="&#xc6;" horiz-adv-x="755" 
d="M712 660h-343l36 -290h261l-2 -21h-257l41 -328h231l-4 -21h-247l-24 196h-301l-103 -196h-24l358 681h384zM402 217l-54 446l-234 -446h288z" />
    <glyph glyph-name="Ccedilla" unicode="&#xc7;" horiz-adv-x="538" 
d="M233 605.5q-67 -64.5 -97 -159t-30 -188.5q0 -119 54 -182.5t146 -63.5q53 0 90.5 15.5t74.5 43.5l13 -18q-80 -62 -174 -63l-12 -64q43 -3 63.5 -18.5t20.5 -45.5q0 -34 -26 -54t-67 -20q-40 0 -67 18l10 16q23 -14 57 -14q32 0 51 14t19 40q0 25 -19 35.5t-64 11.5
l16 81q-96 5 -152.5 74.5t-56.5 192.5q0 100 32.5 199.5t104.5 167t183 67.5q52 0 87.5 -14.5t65.5 -43.5l-14 -16q-31 28 -61.5 40.5t-76.5 12.5q-104 0 -171 -64.5z" />
    <glyph glyph-name="Egrave" unicode="&#xc8;" horiz-adv-x="494" 
d="M503 681l-6 -21h-295l-41 -290h255l-3 -21h-255l-46 -328h306l-4 -21h-328l96 681h321zM290 860l163 -81l-8 -15l-167 72z" />
    <glyph glyph-name="Eacute" unicode="&#xc9;" horiz-adv-x="494" 
d="M503 681l-6 -21h-295l-41 -290h255l-3 -21h-255l-46 -328h306l-4 -21h-328l96 681h321zM442 861l9 -25l-189 -72l-6 15z" />
    <glyph glyph-name="Ecircumflex" unicode="&#xca;" horiz-adv-x="494" 
d="M503 681l-6 -21h-295l-41 -290h255l-3 -21h-255l-46 -328h306l-4 -21h-328l96 681h321zM239 766l-10 14l132 89h12l107 -90l-12 -13l-102 79z" />
    <glyph glyph-name="Edieresis" unicode="&#xcb;" horiz-adv-x="494" 
d="M503 681l-6 -21h-295l-41 -290h255l-3 -21h-255l-46 -328h306l-4 -21h-328l96 681h321zM268 803.5q-5 4.5 -5 12.5q0 9 6 15.5t15 6.5t14 -5t5 -13t-6.5 -14.5t-15.5 -6.5q-8 0 -13 4.5zM433 803.5q-5 4.5 -5 12.5q0 9 6 15.5t16 6.5q8 0 13 -5t5 -13q0 -9 -6 -15t-16 -6
q-8 0 -13 4.5z" />
    <glyph glyph-name="Igrave" unicode="&#xcc;" horiz-adv-x="268" 
d="M205 681l-96 -681h-23l96 681h23zM138 860l163 -81l-8 -15l-167 72z" />
    <glyph glyph-name="Iacute" unicode="&#xcd;" horiz-adv-x="268" 
d="M205 681l-96 -681h-23l96 681h23zM290 861l9 -25l-189 -72l-6 15z" />
    <glyph glyph-name="Icircumflex" unicode="&#xce;" horiz-adv-x="268" 
d="M205 681l-96 -681h-23l96 681h23zM87 766l-10 14l132 89h12l107 -90l-12 -13l-102 79z" />
    <glyph glyph-name="Idieresis" unicode="&#xcf;" horiz-adv-x="268" 
d="M205 681l-96 -681h-23l96 681h23zM116 803.5q-5 4.5 -5 12.5q0 9 6 15.5t15 6.5t14 -5t5 -13t-6.5 -14.5t-15.5 -6.5q-8 0 -13 4.5zM281 803.5q-5 4.5 -5 12.5q0 9 6 15.5t16 6.5q8 0 13 -5t5 -13q0 -9 -6 -15t-16 -6q-8 0 -13 4.5z" />
    <glyph glyph-name="Eth" unicode="&#xd0;" horiz-adv-x="621" 
d="M490 627q71 -54 71 -196q0 -112 -34.5 -209.5t-112.5 -159.5t-200 -62h-127l48 343h-87l3 20h87l45 318h121q115 0 186 -54zM403 80.5q72 59.5 103.5 152.5t31.5 199q0 133 -65.5 180.5t-172.5 47.5h-97l-42 -297h196l-3 -20h-196l-45 -322h104q114 0 186 59.5z" />
    <glyph glyph-name="Ntilde" unicode="&#xd1;" horiz-adv-x="661" 
d="M502 0h-28l-277 658q-2 -41 -22 -182l-67 -476h-22l96 681h29l276 -656q7 78 22 180l66 476h22zM445 809.5q-13 5.5 -34 17.5q-16 10 -27 15t-23 5q-19 0 -31.5 -7.5t-33.5 -28.5l-13 10q20 23 39 34.5t39 11.5q14 0 26 -5t30 -16t30.5 -16.5t26.5 -5.5q16 0 31 9.5
t33 31.5l14 -9q-20 -28 -38.5 -40t-39.5 -12q-16 0 -29 5.5z" />
    <glyph glyph-name="Ograve" unicode="&#xd2;" horiz-adv-x="689" 
d="M570 623q60 -68 60 -196q0 -99 -31.5 -199t-104 -169t-186.5 -69q-105 0 -165 69.5t-60 197.5q0 96 32.5 196t105 169t183.5 69q106 0 166 -68zM233 604.5q-67 -66.5 -97 -162t-30 -186.5q0 -118 53.5 -181t148.5 -63q108 0 175 66.5t95 161.5t28 187q0 119 -53 181.5
t-149 62.5q-104 0 -171 -66.5zM347 860l163 -81l-8 -15l-167 72z" />
    <glyph glyph-name="Oacute" unicode="&#xd3;" horiz-adv-x="689" 
d="M570 623q60 -68 60 -196q0 -99 -31.5 -199t-104 -169t-186.5 -69q-105 0 -165 69.5t-60 197.5q0 96 32.5 196t105 169t183.5 69q106 0 166 -68zM233 604.5q-67 -66.5 -97 -162t-30 -186.5q0 -118 53.5 -181t148.5 -63q108 0 175 66.5t95 161.5t28 187q0 119 -53 181.5
t-149 62.5q-104 0 -171 -66.5zM499 861l9 -25l-189 -72l-6 15z" />
    <glyph glyph-name="Ocircumflex" unicode="&#xd4;" horiz-adv-x="689" 
d="M570 623q60 -68 60 -196q0 -99 -31.5 -199t-104 -169t-186.5 -69q-105 0 -165 69.5t-60 197.5q0 96 32.5 196t105 169t183.5 69q106 0 166 -68zM233 604.5q-67 -66.5 -97 -162t-30 -186.5q0 -118 53.5 -181t148.5 -63q108 0 175 66.5t95 161.5t28 187q0 119 -53 181.5
t-149 62.5q-104 0 -171 -66.5zM296 766l-10 14l132 89h12l107 -90l-12 -13l-102 79z" />
    <glyph glyph-name="Otilde" unicode="&#xd5;" horiz-adv-x="689" 
d="M570 623q60 -68 60 -196q0 -99 -31.5 -199t-104 -169t-186.5 -69q-105 0 -165 69.5t-60 197.5q0 96 32.5 196t105 169t183.5 69q106 0 166 -68zM233 604.5q-67 -66.5 -97 -162t-30 -186.5q0 -118 53.5 -181t148.5 -63q108 0 175 66.5t95 161.5t28 187q0 119 -53 181.5
t-149 62.5q-104 0 -171 -66.5zM452 809.5q-13 5.5 -34 17.5q-16 10 -27 15t-23 5q-19 0 -31.5 -7.5t-33.5 -28.5l-13 10q20 23 39 34.5t39 11.5q14 0 26 -5t30 -16t30.5 -16.5t26.5 -5.5q16 0 31 9.5t33 31.5l14 -9q-20 -28 -38.5 -40t-39.5 -12q-16 0 -29 5.5z" />
    <glyph glyph-name="Odieresis" unicode="&#xd6;" horiz-adv-x="689" 
d="M570 623q60 -68 60 -196q0 -99 -31.5 -199t-104 -169t-186.5 -69q-105 0 -165 69.5t-60 197.5q0 96 32.5 196t105 169t183.5 69q106 0 166 -68zM233 604.5q-67 -66.5 -97 -162t-30 -186.5q0 -118 53.5 -181t148.5 -63q108 0 175 66.5t95 161.5t28 187q0 119 -53 181.5
t-149 62.5q-104 0 -171 -66.5zM325 803.5q-5 4.5 -5 12.5q0 9 6 15.5t15 6.5t14 -5t5 -13t-6.5 -14.5t-15.5 -6.5q-8 0 -13 4.5zM490 803.5q-5 4.5 -5 12.5q0 9 6 15.5t16 6.5q8 0 13 -5t5 -13q0 -9 -6 -15t-16 -6q-8 0 -13 4.5z" />
    <glyph glyph-name="multiply" unicode="&#xd7;" horiz-adv-x="485" 
d="M398 455l15 -15l-149 -133l112 -132l-18 -15l-110 133l-147 -133l-15 15l148 132l-111 133l18 15l109 -133z" />
    <glyph glyph-name="Oslash" unicode="&#xd8;" horiz-adv-x="689" 
d="M598.5 581q31.5 -62 31.5 -154q0 -99 -31.5 -199t-104 -169t-186.5 -69q-49 0 -88 15l-50 -116l-20 7l52 117q-57 29 -88 91t-31 153q0 96 32.5 196t105 169t183.5 69q46 0 86 -14l52 121l21 -6l-55 -122q59 -27 90.5 -89zM133.5 115.5q27.5 -56.5 79.5 -82.5l270 625
q-33 13 -79 13q-104 0 -171 -66.5t-97 -162.5t-30 -187q0 -83 27.5 -139.5zM483 78.5q67 66.5 95 161.5t28 188q0 85 -27.5 141.5t-79.5 81.5l-271 -625q37 -14 80 -14q108 0 175 66.5z" />
    <glyph glyph-name="Ugrave" unicode="&#xd9;" horiz-adv-x="641" 
d="M521 207q-14 -100 -73 -158.5t-163 -58.5q-93 0 -138 45.5t-45 124.5q0 14 4 48l66 473h23l-66 -472q-3 -24 -3 -46q0 -72 38.5 -111.5t120.5 -39.5q95 0 148 53.5t65 144.5l66 471h23zM324 860l163 -81l-8 -15l-167 72z" />
    <glyph glyph-name="Uacute" unicode="&#xda;" horiz-adv-x="641" 
d="M521 207q-14 -100 -73 -158.5t-163 -58.5q-93 0 -138 45.5t-45 124.5q0 14 4 48l66 473h23l-66 -472q-3 -24 -3 -46q0 -72 38.5 -111.5t120.5 -39.5q95 0 148 53.5t65 144.5l66 471h23zM476 861l9 -25l-189 -72l-6 15z" />
    <glyph glyph-name="Ucircumflex" unicode="&#xdb;" horiz-adv-x="641" 
d="M521 207q-14 -100 -73 -158.5t-163 -58.5q-93 0 -138 45.5t-45 124.5q0 14 4 48l66 473h23l-66 -472q-3 -24 -3 -46q0 -72 38.5 -111.5t120.5 -39.5q95 0 148 53.5t65 144.5l66 471h23zM273 766l-10 14l132 89h12l107 -90l-12 -13l-102 79z" />
    <glyph glyph-name="Udieresis" unicode="&#xdc;" horiz-adv-x="641" 
d="M521 207q-14 -100 -73 -158.5t-163 -58.5q-93 0 -138 45.5t-45 124.5q0 14 4 48l66 473h23l-66 -472q-3 -24 -3 -46q0 -72 38.5 -111.5t120.5 -39.5q95 0 148 53.5t65 144.5l66 471h23zM302 803.5q-5 4.5 -5 12.5q0 9 6 15.5t15 6.5t14 -5t5 -13t-6.5 -14.5t-15.5 -6.5
q-8 0 -13 4.5zM467 803.5q-5 4.5 -5 12.5q0 9 6 15.5t16 6.5q8 0 13 -5t5 -13q0 -9 -6 -15t-16 -6q-8 0 -13 4.5z" />
    <glyph glyph-name="Yacute" unicode="&#xdd;" horiz-adv-x="494" 
d="M532 681l-271 -410l-38 -271h-23l38 270l-158 411h25l146 -388l254 388h27zM399 861l9 -25l-189 -72l-6 15z" />
    <glyph glyph-name="Thorn" unicode="&#xde;" horiz-adv-x="558" 
d="M463 514q54 -40 54 -130q0 -99 -64 -168t-212 -69h-111l-21 -147h-23l96 681h23l-18 -127h115q107 0 161 -40zM436 230.5q58 62.5 58 153.5q0 81 -47.5 115t-146.5 34h-116l-51 -365h112q133 0 191 62.5z" />
    <glyph glyph-name="germandbls" unicode="&#xdf;" horiz-adv-x="574" 
d="M-41 -177q41 20 64 40t38 53.5t23 90.5l75 535q13 93 68 144t132 51q59 0 95 -30.5t36 -79.5q0 -47 -23 -76.5t-65 -59.5q-31 -22 -46 -39t-15 -41q0 -21 14.5 -37.5t44.5 -40.5q32 -26 52.5 -46.5t35 -52t14.5 -74.5q0 -37 -18.5 -76.5t-57.5 -66.5t-97 -27
q-30 0 -58.5 8t-46.5 19l9 17q44 -23 96 -23q51 0 85.5 24.5t50 59t15.5 65.5q0 39 -13.5 67.5t-32.5 48t-49 43.5q-34 28 -49.5 47t-15.5 45q0 29 16.5 48.5t50.5 43.5q40 29 60.5 54.5t20.5 69.5q0 41 -29 65.5t-80 24.5q-69 0 -117.5 -46t-60.5 -134l-76 -532
q-8 -63 -24.5 -99t-42.5 -57.5t-72 -43.5z" />
    <glyph glyph-name="agrave" unicode="&#xe0;" horiz-adv-x="548" 
d="M406 518.5q34 -10.5 67 -30.5l-54 -376q-4 -32 -4 -44q0 -23 8 -38t28 -23l-7 -17q-25 10 -37 28.5t-12 49.5q0 7 2 29q-31 -50 -75 -78.5t-94 -28.5q-75 0 -117.5 53.5t-42.5 146.5q0 78 26.5 156t85 130.5t148.5 52.5q44 0 78 -10.5zM192.5 460q-53.5 -50 -78 -123.5
t-24.5 -145.5q0 -85 36 -132.5t102 -47.5q102 0 172 124l49 342q-53 33 -121 33q-82 0 -135.5 -50zM299 761l162 -92l-9 -15l-166 84z" />
    <glyph glyph-name="aacute" unicode="&#xe1;" horiz-adv-x="548" 
d="M406 518.5q34 -10.5 67 -30.5l-54 -376q-4 -32 -4 -44q0 -23 8 -38t28 -23l-7 -17q-25 10 -37 28.5t-12 49.5q0 7 2 29q-31 -50 -75 -78.5t-94 -28.5q-75 0 -117.5 53.5t-42.5 146.5q0 78 26.5 156t85 130.5t148.5 52.5q44 0 78 -10.5zM192.5 460q-53.5 -50 -78 -123.5
t-24.5 -145.5q0 -85 36 -132.5t102 -47.5q102 0 172 124l49 342q-53 33 -121 33q-82 0 -135.5 -50zM452 761l9 -23l-190 -84l-7 15z" />
    <glyph glyph-name="acircumflex" unicode="&#xe2;" horiz-adv-x="548" 
d="M406 518.5q34 -10.5 67 -30.5l-54 -376q-4 -32 -4 -44q0 -23 8 -38t28 -23l-7 -17q-25 10 -37 28.5t-12 49.5q0 7 2 29q-31 -50 -75 -78.5t-94 -28.5q-75 0 -117.5 53.5t-42.5 146.5q0 78 26.5 156t85 130.5t148.5 52.5q44 0 78 -10.5zM192.5 460q-53.5 -50 -78 -123.5
t-24.5 -145.5q0 -85 36 -132.5t102 -47.5q102 0 172 124l49 342q-53 33 -121 33q-82 0 -135.5 -50zM241 654l-11 13l134 95h12l106 -95l-12 -13l-103 84z" />
    <glyph glyph-name="atilde" unicode="&#xe3;" horiz-adv-x="548" 
d="M406 518.5q34 -10.5 67 -30.5l-54 -376q-4 -32 -4 -44q0 -23 8 -38t28 -23l-7 -17q-25 10 -37 28.5t-12 49.5q0 7 2 29q-31 -50 -75 -78.5t-94 -28.5q-75 0 -117.5 53.5t-42.5 146.5q0 78 26.5 156t85 130.5t148.5 52.5q44 0 78 -10.5zM192.5 460q-53.5 -50 -78 -123.5
t-24.5 -145.5q0 -85 36 -132.5t102 -47.5q102 0 172 124l49 342q-53 33 -121 33q-82 0 -135.5 -50zM391 683.5q-13 5.5 -34 17.5q-16 10 -27 15t-23 5q-19 0 -31.5 -7.5t-33.5 -28.5l-13 10q20 23 39 34.5t39 11.5q14 0 26 -5t30 -16t30.5 -16.5t26.5 -5.5q16 0 31 9.5
t33 31.5l14 -9q-20 -28 -38.5 -40t-39.5 -12q-16 0 -29 5.5z" />
    <glyph glyph-name="adieresis" unicode="&#xe4;" horiz-adv-x="548" 
d="M406 518.5q34 -10.5 67 -30.5l-54 -376q-4 -32 -4 -44q0 -23 8 -38t28 -23l-7 -17q-25 10 -37 28.5t-12 49.5q0 7 2 29q-31 -50 -75 -78.5t-94 -28.5q-75 0 -117.5 53.5t-42.5 146.5q0 78 26.5 156t85 130.5t148.5 52.5q44 0 78 -10.5zM192.5 460q-53.5 -50 -78 -123.5
t-24.5 -145.5q0 -85 36 -132.5t102 -47.5q102 0 172 124l49 342q-53 33 -121 33q-82 0 -135.5 -50zM264 677.5q-5 4.5 -5 12.5q0 9 6 15.5t15 6.5t14 -5t5 -13t-6.5 -14.5t-15.5 -6.5q-8 0 -13 4.5zM429 677.5q-5 4.5 -5 12.5q0 9 6 15.5t16 6.5q8 0 13 -5t5 -13
q0 -9 -6 -15t-16 -6q-8 0 -13 4.5z" />
    <glyph glyph-name="aring" unicode="&#xe5;" horiz-adv-x="548" 
d="M406 518.5q34 -10.5 67 -30.5l-54 -376q-4 -32 -4 -44q0 -23 8 -38t28 -23l-7 -17q-25 10 -37 28.5t-12 49.5q0 7 2 29q-31 -50 -75 -78.5t-94 -28.5q-75 0 -117.5 53.5t-42.5 146.5q0 78 26.5 156t85 130.5t148.5 52.5q44 0 78 -10.5zM192.5 460q-53.5 -50 -78 -123.5
t-24.5 -145.5q0 -85 36 -132.5t102 -47.5q102 0 172 124l49 342q-53 33 -121 33q-82 0 -135.5 -50zM427 783q19 -18 19 -48q0 -40 -25.5 -65.5t-63.5 -25.5q-33 0 -52 19t-19 49q0 39 25.5 64t64.5 25q32 0 51 -18zM325.5 762.5q-18.5 -20.5 -18.5 -51.5q0 -23 13 -36
t37 -13q32 0 50 21t18 50q0 24 -13 37t-37 13q-31 0 -49.5 -20.5z" />
    <glyph glyph-name="ae" unicode="&#xe6;" horiz-adv-x="818" 
d="M388.5 495.5q38.5 -33.5 44.5 -91.5q11 25 38 54t69 50t94 21q65 0 105 -32t40 -87q0 -87 -97 -136t-284 -60q-1 -98 37.5 -150.5t115.5 -52.5q45 0 80 13.5t76 42.5l11 -16q-41 -31 -80.5 -46t-86.5 -15q-62 0 -104 30.5t-59 88.5q-49 -64 -99 -91.5t-108 -27.5
q-65 0 -102.5 36t-37.5 97q0 76 55.5 126t172.5 50h120q12 49 27 81q-1 60 -36.5 94.5t-95.5 34.5q-65 0 -147 -32l-7 18q87 34 154 34q66 0 104.5 -33.5zM508.5 466q-50.5 -43 -76.5 -105.5t-32 -126.5q178 10 267 55t89 121q0 46 -32.5 72.5t-89.5 26.5q-75 0 -125.5 -43z
M269 279q-108 0 -156.5 -43.5t-48.5 -112.5q0 -53 31 -82.5t86 -29.5q57 0 105 28.5t96 91.5q-7 35 -7 66q0 40 9 82h-115z" />
    <glyph glyph-name="ccedilla" unicode="&#xe7;" horiz-adv-x="464" 
d="M191.5 461.5q-51.5 -47.5 -75.5 -119.5t-24 -145q0 -91 41.5 -138.5t113.5 -47.5t135 48l12 -16q-67 -52 -144 -53l-12 -64q43 -3 63.5 -18.5t20.5 -45.5q0 -34 -26 -54t-67 -20q-40 0 -67 18l10 16q23 -14 57 -14q32 0 51 14t19 40q0 25 -19 35.5t-64 11.5l16 81
q-75 5 -119 59t-44 148q0 78 27 154.5t83.5 127t140.5 50.5q79 0 129 -50l-14 -14q-46 44 -116 44q-76 0 -127.5 -47.5z" />
    <glyph glyph-name="egrave" unicode="&#xe8;" horiz-adv-x="509" 
d="M374 274q-97 -49 -284 -60v-18q0 -92 41 -138.5t113 -46.5q45 0 79.5 13.5t75.5 42.5l12 -16q-41 -31 -80.5 -46t-86.5 -15q-83 0 -129.5 53t-46.5 152q0 76 28 153t87 129t145 52q65 0 104 -32t39 -86q0 -88 -97 -137zM205 468q-51 -41 -78.5 -103.5t-34.5 -130.5
q356 21 356 176q0 46 -31.5 72.5t-88.5 26.5q-72 0 -123 -41zM272 761l162 -92l-9 -15l-166 84z" />
    <glyph glyph-name="eacute" unicode="&#xe9;" horiz-adv-x="509" 
d="M374 274q-97 -49 -284 -60v-18q0 -92 41 -138.5t113 -46.5q45 0 79.5 13.5t75.5 42.5l12 -16q-41 -31 -80.5 -46t-86.5 -15q-83 0 -129.5 53t-46.5 152q0 76 28 153t87 129t145 52q65 0 104 -32t39 -86q0 -88 -97 -137zM205 468q-51 -41 -78.5 -103.5t-34.5 -130.5
q356 21 356 176q0 46 -31.5 72.5t-88.5 26.5q-72 0 -123 -41zM425 761l9 -23l-190 -84l-7 15z" />
    <glyph glyph-name="ecircumflex" unicode="&#xea;" horiz-adv-x="509" 
d="M374 274q-97 -49 -284 -60v-18q0 -92 41 -138.5t113 -46.5q45 0 79.5 13.5t75.5 42.5l12 -16q-41 -31 -80.5 -46t-86.5 -15q-83 0 -129.5 53t-46.5 152q0 76 28 153t87 129t145 52q65 0 104 -32t39 -86q0 -88 -97 -137zM205 468q-51 -41 -78.5 -103.5t-34.5 -130.5
q356 21 356 176q0 46 -31.5 72.5t-88.5 26.5q-72 0 -123 -41zM214 654l-11 13l134 95h12l106 -95l-12 -13l-103 84z" />
    <glyph glyph-name="edieresis" unicode="&#xeb;" horiz-adv-x="509" 
d="M374 274q-97 -49 -284 -60v-18q0 -92 41 -138.5t113 -46.5q45 0 79.5 13.5t75.5 42.5l12 -16q-41 -31 -80.5 -46t-86.5 -15q-83 0 -129.5 53t-46.5 152q0 76 28 153t87 129t145 52q65 0 104 -32t39 -86q0 -88 -97 -137zM205 468q-51 -41 -78.5 -103.5t-34.5 -130.5
q356 21 356 176q0 46 -31.5 72.5t-88.5 26.5q-72 0 -123 -41zM237 677.5q-5 4.5 -5 12.5q0 9 6 15.5t15 6.5t14 -5t5 -13t-6.5 -14.5t-15.5 -6.5q-8 0 -13 4.5zM402 677.5q-5 4.5 -5 12.5q0 9 6 15.5t16 6.5q8 0 13 -5t5 -13q0 -9 -6 -15t-16 -6q-8 0 -13 4.5z" />
    <glyph glyph-name="igrave" unicode="&#xec;" horiz-adv-x="258" 
d="M177 519l-74 -519h-22l74 519h22zM128 761l162 -92l-9 -15l-166 84z" />
    <glyph glyph-name="iacute" unicode="&#xed;" horiz-adv-x="258" 
d="M177 519l-74 -519h-22l74 519h22zM281 761l9 -23l-190 -84l-7 15z" />
    <glyph glyph-name="icircumflex" unicode="&#xee;" horiz-adv-x="258" 
d="M177 519l-74 -519h-22l74 519h22zM70 654l-11 13l134 95h12l106 -95l-12 -13l-103 84z" />
    <glyph glyph-name="idieresis" unicode="&#xef;" horiz-adv-x="258" 
d="M177 519l-74 -519h-22l74 519h22zM93 677.5q-5 4.5 -5 12.5q0 9 6 15.5t15 6.5t14 -5t5 -13t-6.5 -14.5t-15.5 -6.5q-8 0 -13 4.5zM258 677.5q-5 4.5 -5 12.5q0 9 6 15.5t16 6.5q8 0 13 -5t5 -13q0 -9 -6 -15t-16 -6q-8 0 -13 4.5z" />
    <glyph glyph-name="eth" unicode="&#xf0;" horiz-adv-x="555" 
d="M449 553q29 -65 29 -157q0 -105 -26.5 -197.5t-82 -150.5t-137.5 -58q-80 0 -123.5 50t-43.5 136q0 68 23 133.5t73.5 108.5t126.5 43q103 0 168 -98q1 11 1 31q0 80 -25 144t-83 114l-96 -86l-17 7l99 90q-26 19 -59 33.5t-66 21.5l6 20q76 -18 134 -62l76 70l14 -12
l-76 -69q56 -47 85 -112zM347.5 57q47.5 47 73.5 121t33 159q-68 104 -165 104q-69 0 -114.5 -40t-66 -100.5t-20.5 -124.5q0 -78 37.5 -122t106.5 -44q68 0 115.5 47z" />
    <glyph glyph-name="ntilde" unicode="&#xf1;" horiz-adv-x="581" 
d="M457 497.5q30 -31.5 30 -90.5q0 -18 -3 -38l-52 -369h-22l52 367q3 21 3 38q0 105 -97 105q-62 0 -116.5 -50t-103.5 -145l-45 -315h-22l74 519h18l-20 -161q44 85 99 128t117 43q58 0 88 -31.5zM383 683.5q-13 5.5 -34 17.5q-16 10 -27 15t-23 5q-19 0 -31.5 -7.5
t-33.5 -28.5l-13 10q20 23 39 34.5t39 11.5q14 0 26 -5t30 -16t30.5 -16.5t26.5 -5.5q16 0 31 9.5t33 31.5l14 -9q-20 -28 -38.5 -40t-39.5 -12q-16 0 -29 5.5z" />
    <glyph glyph-name="ograve" unicode="&#xf2;" horiz-adv-x="561" 
d="M115 44q-46 54 -46 152q0 75 25 151.5t81 129t143 52.5q83 0 129 -52t46 -150q0 -74 -24.5 -151.5t-80.5 -131.5t-144 -54q-83 0 -129 54zM375 61q51 50 73.5 122.5t22.5 143.5q0 88 -39.5 135t-113.5 47q-80 0 -131 -50.5t-73.5 -122.5t-22.5 -141q0 -88 40 -136
t113 -48q80 0 131 50zM280 761l162 -92l-9 -15l-166 84z" />
    <glyph glyph-name="oacute" unicode="&#xf3;" horiz-adv-x="561" 
d="M115 44q-46 54 -46 152q0 75 25 151.5t81 129t143 52.5q83 0 129 -52t46 -150q0 -74 -24.5 -151.5t-80.5 -131.5t-144 -54q-83 0 -129 54zM375 61q51 50 73.5 122.5t22.5 143.5q0 88 -39.5 135t-113.5 47q-80 0 -131 -50.5t-73.5 -122.5t-22.5 -141q0 -88 40 -136
t113 -48q80 0 131 50zM433 761l9 -23l-190 -84l-7 15z" />
    <glyph glyph-name="ocircumflex" unicode="&#xf4;" horiz-adv-x="561" 
d="M115 44q-46 54 -46 152q0 75 25 151.5t81 129t143 52.5q83 0 129 -52t46 -150q0 -74 -24.5 -151.5t-80.5 -131.5t-144 -54q-83 0 -129 54zM375 61q51 50 73.5 122.5t22.5 143.5q0 88 -39.5 135t-113.5 47q-80 0 -131 -50.5t-73.5 -122.5t-22.5 -141q0 -88 40 -136
t113 -48q80 0 131 50zM222 654l-11 13l134 95h12l106 -95l-12 -13l-103 84z" />
    <glyph glyph-name="otilde" unicode="&#xf5;" horiz-adv-x="561" 
d="M115 44q-46 54 -46 152q0 75 25 151.5t81 129t143 52.5q83 0 129 -52t46 -150q0 -74 -24.5 -151.5t-80.5 -131.5t-144 -54q-83 0 -129 54zM375 61q51 50 73.5 122.5t22.5 143.5q0 88 -39.5 135t-113.5 47q-80 0 -131 -50.5t-73.5 -122.5t-22.5 -141q0 -88 40 -136
t113 -48q80 0 131 50zM372 683.5q-13 5.5 -34 17.5q-16 10 -27 15t-23 5q-19 0 -31.5 -7.5t-33.5 -28.5l-13 10q20 23 39 34.5t39 11.5q14 0 26 -5t30 -16t30.5 -16.5t26.5 -5.5q16 0 31 9.5t33 31.5l14 -9q-20 -28 -38.5 -40t-39.5 -12q-16 0 -29 5.5z" />
    <glyph glyph-name="odieresis" unicode="&#xf6;" horiz-adv-x="561" 
d="M115 44q-46 54 -46 152q0 75 25 151.5t81 129t143 52.5q83 0 129 -52t46 -150q0 -74 -24.5 -151.5t-80.5 -131.5t-144 -54q-83 0 -129 54zM375 61q51 50 73.5 122.5t22.5 143.5q0 88 -39.5 135t-113.5 47q-80 0 -131 -50.5t-73.5 -122.5t-22.5 -141q0 -88 40 -136
t113 -48q80 0 131 50zM245 677.5q-5 4.5 -5 12.5q0 9 6 15.5t15 6.5t14 -5t5 -13t-6.5 -14.5t-15.5 -6.5q-8 0 -13 4.5zM410 677.5q-5 4.5 -5 12.5q0 9 6 15.5t16 6.5q8 0 13 -5t5 -13q0 -9 -6 -15t-16 -6q-8 0 -13 4.5z" />
    <glyph glyph-name="divide" unicode="&#xf7;" horiz-adv-x="485" 
d="M206 107q-6 6 -6 15q0 11 7 18t18 7q10 0 16 -6.5t6 -15.5q0 -11 -7 -17.5t-18 -6.5q-10 0 -16 6zM264 521q-6 6 -6 15q0 11 7 18t18 7q10 0 16 -6.5t6 -15.5q0 -11 -7 -17.5t-18 -6.5q-10 0 -16 6zM86 320l3 21h330l-3 -21h-330z" />
    <glyph glyph-name="oslash" unicode="&#xf8;" horiz-adv-x="561" 
d="M471.5 438q21.5 -46 21.5 -111q0 -74 -24.5 -151.5t-80.5 -131.5t-144 -54q-39 0 -73 13l-59 -121l-19 5l60 125q-41 24 -62.5 71t-21.5 113q0 75 25 151.5t81 129t143 52.5q42 0 74 -13l57 123l19 -6l-58 -126q40 -23 61.5 -69zM109.5 93.5q18.5 -41.5 54.5 -62.5
l219 466q-28 12 -65 12q-80 0 -131 -50.5t-73.5 -122.5t-22.5 -141q0 -60 18.5 -101.5zM375 61q51 50 73.5 122.5t22.5 143.5q0 119 -71 162l-220 -466q29 -12 64 -12q80 0 131 50z" />
    <glyph glyph-name="ugrave" unicode="&#xf9;" horiz-adv-x="576" 
d="M126.5 22.5q-31.5 32.5 -31.5 92.5q0 17 3 35l51 369h22l-51 -369q-3 -19 -3 -36q0 -51 26.5 -77t73.5 -26q64 0 118 51.5t94 141.5l44 315h22l-73 -519h-17l21 164q-35 -80 -90 -127t-121 -47q-57 0 -88.5 32.5zM284 761l162 -92l-9 -15l-166 84z" />
    <glyph glyph-name="uacute" unicode="&#xfa;" horiz-adv-x="576" 
d="M126.5 22.5q-31.5 32.5 -31.5 92.5q0 17 3 35l51 369h22l-51 -369q-3 -19 -3 -36q0 -51 26.5 -77t73.5 -26q64 0 118 51.5t94 141.5l44 315h22l-73 -519h-17l21 164q-35 -80 -90 -127t-121 -47q-57 0 -88.5 32.5zM437 761l9 -23l-190 -84l-7 15z" />
    <glyph glyph-name="ucircumflex" unicode="&#xfb;" horiz-adv-x="576" 
d="M126.5 22.5q-31.5 32.5 -31.5 92.5q0 17 3 35l51 369h22l-51 -369q-3 -19 -3 -36q0 -51 26.5 -77t73.5 -26q64 0 118 51.5t94 141.5l44 315h22l-73 -519h-17l21 164q-35 -80 -90 -127t-121 -47q-57 0 -88.5 32.5zM226 654l-11 13l134 95h12l106 -95l-12 -13l-103 84z" />
    <glyph glyph-name="udieresis" unicode="&#xfc;" horiz-adv-x="576" 
d="M126.5 22.5q-31.5 32.5 -31.5 92.5q0 17 3 35l51 369h22l-51 -369q-3 -19 -3 -36q0 -51 26.5 -77t73.5 -26q64 0 118 51.5t94 141.5l44 315h22l-73 -519h-17l21 164q-35 -80 -90 -127t-121 -47q-57 0 -88.5 32.5zM249 677.5q-5 4.5 -5 12.5q0 9 6 15.5t15 6.5t14 -5
t5 -13t-6.5 -14.5t-15.5 -6.5q-8 0 -13 4.5zM414 677.5q-5 4.5 -5 12.5q0 9 6 15.5t16 6.5q8 0 13 -5t5 -13q0 -9 -6 -15t-16 -6q-8 0 -13 4.5z" />
    <glyph glyph-name="yacute" unicode="&#xfd;" horiz-adv-x="444" 
d="M205 -2q-30 -61 -55.5 -96t-61 -58t-92.5 -39l-2 19q53 15 84.5 35.5t53 51t51.5 89.5h-10l-113 519h23l108 -503l242 503h25zM368 761l9 -23l-190 -84l-7 15z" />
    <glyph glyph-name="thorn" unicode="&#xfe;" horiz-adv-x="564" 
d="M458 480q39 -49 39 -141q0 -78 -25 -158t-81.5 -135.5t-146.5 -55.5q-73 0 -139 29l-29 -212l-23 -3l132 929l22 3l-43 -300q81 93 180 93q75 0 114 -49zM378 64q52 53 74.5 128.5t22.5 147.5q0 83 -33 126t-98 43q-55 0 -97.5 -25.5t-85.5 -75.5l-52 -369
q34 -14 64.5 -21t69.5 -7q83 0 135 53z" />
    <glyph glyph-name="ydieresis" unicode="&#xff;" horiz-adv-x="444" 
d="M205 -2q-30 -61 -55.5 -96t-61 -58t-92.5 -39l-2 19q53 15 84.5 35.5t53 51t51.5 89.5h-10l-113 519h23l108 -503l242 503h25zM180 677.5q-5 4.5 -5 12.5q0 9 6 15.5t15 6.5t14 -5t5 -13t-6.5 -14.5t-15.5 -6.5q-8 0 -13 4.5zM345 677.5q-5 4.5 -5 12.5q0 9 6 15.5
t16 6.5q8 0 13 -5t5 -13q0 -9 -6 -15t-16 -6q-8 0 -13 4.5z" />
    <glyph glyph-name="Amacron" unicode="&#x100;" horiz-adv-x="557" 
d="M469 0l-41 203h-315l-98 -203h-24l333 681h27l142 -681h-24zM123 224h301l-89 438zM460 811h-207l3 21h207z" />
    <glyph glyph-name="amacron" unicode="&#x101;" horiz-adv-x="548" 
d="M406 518.5q34 -10.5 67 -30.5l-54 -376q-4 -32 -4 -44q0 -23 8 -38t28 -23l-7 -17q-25 10 -37 28.5t-12 49.5q0 7 2 29q-31 -50 -75 -78.5t-94 -28.5q-75 0 -117.5 53.5t-42.5 146.5q0 78 26.5 156t85 130.5t148.5 52.5q44 0 78 -10.5zM192.5 460q-53.5 -50 -78 -123.5
t-24.5 -145.5q0 -85 36 -132.5t102 -47.5q102 0 172 124l49 342q-53 33 -121 33q-82 0 -135.5 -50zM463 685h-207l3 21h207z" />
    <glyph glyph-name="Abreve" unicode="&#x102;" horiz-adv-x="557" 
d="M469 0l-41 203h-315l-98 -203h-24l333 681h27l142 -681h-24zM123 224h301l-89 438zM279 793.5q-27 22.5 -31 54.5l17 2q5 -26 27 -42t56 -16q35 0 61 16t39 43l17 -5q-12 -32 -43.5 -53.5t-73.5 -21.5t-69 22.5z" />
    <glyph glyph-name="abreve" unicode="&#x103;" horiz-adv-x="548" 
d="M406 518.5q34 -10.5 67 -30.5l-54 -376q-4 -32 -4 -44q0 -23 8 -38t28 -23l-7 -17q-25 10 -37 28.5t-12 49.5q0 7 2 29q-31 -50 -75 -78.5t-94 -28.5q-75 0 -117.5 53.5t-42.5 146.5q0 78 26.5 156t85 130.5t148.5 52.5q44 0 78 -10.5zM192.5 460q-53.5 -50 -78 -123.5
t-24.5 -145.5q0 -85 36 -132.5t102 -47.5q102 0 172 124l49 342q-53 33 -121 33q-82 0 -135.5 -50zM286.5 686.5q-26.5 24.5 -28.5 62.5l17 2q4 -33 25 -50t56 -17q36 0 62.5 18t40.5 51l16 -6q-13 -38 -45 -61.5t-74 -23.5q-43 0 -69.5 24.5z" />
    <glyph glyph-name="Aogonek" unicode="&#x104;" horiz-adv-x="557" 
d="M413 -181q24 0 55 7l-5 -22q-28 -7 -53 -7q-41 0 -62.5 18.5t-21.5 49.5q0 48 35.5 80t106.5 61l-40 197h-315l-98 -203h-24l333 681h27l142 -681q-72 -29 -107.5 -57.5t-35.5 -68.5q0 -55 63 -55zM123 224h301l-89 438z" />
    <glyph glyph-name="aogonek" unicode="&#x105;" horiz-adv-x="548" 
d="M415 68q0 -23 8 -38t28 -23l-7 -17q-72 -29 -107.5 -57.5t-35.5 -68.5q0 -55 63 -55q24 0 55 7l-5 -22q-28 -7 -53 -7q-41 0 -62.5 18.5t-21.5 49.5q0 50 37.5 82t112.5 62q-32 20 -32 69q0 18 2 29q-31 -50 -75 -78.5t-94 -28.5q-75 0 -117.5 53.5t-42.5 146.5
q0 78 26.5 156t85 130.5t148.5 52.5q44 0 78 -10.5t67 -30.5l-54 -376q-4 -32 -4 -44zM400 135l49 342q-53 33 -121 33q-82 0 -135.5 -50t-78 -123.5t-24.5 -145.5q0 -85 36 -132.5t102 -47.5q102 0 172 124z" />
    <glyph glyph-name="Cacute" unicode="&#x106;" horiz-adv-x="538" 
d="M490.5 676.5q35.5 -14.5 65.5 -43.5l-14 -16q-31 28 -61.5 40.5t-76.5 12.5q-104 0 -171 -64.5t-97 -159t-30 -188.5q0 -119 54 -182.5t146 -63.5q53 0 90.5 15.5t74.5 43.5l13 -18q-81 -63 -179 -63q-101 0 -161.5 69.5t-60.5 197.5q0 100 32.5 199.5t104.5 167
t183 67.5q52 0 87.5 -14.5zM497 861l9 -25l-189 -72l-6 15z" />
    <glyph glyph-name="cacute" unicode="&#x107;" horiz-adv-x="464" 
d="M449 479l-14 -14q-46 44 -116 44q-76 0 -127.5 -47.5t-75.5 -119.5t-24 -145q0 -91 41.5 -138.5t113.5 -47.5t135 48l12 -16q-68 -53 -148 -53q-81 0 -129 54t-48 153q0 78 27 154.5t83.5 127t140.5 50.5q79 0 129 -50zM434 761l9 -23l-190 -84l-7 15z" />
    <glyph glyph-name="Ccircumflex" unicode="&#x108;" horiz-adv-x="538" 
d="M490.5 676.5q35.5 -14.5 65.5 -43.5l-14 -16q-31 28 -61.5 40.5t-76.5 12.5q-104 0 -171 -64.5t-97 -159t-30 -188.5q0 -119 54 -182.5t146 -63.5q53 0 90.5 15.5t74.5 43.5l13 -18q-81 -63 -179 -63q-101 0 -161.5 69.5t-60.5 197.5q0 100 32.5 199.5t104.5 167
t183 67.5q52 0 87.5 -14.5zM294 766l-10 14l132 89h12l107 -90l-12 -13l-102 79z" />
    <glyph glyph-name="ccircumflex" unicode="&#x109;" horiz-adv-x="464" 
d="M449 479l-14 -14q-46 44 -116 44q-76 0 -127.5 -47.5t-75.5 -119.5t-24 -145q0 -91 41.5 -138.5t113.5 -47.5t135 48l12 -16q-68 -53 -148 -53q-81 0 -129 54t-48 153q0 78 27 154.5t83.5 127t140.5 50.5q79 0 129 -50zM223 654l-11 13l134 95h12l106 -95l-12 -13
l-103 84z" />
    <glyph glyph-name="Cdotaccent" unicode="&#x10a;" horiz-adv-x="538" 
d="M490.5 676.5q35.5 -14.5 65.5 -43.5l-14 -16q-31 28 -61.5 40.5t-76.5 12.5q-104 0 -171 -64.5t-97 -159t-30 -188.5q0 -119 54 -182.5t146 -63.5q53 0 90.5 15.5t74.5 43.5l13 -18q-81 -63 -179 -63q-101 0 -161.5 69.5t-60.5 197.5q0 100 32.5 199.5t104.5 167
t183 67.5q52 0 87.5 -14.5zM408 815.5q-5 4.5 -5 12.5q0 9 6 15.5t15 6.5t14 -5t5 -13t-6 -14.5t-16 -6.5q-8 0 -13 4.5z" />
    <glyph glyph-name="cdotaccent" unicode="&#x10b;" horiz-adv-x="464" 
d="M449 479l-14 -14q-46 44 -116 44q-76 0 -127.5 -47.5t-75.5 -119.5t-24 -145q0 -91 41.5 -138.5t113.5 -47.5t135 48l12 -16q-68 -53 -148 -53q-81 0 -129 54t-48 153q0 78 27 154.5t83.5 127t140.5 50.5q79 0 129 -50zM331 689.5q-5 4.5 -5 12.5q0 9 6 15.5t15 6.5
t14 -5t5 -13t-6 -14.5t-16 -6.5q-8 0 -13 4.5z" />
    <glyph glyph-name="Ccaron" unicode="&#x10c;" horiz-adv-x="538" 
d="M490.5 676.5q35.5 -14.5 65.5 -43.5l-14 -16q-31 28 -61.5 40.5t-76.5 12.5q-104 0 -171 -64.5t-97 -159t-30 -188.5q0 -119 54 -182.5t146 -63.5q53 0 90.5 15.5t74.5 43.5l13 -18q-81 -63 -179 -63q-101 0 -161.5 69.5t-60.5 197.5q0 100 32.5 199.5t104.5 167
t183 67.5q52 0 87.5 -14.5zM540 863l10 -13l-132 -90h-12l-107 90l12 12l104 -78z" />
    <glyph glyph-name="ccaron" unicode="&#x10d;" horiz-adv-x="464" 
d="M449 479l-14 -14q-46 44 -116 44q-76 0 -127.5 -47.5t-75.5 -119.5t-24 -145q0 -91 41.5 -138.5t113.5 -47.5t135 48l12 -16q-68 -53 -148 -53q-81 0 -129 54t-48 153q0 78 27 154.5t83.5 127t140.5 50.5q79 0 129 -50zM465 749l11 -13l-134 -95h-12l-106 95l12 13
l103 -84z" />
    <glyph glyph-name="Dcaron" unicode="&#x10e;" horiz-adv-x="619" 
d="M489 627q71 -54 71 -196q0 -112 -34.5 -209.5t-112.5 -159.5t-200 -62h-127l96 681h121q115 0 186 -54zM202 660l-90 -639h104q114 0 186 59.5t103.5 152.5t31.5 199q0 133 -65.5 180.5t-172.5 47.5h-97zM493 863l10 -13l-132 -90h-12l-107 90l12 12l104 -78z" />
    <glyph glyph-name="dcaron" unicode="&#x10f;" horiz-adv-x="569" 
d="M518 733l-104 -733h-18l15 130q-36 -63 -81 -101.5t-108 -38.5q-71 0 -112.5 53t-41.5 147q0 76 24.5 154t79.5 131.5t139 53.5q55 0 90 -24t54 -60l41 291zM185.5 459q-49.5 -50 -72.5 -123.5t-23 -144.5q0 -86 35.5 -133t97.5 -47q61 0 105.5 41t88.5 119l34 245
q-42 93 -140 93q-76 0 -125.5 -50zM614 737l23 -2l-46 -145l-16 3z" />
    <glyph glyph-name="Dcroat" unicode="&#x110;" horiz-adv-x="621" 
d="M490 627q71 -54 71 -196q0 -112 -34.5 -209.5t-112.5 -159.5t-200 -62h-127l48 343h-87l3 20h87l45 318h121q115 0 186 -54zM403 80.5q72 59.5 103.5 152.5t31.5 199q0 133 -65.5 180.5t-172.5 47.5h-97l-42 -297h196l-3 -20h-196l-45 -322h104q114 0 186 59.5z" />
    <glyph glyph-name="dcroat" unicode="&#x111;" horiz-adv-x="573" 
d="M578 629h-75l-89 -629h-18l15 130q-36 -63 -81 -101.5t-108 -38.5q-71 0 -112.5 53t-41.5 147q0 76 24.5 154t79.5 131.5t139 53.5q55 0 90 -24t54 -60l26 184h-171v20h174l12 87l22 -3l-12 -84h74zM451 416q-42 93 -140 93q-76 0 -125.5 -50t-72.5 -123.5t-23 -144.5
q0 -86 35.5 -133t97.5 -47q61 0 105.5 41t88.5 119z" />
    <glyph glyph-name="Emacron" unicode="&#x112;" horiz-adv-x="494" 
d="M503 681l-6 -21h-295l-41 -290h255l-3 -21h-255l-46 -328h306l-4 -21h-328l96 681h321zM468 811h-207l3 21h207z" />
    <glyph glyph-name="emacron" unicode="&#x113;" horiz-adv-x="509" 
d="M374 274q-97 -49 -284 -60v-18q0 -92 41 -138.5t113 -46.5q45 0 79.5 13.5t75.5 42.5l12 -16q-41 -31 -80.5 -46t-86.5 -15q-83 0 -129.5 53t-46.5 152q0 76 28 153t87 129t145 52q65 0 104 -32t39 -86q0 -88 -97 -137zM205 468q-51 -41 -78.5 -103.5t-34.5 -130.5
q356 21 356 176q0 46 -31.5 72.5t-88.5 26.5q-72 0 -123 -41zM436 685h-207l3 21h207z" />
    <glyph glyph-name="Ebreve" unicode="&#x114;" horiz-adv-x="494" 
d="M503 681l-6 -21h-295l-41 -290h255l-3 -21h-255l-46 -328h306l-4 -21h-328l96 681h321zM287 793.5q-27 22.5 -31 54.5l17 2q5 -26 27 -42t56 -16q35 0 61 16t39 43l17 -5q-12 -32 -43.5 -53.5t-73.5 -21.5t-69 22.5z" />
    <glyph glyph-name="ebreve" unicode="&#x115;" horiz-adv-x="509" 
d="M374 274q-97 -49 -284 -60v-18q0 -92 41 -138.5t113 -46.5q45 0 79.5 13.5t75.5 42.5l12 -16q-41 -31 -80.5 -46t-86.5 -15q-83 0 -129.5 53t-46.5 152q0 76 28 153t87 129t145 52q65 0 104 -32t39 -86q0 -88 -97 -137zM205 468q-51 -41 -78.5 -103.5t-34.5 -130.5
q356 21 356 176q0 46 -31.5 72.5t-88.5 26.5q-72 0 -123 -41zM259.5 686.5q-26.5 24.5 -28.5 62.5l17 2q4 -33 25 -50t56 -17q36 0 62.5 18t40.5 51l16 -6q-13 -38 -45 -61.5t-74 -23.5q-43 0 -69.5 24.5z" />
    <glyph glyph-name="Edotaccent" unicode="&#x116;" horiz-adv-x="494" 
d="M503 681l-6 -21h-295l-41 -290h255l-3 -21h-255l-46 -328h306l-4 -21h-328l96 681h321zM353 815.5q-5 4.5 -5 12.5q0 9 6 15.5t15 6.5t14 -5t5 -13t-6 -14.5t-16 -6.5q-8 0 -13 4.5z" />
    <glyph glyph-name="edotaccent" unicode="&#x117;" horiz-adv-x="509" 
d="M374 274q-97 -49 -284 -60v-18q0 -92 41 -138.5t113 -46.5q45 0 79.5 13.5t75.5 42.5l12 -16q-41 -31 -80.5 -46t-86.5 -15q-83 0 -129.5 53t-46.5 152q0 76 28 153t87 129t145 52q65 0 104 -32t39 -86q0 -88 -97 -137zM205 468q-51 -41 -78.5 -103.5t-34.5 -130.5
q356 21 356 176q0 46 -31.5 72.5t-88.5 26.5q-72 0 -123 -41zM322 689.5q-5 4.5 -5 12.5q0 9 6 15.5t15 6.5t14 -5t5 -13t-6 -14.5t-16 -6.5q-8 0 -13 4.5z" />
    <glyph glyph-name="Eogonek" unicode="&#x118;" horiz-adv-x="494" 
d="M202 660l-41 -290h255l-3 -21h-255l-46 -328h306l-4 -21h-25q-72 -29 -107.5 -57.5t-35.5 -68.5q0 -55 63 -55q24 0 55 7l-5 -22q-28 -7 -53 -7q-41 0 -62.5 18.5t-21.5 49.5q0 46 32.5 77t95.5 58h-264l96 681h321l-6 -21h-295z" />
    <glyph glyph-name="eogonek" unicode="&#x119;" horiz-adv-x="509" 
d="M374 274q-97 -49 -284 -60v-18q0 -92 41 -138.5t113 -46.5q45 0 79.5 13.5t75.5 42.5l12 -16q-39 -30 -83 -47q-59 -26 -90 -53t-31 -66q0 -28 19 -44t53 -16q24 0 53 7l-2 -22q-29 -7 -54 -7q-46 0 -69.5 22.5t-23.5 59.5q0 33 21.5 59t63.5 47q-8 -1 -24 -1
q-83 0 -129.5 53t-46.5 152q0 76 28 153t87 129t145 52q65 0 104 -32t39 -86q0 -88 -97 -137zM205 468q-51 -41 -78.5 -103.5t-34.5 -130.5q356 21 356 176q0 46 -31.5 72.5t-88.5 26.5q-72 0 -123 -41z" />
    <glyph glyph-name="Ecaron" unicode="&#x11a;" horiz-adv-x="494" 
d="M503 681l-6 -21h-295l-41 -290h255l-3 -21h-255l-46 -328h306l-4 -21h-328l96 681h321zM485 863l10 -13l-132 -90h-12l-107 90l12 12l104 -78z" />
    <glyph glyph-name="ecaron" unicode="&#x11b;" horiz-adv-x="509" 
d="M374 274q-97 -49 -284 -60v-18q0 -92 41 -138.5t113 -46.5q45 0 79.5 13.5t75.5 42.5l12 -16q-41 -31 -80.5 -46t-86.5 -15q-83 0 -129.5 53t-46.5 152q0 76 28 153t87 129t145 52q65 0 104 -32t39 -86q0 -88 -97 -137zM205 468q-51 -41 -78.5 -103.5t-34.5 -130.5
q356 21 356 176q0 46 -31.5 72.5t-88.5 26.5q-72 0 -123 -41zM456 749l11 -13l-134 -95h-12l-106 95l12 13l103 -84z" />
    <glyph glyph-name="Gcircumflex" unicode="&#x11c;" horiz-adv-x="605" 
d="M493.5 676.5q38.5 -14.5 74.5 -44.5l-14 -15q-33 27 -68 40t-81 13q-97 0 -164 -61t-100.5 -156t-33.5 -196q0 -121 55 -183t154 -62q48 0 87 10.5t77 30.5l40 280h-145v21h171l-44 -314q-93 -50 -186 -50q-109 0 -171 69t-62 200q0 106 37 205.5t110 163t175 63.5
q50 0 88.5 -14.5zM297 766l-10 14l132 89h12l107 -90l-12 -13l-102 79z" />
    <glyph glyph-name="gcircumflex" unicode="&#x11d;" horiz-adv-x="555" 
d="M406.5 518.5q33.5 -10.5 67.5 -30.5l-71 -493q-28 -192 -193 -192q-84 0 -164 47l9 16q38 -21 74 -32.5t81 -11.5q67 0 112.5 40.5t58.5 130.5l17 115q-31 -51 -75 -79.5t-94 -28.5q-75 0 -117.5 55t-42.5 148q0 74 26.5 149.5t85 126t147.5 50.5q45 0 78.5 -10.5z
M193 461.5q-54 -48.5 -78 -120t-23 -140.5q0 -83 36 -131.5t101 -48.5q103 0 174 123l48 333q-53 33 -122 33q-82 0 -136 -48.5zM220 654l-11 13l134 95h12l106 -95l-12 -13l-103 84z" />
    <glyph glyph-name="Gbreve" unicode="&#x11e;" horiz-adv-x="605" 
d="M493.5 676.5q38.5 -14.5 74.5 -44.5l-14 -15q-33 27 -68 40t-81 13q-97 0 -164 -61t-100.5 -156t-33.5 -196q0 -121 55 -183t154 -62q48 0 87 10.5t77 30.5l40 280h-145v21h171l-44 -314q-93 -50 -186 -50q-109 0 -171 69t-62 200q0 106 37 205.5t110 163t175 63.5
q50 0 88.5 -14.5zM345 793.5q-27 22.5 -31 54.5l17 2q5 -26 27 -42t56 -16q35 0 61 16t39 43l17 -5q-12 -32 -43.5 -53.5t-73.5 -21.5t-69 22.5z" />
    <glyph glyph-name="gbreve" unicode="&#x11f;" horiz-adv-x="555" 
d="M406.5 518.5q33.5 -10.5 67.5 -30.5l-71 -493q-28 -192 -193 -192q-84 0 -164 47l9 16q38 -21 74 -32.5t81 -11.5q67 0 112.5 40.5t58.5 130.5l17 115q-31 -51 -75 -79.5t-94 -28.5q-75 0 -117.5 55t-42.5 148q0 74 26.5 149.5t85 126t147.5 50.5q45 0 78.5 -10.5z
M193 461.5q-54 -48.5 -78 -120t-23 -140.5q0 -83 36 -131.5t101 -48.5q103 0 174 123l48 333q-53 33 -122 33q-82 0 -136 -48.5zM265.5 686.5q-26.5 24.5 -28.5 62.5l17 2q4 -33 25 -50t56 -17q36 0 62.5 18t40.5 51l16 -6q-13 -38 -45 -61.5t-74 -23.5q-43 0 -69.5 24.5z
" />
    <glyph glyph-name="Gdotaccent" unicode="&#x120;" horiz-adv-x="605" 
d="M493.5 676.5q38.5 -14.5 74.5 -44.5l-14 -15q-33 27 -68 40t-81 13q-97 0 -164 -61t-100.5 -156t-33.5 -196q0 -121 55 -183t154 -62q48 0 87 10.5t77 30.5l40 280h-145v21h171l-44 -314q-93 -50 -186 -50q-109 0 -171 69t-62 200q0 106 37 205.5t110 163t175 63.5
q50 0 88.5 -14.5zM411 815.5q-5 4.5 -5 12.5q0 9 6 15.5t15 6.5t14 -5t5 -13t-6 -14.5t-16 -6.5q-8 0 -13 4.5z" />
    <glyph glyph-name="gdotaccent" unicode="&#x121;" horiz-adv-x="555" 
d="M406.5 518.5q33.5 -10.5 67.5 -30.5l-71 -493q-28 -192 -193 -192q-84 0 -164 47l9 16q38 -21 74 -32.5t81 -11.5q67 0 112.5 40.5t58.5 130.5l17 115q-31 -51 -75 -79.5t-94 -28.5q-75 0 -117.5 55t-42.5 148q0 74 26.5 149.5t85 126t147.5 50.5q45 0 78.5 -10.5z
M193 461.5q-54 -48.5 -78 -120t-23 -140.5q0 -83 36 -131.5t101 -48.5q103 0 174 123l48 333q-53 33 -122 33q-82 0 -136 -48.5zM328 689.5q-5 4.5 -5 12.5q0 9 6 15.5t15 6.5t14 -5t5 -13t-6 -14.5t-16 -6.5q-8 0 -13 4.5z" />
    <glyph glyph-name="Gcommaaccent" unicode="&#x122;" horiz-adv-x="605" 
d="M493.5 676.5q38.5 -14.5 74.5 -44.5l-14 -15q-33 27 -68 40t-81 13q-97 0 -164 -61t-100.5 -156t-33.5 -196q0 -121 55 -183t154 -62q48 0 87 10.5t77 30.5l40 280h-145v21h171l-44 -314q-93 -50 -186 -50q-109 0 -171 69t-62 200q0 106 37 205.5t110 163t175 63.5
q50 0 88.5 -14.5zM309 -102q6 -6 6 -15t-3.5 -17.5t-15.5 -29.5l-48 -94h-16l48 116q-14 6 -14 21q0 11 7.5 18t19.5 7q10 0 16 -6z" />
    <glyph glyph-name="gcommaaccent" unicode="&#x123;" horiz-adv-x="555" 
d="M406.5 518.5q33.5 -10.5 67.5 -30.5l-71 -493q-28 -192 -193 -192q-84 0 -164 47l9 16q38 -21 74 -32.5t81 -11.5q67 0 112.5 40.5t58.5 130.5l17 115q-31 -51 -75 -79.5t-94 -28.5q-75 0 -117.5 55t-42.5 148q0 74 26.5 149.5t85 126t147.5 50.5q45 0 78.5 -10.5z
M193 461.5q-54 -48.5 -78 -120t-23 -140.5q0 -83 36 -131.5t101 -48.5q103 0 174 123l48 333q-53 33 -122 33q-82 0 -136 -48.5zM307 601q-6 6 -6 15t3.5 17.5t15.5 29.5l48 94h16l-48 -116q14 -6 14 -21q0 -11 -7.5 -18t-19.5 -7q-10 0 -16 6z" />
    <glyph glyph-name="Hcircumflex" unicode="&#x124;" horiz-adv-x="660" 
d="M109 0h-23l96 681h23l-44 -309h369l43 309h23l-96 -681h-23l50 351h-369zM280 766l-10 14l132 89h12l107 -90l-12 -13l-102 79z" />
    <glyph glyph-name="hcircumflex" unicode="&#x125;" horiz-adv-x="581" 
d="M457.5 498q29.5 -31 29.5 -90q0 -18 -3 -39l-52 -369h-22l52 367q3 21 3 39q0 104 -99 104q-62 0 -115.5 -49.5t-102.5 -145.5l-45 -315h-22l104 733l22 3l-53 -377q42 84 97.5 127t117.5 43q59 0 88.5 -31zM244 817l-10 14l132 89h12l107 -90l-12 -13l-102 79z" />
    <glyph glyph-name="Hbar" unicode="&#x126;" horiz-adv-x="657" 
d="M634 538l-3 -18h-56l-73 -520h-23l50 351h-369l-49 -351h-23l73 520h-59l3 18h59l20 143h23l-20 -143h368l20 143h23l-20 -143h56zM532 372l21 148h-369l-21 -148h369z" />
    <glyph glyph-name="hbar" unicode="&#x127;" horiz-adv-x="585" 
d="M461.5 498q29.5 -31 29.5 -90q0 -18 -3 -39l-52 -369h-22l52 367q3 21 3 39q0 104 -99 104q-62 0 -115.5 -49.5t-102.5 -145.5l-45 -315h-22l89 629h-75l3 20h75l12 84l22 3l-12 -87h185l-7 -20h-181l-38 -270q42 84 97.5 127t117.5 43q59 0 88.5 -31z" />
    <glyph glyph-name="Itilde" unicode="&#x128;" horiz-adv-x="268" 
d="M205 681l-96 -681h-23l96 681h23zM243 809.5q-13 5.5 -34 17.5q-16 10 -27 15t-23 5q-19 0 -31.5 -7.5t-33.5 -28.5l-13 10q20 23 39 34.5t39 11.5q14 0 26 -5t30 -16t30.5 -16.5t26.5 -5.5q16 0 31 9.5t33 31.5l14 -9q-20 -28 -38.5 -40t-39.5 -12q-16 0 -29 5.5z" />
    <glyph glyph-name="itilde" unicode="&#x129;" horiz-adv-x="258" 
d="M177 519l-74 -519h-22l74 519h22zM220 683.5q-13 5.5 -34 17.5q-16 10 -27 15t-23 5q-19 0 -31.5 -7.5t-33.5 -28.5l-13 10q20 23 39 34.5t39 11.5q14 0 26 -5t30 -16t30.5 -16.5t26.5 -5.5q16 0 31 9.5t33 31.5l14 -9q-20 -28 -38.5 -40t-39.5 -12q-16 0 -29 5.5z" />
    <glyph glyph-name="Imacron" unicode="&#x12a;" horiz-adv-x="268" 
d="M205 681l-96 -681h-23l96 681h23zM316 811h-207l3 21h207z" />
    <glyph glyph-name="imacron" unicode="&#x12b;" horiz-adv-x="258" 
d="M177 519l-74 -519h-22l74 519h22zM292 685h-207l3 21h207z" />
    <glyph glyph-name="Ibreve" unicode="&#x12c;" horiz-adv-x="268" 
d="M205 681l-96 -681h-23l96 681h23zM135 793.5q-27 22.5 -31 54.5l17 2q5 -26 27 -42t56 -16q35 0 61 16t39 43l17 -5q-12 -32 -43.5 -53.5t-73.5 -21.5t-69 22.5z" />
    <glyph glyph-name="ibreve" unicode="&#x12d;" horiz-adv-x="258" 
d="M177 519l-74 -519h-22l74 519h22zM115.5 686.5q-26.5 24.5 -28.5 62.5l17 2q4 -33 25 -50t56 -17q36 0 62.5 18t40.5 51l16 -6q-13 -38 -45 -61.5t-74 -23.5q-43 0 -69.5 24.5z" />
    <glyph glyph-name="Iogonek" unicode="&#x12e;" horiz-adv-x="268" 
d="M1.5 -57.5q-35.5 -28.5 -35.5 -68.5q0 -55 63 -55q24 0 55 7l-5 -22q-28 -7 -53 -7q-41 0 -62.5 18.5t-21.5 49.5q0 49 36 81t109 61l95 674h23l-96 -681q-72 -29 -107.5 -57.5z" />
    <glyph glyph-name="iogonek" unicode="&#x12f;" horiz-adv-x="258" 
d="M208 719q5 -5 5 -13t-6 -14.5t-16 -6.5q-8 0 -13 4.5t-5 12.5q0 9 6 15.5t15 6.5t14 -5zM155 519h22l-74 -519q-72 -29 -107.5 -57.5t-35.5 -68.5q0 -55 63 -55q24 0 55 7l-5 -22q-28 -7 -53 -7q-41 0 -62.5 18.5t-21.5 49.5q0 49 36.5 81t109.5 61z" />
    <glyph glyph-name="Idotaccent" unicode="&#x130;" horiz-adv-x="268" 
d="M205 681l-96 -681h-23l96 681h23zM201 815.5q-5 4.5 -5 12.5q0 9 6 15.5t15 6.5t14 -5t5 -13t-6 -14.5t-16 -6.5q-8 0 -13 4.5z" />
    <glyph glyph-name="dotlessi" unicode="&#x131;" horiz-adv-x="258" 
d="M177 519l-74 -519h-22l74 519h22z" />
    <glyph glyph-name="IJ" unicode="&#x132;" horiz-adv-x="546" 
d="M205 681l-96 -681h-23l96 681h23zM405 87q-8 -53 -22.5 -84.5t-45.5 -55t-89 -47.5l-6 17q50 22 78 44t41.5 51.5t20.5 77.5l83 591h23z" />
    <glyph glyph-name="ij" unicode="&#x133;" horiz-adv-x="516" 
d="M177 519l-74 -519h-22l74 519h22zM178 689.5q-5 4.5 -5 12.5q0 9 6 15.5t15 6.5t14 -5t5 -13t-6 -14.5t-16 -6.5q-8 0 -13 4.5zM217 -178q40 20 63.5 40t38 54t22.5 91l72 512h22l-72 -514q-9 -63 -25.5 -99t-42.5 -57.5t-72 -43.5zM436 689.5q-5 4.5 -5 12.5q0 9 6 15.5
t15 6.5t14 -5t5 -13t-6 -14.5t-16 -6.5q-8 0 -13 4.5z" />
    <glyph glyph-name="Jcircumflex" unicode="&#x134;" horiz-adv-x="278" 
d="M137 87q-8 -53 -22.5 -84.5t-45.5 -55t-89 -47.5l-6 17q50 22 78 44t41.5 51.5t20.5 77.5l83 591h23zM100 766l-10 14l132 89h12l107 -90l-12 -13l-102 79z" />
    <glyph glyph-name="jcircumflex" unicode="&#x135;" horiz-adv-x="258" 
d="M-41 -178q40 20 63.5 40t38 54t22.5 91l72 512h22l-72 -514q-9 -63 -25.5 -99t-42.5 -57.5t-72 -43.5zM70 654l-11 13l134 95h12l106 -95l-12 -13l-103 84z" />
    <glyph glyph-name="Kcommaaccent" unicode="&#x136;" horiz-adv-x="510" 
d="M86 0l96 681h23l-96 -681h-23zM442 0l-278 367l356 314h29l-357 -316l277 -365h-27zM268 -102q6 -6 6 -15t-3.5 -17.5t-15.5 -29.5l-48 -94h-16l48 116q-14 6 -14 21q0 11 7.5 18t19.5 7q10 0 16 -6z" />
    <glyph glyph-name="kcommaaccent" unicode="&#x137;" horiz-adv-x="505" 
d="M152 347q45 92 100 137t115 45q51 0 80.5 -28t29.5 -77q0 -125 -182 -184l121 -240h-24l-125 250q188 54 188 174q0 40 -22 63t-67 23q-122 0 -221 -212l-42 -298h-22l104 733l22 3zM241 -102q6 -6 6 -15t-3.5 -17.5t-15.5 -29.5l-48 -94h-16l48 116q-14 6 -14 21
q0 11 7.5 18t19.5 7q10 0 16 -6z" />
    <glyph glyph-name="kgreenlandic" unicode="&#x138;" horiz-adv-x="462" 
d="M177 519l-74 -519h-22l74 519h22zM456 519l-280 -247l232 -272h-27l-233 274l280 245h28z" />
    <glyph glyph-name="Lacute" unicode="&#x139;" horiz-adv-x="452" 
d="M205 681l-93 -659h289l-8 -22h-307l96 681h23zM290 861l9 -25l-189 -72l-6 15z" />
    <glyph glyph-name="lacute" unicode="&#x13a;" horiz-adv-x="276" 
d="M109 73q-1 -6 -1 -18q0 -44 43 -44q17 0 41 8l6 -19q-28 -10 -48 -10q-31 0 -48 16.5t-17 48.5q0 6 2 20l93 658l22 3zM287 913l9 -25l-189 -72l-6 15z" />
    <glyph glyph-name="Lcommaaccent" unicode="&#x13b;" horiz-adv-x="452" 
d="M205 681l-93 -659h289l-8 -22h-307l96 681h23zM249 -102q6 -6 6 -15t-3.5 -17.5t-15.5 -29.5l-48 -94h-16l48 116q-14 6 -14 21q0 11 7.5 18t19.5 7q10 0 16 -6z" />
    <glyph glyph-name="lcommaaccent" unicode="&#x13c;" horiz-adv-x="276" 
d="M109 73q-1 -6 -1 -18q0 -44 43 -44q17 0 41 8l6 -19q-28 -10 -48 -10q-31 0 -48 16.5t-17 48.5q0 6 2 20l93 658l22 3zM147 -102q6 -6 6 -15t-3.5 -17.5t-15.5 -29.5l-48 -94h-16l48 116q-14 6 -14 21q0 11 7.5 18t19.5 7q10 0 16 -6z" />
    <glyph glyph-name="Lcaron" unicode="&#x13d;" horiz-adv-x="452" 
d="M205 681l-93 -659h289l-8 -22h-307l96 681h23zM311 686l23 -2l-46 -145l-16 3z" />
    <glyph glyph-name="lcaron" unicode="&#x13e;" horiz-adv-x="276" 
d="M109 73q-1 -6 -1 -18q0 -44 43 -44q17 0 41 8l6 -19q-28 -10 -48 -10q-31 0 -48 16.5t-17 48.5q0 6 2 20l93 658l22 3zM298 737l23 -2l-46 -145l-16 3z" />
    <glyph glyph-name="Ldot" unicode="&#x13f;" horiz-adv-x="452" 
d="M205 681l-93 -659h289l-8 -22h-307l96 681h23zM349 339.5q-5 4.5 -5 12.5q0 9 6 15.5t15 6.5t14 -5t5 -13t-6 -14.5t-16 -6.5q-8 0 -13 4.5z" />
    <glyph glyph-name="ldot" unicode="&#x140;" horiz-adv-x="278" 
d="M109 73q-1 -6 -1 -18q0 -44 43 -44q17 0 41 8l6 -19q-28 -10 -48 -10q-31 0 -48 16.5t-17 48.5q0 6 2 20l93 658l22 3zM261 360.5q-5 4.5 -5 12.5q0 9 6 15.5t15 6.5t14 -5t5 -13t-6 -14.5t-16 -6.5q-8 0 -13 4.5z" />
    <glyph glyph-name="Lslash" unicode="&#x141;" horiz-adv-x="464" 
d="M123 22h289l-8 -22h-307l43 308l-78 -46l-10 18l92 53l49 348h23l-47 -334l215 124l10 -18l-229 -130z" />
    <glyph glyph-name="lslash" unicode="&#x142;" horiz-adv-x="281" 
d="M192 19l6 -19q-28 -10 -48 -10q-31 0 -48 16.5t-17 48.5q0 6 2 20l39 278l-65 -37l-9 16l78 44l50 357l22 3l-49 -346l119 68l8 -17l-130 -74l-41 -294q-1 -6 -1 -18q0 -44 43 -44q17 0 41 8z" />
    <glyph glyph-name="Nacute" unicode="&#x143;" horiz-adv-x="661" 
d="M502 0h-28l-277 658q-2 -41 -22 -182l-67 -476h-22l96 681h29l276 -656q7 78 22 180l66 476h22zM492 861l9 -25l-189 -72l-6 15z" />
    <glyph glyph-name="nacute" unicode="&#x144;" horiz-adv-x="581" 
d="M457 497.5q30 -31.5 30 -90.5q0 -18 -3 -38l-52 -369h-22l52 367q3 21 3 38q0 105 -97 105q-62 0 -116.5 -50t-103.5 -145l-45 -315h-22l74 519h18l-20 -161q44 85 99 128t117 43q58 0 88 -31.5zM444 761l9 -23l-190 -84l-7 15z" />
    <glyph glyph-name="Ncommaaccent" unicode="&#x145;" horiz-adv-x="661" 
d="M502 0h-28l-277 658q-2 -41 -22 -182l-67 -476h-22l96 681h29l276 -656q7 78 22 180l66 476h22zM301 -102q6 -6 6 -15t-3.5 -17.5t-15.5 -29.5l-48 -94h-16l48 116q-14 6 -14 21q0 11 7.5 18t19.5 7q10 0 16 -6z" />
    <glyph glyph-name="ncommaaccent" unicode="&#x146;" horiz-adv-x="581" 
d="M457 497.5q30 -31.5 30 -90.5q0 -18 -3 -38l-52 -369h-22l52 367q3 21 3 38q0 105 -97 105q-62 0 -116.5 -50t-103.5 -145l-45 -315h-22l74 519h18l-20 -161q44 85 99 128t117 43q58 0 88 -31.5zM261 -102q6 -6 6 -15t-3.5 -17.5t-15.5 -29.5l-48 -94h-16l48 116
q-14 6 -14 21q0 11 7.5 18t19.5 7q10 0 16 -6z" />
    <glyph glyph-name="Ncaron" unicode="&#x147;" horiz-adv-x="661" 
d="M502 0h-28l-277 658q-2 -41 -22 -182l-67 -476h-22l96 681h29l276 -656q7 78 22 180l66 476h22zM535 863l10 -13l-132 -90h-12l-107 90l12 12l104 -78z" />
    <glyph glyph-name="ncaron" unicode="&#x148;" horiz-adv-x="581" 
d="M457 497.5q30 -31.5 30 -90.5q0 -18 -3 -38l-52 -369h-22l52 367q3 21 3 38q0 105 -97 105q-62 0 -116.5 -50t-103.5 -145l-45 -315h-22l74 519h18l-20 -161q44 85 99 128t117 43q58 0 88 -31.5zM475 749l11 -13l-134 -95h-12l-106 95l12 13l103 -84z" />
    <glyph glyph-name="napostrophe" unicode="&#x149;" horiz-adv-x="643" 
d="M177 730.5q6 -6.5 6 -15.5q0 -10 -3 -18.5t-14 -28.5l-47 -98h-15l46 120q-16 6 -16 22q0 10 7 17.5t19 7.5q11 0 17 -6.5zM519 497.5q30 -31.5 30 -90.5q0 -18 -3 -38l-52 -369h-22l52 367q3 21 3 38q0 105 -97 105q-62 0 -116.5 -50t-103.5 -145l-45 -315h-22l74 519
h18l-20 -161q44 85 99 128t117 43q58 0 88 -31.5z" />
    <glyph glyph-name="Eng" unicode="&#x14a;" horiz-adv-x="661" 
d="M597 681l-95 -681l-12 -87q-8 -54 -38.5 -82t-74.5 -28q-28 0 -47.5 8.5t-37.5 22.5l13 15q15 -12 31.5 -18.5t40.5 -6.5q34 0 58.5 22t31.5 70l12 84h-5l-277 658q-2 -41 -22 -182l-67 -476h-22l96 681h29l276 -656q7 78 22 180l66 476h22z" />
    <glyph glyph-name="eng" unicode="&#x14b;" horiz-adv-x="581" 
d="M457 497.5q30 -31.5 30 -90.5q0 -18 -3 -38l-52 -369l-12 -87q-8 -54 -38.5 -82t-74.5 -28q-48 0 -85 31l13 14q15 -12 31.5 -18.5t40.5 -6.5q35 0 59.5 22t31.5 70l12 85l52 367q3 21 3 38q0 105 -97 105q-62 0 -116.5 -50t-103.5 -145l-45 -315h-22l74 519h18l-20 -161
q44 85 99 128t117 43q58 0 88 -31.5z" />
    <glyph glyph-name="Omacron" unicode="&#x14c;" horiz-adv-x="689" 
d="M570 623q60 -68 60 -196q0 -99 -31.5 -199t-104 -169t-186.5 -69q-105 0 -165 69.5t-60 197.5q0 96 32.5 196t105 169t183.5 69q106 0 166 -68zM233 604.5q-67 -66.5 -97 -162t-30 -186.5q0 -118 53.5 -181t148.5 -63q108 0 175 66.5t95 161.5t28 187q0 119 -53 181.5
t-149 62.5q-104 0 -171 -66.5zM525 811h-207l3 21h207z" />
    <glyph glyph-name="omacron" unicode="&#x14d;" horiz-adv-x="561" 
d="M115 44q-46 54 -46 152q0 75 25 151.5t81 129t143 52.5q83 0 129 -52t46 -150q0 -74 -24.5 -151.5t-80.5 -131.5t-144 -54q-83 0 -129 54zM375 61q51 50 73.5 122.5t22.5 143.5q0 88 -39.5 135t-113.5 47q-80 0 -131 -50.5t-73.5 -122.5t-22.5 -141q0 -88 40 -136
t113 -48q80 0 131 50zM444 685h-207l3 21h207z" />
    <glyph glyph-name="Obreve" unicode="&#x14e;" horiz-adv-x="689" 
d="M570 623q60 -68 60 -196q0 -99 -31.5 -199t-104 -169t-186.5 -69q-105 0 -165 69.5t-60 197.5q0 96 32.5 196t105 169t183.5 69q106 0 166 -68zM233 604.5q-67 -66.5 -97 -162t-30 -186.5q0 -118 53.5 -181t148.5 -63q108 0 175 66.5t95 161.5t28 187q0 119 -53 181.5
t-149 62.5q-104 0 -171 -66.5zM344 793.5q-27 22.5 -31 54.5l17 2q5 -26 27 -42t56 -16q35 0 61 16t39 43l17 -5q-12 -32 -43.5 -53.5t-73.5 -21.5t-69 22.5z" />
    <glyph glyph-name="obreve" unicode="&#x14f;" horiz-adv-x="561" 
d="M115 44q-46 54 -46 152q0 75 25 151.5t81 129t143 52.5q83 0 129 -52t46 -150q0 -74 -24.5 -151.5t-80.5 -131.5t-144 -54q-83 0 -129 54zM375 61q51 50 73.5 122.5t22.5 143.5q0 88 -39.5 135t-113.5 47q-80 0 -131 -50.5t-73.5 -122.5t-22.5 -141q0 -88 40 -136
t113 -48q80 0 131 50zM267.5 686.5q-26.5 24.5 -28.5 62.5l17 2q4 -33 25 -50t56 -17q36 0 62.5 18t40.5 51l16 -6q-13 -38 -45 -61.5t-74 -23.5q-43 0 -69.5 24.5z" />
    <glyph glyph-name="Ohungarumlaut" unicode="&#x150;" horiz-adv-x="689" 
d="M570 623q60 -68 60 -196q0 -99 -31.5 -199t-104 -169t-186.5 -69q-105 0 -165 69.5t-60 197.5q0 96 32.5 196t105 169t183.5 69q106 0 166 -68zM233 604.5q-67 -66.5 -97 -162t-30 -186.5q0 -118 53.5 -181t148.5 -63q108 0 175 66.5t95 161.5t28 187q0 119 -53 181.5
t-149 62.5q-104 0 -171 -66.5zM545 917l21 -11l-95 -128l-16 9zM435 916l21 -12l-88 -122l-15 8z" />
    <glyph glyph-name="ohungarumlaut" unicode="&#x151;" horiz-adv-x="561" 
d="M115 44q-46 54 -46 152q0 75 25 151.5t81 129t143 52.5q83 0 129 -52t46 -150q0 -74 -24.5 -151.5t-80.5 -131.5t-144 -54q-83 0 -129 54zM375 61q51 50 73.5 122.5t22.5 143.5q0 88 -39.5 135t-113.5 47q-80 0 -131 -50.5t-73.5 -122.5t-22.5 -141q0 -88 40 -136
t113 -48q80 0 131 50zM464 791l21 -11l-95 -128l-16 9zM354 790l21 -12l-88 -122l-15 8z" />
    <glyph glyph-name="OE" unicode="&#x152;" horiz-adv-x="844" 
d="M848 660h-346q51 -29 77.5 -87t26.5 -141q0 -29 -3 -62h163l-2 -21h-164q-14 -107 -60 -197.5t-127 -130.5h355l-3 -21h-403q-35 -10 -67 -10q-98 0 -155.5 69.5t-57.5 195.5q0 94 32.5 195t102 171t173.5 70q40 0 69 -10h394zM532.5 609q-51.5 62 -142.5 62
q-98 0 -162 -67t-93.5 -164t-29.5 -187q0 -116 51 -178.5t139 -62.5q103 0 168 69t93 166t28 186q0 114 -51.5 176z" />
    <glyph glyph-name="oe" unicode="&#x153;" horiz-adv-x="903" 
d="M768 274q-97 -49 -284 -60v-18q0 -92 41 -138.5t112 -46.5q45 0 80 13.5t76 42.5l11 -16q-41 -31 -80.5 -46t-86.5 -15q-75 0 -119 45t-55 131q-29 -78 -83.5 -127t-135.5 -49q-83 0 -129 54t-46 152q0 75 25 151.5t81 129t143 52.5q157 0 173 -179q30 80 85.5 129.5
t139.5 49.5q68 0 108.5 -32t40.5 -86q0 -88 -97 -137zM375 61q51 50 73.5 122.5t22.5 143.5q0 88 -39.5 135t-113.5 47q-80 0 -131 -50.5t-73.5 -122.5t-22.5 -141q0 -88 40 -136t113 -48q80 0 131 50zM595 468q-50 -41 -76.5 -103.5t-32.5 -130.5q179 10 267.5 55t88.5 121
q0 46 -33 72.5t-93 26.5q-71 0 -121 -41z" />
    <glyph glyph-name="Racute" unicode="&#x154;" horiz-adv-x="572" 
d="M486 397q-47 -58 -141 -71l146 -326h-25l-145 324h-166l-46 -324h-23l96 681h154q197 0 197 -150q0 -76 -47 -134zM302 345q72 0 118.5 27t67.5 69t21 90q0 64 -41.5 96.5t-134.5 32.5h-131l-44 -315h144zM442 861l9 -25l-189 -72l-6 15z" />
    <glyph glyph-name="racute" unicode="&#x155;" horiz-adv-x="362" 
d="M381 522l-6 -19q-20 6 -42 6q-60 0 -102.5 -44.5t-81.5 -140.5l-46 -324h-22l74 519h19l-21 -148q32 80 75 119t105 39q22 0 48 -7zM381 761l9 -23l-190 -84l-7 15z" />
    <glyph glyph-name="Rcommaaccent" unicode="&#x156;" horiz-adv-x="572" 
d="M486 397q-47 -58 -141 -71l146 -326h-25l-145 324h-166l-46 -324h-23l96 681h154q197 0 197 -150q0 -76 -47 -134zM302 345q72 0 118.5 27t67.5 69t21 90q0 64 -41.5 96.5t-134.5 32.5h-131l-44 -315h144zM276 -102q6 -6 6 -15t-3.5 -17.5t-15.5 -29.5l-48 -94h-16
l48 116q-14 6 -14 21q0 11 7.5 18t19.5 7q10 0 16 -6z" />
    <glyph glyph-name="rcommaaccent" unicode="&#x157;" horiz-adv-x="362" 
d="M381 522l-6 -19q-20 6 -42 6q-60 0 -102.5 -44.5t-81.5 -140.5l-46 -324h-22l74 519h19l-21 -148q32 80 75 119t105 39q22 0 48 -7zM95 -102q6 -6 6 -15t-3.5 -17.5t-15.5 -29.5l-48 -94h-16l48 116q-14 6 -14 21q0 11 7.5 18t19.5 7q10 0 16 -6z" />
    <glyph glyph-name="Rcaron" unicode="&#x158;" horiz-adv-x="572" 
d="M486 397q-47 -58 -141 -71l146 -326h-25l-145 324h-166l-46 -324h-23l96 681h154q197 0 197 -150q0 -76 -47 -134zM302 345q72 0 118.5 27t67.5 69t21 90q0 64 -41.5 96.5t-134.5 32.5h-131l-44 -315h144zM485 863l10 -13l-132 -90h-12l-107 90l12 12l104 -78z" />
    <glyph glyph-name="rcaron" unicode="&#x159;" horiz-adv-x="362" 
d="M381 522l-6 -19q-20 6 -42 6q-60 0 -102.5 -44.5t-81.5 -140.5l-46 -324h-22l74 519h19l-21 -148q32 80 75 119t105 39q22 0 48 -7zM412 749l11 -13l-134 -95h-12l-106 95l12 13l103 -84z" />
    <glyph glyph-name="Sacute" unicode="&#x15a;" horiz-adv-x="536" 
d="M420.5 673q40.5 -18 74.5 -52l-14 -15q-33 34 -70 49.5t-87 15.5q-58 0 -99.5 -20.5t-63 -55t-21.5 -74.5q0 -55 33.5 -85.5t116.5 -56.5q88 -29 128 -69.5t40 -109.5q0 -49 -25 -97.5t-78.5 -80.5t-132.5 -32q-64 0 -110 21t-84 62l15 14q35 -37 77 -56t101 -19
q75 0 123 29.5t69.5 72.5t21.5 86q0 61 -36 96.5t-118 62.5q-91 30 -127.5 65.5t-36.5 96.5q0 44 23.5 83t70.5 63t113 24q56 0 96.5 -18zM423 861l9 -25l-189 -72l-6 15z" />
    <glyph glyph-name="sacute" unicode="&#x15b;" horiz-adv-x="460" 
d="M340 516q36 -13 67 -40l-15 -14q-30 24 -61 35.5t-73 11.5q-64 0 -104.5 -30t-40.5 -81q0 -39 26.5 -64.5t98.5 -47.5q78 -25 110.5 -57.5t32.5 -85.5q0 -66 -48.5 -109.5t-138.5 -43.5q-58 0 -98.5 17.5t-74.5 48.5l13 14q35 -29 71 -44t87 -15q73 0 119.5 33.5
t46.5 97.5q0 46 -27.5 74t-101.5 51q-78 25 -108.5 55.5t-30.5 75.5q0 58 48 94.5t120 36.5q46 0 82 -13zM382 761l9 -23l-190 -84l-7 15z" />
    <glyph glyph-name="Scircumflex" unicode="&#x15c;" horiz-adv-x="536" 
d="M420.5 673q40.5 -18 74.5 -52l-14 -15q-33 34 -70 49.5t-87 15.5q-58 0 -99.5 -20.5t-63 -55t-21.5 -74.5q0 -55 33.5 -85.5t116.5 -56.5q88 -29 128 -69.5t40 -109.5q0 -49 -25 -97.5t-78.5 -80.5t-132.5 -32q-64 0 -110 21t-84 62l15 14q35 -37 77 -56t101 -19
q75 0 123 29.5t69.5 72.5t21.5 86q0 61 -36 96.5t-118 62.5q-91 30 -127.5 65.5t-36.5 96.5q0 44 23.5 83t70.5 63t113 24q56 0 96.5 -18zM220 766l-10 14l132 89h12l107 -90l-12 -13l-102 79z" />
    <glyph glyph-name="scircumflex" unicode="&#x15d;" horiz-adv-x="460" 
d="M340 516q36 -13 67 -40l-15 -14q-30 24 -61 35.5t-73 11.5q-64 0 -104.5 -30t-40.5 -81q0 -39 26.5 -64.5t98.5 -47.5q78 -25 110.5 -57.5t32.5 -85.5q0 -66 -48.5 -109.5t-138.5 -43.5q-58 0 -98.5 17.5t-74.5 48.5l13 14q35 -29 71 -44t87 -15q73 0 119.5 33.5
t46.5 97.5q0 46 -27.5 74t-101.5 51q-78 25 -108.5 55.5t-30.5 75.5q0 58 48 94.5t120 36.5q46 0 82 -13zM171 654l-11 13l134 95h12l106 -95l-12 -13l-103 84z" />
    <glyph glyph-name="Scedilla" unicode="&#x15e;" horiz-adv-x="536" 
d="M420.5 673q40.5 -18 74.5 -52l-14 -15q-33 34 -70 49.5t-87 15.5q-58 0 -99.5 -20.5t-63 -55t-21.5 -74.5q0 -55 33.5 -85.5t116.5 -56.5q88 -29 128 -69.5t40 -109.5q0 -49 -24.5 -96.5t-75.5 -79.5t-128 -34l-12 -64q43 -3 63.5 -18.5t20.5 -45.5q0 -34 -26 -54
t-67 -20q-40 0 -67 18l10 16q23 -14 57 -14q32 0 51 14t19 40q0 25 -19 35.5t-64 11.5l16 81q-60 1 -103.5 22.5t-80.5 60.5l15 14q35 -37 77 -56t101 -19q75 0 123 29.5t69.5 72.5t21.5 86q0 61 -36 96.5t-118 62.5q-91 30 -127.5 65.5t-36.5 96.5q0 44 23.5 83t70.5 63
t113 24q56 0 96.5 -18z" />
    <glyph glyph-name="scedilla" unicode="&#x15f;" horiz-adv-x="460" 
d="M153.5 479q-40.5 -30 -40.5 -81q0 -39 26.5 -64.5t98.5 -47.5q78 -25 110.5 -57.5t32.5 -85.5q0 -66 -47.5 -109t-137.5 -44l-12 -64q43 -3 63.5 -18.5t20.5 -45.5q0 -34 -26 -54t-67 -20q-40 0 -67 18l10 16q23 -14 57 -14q32 0 51 14t19 40q0 25 -19 35.5t-64 11.5
l16 81q-51 3 -88.5 20t-68.5 46l13 14q35 -29 71 -44t87 -15q73 0 119.5 33.5t46.5 97.5q0 46 -27.5 74t-101.5 51q-78 25 -108.5 55.5t-30.5 75.5q0 58 48 94.5t120 36.5q46 0 82 -13t67 -40l-15 -14q-30 24 -61 35.5t-73 11.5q-64 0 -104.5 -30z" />
    <glyph glyph-name="Scaron" unicode="&#x160;" horiz-adv-x="536" 
d="M420.5 673q40.5 -18 74.5 -52l-14 -15q-33 34 -70 49.5t-87 15.5q-58 0 -99.5 -20.5t-63 -55t-21.5 -74.5q0 -55 33.5 -85.5t116.5 -56.5q88 -29 128 -69.5t40 -109.5q0 -49 -25 -97.5t-78.5 -80.5t-132.5 -32q-64 0 -110 21t-84 62l15 14q35 -37 77 -56t101 -19
q75 0 123 29.5t69.5 72.5t21.5 86q0 61 -36 96.5t-118 62.5q-91 30 -127.5 65.5t-36.5 96.5q0 44 23.5 83t70.5 63t113 24q56 0 96.5 -18zM466 863l10 -13l-132 -90h-12l-107 90l12 12l104 -78z" />
    <glyph glyph-name="scaron" unicode="&#x161;" horiz-adv-x="460" 
d="M340 516q36 -13 67 -40l-15 -14q-30 24 -61 35.5t-73 11.5q-64 0 -104.5 -30t-40.5 -81q0 -39 26.5 -64.5t98.5 -47.5q78 -25 110.5 -57.5t32.5 -85.5q0 -66 -48.5 -109.5t-138.5 -43.5q-58 0 -98.5 17.5t-74.5 48.5l13 14q35 -29 71 -44t87 -15q73 0 119.5 33.5
t46.5 97.5q0 46 -27.5 74t-101.5 51q-78 25 -108.5 55.5t-30.5 75.5q0 58 48 94.5t120 36.5q46 0 82 -13zM413 749l11 -13l-134 -95h-12l-106 95l12 13l103 -84z" />
    <glyph glyph-name="uni0162" unicode="&#x162;" horiz-adv-x="476" 
d="M522 681l-7 -22h-210l-93 -659l-13 -74q42 -2 62.5 -16.5t20.5 -44.5q0 -33 -27.5 -55t-66.5 -22q-38 0 -67 18l11 17q22 -15 56 -15q31 0 50.5 16t19.5 41q0 23 -18.5 33.5t-62.5 11.5l18 90h-5l93 659h-210l2 22h447z" />
    <glyph glyph-name="uni0163" unicode="&#x163;" horiz-adv-x="324" 
d="M114 118q-2 -20 -2 -29q0 -79 77 -79q45 0 95 27l8 -17q-48 -27 -96 -30l-12 -64q43 -3 63.5 -18.5t20.5 -45.5q0 -34 -26 -54t-67 -20q-40 0 -67 18l10 16q23 -14 57 -14q32 0 51 14t19 40q0 25 -19 35.5t-64 11.5l16 81q-41 3 -64.5 28.5t-23.5 71.5q0 7 2 27l53 382
h-85l2 20h86l24 131l17 2l-19 -133h144l-6 -20h-140z" />
    <glyph glyph-name="Tcaron" unicode="&#x164;" horiz-adv-x="476" 
d="M522 681l-7 -22h-210l-93 -659h-22l93 659h-210l2 22h447zM436 863l10 -13l-132 -90h-12l-107 90l12 12l104 -78z" />
    <glyph glyph-name="tcaron" unicode="&#x165;" horiz-adv-x="324" 
d="M114 118q-2 -20 -2 -29q0 -79 77 -79q45 0 95 27l8 -17q-53 -30 -105 -30q-46 0 -71.5 25.5t-25.5 73.5q0 8 2 28l53 382h-85l2 20h86l24 131l17 2l-19 -133h144l-6 -20h-140zM306 739l23 -2l-46 -145l-16 3z" />
    <glyph glyph-name="Tbar" unicode="&#x166;" horiz-adv-x="476" 
d="M515 659h-210l-39 -279h122l-2 -20h-123l-51 -360h-22l51 360h-123l3 20h123l39 279h-210l2 22h447z" />
    <glyph glyph-name="tbar" unicode="&#x167;" horiz-adv-x="324" 
d="M168 499l-23 -158h139l-6 -19h-135l-29 -204q-2 -20 -2 -29q0 -79 77 -79q45 0 95 27l8 -17q-53 -30 -105 -30q-46 0 -71.5 25.5t-25.5 73.5q0 8 2 28l29 205h-83l3 19h82l22 158h-85l2 20h86l24 131l17 2l-19 -133h144l-6 -20h-140z" />
    <glyph glyph-name="Utilde" unicode="&#x168;" horiz-adv-x="641" 
d="M521 207q-14 -100 -73 -158.5t-163 -58.5q-93 0 -138 45.5t-45 124.5q0 14 4 48l66 473h23l-66 -472q-3 -24 -3 -46q0 -72 38.5 -111.5t120.5 -39.5q95 0 148 53.5t65 144.5l66 471h23zM429 809.5q-13 5.5 -34 17.5q-16 10 -27 15t-23 5q-19 0 -31.5 -7.5t-33.5 -28.5
l-13 10q20 23 39 34.5t39 11.5q14 0 26 -5t30 -16t30.5 -16.5t26.5 -5.5q16 0 31 9.5t33 31.5l14 -9q-20 -28 -38.5 -40t-39.5 -12q-16 0 -29 5.5z" />
    <glyph glyph-name="utilde" unicode="&#x169;" horiz-adv-x="576" 
d="M126.5 22.5q-31.5 32.5 -31.5 92.5q0 17 3 35l51 369h22l-51 -369q-3 -19 -3 -36q0 -51 26.5 -77t73.5 -26q64 0 118 51.5t94 141.5l44 315h22l-73 -519h-17l21 164q-35 -80 -90 -127t-121 -47q-57 0 -88.5 32.5zM376 683.5q-13 5.5 -34 17.5q-16 10 -27 15t-23 5
q-19 0 -31.5 -7.5t-33.5 -28.5l-13 10q20 23 39 34.5t39 11.5q14 0 26 -5t30 -16t30.5 -16.5t26.5 -5.5q16 0 31 9.5t33 31.5l14 -9q-20 -28 -38.5 -40t-39.5 -12q-16 0 -29 5.5z" />
    <glyph glyph-name="Umacron" unicode="&#x16a;" horiz-adv-x="641" 
d="M521 207q-14 -100 -73 -158.5t-163 -58.5q-93 0 -138 45.5t-45 124.5q0 14 4 48l66 473h23l-66 -472q-3 -24 -3 -46q0 -72 38.5 -111.5t120.5 -39.5q95 0 148 53.5t65 144.5l66 471h23zM502 811h-207l3 21h207z" />
    <glyph glyph-name="umacron" unicode="&#x16b;" horiz-adv-x="576" 
d="M126.5 22.5q-31.5 32.5 -31.5 92.5q0 17 3 35l51 369h22l-51 -369q-3 -19 -3 -36q0 -51 26.5 -77t73.5 -26q64 0 118 51.5t94 141.5l44 315h22l-73 -519h-17l21 164q-35 -80 -90 -127t-121 -47q-57 0 -88.5 32.5zM448 685h-207l3 21h207z" />
    <glyph glyph-name="Ubreve" unicode="&#x16c;" horiz-adv-x="641" 
d="M521 207q-14 -100 -73 -158.5t-163 -58.5q-93 0 -138 45.5t-45 124.5q0 14 4 48l66 473h23l-66 -472q-3 -24 -3 -46q0 -72 38.5 -111.5t120.5 -39.5q95 0 148 53.5t65 144.5l66 471h23zM321 793.5q-27 22.5 -31 54.5l17 2q5 -26 27 -42t56 -16q35 0 61 16t39 43l17 -5
q-12 -32 -43.5 -53.5t-73.5 -21.5t-69 22.5z" />
    <glyph glyph-name="ubreve" unicode="&#x16d;" horiz-adv-x="576" 
d="M126.5 22.5q-31.5 32.5 -31.5 92.5q0 17 3 35l51 369h22l-51 -369q-3 -19 -3 -36q0 -51 26.5 -77t73.5 -26q64 0 118 51.5t94 141.5l44 315h22l-73 -519h-17l21 164q-35 -80 -90 -127t-121 -47q-57 0 -88.5 32.5zM271.5 686.5q-26.5 24.5 -28.5 62.5l17 2q4 -33 25 -50
t56 -17q36 0 62.5 18t40.5 51l16 -6q-13 -38 -45 -61.5t-74 -23.5q-43 0 -69.5 24.5z" />
    <glyph glyph-name="Uring" unicode="&#x16e;" horiz-adv-x="641" 
d="M521 207q-14 -100 -73 -158.5t-163 -58.5q-93 0 -138 45.5t-45 124.5q0 14 4 48l66 473h23l-66 -472q-3 -24 -3 -46q0 -72 38.5 -111.5t120.5 -39.5q95 0 148 53.5t65 144.5l66 471h23zM466 909q19 -18 19 -48q0 -40 -25.5 -65.5t-63.5 -25.5q-33 0 -52 19t-19 49
q0 39 25.5 64t64.5 25q32 0 51 -18zM364.5 888.5q-18.5 -20.5 -18.5 -51.5q0 -23 13 -36t37 -13q32 0 50 21t18 50q0 24 -13 37t-37 13q-31 0 -49.5 -20.5z" />
    <glyph glyph-name="uring" unicode="&#x16f;" horiz-adv-x="576" 
d="M126.5 22.5q-31.5 32.5 -31.5 92.5q0 17 3 35l51 369h22l-51 -369q-3 -19 -3 -36q0 -51 26.5 -77t73.5 -26q64 0 118 51.5t94 141.5l44 315h22l-73 -519h-17l21 164q-35 -80 -90 -127t-121 -47q-57 0 -88.5 32.5zM412 783q19 -18 19 -48q0 -40 -25.5 -65.5t-63.5 -25.5
q-33 0 -52 19t-19 49q0 39 25.5 64t64.5 25q32 0 51 -18zM310.5 762.5q-18.5 -20.5 -18.5 -51.5q0 -23 13 -36t37 -13q32 0 50 21t18 50q0 24 -13 37t-37 13q-31 0 -49.5 -20.5z" />
    <glyph glyph-name="Uhungarumlaut" unicode="&#x170;" horiz-adv-x="641" 
d="M521 207q-14 -100 -73 -158.5t-163 -58.5q-93 0 -138 45.5t-45 124.5q0 14 4 48l66 473h23l-66 -472q-3 -24 -3 -46q0 -72 38.5 -111.5t120.5 -39.5q95 0 148 53.5t65 144.5l66 471h23zM522 917l21 -11l-95 -128l-16 9zM412 916l21 -12l-88 -122l-15 8z" />
    <glyph glyph-name="uhungarumlaut" unicode="&#x171;" horiz-adv-x="576" 
d="M126.5 22.5q-31.5 32.5 -31.5 92.5q0 17 3 35l51 369h22l-51 -369q-3 -19 -3 -36q0 -51 26.5 -77t73.5 -26q64 0 118 51.5t94 141.5l44 315h22l-73 -519h-17l21 164q-35 -80 -90 -127t-121 -47q-57 0 -88.5 32.5zM468 791l21 -11l-95 -128l-16 9zM358 790l21 -12
l-88 -122l-15 8z" />
    <glyph glyph-name="Uogonek" unicode="&#x172;" horiz-adv-x="641" 
d="M587 681l-66 -474q-12 -82 -54 -137t-115 -72q-59 -27 -89 -53.5t-30 -65.5q0 -28 19 -44t53 -16q24 0 53 7l-2 -22q-29 -7 -54 -7q-46 0 -69.5 22.5t-23.5 59.5q0 35 24.5 62t71.5 50q-6 -1 -20 -1q-93 0 -138 45.5t-45 124.5q0 14 4 48l66 473h23l-66 -472
q-3 -24 -3 -46q0 -72 38.5 -111.5t120.5 -39.5q95 0 148 53.5t65 144.5l66 471h23z" />
    <glyph glyph-name="uogonek" unicode="&#x173;" horiz-adv-x="576" 
d="M314.5 -57.5q-35.5 -28.5 -35.5 -68.5q0 -55 63 -55q24 0 55 7l-5 -22q-28 -7 -53 -7q-41 0 -62.5 18.5t-21.5 49.5q0 50 37.5 82.5t113.5 62.5l20 154q-35 -80 -90 -127t-121 -47q-57 0 -88.5 32.5t-31.5 92.5q0 17 3 35l51 369h22l-51 -369q-3 -19 -3 -36
q0 -51 26.5 -77t73.5 -26q64 0 118 51.5t94 141.5l44 315h22l-73 -519q-72 -29 -107.5 -57.5z" />
    <glyph glyph-name="Wcircumflex" unicode="&#x174;" horiz-adv-x="790" 
d="M811 681l-255 -681h-26l-79 659l-264 -659h-27l-63 681h23l58 -655l262 655h28l78 -657l242 657h23zM347 766l-10 14l132 89h12l107 -90l-12 -13l-102 79z" />
    <glyph glyph-name="wcircumflex" unicode="&#x175;" horiz-adv-x="680" 
d="M684 519l-210 -519h-28l-71 497l-210 -497h-30l-65 519h22l61 -498l211 498h28l71 -498l198 498h23zM282 654l-11 13l134 95h12l106 -95l-12 -13l-103 84z" />
    <glyph glyph-name="Ycircumflex" unicode="&#x176;" horiz-adv-x="494" 
d="M532 681l-271 -410l-38 -271h-23l38 270l-158 411h25l146 -388l254 388h27zM196 766l-10 14l132 89h12l107 -90l-12 -13l-102 79z" />
    <glyph glyph-name="ycircumflex" unicode="&#x177;" horiz-adv-x="444" 
d="M205 -2q-30 -61 -55.5 -96t-61 -58t-92.5 -39l-2 19q53 15 84.5 35.5t53 51t51.5 89.5h-10l-113 519h23l108 -503l242 503h25zM157 654l-11 13l134 95h12l106 -95l-12 -13l-103 84z" />
    <glyph glyph-name="Ydieresis" unicode="&#x178;" horiz-adv-x="494" 
d="M532 681l-271 -410l-38 -271h-23l38 270l-158 411h25l146 -388l254 388h27zM225 803.5q-5 4.5 -5 12.5q0 9 6 15.5t15 6.5t14 -5t5 -13t-6.5 -14.5t-15.5 -6.5q-8 0 -13 4.5zM390 803.5q-5 4.5 -5 12.5q0 9 6 15.5t16 6.5q8 0 13 -5t5 -13q0 -9 -6 -15t-16 -6
q-8 0 -13 4.5z" />
    <glyph glyph-name="Zacute" unicode="&#x179;" horiz-adv-x="509" 
d="M5 0l3 21l479 639h-352l3 21h380l-2 -19l-480 -640h376l-6 -22h-401zM410 861l9 -25l-189 -72l-6 15z" />
    <glyph glyph-name="zacute" unicode="&#x17a;" horiz-adv-x="410" 
d="M410 519l-3 -18l-380 -480h305l-5 -21h-332l3 18l381 481h-287l3 20h315zM367 761l9 -23l-190 -84l-7 15z" />
    <glyph glyph-name="Zdotaccent" unicode="&#x17b;" horiz-adv-x="509" 
d="M5 0l3 21l479 639h-352l3 21h380l-2 -19l-480 -640h376l-6 -22h-401zM321 815.5q-5 4.5 -5 12.5q0 9 6 15.5t15 6.5t14 -5t5 -13t-6 -14.5t-16 -6.5q-8 0 -13 4.5z" />
    <glyph glyph-name="zdotaccent" unicode="&#x17c;" horiz-adv-x="410" 
d="M410 519l-3 -18l-380 -480h305l-5 -21h-332l3 18l381 481h-287l3 20h315zM264 689.5q-5 4.5 -5 12.5q0 9 6 15.5t15 6.5t14 -5t5 -13t-6 -14.5t-16 -6.5q-8 0 -13 4.5z" />
    <glyph glyph-name="Zcaron" unicode="&#x17d;" horiz-adv-x="509" 
d="M5 0l3 21l479 639h-352l3 21h380l-2 -19l-480 -640h376l-6 -22h-401zM453 863l10 -13l-132 -90h-12l-107 90l12 12l104 -78z" />
    <glyph glyph-name="zcaron" unicode="&#x17e;" horiz-adv-x="410" 
d="M410 519l-3 -18l-380 -480h305l-5 -21h-332l3 18l381 481h-287l3 20h315zM398 749l11 -13l-134 -95h-12l-106 95l12 13l103 -84z" />
    <glyph glyph-name="longs" unicode="&#x17f;" horiz-adv-x="307" 
d="M424 701l-10 -16q-28 17 -51.5 24.5t-51.5 7.5q-49 0 -80.5 -25.5t-38.5 -77.5l-85 -614h-22l70 499h-90l2 20h90l14 98q8 58 46 89t95 31t112 -36z" />
    <glyph glyph-name="uni0180" unicode="&#x180;" horiz-adv-x="568" 
d="M461.5 480.5q39.5 -48.5 39.5 -141.5q0 -78 -25 -158t-82 -135.5t-146 -55.5q-43 0 -78.5 7.5t-81.5 26.5l85 605h-74l3 20h74l12 84l22 3l-12 -87h186l-7 -20h-182l-26 -193q79 93 179 93q74 0 113.5 -48.5zM382 64q52 53 74.5 128.5t22.5 146.5q0 83 -33.5 126.5
t-97.5 43.5q-55 0 -97.5 -25.5t-86.5 -75.5l-51 -369q33 -14 63.5 -21t70.5 -7q83 0 135 53z" />
    <glyph glyph-name="uni0181" unicode="&#x181;" horiz-adv-x="630" 
d="M520 318.5q40 -36.5 40 -103.5q0 -55 -24 -103.5t-81 -80t-149 -31.5h-177l93 661h-32q-50 0 -75 -25.5t-25 -66.5q0 -19 4 -32t12 -30l-19 -9q-10 19 -14.5 34t-4.5 37q0 50 32.5 81t92.5 31h179q95 0 146.5 -36.5t51.5 -108.5q0 -71 -43 -118.5t-113 -56.5
q66 -6 106 -42.5zM204 370h166q54 0 94 22t62 59.5t22 83.5q0 63 -45 94t-129 31h-129zM484 77.5q53 56.5 53 138.5q0 65 -44 99.5t-119 34.5h-173l-46 -329h154q122 0 175 56.5z" />
    <glyph glyph-name="uni0182" unicode="&#x182;" horiz-adv-x="562" 
d="M445 363.5q52 -41.5 52 -121.5q0 -60 -24.5 -115t-81.5 -91t-148 -36h-157l96 681h316l-7 -21h-289l-36 -255h130q97 0 149 -41.5zM381 54.5q50 33.5 71.5 83.5t21.5 103q0 72 -45.5 107.5t-131.5 35.5h-134l-51 -363h137q82 0 132 33.5z" />
    <glyph glyph-name="uni0183" unicode="&#x183;" horiz-adv-x="565" 
d="M460 480.5q39 -48.5 39 -141.5q0 -78 -25.5 -158t-82.5 -135.5t-146 -55.5q-43 0 -78 7.5t-81 26.5l99 708h266l-7 -21h-240l-38 -275q79 93 179 93q76 0 115 -48.5zM379.5 64q52.5 53 75 128.5t22.5 147.5q0 83 -33.5 126t-98.5 43q-55 0 -97 -25.5t-86 -75.5l-51 -369
q32 -14 62.5 -21t70.5 -7q83 0 135.5 53z" />
    <glyph glyph-name="uni0184" unicode="&#x184;" horiz-adv-x="551" 
d="M445.5 366q51.5 -42 51.5 -126q0 -60 -25.5 -114.5t-82.5 -90t-148 -35.5h-155l83 587l-29 22q31 27 46 72h19l-38 -273h129q98 0 149.5 -42zM381.5 55.5q50.5 34.5 71.5 84t21 99.5q0 148 -178 148h-132l-52 -366h137q82 0 132.5 34.5z" />
    <glyph glyph-name="uni0185" unicode="&#x185;" horiz-adv-x="492" 
d="M395.5 297.5q42.5 -37.5 42.5 -102.5q0 -52 -21 -98t-69 -76.5t-124 -30.5q-65 0 -140 26l60 418l-30 22q27 25 45 63h18l-26 -184h114q88 0 130.5 -37.5zM370 67q45 55 45 129q0 56 -36.5 87.5t-114.5 31.5h-116l-40 -284q60 -20 115 -20q102 1 147 56z" />
    <glyph glyph-name="uni0186" unicode="&#x186;" horiz-adv-x="537" 
d="M420.5 624.5q56.5 -66.5 56.5 -193.5q1 -113 -36 -214.5t-108 -164t-167 -62.5q-56 0 -95 16.5t-75 47.5l14 17q36 -30 69.5 -44.5t85.5 -14.5q90 0 155.5 59.5t99.5 156t34 203.5q0 120 -50 179.5t-136 59.5q-52 0 -90.5 -13t-81.5 -40l-12 17q42 28 85 42.5t101 14.5
q94 0 150.5 -66.5z" />
    <glyph glyph-name="uni0187" unicode="&#x187;" horiz-adv-x="538" 
d="M742 783l-13 -14q-30 25 -72 25q-35 0 -59.5 -22.5t-30.5 -69.5l-11 -69l-12 -14q-32 26 -64 38.5t-77 12.5q-103 0 -170 -64.5t-97 -159t-30 -188.5q0 -119 54 -182.5t146 -63.5q53 0 90.5 15.5t74.5 43.5l13 -18q-81 -63 -179 -63q-102 0 -162 69.5t-60 197.5
q0 100 32.5 199.5t104.5 167t183 67.5q79 0 134 -43l8 56q7 54 37 82t74 28q49 0 86 -31z" />
    <glyph glyph-name="uni0188" unicode="&#x188;" horiz-adv-x="464" 
d="M607 728.5q20 -8.5 38 -22.5l-13 -14q-17 12 -33 18.5t-40 6.5q-35 0 -59.5 -23t-30.5 -70l-20 -145l-11 -12q-25 21 -53.5 31.5t-65.5 10.5q-76 0 -127.5 -47.5t-75.5 -119.5t-24 -145q0 -91 41.5 -138.5t113.5 -47.5t135 48l12 -16q-68 -53 -148 -53q-81 0 -129 54
t-48 153q0 78 27 154.5t83.5 127t140.5 50.5q63 0 109 -33l18 131q8 54 38 82t74 28q28 0 48 -8.5z" />
    <glyph glyph-name="uni0189" unicode="&#x189;" horiz-adv-x="621" 
d="M490 627q71 -54 71 -196q0 -112 -34.5 -209.5t-112.5 -159.5t-200 -62h-127l48 343h-87l3 20h87l45 318h121q115 0 186 -54zM403 80.5q72 59.5 103.5 152.5t31.5 199q0 133 -65.5 180.5t-172.5 47.5h-97l-42 -297h196l-3 -20h-196l-45 -322h104q114 0 186 59.5z" />
    <glyph glyph-name="uni018A" unicode="&#x18a;" horiz-adv-x="663" 
d="M532 627q71 -54 71 -196q0 -112 -34.5 -209.5t-112.5 -159.5t-200 -62h-127l93 661h-32q-50 0 -75 -25.5t-25 -66.5q0 -19 4 -32t12 -30l-19 -9q-10 19 -14.5 34t-4.5 37q0 50 32.5 81t92.5 31h153q115 0 186 -54zM445 80.5q72 59.5 103.5 152.5t31.5 199
q0 133 -65.5 180.5t-172.5 47.5h-97l-90 -639h104q114 0 186 59.5z" />
    <glyph glyph-name="uni018B" unicode="&#x18b;" horiz-adv-x="563" 
d="M403 0h-160q-89 0 -140.5 45t-51.5 136q0 69 32 119.5t91 77.5t137 27h127l35 255h-290l3 21h313zM435 384h-126q-109 0 -172.5 -55t-63.5 -148q0 -83 45.5 -121.5t128.5 -38.5h137z" />
    <glyph glyph-name="uni018C" unicode="&#x18c;" horiz-adv-x="569" 
d="M414 0h-18l15 130q-36 -63 -81 -101.5t-108 -38.5q-71 0 -112.5 53t-41.5 147q0 76 24.5 154t79 131.5t139.5 53.5q55 0 90 -24t54 -60l38 266h-242l3 21h264zM451 416q-44 93 -140 93q-76 0 -126 -50t-72.5 -123t-22.5 -145q0 -85 35.5 -132.5t96.5 -47.5q62 0 106.5 41
t88.5 119z" />
    <glyph glyph-name="uni018D" unicode="&#x18d;" horiz-adv-x="558" 
d="M63 -143l15 14q30 -24 63 -35.5t75 -11.5q70 0 107 28t37 69q0 35 -26 59t-93 50q-90 35 -129 81t-39 122q0 66 23 133.5t77 115t141 47.5q84 0 131 -53t47 -145q0 -104 -49 -180t-164 -116q56 -25 80 -50.5t24 -63.5q0 -31 -19.5 -58t-57 -43.5t-90.5 -16.5
q-88 0 -153 54zM422.5 158.5q47.5 73.5 47.5 172.5q0 83 -41.5 130.5t-115.5 47.5q-80 0 -129 -45.5t-69 -108.5t-20 -122q0 -71 36.5 -112.5t125.5 -76.5q118 41 165.5 114.5z" />
    <glyph glyph-name="uni018E" unicode="&#x18e;" horiz-adv-x="494" 
d="M109 681h320l-95 -681h-328l4 21h305l46 328h-255l3 21h254l41 290h-298z" />
    <glyph glyph-name="uni018F" unicode="&#x18f;" horiz-adv-x="646" 
d="M532.5 630q54.5 -61 54.5 -188q0 -121 -33.5 -223.5t-102.5 -165.5t-170 -63q-99 0 -155 65t-56 186q0 27 4 62t9 57h475q5 48 5 80q0 119 -47.5 174.5t-138.5 55.5q-55 0 -103 -18t-101 -57l-12 17q53 41 104.5 60t112.5 19q100 0 154.5 -61zM458.5 93q73.5 81 96.5 245
h-453q-8 -56 -8 -95q0 -114 49 -172.5t139 -58.5q103 0 176.5 81z" />
    <glyph glyph-name="uni0190" unicode="&#x190;" horiz-adv-x="517" 
d="M428 670.5q43 -20.5 82 -63.5l-16 -13q-33 37 -74 56.5t-96 19.5q-52 0 -93.5 -20.5t-65 -58t-23.5 -85.5q0 -60 41 -93t110 -33h55l-5 -21l-56 1q-97 1 -155 -52t-58 -142q0 -74 45 -114t121 -40q58 0 108 21.5t96 63.5l15 -15q-52 -46 -105 -69t-114 -23q-86 0 -138 47
t-52 129q0 89 52.5 143.5t133.5 61.5q-53 10 -85 43.5t-32 90.5q0 54 26 96.5t73 66t106 23.5q61 0 104 -20.5z" />
    <glyph glyph-name="uni0191" unicode="&#x191;" horiz-adv-x="471" 
d="M202 660l-43 -304h251l-3 -21h-251l-47 -335l-12 -87q-8 -54 -38.5 -82t-74.5 -28q-28 0 -47.5 8.5t-37.5 22.5l13 15q15 -12 31.5 -18.5t40.5 -6.5q34 0 58.5 22t31.5 70l12 84l96 681h316l-6 -21h-290z" />
    <glyph glyph-name="florin" unicode="&#x192;" horiz-adv-x="307" 
d="M230.5 691.5q-31.5 -25.5 -38.5 -77.5l-13 -95h147l-6 -20h-144l-69 -494q-8 -63 -24.5 -99t-42.5 -57.5t-72 -43.5l-7 18q41 20 64 40t38 53.5t23 90.5l69 492h-90l2 20h90l14 98q8 58 46 89t95 31t112 -36l-10 -16q-28 17 -51.5 24.5t-51.5 7.5q-49 0 -80.5 -25.5z" />
    <glyph glyph-name="uni0193" unicode="&#x193;" horiz-adv-x="550" 
d="M754 783l-13 -14q-30 25 -72 25q-35 0 -59.5 -22.5t-30.5 -69.5l-11 -70l-12 -13q-35 26 -70.5 38.5t-80.5 12.5q-97 0 -164 -61t-100.5 -156t-33.5 -196q0 -121 55 -183t154 -62q48 0 87 10.5t77 30.5l40 280h-145v21h171l-44 -314q-93 -50 -186 -50q-109 0 -171 69
t-62 200q0 106 37 205.5t110 163t175 63.5q88 0 144 -44l8 57q7 54 37 82t74 28q49 0 86 -31z" />
    <glyph glyph-name="uni0194" unicode="&#x194;" horiz-adv-x="534" 
d="M251 54q20 -68 27.5 -98t7.5 -58q0 -43 -21.5 -69t-59.5 -26q-30 0 -46 17t-16 46q0 33 18.5 73.5t63.5 117.5l-138 624h23l130 -606l301 606h24zM258 -48.5q-6 26.5 -23 85.5q-37 -65 -53.5 -102.5t-16.5 -68.5q0 -43 40 -43q29 0 44 20.5t15 54.5q0 27 -6 53.5z" />
    <glyph glyph-name="uni0195" unicode="&#x195;" horiz-adv-x="890" 
d="M464.5 26.5q-34.5 36.5 -34.5 97.5q0 22 2 33l30 210q3 21 3 39q0 104 -99 104q-62 0 -115.5 -49.5t-102.5 -145.5l-45 -315h-22l104 733l22 3l-53 -377q42 84 97.5 127t117.5 43q59 0 88.5 -31t29.5 -90q0 -18 -3 -39l-30 -213q-2 -11 -2 -31q0 -54 29.5 -84t85.5 -30
q123 0 171 122.5t48 291.5q0 40 -2 94h22q2 -56 2 -94q0 -181 -53 -308t-191 -127q-65 0 -99.5 36.5z" />
    <glyph glyph-name="uni0196" unicode="&#x196;" horiz-adv-x="314" 
d="M265 19q-41 -29 -92 -29q-39 0 -61.5 22t-22.5 64q0 8 2 26l11 85h1l69 494h23l-70 -494l-12 -86q-1 -8 -1 -22q0 -68 61 -68q45 0 82 25z" />
    <glyph glyph-name="uni0197" unicode="&#x197;" horiz-adv-x="325" 
d="M300 371l-3 -21h-107l-49 -350h-23l49 350h-113l3 21h113l44 310h23l-44 -310h107z" />
    <glyph glyph-name="uni0198" unicode="&#x198;" horiz-adv-x="546" 
d="M164 367l237 254q37 41 62 55.5t56 14.5q45 0 78 -37l-15 -13q-15 15 -28.5 22.5t-34.5 7.5q-25 0 -45.5 -12.5t-59.5 -53.5l-223 -238l278 -367h-28zM86 0l96 681h23l-96 -681h-23z" />
    <glyph glyph-name="uni0199" unicode="&#x199;" horiz-adv-x="505" 
d="M295 240l121 -240h-24l-125 250q188 54 188 174q0 40 -22 63t-67 23q-122 0 -221 -212l-42 -298h-22l73 518l14 100q8 57 46 88t94 31q61 0 112 -31l-10 -17q-48 27 -101 27q-49 0 -80.5 -25.5t-38.5 -76.5l-14 -96l-24 -171q45 92 100 137t115 45q51 0 80.5 -28
t29.5 -77q0 -125 -182 -184z" />
    <glyph glyph-name="uni019A" unicode="&#x19a;" horiz-adv-x="286" 
d="M127 73q-1 -6 -1 -18q0 -44 43 -44q17 0 41 8l6 -19q-28 -10 -48 -10q-31 0 -48 16.5t-17 48.5q0 6 2 20l40 285h-109l3 21h109l50 352l22 3l-50 -355h112l-3 -21h-112z" />
    <glyph glyph-name="uni019B" unicode="&#x19b;" horiz-adv-x="451" 
d="M321 255q19 -96 39 -141.5t58 -110.5l-20 -8q-36 62 -57 109.5t-40 142t-28 247.5l-246 -499l-20 5l257 521l8 -1q-3 46 -8.5 75t-15.5 51l-90 -80l-17 7l98 89q-28 42 -89 57l4 17q69 -17 100 -61l77 71l14 -12l-82 -75q13 -26 20 -61t10 -88q9 -159 28 -255z" />
    <glyph glyph-name="uni019C" unicode="&#x19c;" horiz-adv-x="923" 
d="M859 681l-95 -681h-20l13 110q-39 -55 -89 -87.5t-108 -32.5t-91.5 32.5t-37.5 93.5q-91 -126 -203 -126q-62 0 -95.5 36.5t-33.5 105.5q0 22 3 46l70 503h23l-71 -508q-3 -22 -3 -42q0 -59 27.5 -89.5t79.5 -30.5q59 0 109 35.5t94 98.5q0 15 3 33l70 503h23l-71 -508
q-3 -22 -3 -42q0 -59 27.5 -89.5t79.5 -30.5q111 0 201 133l75 537h23z" />
    <glyph glyph-name="uni019D" unicode="&#x19d;" horiz-adv-x="661" 
d="M597 681l-95 -681h-28l-277 658q-2 -41 -22 -182l-67 -476l-12 -87q-8 -54 -38 -82t-74 -28q-48 0 -85 31l13 14q14 -12 31 -18t41 -6q34 0 58 22t32 70l12 84l96 681h29l276 -656q7 78 22 180l66 476h22z" />
    <glyph glyph-name="uni019E" unicode="&#x19e;" horiz-adv-x="581" 
d="M457 497.5q30 -31.5 30 -90.5q0 -18 -3 -38l-80 -563l-22 -3l80 564q3 21 3 38q0 105 -97 105q-62 0 -116.5 -50t-103.5 -145l-45 -315h-22l74 519h18l-20 -161q44 85 99 128t117 43q58 0 88 -31.5z" />
    <glyph glyph-name="uni019F" unicode="&#x19f;" horiz-adv-x="689" 
d="M570 623q60 -68 60 -196q0 -99 -31.5 -199t-104 -169t-186.5 -69q-105 0 -165 69.5t-60 197.5q0 96 32.5 196t105 169t183.5 69q106 0 166 -68zM208.5 579q-71.5 -92 -93.5 -222h487q4 33 4 70q0 119 -53 181.5t-149 62.5q-124 0 -195.5 -92zM509.5 107.5
q70.5 95.5 90.5 229.5h-488q-6 -42 -6 -81q0 -118 53.5 -181t148.5 -63q131 0 201.5 95.5z" />
    <glyph glyph-name="Ohorn" unicode="&#x1a0;" horiz-adv-x="689" 
d="M642 643q-19 -24 -62 -32q50 -69 50 -184q0 -99 -31.5 -199t-104 -169t-186.5 -69q-105 0 -165 69.5t-60 197.5q0 96 32.5 196t105 169t183.5 69q105 0 164 -65q41 6 57 25.5t16 56.5q0 31 -7 51l18 5q9 -31 9 -56q0 -41 -19 -65zM483 78.5q67 66.5 95 161.5t28 187
q0 119 -53 181.5t-149 62.5q-104 0 -171 -66.5t-97 -162t-30 -186.5q0 -118 53.5 -181t148.5 -63q108 0 175 66.5z" />
    <glyph glyph-name="ohorn" unicode="&#x1a1;" horiz-adv-x="561" 
d="M534 477q-21 -25 -65 -32q24 -46 24 -118q0 -74 -24.5 -151.5t-80.5 -131.5t-144 -54q-83 0 -129 54t-46 152q0 75 25 151.5t81 129t143 52.5q47 0 83 -17.5t59 -51.5q41 7 58 27t17 58q0 28 -7 52l17 5q10 -28 10 -57q0 -43 -21 -68zM375 61q51 50 73.5 122.5
t22.5 143.5q0 88 -39.5 135t-113.5 47q-80 0 -131 -50.5t-73.5 -122.5t-22.5 -141q0 -88 40 -136t113 -48q80 0 131 50z" />
    <glyph glyph-name="uni01A2" unicode="&#x1a2;" horiz-adv-x="882" 
d="M778 664.5q26 -26.5 26 -73.5q0 -9 -2 -27l-107 -756h-22l105 756q3 17 3 31q0 77 -82 77q-37 0 -70 -10.5t-68 -29.5q69 -69 69 -205q0 -99 -31.5 -199t-104 -169t-186.5 -69q-105 0 -165 69.5t-60 197.5q0 96 32.5 196t105 169t183.5 69q88 0 143 -46q39 22 75.5 34
t76.5 12q53 0 79 -26.5zM483 78.5q67 66.5 95 161.5t28 187q0 119 -53 181.5t-149 62.5q-104 0 -171 -66.5t-97 -162t-30 -186.5q0 -118 53.5 -181t148.5 -63q108 0 175 66.5z" />
    <glyph glyph-name="uni01A3" unicode="&#x1a3;" horiz-adv-x="736" 
d="M618.5 502.5q26.5 -26.5 26.5 -73.5q0 -8 -2 -28l-84 -595l-22 -3l84 598q2 20 2 28q0 40 -20.5 60t-64.5 20q-52 0 -102 -21q57 -52 57 -161q0 -74 -24.5 -151.5t-80.5 -131.5t-144 -54q-83 0 -129 54t-46 152q0 75 25 151.5t81 129t143 52.5q58 0 102 -28q61 28 119 28
q53 0 79.5 -26.5zM431.5 462q-39.5 47 -113.5 47q-80 0 -131 -50.5t-73.5 -122.5t-22.5 -141q0 -88 40 -136t113 -48q80 0 131 50t73.5 122.5t22.5 143.5q0 88 -39.5 135z" />
    <glyph glyph-name="uni01A4" unicode="&#x1a4;" horiz-adv-x="602" 
d="M523.5 641.5q54.5 -39.5 54.5 -122.5q0 -102 -63.5 -169.5t-211.5 -67.5h-111l-40 -282h-23l93 661h-32q-50 0 -75 -25.5t-25 -66.5q0 -19 4 -32t12 -30l-19 -9q-10 19 -14.5 34t-4.5 37q0 50 32.5 81t92.5 31h169q107 0 161.5 -39.5zM497.5 364q56.5 61 56.5 155
q0 75 -48 108t-146 33h-115l-50 -357h111q135 0 191.5 61z" />
    <glyph glyph-name="uni01A5" unicode="&#x1a5;" horiz-adv-x="564" 
d="M459 480.5q39 -48.5 39 -141.5q0 -78 -25.5 -158t-82.5 -135.5t-146 -55.5q-38 0 -69.5 6.5t-68.5 20.5l-30 -210l-22 -3l114 814q8 57 46 88t94 31q61 0 112 -31l-10 -17q-48 27 -101 27q-49 0 -80.5 -25.5t-38.5 -76.5l-14 -96l-10 -80q79 91 178 91q76 0 115 -48.5z
M378.5 64q52.5 53 75 128.5t22.5 147.5q0 83 -33.5 126t-98.5 43q-55 0 -97 -25.5t-86 -75.5l-52 -369q33 -14 63.5 -21t70.5 -7q83 0 135.5 53z" />
    <glyph glyph-name="uni01A6" unicode="&#x1a6;" horiz-adv-x="572" 
d="M469 267.5q-45 -57.5 -143 -73.5l147 -327h-25l-145 324h-167l-27 -191h-23l96 681h23l-19 -132h126q104 0 153 -37.5t49 -111.5q0 -75 -45 -132.5zM283 212q73 0 120 28t67.5 71t20.5 90q0 63 -41.5 94.5t-134.5 31.5h-132l-44 -315h144z" />
    <glyph glyph-name="uni01A7" unicode="&#x1a7;" horiz-adv-x="529" 
d="M455 654q41 -37 41 -98q0 -55 -24 -91.5t-69.5 -60.5t-118.5 -46q-109 -33 -157.5 -79t-48.5 -129q0 -65 42 -101.5t112 -36.5q62 0 109.5 19.5t93.5 55.5l13 -16q-48 -40 -100 -60.5t-117 -20.5q-78 0 -127 43.5t-49 116.5q0 90 53.5 142t168.5 87q70 20 111.5 41.5
t63 53.5t21.5 82q0 53 -34.5 83.5t-98.5 30.5q-55 0 -97 -15.5t-90 -48.5l-13 16q49 35 94.5 52t105.5 17q74 0 115 -37z" />
    <glyph glyph-name="uni01A8" unicode="&#x1a8;" horiz-adv-x="460" 
d="M364 497.5q38 -31.5 38 -80.5q0 -51 -33.5 -88t-132.5 -64q-102 -27 -136 -64t-34 -87q0 -49 36.5 -76t92.5 -27q53 0 95 15t83 45l12 -15q-87 -66 -190 -66q-68 0 -110 33.5t-42 90.5q0 56 40 98.5t146 70.5q63 17 96 38.5t44 44t11 51.5q0 41 -31.5 66.5t-81.5 25.5
q-41 0 -76 -12.5t-74 -38.5l-11 16q77 55 161 55q59 0 97 -31.5z" />
    <glyph glyph-name="uni01A9" unicode="&#x1a9;" horiz-adv-x="485" 
d="M491 681l-3 -21h-346l185 -319l-1 -9l-271 -311h343l-3 -21h-379l2 12l285 327l-193 330l2 12h379z" />
    <glyph glyph-name="uni01AA" unicode="&#x1aa;" horiz-adv-x="261" 
d="M248 -168q-41 -29 -92 -29q-39 0 -61.5 22t-22.5 64q0 7 2 25l11 86l75 538q-32 -17 -69 -17t-60 23t-23 62q0 55 33 93t81 38q35 0 55.5 -22t20.5 -59q0 -7 -2 -21l-89 -635l-11 -86q-2 -16 -2 -23q0 -68 62 -68q44 0 82 25zM163 559l11 77q2 14 2 20q0 28 -14 44.5
t-42 16.5q-40 0 -64.5 -32t-24.5 -79q0 -33 16.5 -49t45.5 -16q39 0 70 18z" />
    <glyph glyph-name="uni01AB" unicode="&#x1ab;" horiz-adv-x="324" 
d="M114 118q-2 -20 -2 -29q0 -79 77 -79q44 0 96 25l7 -15l-15 -107q-8 -54 -38.5 -82t-74.5 -28q-47 0 -84 31l12 14q16 -12 32.5 -18.5t39.5 -6.5q35 0 59.5 22t31.5 70l14 93q-41 -18 -82 -18q-46 0 -71.5 25.5t-25.5 73.5q0 8 2 28l53 382h-85l2 20h86l24 131l17 2
l-19 -133h144l-6 -20h-140z" />
    <glyph glyph-name="uni01AC" unicode="&#x1ac;" horiz-adv-x="497" 
d="M536 659h-210l-92 -659h-23l93 659h-114q-50 0 -75 -24.5t-25 -65.5q0 -19 4 -32t12 -30l-19 -9q-10 19 -14.5 34t-4.5 37q0 50 32.5 81t90.5 31h352z" />
    <glyph glyph-name="uni01AD" unicode="&#x1ad;" horiz-adv-x="324" 
d="M171 525l-1 -6h144l-6 -20h-141l-53 -381q-2 -20 -2 -29q0 -79 77 -79q45 0 95 27l8 -17q-53 -30 -105 -30q-46 0 -71.5 25t-25.5 73q0 9 2 29l53 382h-85l2 20h86l1 6l12 86q9 62 43.5 94t86.5 32q51 0 97 -30l-11 -16q-42 26 -86 26q-45 0 -73 -27t-35 -81z" />
    <glyph glyph-name="uni01AE" unicode="&#x1ae;" horiz-adv-x="476" 
d="M305 659l-93 -659h1l-12 -86q-1 -8 -1 -22q0 -68 61 -68q44 0 82 25l10 -17q-41 -29 -92 -29q-39 0 -61.5 22t-22.5 64q0 8 2 26l11 85l93 659h-210l2 22h447l-7 -22h-210z" />
    <glyph glyph-name="Uhorn" unicode="&#x1af;" horiz-adv-x="641" 
d="M645.5 640q-21.5 -24 -68.5 -31l-56 -402q-14 -100 -73 -158.5t-163 -58.5q-93 0 -138 45.5t-45 124.5q0 14 4 48l66 473h23l-66 -472q-3 -24 -3 -46q0 -72 38.5 -111.5t120.5 -39.5q95 0 148 53.5t65 144.5l66 471h23l-8 -55q38 7 53 27t15 55q0 31 -7 51l18 5
q9 -31 9 -56q0 -44 -21.5 -68z" />
    <glyph glyph-name="uhorn" unicode="&#x1b0;" horiz-adv-x="576" 
d="M552.5 476q-21.5 -25 -68.5 -32l-62 -444h-17l21 164q-35 -80 -90 -127t-121 -47q-57 0 -88.5 32.5t-31.5 92.5q0 17 3 35l51 369h22l-51 -369q-3 -19 -3 -36q0 -51 26.5 -77t73.5 -26q64 0 118 51.5t94 141.5l44 315h22l-8 -57q37 6 52 26.5t15 56.5q0 28 -7 52l17 5
q10 -28 10 -57q0 -44 -21.5 -69z" />
    <glyph glyph-name="uni01B1" unicode="&#x1b1;" horiz-adv-x="690" 
d="M143.5 59.5q-60.5 69.5 -60.5 191.5q0 131 53.5 240t150.5 170h-127l3 20h161l-2 -20q-105 -60 -160.5 -171t-55.5 -241q0 -113 54 -175.5t150 -62.5q92 0 158.5 54.5t101 145.5t34.5 197q0 169 -118 253l2 20h161l-3 -21h-128q110 -85 110 -250q0 -115 -38 -210.5
t-110 -152.5t-170 -57q-106 0 -166.5 69.5z" />
    <glyph glyph-name="uni01B2" unicode="&#x1b2;" horiz-adv-x="631" 
d="M560.5 674q17.5 -17 17.5 -51q0 -6 -2 -22l-44 -314q-21 -146 -95 -221.5t-178 -75.5q-75 0 -117.5 40.5t-42.5 112.5q0 18 3 37l70 501h23l-70 -500q-3 -19 -3 -37q0 -64 36 -98t101 -34q96 0 163.5 70.5t86.5 207.5l44 311q2 16 2 22q0 49 -45 49q-24 0 -48 -11l-8 16
q28 14 58 14q31 0 48.5 -17z" />
    <glyph glyph-name="uni01B3" unicode="&#x1b3;" horiz-adv-x="520" 
d="M238 270l-158 411h25l147 -388l200 328q22 38 45.5 54t56.5 16q46 0 84 -40l-13 -14q-35 35 -71 35q-27 0 -45.5 -13.5t-38.5 -47.5l-209 -341l-38 -270h-23z" />
    <glyph glyph-name="uni01B4" unicode="&#x1b4;" horiz-adv-x="444" 
d="M-6 -177q53 15 85 36.5t54.5 53.5t48.5 87h-9l-113 519h23l108 -503l209 473q19 43 39.5 60.5t52.5 17.5q25 0 45 -10l-8 -18q-18 8 -38 8q-24 0 -39.5 -14t-31.5 -50l-217 -485q-27 -60 -52.5 -95.5t-61.5 -58.5t-93 -39z" />
    <glyph glyph-name="uni01B5" unicode="&#x1b5;" horiz-adv-x="509" 
d="M518 681l-2 -19l-232 -309h112l-3 -21h-124l-233 -310h376l-6 -22h-401l3 21l233 311h-116l3 21h129l230 307h-352l3 21h380z" />
    <glyph glyph-name="uni01B6" unicode="&#x1b6;" horiz-adv-x="410" 
d="M410 519l-3 -18l-176 -222h103l-2 -20h-117l-188 -238h305l-5 -21h-332l3 18l191 241h-101l3 20h114l174 220h-287l3 20h315z" />
    <glyph glyph-name="uni01B7" unicode="&#x1b7;" horiz-adv-x="473" 
d="M451 662l-278 -289h48q95 0 144 -40.5t49 -115.5q0 -66 -29.5 -117.5t-83 -80.5t-121.5 -29q-64 0 -107.5 21t-75.5 62l15 12q33 -38 71 -55.5t96 -17.5q64 0 112 26t74 72.5t26 106.5q0 69 -44 102t-126 33h-79l3 21l275 288h-327l3 20h358z" />
    <glyph glyph-name="uni01B8" unicode="&#x1b8;" horiz-adv-x="474" 
d="M493 661h-330l197 -287l-2 -22h-78q-102 0 -160.5 -52.5t-58.5 -142.5q0 -68 41 -106.5t113 -38.5q62 0 107 17.5t89 56.5l14 -15q-46 -41 -94.5 -61t-115.5 -20q-80 0 -128.5 45.5t-48.5 121.5q0 66 30.5 114.5t85.5 75t129 26.5h53l-202 289l3 19h359z" />
    <glyph glyph-name="uni01B9" unicode="&#x1b9;" horiz-adv-x="445" 
d="M438 499h-313l180 -305l-3 -21h-50q-108 0 -169 -54t-61 -149q0 -66 39 -106t111 -40q55 0 98 17.5t84 56.5l15 -14q-42 -40 -89.5 -60.5t-107.5 -20.5q-81 0 -127.5 46.5t-46.5 120.5q0 68 31.5 119t89.5 78t136 27h25l-183 307l3 18h340z" />
    <glyph glyph-name="uni01BA" unicode="&#x1ba;" horiz-adv-x="444" 
d="M12.5 -155q-22.5 23 -22.5 56q0 47 44 74t139 39q99 13 146 43.5t47 98.5q0 48 -27.5 69.5t-81.5 21.5h-143l3 20l256 232h-300l3 20h334l-2 -18l-261 -234h113q63 0 96 -28.5t33 -82.5q0 -76 -52 -112t-159 -50q-89 -11 -127 -33t-38 -60q0 -27 17.5 -45t56.5 -36
l-9 -16q-43 18 -65.5 41z" />
    <glyph glyph-name="uni01BB" unicode="&#x1bb;" horiz-adv-x="464" 
d="M43 21l329 1l-8 -22h-353l3 22q162 155 251 250h-143l3 20h158q73 81 97.5 130.5t24.5 103.5q0 58 -35 92t-96 34q-50 0 -90.5 -20t-78.5 -59l-17 14q44 44 88.5 65t97.5 21q71 0 112.5 -40.5t41.5 -105.5q0 -56 -24 -107t-93 -128h130l-2 -20h-146q-70 -78 -250 -251z
" />
    <glyph glyph-name="uni01BC" unicode="&#x1bc;" horiz-adv-x="482" 
d="M16 69l17 13q27 -36 64.5 -53.5t90.5 -17.5q73 0 120 38.5t68 95t21 111.5q0 72 -36.5 110.5t-103.5 38.5q-40 0 -71 -10t-67 -31h-19l45 317h315l-7 -20h-289l-39 -275q63 39 132 39q78 0 120.5 -44.5t42.5 -124.5q0 -59 -23.5 -120t-76 -103.5t-133.5 -42.5
q-113 0 -171 79z" />
    <glyph glyph-name="uni01BD" unicode="&#x1bd;" horiz-adv-x="420" 
d="M374 499h-231l-28 -203q25 14 49.5 22t56.5 8q62 0 95.5 -34.5t33.5 -96.5q0 -57 -24 -104t-67 -74t-99 -27q-86 0 -140 61l15 13q25 -27 54 -40t71 -13q50 0 88 24.5t58.5 66t20.5 93.5q0 54 -28 82t-80 28q-32 0 -57 -7t-54 -23h-18l34 244h257z" />
    <glyph glyph-name="uni01BE" unicode="&#x1be;" horiz-adv-x="491" 
d="M368.5 352q42.5 -39 43.5 -118q0 -66 -29 -121t-80 -86.5t-114 -31.5q-59 0 -99 20t-76 59l15 12q32 -34 68.5 -52t89.5 -18q58 0 104 29t72 78.5t26 110.5q0 70 -37.5 104t-97.5 49l-65 15l24 170h-68l3 20h68l20 141l22 3l-20 -144h121l-3 -20h-121l-21 -154l43 -10
q69 -17 111.5 -56z" />
    <glyph glyph-name="uni01BF" unicode="&#x1bf;" horiz-adv-x="565" 
d="M468 491q39 -38 39 -107q0 -82 -43.5 -147t-115.5 -115t-176 -101l-71 -34l-25 -179l-23 -4l102 715h19l-10 -84q44 45 92 69.5t105 24.5q68 0 107 -38zM335 137.5q68 47.5 108.5 108.5t40.5 138q0 61 -32.5 93t-91.5 32q-57 0 -105.5 -26.5t-94.5 -75.5l-56 -398l62 31
q101 50 169 97.5z" />
    <glyph glyph-name="uni01C0" unicode="&#x1c0;" horiz-adv-x="267" 
d="M211 736l-104 -736h-21l104 733z" />
    <glyph glyph-name="uni01C1" unicode="&#x1c1;" horiz-adv-x="406" 
d="M211 736l-104 -736h-21l104 733zM350 736l-104 -736h-21l104 733z" />
    <glyph glyph-name="uni01C2" unicode="&#x1c2;" horiz-adv-x="325" 
d="M310 430h-114l-19 -131h113l-2 -18h-113l-40 -281h-21l40 281h-110l3 18h109l19 131h-109l2 18h110l40 285l21 3l-41 -288h114z" />
    <glyph glyph-name="uni01C3" unicode="&#x1c3;" horiz-adv-x="293" 
d="M223 736l-76 -544h-21l77 541zM94 -2q-6 6 -6 15q0 11 7 18t18 7q10 0 16 -6.5t6 -15.5q0 -11 -7 -17.5t-18 -6.5q-10 0 -16 6z" />
    <glyph glyph-name="uni01C4" unicode="&#x1c4;" horiz-adv-x="1103" 
d="M489 627q71 -54 71 -196q0 -112 -34.5 -209.5t-112.5 -159.5t-200 -62h-127l96 681h121q115 0 186 -54zM202 660l-90 -639h104q114 0 186 59.5t103.5 152.5t31.5 199q0 133 -65.5 180.5t-172.5 47.5h-97zM599 0l3 21l479 639h-352l3 21h380l-2 -19l-480 -640h376l-6 -22
h-401zM1048 863l10 -13l-132 -90h-12l-107 90l12 12l104 -78z" />
    <glyph glyph-name="uni01C5" unicode="&#x1c5;" horiz-adv-x="1019" 
d="M489 627q71 -54 71 -196q0 -112 -34.5 -209.5t-112.5 -159.5t-200 -62h-127l96 681h121q115 0 186 -54zM202 660l-90 -639h104q114 0 186 59.5t103.5 152.5t31.5 199q0 133 -65.5 180.5t-172.5 47.5h-97zM1019 519l-3 -18l-380 -480h305l-5 -21h-332l3 18l381 481h-287
l3 20h315zM1007 749l11 -13l-134 -95h-12l-106 95l12 13l103 -84z" />
    <glyph glyph-name="uni01C6" unicode="&#x1c6;" horiz-adv-x="979" 
d="M518 733l-104 -733h-18l15 130q-36 -63 -81 -101.5t-108 -38.5q-71 0 -112.5 53t-41.5 147q0 76 24.5 154t79.5 131.5t139 53.5q55 0 90 -24t54 -60l41 291zM185.5 459q-49.5 -50 -72.5 -123.5t-23 -144.5q0 -86 35.5 -133t97.5 -47q61 0 105.5 41t88.5 119l34 245
q-42 93 -140 93q-76 0 -125.5 -50zM979 519l-3 -18l-380 -480h305l-5 -21h-332l3 18l381 481h-287l3 20h315zM967 749l11 -13l-134 -95h-12l-106 95l12 13l103 -84z" />
    <glyph glyph-name="uni01C7" unicode="&#x1c7;" horiz-adv-x="715" 
d="M205 681l-93 -659h289l-8 -22h-307l96 681h23zM574 87q-8 -53 -22.5 -84.5t-45.5 -55t-89 -47.5l-6 17q50 22 78 44t41.5 51.5t20.5 77.5l83 591h23z" />
    <glyph glyph-name="uni01C8" unicode="&#x1c8;" horiz-adv-x="695" 
d="M205 681l-93 -659h289l-8 -22h-307l96 681h23zM396 -178q40 20 63.5 40t38 54t22.5 91l72 512h22l-72 -514q-9 -63 -25.5 -99t-42.5 -57.5t-72 -43.5zM615 689.5q-5 4.5 -5 12.5q0 9 6 15.5t15 6.5t14 -5t5 -13t-6 -14.5t-16 -6.5q-8 0 -13 4.5z" />
    <glyph glyph-name="uni01C9" unicode="&#x1c9;" horiz-adv-x="534" 
d="M109 73q-1 -6 -1 -18q0 -44 43 -44q17 0 41 8l6 -19q-28 -10 -48 -10q-31 0 -48 16.5t-17 48.5q0 6 2 20l93 658l22 3zM235 -178q40 20 63.5 40t38 54t22.5 91l72 512h22l-72 -514q-9 -63 -25.5 -99t-42.5 -57.5t-72 -43.5zM454 689.5q-5 4.5 -5 12.5q0 9 6 15.5t15 6.5
t14 -5t5 -13t-6 -14.5t-16 -6.5q-8 0 -13 4.5z" />
    <glyph glyph-name="uni01CA" unicode="&#x1ca;" horiz-adv-x="939" 
d="M502 0h-28l-277 658q-2 -41 -22 -182l-67 -476h-22l96 681h29l276 -656q7 78 22 180l66 476h22zM798 87q-8 -53 -22.5 -84.5t-45.5 -55t-89 -47.5l-6 17q50 22 78 44t41.5 51.5t20.5 77.5l83 591h23z" />
    <glyph glyph-name="uni01CB" unicode="&#x1cb;" horiz-adv-x="919" 
d="M502 0h-28l-277 658q-2 -41 -22 -182l-67 -476h-22l96 681h29l276 -656q7 78 22 180l66 476h22zM620 -178q40 20 63.5 40t38 54t22.5 91l72 512h22l-72 -514q-9 -63 -25.5 -99t-42.5 -57.5t-72 -43.5zM839 689.5q-5 4.5 -5 12.5q0 9 6 15.5t15 6.5t14 -5t5 -13t-6 -14.5
t-16 -6.5q-8 0 -13 4.5z" />
    <glyph glyph-name="uni01CC" unicode="&#x1cc;" horiz-adv-x="839" 
d="M457 497.5q30 -31.5 30 -90.5q0 -18 -3 -38l-52 -369h-22l52 367q3 21 3 38q0 105 -97 105q-62 0 -116.5 -50t-103.5 -145l-45 -315h-22l74 519h18l-20 -161q44 85 99 128t117 43q58 0 88 -31.5zM540 -178q40 20 63.5 40t38 54t22.5 91l72 512h22l-72 -514
q-9 -63 -25.5 -99t-42.5 -57.5t-72 -43.5zM759 689.5q-5 4.5 -5 12.5q0 9 6 15.5t15 6.5t14 -5t5 -13t-6 -14.5t-16 -6.5q-8 0 -13 4.5z" />
    <glyph glyph-name="uni01CD" unicode="&#x1cd;" horiz-adv-x="557" 
d="M469 0l-41 203h-315l-98 -203h-24l333 681h27l142 -681h-24zM123 224h301l-89 438zM477 863l10 -13l-132 -90h-12l-107 90l12 12l104 -78z" />
    <glyph glyph-name="uni01CE" unicode="&#x1ce;" horiz-adv-x="548" 
d="M406 518.5q34 -10.5 67 -30.5l-54 -376q-4 -32 -4 -44q0 -23 8 -38t28 -23l-7 -17q-25 10 -37 28.5t-12 49.5q0 7 2 29q-31 -50 -75 -78.5t-94 -28.5q-75 0 -117.5 53.5t-42.5 146.5q0 78 26.5 156t85 130.5t148.5 52.5q44 0 78 -10.5zM192.5 460q-53.5 -50 -78 -123.5
t-24.5 -145.5q0 -85 36 -132.5t102 -47.5q102 0 172 124l49 342q-53 33 -121 33q-82 0 -135.5 -50zM483 749l11 -13l-134 -95h-12l-106 95l12 13l103 -84z" />
    <glyph glyph-name="uni01CF" unicode="&#x1cf;" horiz-adv-x="268" 
d="M205 681l-96 -681h-23l96 681h23zM333 863l10 -13l-132 -90h-12l-107 90l12 12l104 -78z" />
    <glyph glyph-name="uni01D0" unicode="&#x1d0;" horiz-adv-x="258" 
d="M177 519l-74 -519h-22l74 519h22zM312 749l11 -13l-134 -95h-12l-106 95l12 13l103 -84z" />
    <glyph glyph-name="uni01D1" unicode="&#x1d1;" horiz-adv-x="689" 
d="M570 623q60 -68 60 -196q0 -99 -31.5 -199t-104 -169t-186.5 -69q-105 0 -165 69.5t-60 197.5q0 96 32.5 196t105 169t183.5 69q106 0 166 -68zM233 604.5q-67 -66.5 -97 -162t-30 -186.5q0 -118 53.5 -181t148.5 -63q108 0 175 66.5t95 161.5t28 187q0 119 -53 181.5
t-149 62.5q-104 0 -171 -66.5zM542 863l10 -13l-132 -90h-12l-107 90l12 12l104 -78z" />
    <glyph glyph-name="uni01D2" unicode="&#x1d2;" horiz-adv-x="561" 
d="M115 44q-46 54 -46 152q0 75 25 151.5t81 129t143 52.5q83 0 129 -52t46 -150q0 -74 -24.5 -151.5t-80.5 -131.5t-144 -54q-83 0 -129 54zM375 61q51 50 73.5 122.5t22.5 143.5q0 88 -39.5 135t-113.5 47q-80 0 -131 -50.5t-73.5 -122.5t-22.5 -141q0 -88 40 -136
t113 -48q80 0 131 50zM464 749l11 -13l-134 -95h-12l-106 95l12 13l103 -84z" />
    <glyph glyph-name="uni01D3" unicode="&#x1d3;" horiz-adv-x="641" 
d="M521 207q-14 -100 -73 -158.5t-163 -58.5q-93 0 -138 45.5t-45 124.5q0 14 4 48l66 473h23l-66 -472q-3 -24 -3 -46q0 -72 38.5 -111.5t120.5 -39.5q95 0 148 53.5t65 144.5l66 471h23zM519 863l10 -13l-132 -90h-12l-107 90l12 12l104 -78z" />
    <glyph glyph-name="uni01D4" unicode="&#x1d4;" horiz-adv-x="576" 
d="M126.5 22.5q-31.5 32.5 -31.5 92.5q0 17 3 35l51 369h22l-51 -369q-3 -19 -3 -36q0 -51 26.5 -77t73.5 -26q64 0 118 51.5t94 141.5l44 315h22l-73 -519h-17l21 164q-35 -80 -90 -127t-121 -47q-57 0 -88.5 32.5zM468 749l11 -13l-134 -95h-12l-106 95l12 13l103 -84z
" />
    <glyph glyph-name="uni01D5" unicode="&#x1d5;" horiz-adv-x="641" 
d="M521 207q-14 -100 -73 -158.5t-163 -58.5q-93 0 -138 45.5t-45 124.5q0 14 4 48l66 473h23l-66 -472q-3 -24 -3 -46q0 -72 38.5 -111.5t120.5 -39.5q95 0 148 53.5t65 144.5l66 471h23zM292 746.5q-5 4.5 -5 12.5q0 9 6 15.5t15 6.5t14 -5t5 -13t-6.5 -14.5t-15.5 -6.5
q-8 0 -13 4.5zM457 746.5q-5 4.5 -5 12.5q0 9 6 15.5t16 6.5q8 0 13 -5t5 -13q0 -9 -6 -15t-16 -6q-8 0 -13 4.5zM502 850h-207l3 21h207z" />
    <glyph glyph-name="uni01D6" unicode="&#x1d6;" horiz-adv-x="576" 
d="M126.5 22.5q-31.5 32.5 -31.5 92.5q0 17 3 35l51 369h22l-51 -369q-3 -19 -3 -36q0 -51 26.5 -77t73.5 -26q64 0 118 51.5t94 141.5l44 315h22l-73 -519h-17l21 164q-35 -80 -90 -127t-121 -47q-57 0 -88.5 32.5zM244 647.5q-5 4.5 -5 12.5q0 9 6 15.5t15 6.5t14 -5
t5 -13t-6.5 -14.5t-15.5 -6.5q-8 0 -13 4.5zM409 647.5q-5 4.5 -5 12.5q0 9 6 15.5t16 6.5q8 0 13 -5t5 -13q0 -9 -6 -15t-16 -6q-8 0 -13 4.5zM455 753h-207l3 21h207z" />
    <glyph glyph-name="uni01D7" unicode="&#x1d7;" horiz-adv-x="641" 
d="M521 207q-14 -100 -73 -158.5t-163 -58.5q-93 0 -138 45.5t-45 124.5q0 14 4 48l66 473h23l-66 -472q-3 -24 -3 -46q0 -72 38.5 -111.5t120.5 -39.5q95 0 148 53.5t65 144.5l66 471h23zM490 921l16 -19l-118 -110l-11 12zM289 746.5q-5 4.5 -5 12.5q0 9 6 15.5t16 6.5
q8 0 13 -4.5t5 -12.5q0 -9 -6 -15.5t-15 -6.5t-14 4.5zM455 746.5q-5 4.5 -5 12.5q0 9 6 15.5t16 6.5q8 0 13 -4.5t5 -12.5q0 -9 -6 -15.5t-16 -6.5q-8 0 -13 4.5z" />
    <glyph glyph-name="uni01D8" unicode="&#x1d8;" horiz-adv-x="576" 
d="M126.5 22.5q-31.5 32.5 -31.5 92.5q0 17 3 35l51 369h22l-51 -369q-3 -19 -3 -36q0 -51 26.5 -77t73.5 -26q64 0 118 51.5t94 141.5l44 315h22l-73 -519h-17l21 164q-35 -80 -90 -127t-121 -47q-57 0 -88.5 32.5zM442 821l16 -19l-118 -110l-11 12zM238 647.5
q-5 4.5 -5 12.5q0 9 6 15.5t15 6.5t14 -5t5 -13t-6 -14.5t-16 -6.5q-8 0 -13 4.5zM403 647.5q-5 4.5 -5 12.5q0 9 6 15.5t16 6.5q8 0 13 -5t5 -13q0 -9 -6 -15t-16 -6q-8 0 -13 4.5z" />
    <glyph glyph-name="uni01D9" unicode="&#x1d9;" horiz-adv-x="641" 
d="M521 207q-14 -100 -73 -158.5t-163 -58.5q-93 0 -138 45.5t-45 124.5q0 14 4 48l66 473h23l-66 -472q-3 -24 -3 -46q0 -72 38.5 -111.5t120.5 -39.5q95 0 148 53.5t65 144.5l66 471h23zM518 894l10 -13l-132 -90h-12l-107 90l12 12l104 -78zM289 746.5q-5 4.5 -5 12.5
q0 9 6 15.5t16 6.5q8 0 13 -4.5t5 -12.5q0 -9 -6 -15.5t-16 -6.5q-8 0 -13 4.5zM455 746.5q-5 4.5 -5 12.5q0 9 6 15.5t15 6.5t14 -4.5t5 -12.5q0 -9 -6 -15.5t-16 -6.5q-8 0 -13 4.5z" />
    <glyph glyph-name="uni01DA" unicode="&#x1da;" horiz-adv-x="576" 
d="M126.5 22.5q-31.5 32.5 -31.5 92.5q0 17 3 35l51 369h22l-51 -369q-3 -19 -3 -36q0 -51 26.5 -77t73.5 -26q64 0 118 51.5t94 141.5l44 315h22l-73 -519h-17l21 164q-35 -80 -90 -127t-121 -47q-57 0 -88.5 32.5zM471 794l10 -13l-132 -90h-12l-107 90l12 12l104 -78z
M242 647.5q-5 4.5 -5 12.5q0 9 6 15.5t15 6.5t14 -5t5 -13t-6 -14.5t-16 -6.5q-8 0 -13 4.5zM407 647.5q-5 4.5 -5 12.5q0 9 6 15.5t16 6.5q8 0 13 -5t5 -13q0 -9 -6 -15t-16 -6q-8 0 -13 4.5z" />
    <glyph glyph-name="uni01DB" unicode="&#x1db;" horiz-adv-x="641" 
d="M521 207q-14 -100 -73 -158.5t-163 -58.5q-93 0 -138 45.5t-45 124.5q0 14 4 48l66 473h23l-66 -472q-3 -24 -3 -46q0 -72 38.5 -111.5t120.5 -39.5q95 0 148 53.5t65 144.5l66 471h23zM319 921l81 -119l-14 -10l-87 113zM289 746.5q-5 4.5 -5 12.5q0 9 6 15.5t16 6.5
q8 0 13 -4.5t5 -12.5q0 -9 -6 -15.5t-16 -6.5q-8 0 -13 4.5zM454 746.5q-5 4.5 -5 12.5q0 9 6 15.5t16 6.5q8 0 13 -4.5t5 -12.5q0 -9 -6 -15.5t-16 -6.5q-8 0 -13 4.5z" />
    <glyph glyph-name="uni01DC" unicode="&#x1dc;" horiz-adv-x="576" 
d="M126.5 22.5q-31.5 32.5 -31.5 92.5q0 17 3 35l51 369h22l-51 -369q-3 -19 -3 -36q0 -51 26.5 -77t73.5 -26q64 0 118 51.5t94 141.5l44 315h22l-73 -519h-17l21 164q-35 -80 -90 -127t-121 -47q-57 0 -88.5 32.5zM271 821l81 -119l-14 -10l-87 113zM242 647.5
q-5 4.5 -5 12.5q0 9 6 15.5t16 6.5q8 0 13 -5t5 -13q0 -9 -6 -15t-15 -6t-14 4.5zM408 647.5q-5 4.5 -5 12.5q0 9 6 15.5t16 6.5q8 0 13 -5t5 -13t-6 -14.5t-16 -6.5q-8 0 -13 4.5z" />
    <glyph glyph-name="uni01DD" unicode="&#x1dd;" horiz-adv-x="509" 
d="M394.5 476q46.5 -53 46.5 -152q0 -76 -28 -153t-87 -129t-145 -52q-65 0 -104 32t-39 86q0 88 97 137t284 60v18q0 92 -41 138.5t-113 46.5q-45 0 -79.5 -13.5t-75.5 -42.5l-12 16q41 31 80.5 46t86.5 15q83 0 129.5 -53zM304 51q51 41 78.5 103.5t34.5 130.5
q-356 -21 -356 -176q0 -46 31.5 -72.5t88.5 -26.5q72 0 123 41z" />
    <glyph glyph-name="uni01DE" unicode="&#x1de;" horiz-adv-x="557" 
d="M469 0l-41 203h-315l-98 -203h-24l333 681h27l142 -681h-24zM123 224h301l-89 438zM250 746.5q-5 4.5 -5 12.5q0 9 6 15.5t15 6.5t14 -5t5 -13t-6.5 -14.5t-15.5 -6.5q-8 0 -13 4.5zM415 746.5q-5 4.5 -5 12.5q0 9 6 15.5t16 6.5q8 0 13 -5t5 -13q0 -9 -6 -15t-16 -6
q-8 0 -13 4.5zM460 850h-207l3 21h207z" />
    <glyph glyph-name="uni01DF" unicode="&#x1df;" horiz-adv-x="548" 
d="M406 518.5q34 -10.5 67 -30.5l-54 -376q-4 -32 -4 -44q0 -23 8 -38t28 -23l-7 -17q-25 10 -37 28.5t-12 49.5q0 7 2 29q-31 -50 -75 -78.5t-94 -28.5q-75 0 -117.5 53.5t-42.5 146.5q0 78 26.5 156t85 130.5t148.5 52.5q44 0 78 -10.5zM192.5 460q-53.5 -50 -78 -123.5
t-24.5 -145.5q0 -85 36 -132.5t102 -47.5q102 0 172 124l49 342q-53 33 -121 33q-82 0 -135.5 -50zM259 647.5q-5 4.5 -5 12.5q0 9 6 15.5t15 6.5t14 -5t5 -13t-6.5 -14.5t-15.5 -6.5q-8 0 -13 4.5zM424 647.5q-5 4.5 -5 12.5q0 9 6 15.5t16 6.5q8 0 13 -5t5 -13
q0 -9 -6 -15t-16 -6q-8 0 -13 4.5zM470 753h-207l3 21h207z" />
    <glyph glyph-name="uni01E0" unicode="&#x1e0;" horiz-adv-x="557" 
d="M469 0l-41 203h-315l-98 -203h-24l333 681h27l142 -681h-24zM123 224h301l-89 438zM332 751.5q-5 4.5 -5 12.5q0 9 6 15.5t15 6.5t14 -5t5 -13t-6 -14.5t-16 -6.5q-8 0 -13 4.5zM462 849h-207l3 21h207z" />
    <glyph glyph-name="uni01E1" unicode="&#x1e1;" horiz-adv-x="548" 
d="M406 518.5q34 -10.5 67 -30.5l-54 -376q-4 -32 -4 -44q0 -23 8 -38t28 -23l-7 -17q-25 10 -37 28.5t-12 49.5q0 7 2 29q-31 -50 -75 -78.5t-94 -28.5q-75 0 -117.5 53.5t-42.5 146.5q0 78 26.5 156t85 130.5t148.5 52.5q44 0 78 -10.5zM192.5 460q-53.5 -50 -78 -123.5
t-24.5 -145.5q0 -85 36 -132.5t102 -47.5q102 0 172 124l49 342q-53 33 -121 33q-82 0 -135.5 -50zM340 636.5q-5 4.5 -5 12.5q0 9 6 15.5t15 6.5t14 -5t5 -13t-6 -14.5t-16 -6.5q-8 0 -13 4.5zM470 745h-207l3 21h207z" />
    <glyph glyph-name="uni01E2" unicode="&#x1e2;" horiz-adv-x="755" 
d="M712 660h-343l36 -290h261l-2 -21h-257l41 -328h231l-4 -21h-247l-24 196h-301l-103 -196h-24l358 681h384zM402 217l-54 446l-234 -446h288zM627 811h-207l3 21h207z" />
    <glyph glyph-name="uni01E3" unicode="&#x1e3;" horiz-adv-x="818" 
d="M388.5 495.5q38.5 -33.5 44.5 -91.5q11 25 38 54t69 50t94 21q65 0 105 -32t40 -87q0 -87 -97 -136t-284 -60q-1 -98 37.5 -150.5t115.5 -52.5q45 0 80 13.5t76 42.5l11 -16q-41 -31 -80.5 -46t-86.5 -15q-62 0 -104 30.5t-59 88.5q-49 -64 -99 -91.5t-108 -27.5
q-65 0 -102.5 36t-37.5 97q0 76 55.5 126t172.5 50h120q12 49 27 81q-1 60 -36.5 94.5t-95.5 34.5q-65 0 -147 -32l-7 18q87 34 154 34q66 0 104.5 -33.5zM508.5 466q-50.5 -43 -76.5 -105.5t-32 -126.5q178 10 267 55t89 121q0 46 -32.5 72.5t-89.5 26.5q-75 0 -125.5 -43z
M269 279q-108 0 -156.5 -43.5t-48.5 -112.5q0 -53 31 -82.5t86 -29.5q57 0 105 28.5t96 91.5q-7 35 -7 66q0 40 9 82h-115zM570 685h-207l3 21h207z" />
    <glyph glyph-name="uni01E4" unicode="&#x1e4;" horiz-adv-x="620" 
d="M607 212h-81l-24 -172q-93 -50 -186 -50q-109 0 -171 69t-62 200q0 106 37 205.5t110 163t175 63.5q50 0 88.5 -14.5t74.5 -44.5l-15 -15q-32 27 -67 40t-81 13q-97 0 -164 -61t-100.5 -156t-33.5 -196q0 -121 55 -183t154 -62q48 0 87 10.5t77 30.5l23 159h-140l3 21
h140l14 100h-145v21h171l-17 -121h81z" />
    <glyph glyph-name="uni01E5" unicode="&#x1e5;" horiz-adv-x="489" 
d="M391 -60h76l-3 -20h-80q-46 -117 -174 -117q-84 0 -164 47l9 16q38 -21 74 -32.5t81 -11.5q110 0 152 98h-141l3 20h145q8 25 12 53l17 115q-31 -51 -75 -79.5t-94 -28.5q-75 0 -117.5 55t-42.5 148q0 74 26.5 149.5t85 126t147.5 50.5q45 0 78.5 -10.5t67.5 -30.5
l-71 -493q-4 -29 -12 -55zM403 144l48 333q-53 33 -122 33q-82 0 -136 -48.5t-78 -120t-23 -140.5q0 -83 36 -131.5t101 -48.5q103 0 174 123z" />
    <glyph glyph-name="Gcaron" unicode="&#x1e6;" horiz-adv-x="605" 
d="M493.5 676.5q38.5 -14.5 74.5 -44.5l-14 -15q-33 27 -68 40t-81 13q-97 0 -164 -61t-100.5 -156t-33.5 -196q0 -121 55 -183t154 -62q48 0 87 10.5t77 30.5l40 280h-145v21h171l-44 -314q-93 -50 -186 -50q-109 0 -171 69t-62 200q0 106 37 205.5t110 163t175 63.5
q50 0 88.5 -14.5zM543 863l10 -13l-132 -90h-12l-107 90l12 12l104 -78z" />
    <glyph glyph-name="gcaron" unicode="&#x1e7;" horiz-adv-x="555" 
d="M406.5 518.5q33.5 -10.5 67.5 -30.5l-71 -493q-28 -192 -193 -192q-84 0 -164 47l9 16q38 -21 74 -32.5t81 -11.5q67 0 112.5 40.5t58.5 130.5l17 115q-31 -51 -75 -79.5t-94 -28.5q-75 0 -117.5 55t-42.5 148q0 74 26.5 149.5t85 126t147.5 50.5q45 0 78.5 -10.5z
M193 461.5q-54 -48.5 -78 -120t-23 -140.5q0 -83 36 -131.5t101 -48.5q103 0 174 123l48 333q-53 33 -122 33q-82 0 -136 -48.5zM462 749l11 -13l-134 -95h-12l-106 95l12 13l103 -84z" />
    <glyph glyph-name="uni01E8" unicode="&#x1e8;" horiz-adv-x="510" 
d="M86 0l96 681h23l-96 -681h-23zM442 0l-278 367l356 314h29l-357 -316l277 -365h-27zM486 863l10 -13l-132 -90h-12l-107 90l12 12l104 -78z" />
    <glyph glyph-name="uni01E9" unicode="&#x1e9;" horiz-adv-x="505" 
d="M152 347q45 92 100 137t115 45q51 0 80.5 -28t29.5 -77q0 -125 -182 -184l121 -240h-24l-125 250q188 54 188 174q0 40 -22 63t-67 23q-122 0 -221 -212l-42 -298h-22l104 733l22 3zM487 914l10 -13l-132 -90h-12l-107 90l12 12l104 -78z" />
    <glyph glyph-name="uni01EA" unicode="&#x1ea;" horiz-adv-x="689" 
d="M275.5 -58.5q-34.5 -28.5 -34.5 -67.5q0 -55 63 -55q24 0 55 7l-5 -22q-28 -7 -53 -7q-41 0 -62.5 18.5t-21.5 49.5q0 42 27 71.5t80 53.5h-16q-105 0 -165 69.5t-60 197.5q0 96 32.5 196t105 169t183.5 69q106 0 166 -68t60 -196q0 -87 -25 -177t-81 -160t-144 -92
q-70 -28 -104.5 -56.5zM159.5 75q53.5 -63 148.5 -63q108 0 175 66.5t95 161.5t28 187q0 119 -53 181.5t-149 62.5q-104 0 -171 -66.5t-97 -162t-30 -186.5q0 -118 53.5 -181z" />
    <glyph glyph-name="uni01EB" unicode="&#x1eb;" horiz-adv-x="561" 
d="M203 -58.5q-35 -28.5 -35 -67.5q0 -55 63 -55q24 0 55 7l-5 -22q-28 -7 -53 -7q-41 0 -62.5 18.5t-21.5 49.5q0 42 26.5 71t79.5 54h-6q-83 0 -129 54t-46 152q0 75 25 151.5t81 129t143 52.5q83 0 129 -52t46 -150q0 -64 -18.5 -132t-60 -122.5t-106.5 -73.5
q-70 -29 -105 -57.5zM131 59q40 -48 113 -48q80 0 131 50t73.5 122.5t22.5 143.5q0 88 -39.5 135t-113.5 47q-80 0 -131 -50.5t-73.5 -122.5t-22.5 -141q0 -88 40 -136z" />
    <glyph glyph-name="uni01EC" unicode="&#x1ec;" horiz-adv-x="689" 
d="M528 832l-3 -21h-207l3 21h207zM275.5 -58.5q-34.5 -28.5 -34.5 -67.5q0 -55 63 -55q24 0 55 7l-5 -22q-28 -7 -53 -7q-41 0 -62.5 18.5t-21.5 49.5q0 42 27 71.5t80 53.5h-16q-105 0 -165 69.5t-60 197.5q0 96 32.5 196t105 169t183.5 69q106 0 166 -68t60 -196
q0 -87 -25 -177t-81 -160t-144 -92q-70 -28 -104.5 -56.5zM159.5 75q53.5 -63 148.5 -63q108 0 175 66.5t95 161.5t28 187q0 119 -53 181.5t-149 62.5q-104 0 -171 -66.5t-97 -162t-30 -186.5q0 -118 53.5 -181z" />
    <glyph glyph-name="uni01ED" unicode="&#x1ed;" horiz-adv-x="561" 
d="M447 706l-3 -21h-207l3 21h207zM203 -58.5q-35 -28.5 -35 -67.5q0 -55 63 -55q24 0 55 7l-5 -22q-28 -7 -53 -7q-41 0 -62.5 18.5t-21.5 49.5q0 42 26.5 71t79.5 54h-6q-83 0 -129 54t-46 152q0 75 25 151.5t81 129t143 52.5q83 0 129 -52t46 -150q0 -64 -18.5 -132
t-60 -122.5t-106.5 -73.5q-70 -29 -105 -57.5zM131 59q40 -48 113 -48q80 0 131 50t73.5 122.5t22.5 143.5q0 88 -39.5 135t-113.5 47q-80 0 -131 -50.5t-73.5 -122.5t-22.5 -141q0 -88 40 -136z" />
    <glyph glyph-name="uni01EE" unicode="&#x1ee;" horiz-adv-x="473" 
d="M451 662l-278 -289h48q95 0 144 -40.5t49 -115.5q0 -66 -29.5 -117.5t-83 -80.5t-121.5 -29q-64 0 -107.5 21t-75.5 62l15 12q33 -38 71 -55.5t96 -17.5q64 0 112 26t74 72.5t26 106.5q0 69 -44 102t-126 33h-79l3 21l275 288h-327l3 20h358zM414 863l10 -13l-132 -90
h-12l-107 90l12 12l104 -78z" />
    <glyph glyph-name="uni01EF" unicode="&#x1ef;" horiz-adv-x="443" 
d="M413 501l-265 -307h24q201 0 201 -156q0 -68 -28.5 -121.5t-81 -83.5t-119.5 -30q-57 0 -99 21t-75 61l16 12q32 -38 69 -55.5t88 -17.5q63 0 110 27.5t72 75.5t25 110q0 71 -44 103.5t-135 32.5h-53l3 21l263 305h-311l3 20h340zM392 749l11 -13l-134 -95h-12l-106 95
l12 13l103 -84z" />
    <glyph glyph-name="uni01F0" unicode="&#x1f0;" horiz-adv-x="258" 
d="M-41 -178q40 20 63.5 40t38 54t22.5 91l72 512h22l-72 -514q-9 -63 -25.5 -99t-42.5 -57.5t-72 -43.5zM312 749l11 -13l-134 -95h-12l-106 95l12 13l103 -84z" />
    <glyph glyph-name="uni01F1" unicode="&#x1f1;" horiz-adv-x="1103" 
d="M489 627q71 -54 71 -196q0 -112 -34.5 -209.5t-112.5 -159.5t-200 -62h-127l96 681h121q115 0 186 -54zM202 660l-90 -639h104q114 0 186 59.5t103.5 152.5t31.5 199q0 133 -65.5 180.5t-172.5 47.5h-97zM599 0l3 21l479 639h-352l3 21h380l-2 -19l-480 -640h376l-6 -22
h-401z" />
    <glyph glyph-name="uni01F2" unicode="&#x1f2;" horiz-adv-x="1019" 
d="M489 627q71 -54 71 -196q0 -112 -34.5 -209.5t-112.5 -159.5t-200 -62h-127l96 681h121q115 0 186 -54zM202 660l-90 -639h104q114 0 186 59.5t103.5 152.5t31.5 199q0 133 -65.5 180.5t-172.5 47.5h-97zM1019 519l-3 -18l-380 -480h305l-5 -21h-332l3 18l381 481h-287
l3 20h315z" />
    <glyph glyph-name="uni01F3" unicode="&#x1f3;" horiz-adv-x="979" 
d="M518 733l-104 -733h-18l15 130q-36 -63 -81 -101.5t-108 -38.5q-71 0 -112.5 53t-41.5 147q0 76 24.5 154t79.5 131.5t139 53.5q55 0 90 -24t54 -60l41 291zM185.5 459q-49.5 -50 -72.5 -123.5t-23 -144.5q0 -86 35.5 -133t97.5 -47q61 0 105.5 41t88.5 119l34 245
q-42 93 -140 93q-76 0 -125.5 -50zM979 519l-3 -18l-380 -480h305l-5 -21h-332l3 18l381 481h-287l3 20h315z" />
    <glyph glyph-name="uni01F4" unicode="&#x1f4;" horiz-adv-x="605" 
d="M493.5 676.5q38.5 -14.5 74.5 -44.5l-14 -15q-33 27 -68 40t-81 13q-97 0 -164 -61t-100.5 -156t-33.5 -196q0 -121 55 -183t154 -62q48 0 87 10.5t77 30.5l40 280h-145v21h171l-44 -314q-93 -50 -186 -50q-109 0 -171 69t-62 200q0 106 37 205.5t110 163t175 63.5
q50 0 88.5 -14.5zM500 861l9 -25l-189 -72l-6 15z" />
    <glyph glyph-name="uni01F5" unicode="&#x1f5;" horiz-adv-x="555" 
d="M406.5 518.5q33.5 -10.5 67.5 -30.5l-71 -493q-28 -192 -193 -192q-84 0 -164 47l9 16q38 -21 74 -32.5t81 -11.5q67 0 112.5 40.5t58.5 130.5l17 115q-31 -51 -75 -79.5t-94 -28.5q-75 0 -117.5 55t-42.5 148q0 74 26.5 149.5t85 126t147.5 50.5q45 0 78.5 -10.5z
M193 461.5q-54 -48.5 -78 -120t-23 -140.5q0 -83 36 -131.5t101 -48.5q103 0 174 123l48 333q-53 33 -122 33q-82 0 -136 -48.5zM431 761l9 -23l-190 -84l-7 15z" />
    <glyph glyph-name="uni01F6" unicode="&#x1f6;" horiz-adv-x="958" 
d="M532.5 27.5q-34.5 37.5 -34.5 97.5q0 20 2 31l27 195h-369l-49 -351h-23l96 681h23l-44 -309h369l43 309h23l-74 -525q-2 -11 -2 -31q0 -54 29.5 -84t85.5 -30q123 0 171 122.5t48 291.5q0 40 -2 94h22q2 -56 2 -94q0 -181 -53 -308t-191 -127q-65 0 -99.5 37.5z" />
    <glyph glyph-name="uni01F7" unicode="&#x1f7;" horiz-adv-x="558" 
d="M497.5 651.5q41.5 -39.5 41.5 -108.5q0 -110 -73.5 -173.5t-207.5 -107.5l-117 -38l-32 -224h-23l96 681h23l-9 -63q40 33 86 53t104 20q70 0 111.5 -39.5zM449 383.5q66 58.5 66 159.5q0 61 -34.5 94t-94.5 33q-59 0 -105.5 -21t-87.5 -56l-49 -348l114 38
q125 42 191 100.5z" />
    <glyph glyph-name="uni01F8" unicode="&#x1f8;" horiz-adv-x="661" 
d="M502 0h-28l-277 658q-2 -41 -22 -182l-67 -476h-22l96 681h29l276 -656q7 78 22 180l66 476h22zM340 860l163 -81l-8 -15l-167 72z" />
    <glyph glyph-name="uni01F9" unicode="&#x1f9;" horiz-adv-x="581" 
d="M457 497.5q30 -31.5 30 -90.5q0 -18 -3 -38l-52 -369h-22l52 367q3 21 3 38q0 105 -97 105q-62 0 -116.5 -50t-103.5 -145l-45 -315h-22l74 519h18l-20 -161q44 85 99 128t117 43q58 0 88 -31.5zM291 761l162 -92l-9 -15l-166 84z" />
    <glyph glyph-name="Aringacute" unicode="&#x1fa;" horiz-adv-x="557" 
d="M469 0l-41 203h-315l-98 -203h-24l333 681h27l142 -681h-24zM123 224h301l-89 438zM411 869q19 -18 19 -48q0 -40 -25.5 -65.5t-63.5 -25.5q-33 0 -52 19t-19 49q0 39 25.5 64t64.5 25q32 0 51 -18zM309.5 848.5q-18.5 -20.5 -18.5 -51.5q0 -23 13 -36t37 -13q32 0 50 21
t18 50q0 24 -13 37t-37 13q-31 0 -49.5 -20.5zM455 996l9 -25l-189 -72l-6 15z" />
    <glyph glyph-name="aringacute" unicode="&#x1fb;" horiz-adv-x="548" 
d="M406 518.5q34 -10.5 67 -30.5l-54 -376q-4 -32 -4 -44q0 -23 8 -38t28 -23l-7 -17q-25 10 -37 28.5t-12 49.5q0 7 2 29q-31 -50 -75 -78.5t-94 -28.5q-75 0 -117.5 53.5t-42.5 146.5q0 78 26.5 156t85 130.5t148.5 52.5q44 0 78 -10.5zM192.5 460q-53.5 -50 -78 -123.5
t-24.5 -145.5q0 -85 36 -132.5t102 -47.5q102 0 172 124l49 342q-53 33 -121 33q-82 0 -135.5 -50zM416 727q19 -18 19 -48q0 -40 -25.5 -65.5t-63.5 -25.5q-33 0 -52 19t-19 49q0 39 25.5 64t64.5 25q32 0 51 -18zM314.5 706.5q-18.5 -20.5 -18.5 -51.5q0 -23 13 -36
t37 -13q32 0 50 21t18 50q0 24 -13 37t-37 13q-31 0 -49.5 -20.5zM454 857l9 -25l-189 -72l-6 15z" />
    <glyph glyph-name="AEacute" unicode="&#x1fc;" horiz-adv-x="755" 
d="M712 660h-343l36 -290h261l-2 -21h-257l41 -328h231l-4 -21h-247l-24 196h-301l-103 -196h-24l358 681h384zM402 217l-54 446l-234 -446h288zM601 861l9 -25l-189 -72l-6 15z" />
    <glyph glyph-name="aeacute" unicode="&#x1fd;" horiz-adv-x="818" 
d="M388.5 495.5q38.5 -33.5 44.5 -91.5q11 25 38 54t69 50t94 21q65 0 105 -32t40 -87q0 -87 -97 -136t-284 -60q-1 -98 37.5 -150.5t115.5 -52.5q45 0 80 13.5t76 42.5l11 -16q-41 -31 -80.5 -46t-86.5 -15q-62 0 -104 30.5t-59 88.5q-49 -64 -99 -91.5t-108 -27.5
q-65 0 -102.5 36t-37.5 97q0 76 55.5 126t172.5 50h120q12 49 27 81q-1 60 -36.5 94.5t-95.5 34.5q-65 0 -147 -32l-7 18q87 34 154 34q66 0 104.5 -33.5zM508.5 466q-50.5 -43 -76.5 -105.5t-32 -126.5q178 10 267 55t89 121q0 46 -32.5 72.5t-89.5 26.5q-75 0 -125.5 -43z
M269 279q-108 0 -156.5 -43.5t-48.5 -112.5q0 -53 31 -82.5t86 -29.5q57 0 105 28.5t96 91.5q-7 35 -7 66q0 40 9 82h-115zM559 761l9 -23l-190 -84l-7 15z" />
    <glyph glyph-name="Oslashacute" unicode="&#x1fe;" horiz-adv-x="689" 
d="M598.5 581q31.5 -62 31.5 -154q0 -99 -31.5 -199t-104 -169t-186.5 -69q-49 0 -88 15l-50 -116l-20 7l52 117q-57 29 -88 91t-31 153q0 96 32.5 196t105 169t183.5 69q46 0 86 -14l52 121l21 -6l-55 -122q59 -27 90.5 -89zM133.5 115.5q27.5 -56.5 79.5 -82.5l270 625
q-33 13 -79 13q-104 0 -171 -66.5t-97 -162.5t-30 -187q0 -83 27.5 -139.5zM483 78.5q67 66.5 95 161.5t28 188q0 85 -27.5 141.5t-79.5 81.5l-271 -625q37 -14 80 -14q108 0 175 66.5zM501 861l9 -25l-189 -72l-6 15z" />
    <glyph glyph-name="oslashacute" unicode="&#x1ff;" horiz-adv-x="561" 
d="M471.5 438q21.5 -46 21.5 -111q0 -74 -24.5 -151.5t-80.5 -131.5t-144 -54q-39 0 -73 13l-59 -121l-19 5l60 125q-41 24 -62.5 71t-21.5 113q0 75 25 151.5t81 129t143 52.5q42 0 74 -13l57 123l19 -6l-58 -126q40 -23 61.5 -69zM109.5 93.5q18.5 -41.5 54.5 -62.5
l219 466q-28 12 -65 12q-80 0 -131 -50.5t-73.5 -122.5t-22.5 -141q0 -60 18.5 -101.5zM375 61q51 50 73.5 122.5t22.5 143.5q0 119 -71 162l-220 -466q29 -12 64 -12q80 0 131 50zM433 761l9 -23l-190 -84l-7 15z" />
    <glyph glyph-name="uni0200" unicode="&#x200;" horiz-adv-x="557" 
d="M469 0l-41 203h-315l-98 -203h-24l333 681h27l142 -681h-24zM123 224h301l-89 438zM257 917l53 -130l-18 -9l-59 128zM367 916l47 -126l-18 -8l-54 122z" />
    <glyph glyph-name="uni0201" unicode="&#x201;" horiz-adv-x="548" 
d="M406 518.5q34 -10.5 67 -30.5l-54 -376q-4 -32 -4 -44q0 -23 8 -38t28 -23l-7 -17q-25 10 -37 28.5t-12 49.5q0 7 2 29q-31 -50 -75 -78.5t-94 -28.5q-75 0 -117.5 53.5t-42.5 146.5q0 78 26.5 156t85 130.5t148.5 52.5q44 0 78 -10.5zM192.5 460q-53.5 -50 -78 -123.5
t-24.5 -145.5q0 -85 36 -132.5t102 -47.5q102 0 172 124l49 342q-53 33 -121 33q-82 0 -135.5 -50zM260 791l53 -130l-18 -9l-59 128zM370 790l47 -126l-18 -8l-54 122z" />
    <glyph glyph-name="uni0202" unicode="&#x202;" horiz-adv-x="557" 
d="M469 0l-41 203h-315l-98 -203h-24l333 681h27l142 -681h-24zM123 224h301l-89 438zM243 802q12 38 44 61.5t75 23.5t69 -24t28 -63l-17 -2q-5 33 -25.5 50.5t-55.5 17.5q-36 0 -62.5 -18t-40.5 -51z" />
    <glyph glyph-name="uni0203" unicode="&#x203;" horiz-adv-x="548" 
d="M406 518.5q34 -10.5 67 -30.5l-54 -376q-4 -32 -4 -44q0 -23 8 -38t28 -23l-7 -17q-25 10 -37 28.5t-12 49.5q0 7 2 29q-31 -50 -75 -78.5t-94 -28.5q-75 0 -117.5 53.5t-42.5 146.5q0 78 26.5 156t85 130.5t148.5 52.5q44 0 78 -10.5zM192.5 460q-53.5 -50 -78 -123.5
t-24.5 -145.5q0 -85 36 -132.5t102 -47.5q102 0 172 124l49 342q-53 33 -121 33q-82 0 -135.5 -50zM242 640q12 38 44 61.5t75 23.5t69 -24t28 -63l-17 -2q-5 33 -25.5 50.5t-55.5 17.5q-36 0 -62.5 -18t-40.5 -51z" />
    <glyph glyph-name="uni0204" unicode="&#x204;" horiz-adv-x="494" 
d="M503 681l-6 -21h-295l-41 -290h255l-3 -21h-255l-46 -328h306l-4 -21h-328l96 681h321zM265 917l53 -130l-18 -9l-59 128zM375 916l47 -126l-18 -8l-54 122z" />
    <glyph glyph-name="uni0205" unicode="&#x205;" horiz-adv-x="509" 
d="M374 274q-97 -49 -284 -60v-18q0 -92 41 -138.5t113 -46.5q45 0 79.5 13.5t75.5 42.5l12 -16q-41 -31 -80.5 -46t-86.5 -15q-83 0 -129.5 53t-46.5 152q0 76 28 153t87 129t145 52q65 0 104 -32t39 -86q0 -88 -97 -137zM205 468q-51 -41 -78.5 -103.5t-34.5 -130.5
q356 21 356 176q0 46 -31.5 72.5t-88.5 26.5q-72 0 -123 -41zM233 791l53 -130l-18 -9l-59 128zM343 790l47 -126l-18 -8l-54 122z" />
    <glyph glyph-name="uni0206" unicode="&#x206;" horiz-adv-x="494" 
d="M503 681l-6 -21h-295l-41 -290h255l-3 -21h-255l-46 -328h306l-4 -21h-328l96 681h321zM251 802q12 38 44 61.5t75 23.5t69 -24t28 -63l-17 -2q-5 33 -25.5 50.5t-55.5 17.5q-36 0 -62.5 -18t-40.5 -51z" />
    <glyph glyph-name="uni0207" unicode="&#x207;" horiz-adv-x="509" 
d="M374 274q-97 -49 -284 -60v-18q0 -92 41 -138.5t113 -46.5q45 0 79.5 13.5t75.5 42.5l12 -16q-41 -31 -80.5 -46t-86.5 -15q-83 0 -129.5 53t-46.5 152q0 76 28 153t87 129t145 52q65 0 104 -32t39 -86q0 -88 -97 -137zM205 468q-51 -41 -78.5 -103.5t-34.5 -130.5
q356 21 356 176q0 46 -31.5 72.5t-88.5 26.5q-72 0 -123 -41zM215 640q12 38 44 61.5t75 23.5t69 -24t28 -63l-17 -2q-5 33 -25.5 50.5t-55.5 17.5q-36 0 -62.5 -18t-40.5 -51z" />
    <glyph glyph-name="uni0208" unicode="&#x208;" horiz-adv-x="268" 
d="M205 681l-96 -681h-23l96 681h23zM113 917l53 -130l-18 -9l-59 128zM223 916l47 -126l-18 -8l-54 122z" />
    <glyph glyph-name="uni0209" unicode="&#x209;" horiz-adv-x="258" 
d="M177 519l-74 -519h-22l74 519h22zM89 791l53 -130l-18 -9l-59 128zM199 790l47 -126l-18 -8l-54 122z" />
    <glyph glyph-name="uni020A" unicode="&#x20a;" horiz-adv-x="268" 
d="M205 681l-96 -681h-23l96 681h23zM99 802q12 38 44 61.5t75 23.5t69 -24t28 -63l-17 -2q-5 33 -25.5 50.5t-55.5 17.5q-36 0 -62.5 -18t-40.5 -51z" />
    <glyph glyph-name="uni020B" unicode="&#x20b;" horiz-adv-x="258" 
d="M177 519l-74 -519h-22l74 519h22zM71 640q12 38 44 61.5t75 23.5t69 -24t28 -63l-17 -2q-5 33 -25.5 50.5t-55.5 17.5q-36 0 -62.5 -18t-40.5 -51z" />
    <glyph glyph-name="uni020C" unicode="&#x20c;" horiz-adv-x="689" 
d="M570 623q60 -68 60 -196q0 -99 -31.5 -199t-104 -169t-186.5 -69q-105 0 -165 69.5t-60 197.5q0 96 32.5 196t105 169t183.5 69q106 0 166 -68zM233 604.5q-67 -66.5 -97 -162t-30 -186.5q0 -118 53.5 -181t148.5 -63q108 0 175 66.5t95 161.5t28 187q0 119 -53 181.5
t-149 62.5q-104 0 -171 -66.5zM322 917l53 -130l-18 -9l-59 128zM432 916l47 -126l-18 -8l-54 122z" />
    <glyph glyph-name="uni020D" unicode="&#x20d;" horiz-adv-x="561" 
d="M115 44q-46 54 -46 152q0 75 25 151.5t81 129t143 52.5q83 0 129 -52t46 -150q0 -74 -24.5 -151.5t-80.5 -131.5t-144 -54q-83 0 -129 54zM375 61q51 50 73.5 122.5t22.5 143.5q0 88 -39.5 135t-113.5 47q-80 0 -131 -50.5t-73.5 -122.5t-22.5 -141q0 -88 40 -136
t113 -48q80 0 131 50zM241 791l53 -130l-18 -9l-59 128zM351 790l47 -126l-18 -8l-54 122z" />
    <glyph glyph-name="uni020E" unicode="&#x20e;" horiz-adv-x="689" 
d="M570 623q60 -68 60 -196q0 -99 -31.5 -199t-104 -169t-186.5 -69q-105 0 -165 69.5t-60 197.5q0 96 32.5 196t105 169t183.5 69q106 0 166 -68zM233 604.5q-67 -66.5 -97 -162t-30 -186.5q0 -118 53.5 -181t148.5 -63q108 0 175 66.5t95 161.5t28 187q0 119 -53 181.5
t-149 62.5q-104 0 -171 -66.5zM308 802q12 38 44 61.5t75 23.5t69 -24t28 -63l-17 -2q-5 33 -25.5 50.5t-55.5 17.5q-36 0 -62.5 -18t-40.5 -51z" />
    <glyph glyph-name="uni020F" unicode="&#x20f;" horiz-adv-x="561" 
d="M115 44q-46 54 -46 152q0 75 25 151.5t81 129t143 52.5q83 0 129 -52t46 -150q0 -74 -24.5 -151.5t-80.5 -131.5t-144 -54q-83 0 -129 54zM375 61q51 50 73.5 122.5t22.5 143.5q0 88 -39.5 135t-113.5 47q-80 0 -131 -50.5t-73.5 -122.5t-22.5 -141q0 -88 40 -136
t113 -48q80 0 131 50zM223 640q12 38 44 61.5t75 23.5t69 -24t28 -63l-17 -2q-5 33 -25.5 50.5t-55.5 17.5q-36 0 -62.5 -18t-40.5 -51z" />
    <glyph glyph-name="uni0210" unicode="&#x210;" horiz-adv-x="572" 
d="M486 397q-47 -58 -141 -71l146 -326h-25l-145 324h-166l-46 -324h-23l96 681h154q197 0 197 -150q0 -76 -47 -134zM302 345q72 0 118.5 27t67.5 69t21 90q0 64 -41.5 96.5t-134.5 32.5h-131l-44 -315h144zM265 917l53 -130l-18 -9l-59 128zM375 916l47 -126l-18 -8
l-54 122z" />
    <glyph glyph-name="uni0211" unicode="&#x211;" horiz-adv-x="362" 
d="M381 522l-6 -19q-20 6 -42 6q-60 0 -102.5 -44.5t-81.5 -140.5l-46 -324h-22l74 519h19l-21 -148q32 80 75 119t105 39q22 0 48 -7zM189 791l53 -130l-18 -9l-59 128zM299 790l47 -126l-18 -8l-54 122z" />
    <glyph glyph-name="uni0212" unicode="&#x212;" horiz-adv-x="572" 
d="M486 397q-47 -58 -141 -71l146 -326h-25l-145 324h-166l-46 -324h-23l96 681h154q197 0 197 -150q0 -76 -47 -134zM302 345q72 0 118.5 27t67.5 69t21 90q0 64 -41.5 96.5t-134.5 32.5h-131l-44 -315h144zM251 802q12 38 44 61.5t75 23.5t69 -24t28 -63l-17 -2
q-5 33 -25.5 50.5t-55.5 17.5q-36 0 -62.5 -18t-40.5 -51z" />
    <glyph glyph-name="uni0213" unicode="&#x213;" horiz-adv-x="362" 
d="M381 522l-6 -19q-20 6 -42 6q-60 0 -102.5 -44.5t-81.5 -140.5l-46 -324h-22l74 519h19l-21 -148q32 80 75 119t105 39q22 0 48 -7zM171 640q12 38 44 61.5t75 23.5t69 -24t28 -63l-17 -2q-5 33 -25.5 50.5t-55.5 17.5q-36 0 -62.5 -18t-40.5 -51z" />
    <glyph glyph-name="uni0214" unicode="&#x214;" horiz-adv-x="641" 
d="M521 207q-14 -100 -73 -158.5t-163 -58.5q-93 0 -138 45.5t-45 124.5q0 14 4 48l66 473h23l-66 -472q-3 -24 -3 -46q0 -72 38.5 -111.5t120.5 -39.5q95 0 148 53.5t65 144.5l66 471h23zM299 917l53 -130l-18 -9l-59 128zM409 916l47 -126l-18 -8l-54 122z" />
    <glyph glyph-name="uni0215" unicode="&#x215;" horiz-adv-x="576" 
d="M126.5 22.5q-31.5 32.5 -31.5 92.5q0 17 3 35l51 369h22l-51 -369q-3 -19 -3 -36q0 -51 26.5 -77t73.5 -26q64 0 118 51.5t94 141.5l44 315h22l-73 -519h-17l21 164q-35 -80 -90 -127t-121 -47q-57 0 -88.5 32.5zM245 791l53 -130l-18 -9l-59 128zM355 790l47 -126
l-18 -8l-54 122z" />
    <glyph glyph-name="uni0216" unicode="&#x216;" horiz-adv-x="641" 
d="M521 207q-14 -100 -73 -158.5t-163 -58.5q-93 0 -138 45.5t-45 124.5q0 14 4 48l66 473h23l-66 -472q-3 -24 -3 -46q0 -72 38.5 -111.5t120.5 -39.5q95 0 148 53.5t65 144.5l66 471h23zM285 802q12 38 44 61.5t75 23.5t69 -24t28 -63l-17 -2q-5 33 -25.5 50.5t-55.5 17.5
q-36 0 -62.5 -18t-40.5 -51z" />
    <glyph glyph-name="uni0217" unicode="&#x217;" horiz-adv-x="576" 
d="M126.5 22.5q-31.5 32.5 -31.5 92.5q0 17 3 35l51 369h22l-51 -369q-3 -19 -3 -36q0 -51 26.5 -77t73.5 -26q64 0 118 51.5t94 141.5l44 315h22l-73 -519h-17l21 164q-35 -80 -90 -127t-121 -47q-57 0 -88.5 32.5zM227 640q12 38 44 61.5t75 23.5t69 -24t28 -63l-17 -2
q-5 33 -25.5 50.5t-55.5 17.5q-36 0 -62.5 -18t-40.5 -51z" />
    <glyph glyph-name="Scommaaccent" unicode="&#x218;" horiz-adv-x="536" 
d="M420.5 673q40.5 -18 74.5 -52l-14 -15q-33 34 -70 49.5t-87 15.5q-58 0 -99.5 -20.5t-63 -55t-21.5 -74.5q0 -55 33.5 -85.5t116.5 -56.5q88 -29 128 -69.5t40 -109.5q0 -49 -25 -97.5t-78.5 -80.5t-132.5 -32q-64 0 -110 21t-84 62l15 14q35 -37 77 -56t101 -19
q75 0 123 29.5t69.5 72.5t21.5 86q0 61 -36 96.5t-118 62.5q-91 30 -127.5 65.5t-36.5 96.5q0 44 23.5 83t70.5 63t113 24q56 0 96.5 -18zM233 -102q6 -6 6 -15t-3.5 -17.5t-15.5 -29.5l-48 -94h-16l48 116q-14 6 -14 21q0 11 7.5 18t19.5 7q10 0 16 -6z" />
    <glyph glyph-name="scommaaccent" unicode="&#x219;" horiz-adv-x="460" 
d="M340 516q36 -13 67 -40l-15 -14q-30 24 -61 35.5t-73 11.5q-64 0 -104.5 -30t-40.5 -81q0 -39 26.5 -64.5t98.5 -47.5q78 -25 110.5 -57.5t32.5 -85.5q0 -66 -48.5 -109.5t-138.5 -43.5q-58 0 -98.5 17.5t-74.5 48.5l13 14q35 -29 71 -44t87 -15q73 0 119.5 33.5
t46.5 97.5q0 46 -27.5 74t-101.5 51q-78 25 -108.5 55.5t-30.5 75.5q0 58 48 94.5t120 36.5q46 0 82 -13zM197 -102q6 -6 6 -15t-3.5 -17.5t-15.5 -29.5l-48 -94h-16l48 116q-14 6 -14 21q0 11 7.5 18t19.5 7q10 0 16 -6z" />
    <glyph glyph-name="uni021A" unicode="&#x21a;" horiz-adv-x="476" 
d="M522 681l-7 -22h-210l-93 -659h-22l93 659h-210l2 22h447zM210 -102q6 -6 6 -15t-3.5 -17.5t-15.5 -29.5l-48 -94h-16l48 116q-14 6 -14 21q0 11 7.5 18t19.5 7q10 0 16 -6z" />
    <glyph glyph-name="uni021B" unicode="&#x21b;" horiz-adv-x="324" 
d="M114 118q-2 -20 -2 -29q0 -79 77 -79q45 0 95 27l8 -17q-53 -30 -105 -30q-46 0 -71.5 25.5t-25.5 73.5q0 8 2 28l53 382h-85l2 20h86l24 131l17 2l-19 -133h144l-6 -20h-140zM197 -102q6 -6 6 -15t-3.5 -17.5t-15.5 -29.5l-48 -94h-16l48 116q-14 6 -14 21q0 11 7.5 18
t19.5 7q10 0 16 -6z" />
    <glyph glyph-name="uni021C" unicode="&#x21c;" horiz-adv-x="494" 
d="M407.5 651q42.5 -40 42.5 -109q0 -75 -44.5 -121.5t-116.5 -59.5q64 -6 101 -39t37 -97q0 -124 -107 -193.5t-299 -111.5v20q179 40 280.5 106t101.5 178q0 128 -167 126l-60 -1l6 21h51q57 0 101 22t68.5 61t24.5 89q0 61 -36 94.5t-99 33.5q-55 0 -102.5 -20t-94.5 -57
l-13 16q51 41 101 61.5t109 20.5q73 0 115.5 -40z" />
    <glyph glyph-name="uni021D" unicode="&#x21d;" horiz-adv-x="448" 
d="M340 495.5q37 -33.5 37 -89.5q0 -59 -36 -95.5t-99 -44.5q126 -2 126 -100q0 -175 -340 -253l-3 18q147 36 233.5 91.5t86.5 143.5q0 46 -33.5 67.5t-104.5 21.5h-66l5 19h42q77 0 122 35.5t45 96.5q0 48 -30.5 75.5t-87.5 27.5q-46 0 -81.5 -11.5t-78.5 -36.5l-11 16
q84 52 171 52q66 0 103 -33.5z" />
    <glyph glyph-name="uni021E" unicode="&#x21e;" horiz-adv-x="660" 
d="M109 0h-23l96 681h23l-44 -309h369l43 309h23l-96 -681h-23l50 351h-369zM526 863l10 -13l-132 -90h-12l-107 90l12 12l104 -78z" />
    <glyph glyph-name="uni021F" unicode="&#x21f;" horiz-adv-x="581" 
d="M457.5 498q29.5 -31 29.5 -90q0 -18 -3 -39l-52 -369h-22l52 367q3 21 3 39q0 104 -99 104q-62 0 -115.5 -49.5t-102.5 -145.5l-45 -315h-22l104 733l22 3l-53 -377q42 84 97.5 127t117.5 43q59 0 88.5 -31zM490 914l10 -13l-132 -90h-12l-107 90l12 12l104 -78z" />
    <glyph glyph-name="uni0220" unicode="&#x220;" horiz-adv-x="651" 
d="M534 653.5q38 -37.5 38 -109.5q0 -13 -4 -47l-96 -689h-23l96 687q3 26 3 46q0 65 -31.5 97t-90.5 32q-71 0 -129.5 -35t-112.5 -98l-75 -537h-23l96 681h20l-14 -113q109 123 239 123q69 0 107 -37.5z" />
    <glyph glyph-name="uni0221" unicode="&#x221;" horiz-adv-x="651" 
d="M638.5 161q22.5 -21 22.5 -55q0 -50 -42 -83t-104 -33q-65 0 -92 41l-60 -87l-17 8l68 97q-7 17 -7 43q0 8 2 26l2 11q-75 -139 -189 -139q-71 0 -112.5 53t-41.5 147q0 76 24.5 154t79 131.5t139.5 53.5q55 0 90 -24t54 -60l41 291l22 -3l-87 -616q-2 -18 -2 -26l1 -16
q36 55 69.5 81t78.5 26q38 0 60.5 -21zM328.5 52q44.5 41 87.5 117l35 247q-44 93 -140 93q-76 0 -126 -50t-72.5 -123t-22.5 -145q0 -85 35.5 -132.5t96.5 -47.5q62 0 106.5 41zM603.5 36.5q35.5 25.5 35.5 69.5q0 26 -17 41t-46 15q-37 0 -68 -24.5t-71 -86.5
q18 -40 79 -40q52 0 87.5 25.5z" />
    <glyph glyph-name="uni0222" unicode="&#x222;" horiz-adv-x="628" 
d="M502.5 442q-34.5 -45 -99.5 -61q70 -14 105.5 -55.5t35.5 -106.5q0 -68 -34 -120t-94.5 -80.5t-137.5 -28.5q-103 0 -157.5 46.5t-54.5 123.5q0 86 53 145.5t142 76.5q-96 28 -96 134q0 20 3 41l18 124h22l-17 -125q-3 -21 -3 -40q0 -64 35 -94.5t109 -30.5
q93 0 137 44.5t55 121.5l17 124h23l-17 -125q-10 -69 -44.5 -114zM472.5 330.5q-47.5 39.5 -141.5 39.5q-72 0 -127 -26.5t-85 -74t-30 -109.5q0 -68 48 -108t141 -40q111 0 176.5 56t65.5 151q0 72 -47.5 111.5z" />
    <glyph glyph-name="uni0223" unicode="&#x223;" horiz-adv-x="556" 
d="M355 410q61 -13 92 -55.5t31 -107.5q0 -73 -29.5 -131.5t-83 -92t-124.5 -33.5q-83 0 -130.5 47t-47.5 127q0 92 49.5 160t131.5 86q-45 12 -67.5 44.5t-22.5 82.5q0 20 3 41l22 154h22l-23 -156q-3 -19 -3 -38q0 -57 31 -88t93 -31q78 0 119.5 43.5t51.5 115.5l22 154
h22l-22 -156q-20 -138 -137 -166zM416.5 359q-39.5 40 -117.5 40q-65 0 -113.5 -31.5t-74.5 -85t-26 -118.5q0 -72 41 -112.5t116 -40.5q65 0 113.5 31t74.5 84.5t26 120.5q0 72 -39.5 112z" />
    <glyph glyph-name="uni0224" unicode="&#x224;" horiz-adv-x="509" 
d="M516 662l-480 -640h375l-3 -22l-12 -87q-8 -54 -38.5 -82t-74.5 -28q-47 0 -84 31l12 15q15 -12 31.5 -18.5t40.5 -6.5q34 0 58.5 22t31.5 70l12 84h-380l3 21l479 639h-352l3 21h380z" />
    <glyph glyph-name="uni0225" unicode="&#x225;" horiz-adv-x="410" 
d="M407 501l-380 -480h305l-3 -21l-13 -87q-8 -54 -38.5 -82t-74.5 -28q-47 0 -84 31l13 14q15 -12 31 -18.5t40 -6.5q36 0 60.5 22t30.5 70l13 85h-312l3 18l381 481h-287l3 20h315z" />
    <glyph glyph-name="uni0226" unicode="&#x226;" horiz-adv-x="557" 
d="M469 0l-41 203h-315l-98 -203h-24l333 681h27l142 -681h-24zM123 224h301l-89 438zM345 815.5q-5 4.5 -5 12.5q0 9 6 15.5t15 6.5t14 -5t5 -13t-6 -14.5t-16 -6.5q-8 0 -13 4.5z" />
    <glyph glyph-name="uni0227" unicode="&#x227;" horiz-adv-x="548" 
d="M406 518.5q34 -10.5 67 -30.5l-54 -376q-4 -32 -4 -44q0 -23 8 -38t28 -23l-7 -17q-25 10 -37 28.5t-12 49.5q0 7 2 29q-31 -50 -75 -78.5t-94 -28.5q-75 0 -117.5 53.5t-42.5 146.5q0 78 26.5 156t85 130.5t148.5 52.5q44 0 78 -10.5zM192.5 460q-53.5 -50 -78 -123.5
t-24.5 -145.5q0 -85 36 -132.5t102 -47.5q102 0 172 124l49 342q-53 33 -121 33q-82 0 -135.5 -50zM349 689.5q-5 4.5 -5 12.5q0 9 6 15.5t15 6.5t14 -5t5 -13t-6 -14.5t-16 -6.5q-8 0 -13 4.5z" />
    <glyph glyph-name="uni0228" unicode="&#x228;" horiz-adv-x="494" 
d="M202 660l-41 -290h255l-3 -21h-255l-46 -328h306l-4 -21h-159l-14 -74q43 -3 63.5 -18t20.5 -45q0 -34 -26.5 -54.5t-66.5 -20.5t-67 18l10 16q23 -14 57 -14q32 0 51 14.5t19 39.5t-19 35.5t-64 11.5l19 91h-152l96 681h321l-6 -21h-295z" />
    <glyph glyph-name="uni0229" unicode="&#x229;" horiz-adv-x="509" 
d="M374 274q-97 -49 -284 -60v-18q0 -92 41 -138.5t113 -46.5q45 0 79.5 13.5t75.5 42.5l12 -16q-41 -31 -80.5 -46t-86.5 -15h-2l-12 -64q43 -3 63.5 -18.5t20.5 -45.5q0 -34 -26 -54t-67 -20q-40 0 -67 18l10 16q23 -14 57 -14q32 0 51 14t19 40q0 25 -19 35.5t-64 11.5
l16 82q-74 6 -115 58.5t-41 145.5q0 76 28 153t87 129t145 52q65 0 104 -32t39 -86q0 -88 -97 -137zM205 468q-51 -41 -78.5 -103.5t-34.5 -130.5q356 21 356 176q0 46 -31.5 72.5t-88.5 26.5q-72 0 -123 -41z" />
    <glyph glyph-name="uni022A" unicode="&#x22a;" horiz-adv-x="689" 
d="M570 623q60 -68 60 -196q0 -99 -31.5 -199t-104 -169t-186.5 -69q-105 0 -165 69.5t-60 197.5q0 96 32.5 196t105 169t183.5 69q106 0 166 -68zM233 604.5q-67 -66.5 -97 -162t-30 -186.5q0 -118 53.5 -181t148.5 -63q108 0 175 66.5t95 161.5t28 187q0 119 -53 181.5
t-149 62.5q-104 0 -171 -66.5zM315 746.5q-5 4.5 -5 12.5q0 9 6 15.5t15 6.5t14 -5t5 -13t-6.5 -14.5t-15.5 -6.5q-8 0 -13 4.5zM480 746.5q-5 4.5 -5 12.5q0 9 6 15.5t16 6.5q8 0 13 -5t5 -13q0 -9 -6 -15t-16 -6q-8 0 -13 4.5zM525 850h-207l3 21h207z" />
    <glyph glyph-name="uni022B" unicode="&#x22b;" horiz-adv-x="561" 
d="M115 44q-46 54 -46 152q0 75 25 151.5t81 129t143 52.5q83 0 129 -52t46 -150q0 -74 -24.5 -151.5t-80.5 -131.5t-144 -54q-83 0 -129 54zM375 61q51 50 73.5 122.5t22.5 143.5q0 88 -39.5 135t-113.5 47q-80 0 -131 -50.5t-73.5 -122.5t-22.5 -141q0 -88 40 -136
t113 -48q80 0 131 50zM240 647.5q-5 4.5 -5 12.5q0 9 6 15.5t15 6.5t14 -5t5 -13t-6.5 -14.5t-15.5 -6.5q-8 0 -13 4.5zM405 647.5q-5 4.5 -5 12.5q0 9 6 15.5t16 6.5q8 0 13 -5t5 -13q0 -9 -6 -15t-16 -6q-8 0 -13 4.5zM451 753h-207l3 21h207z" />
    <glyph glyph-name="uni022C" unicode="&#x22c;" horiz-adv-x="689" 
d="M533 878h-207l3 21h207zM447 762.5q-13 5.5 -34 17.5q-16 10 -27 15t-23 5q-19 0 -31.5 -7.5t-33.5 -28.5l-13 10q20 23 39 34.5t39 11.5q14 0 25.5 -5t31.5 -16q16 -11 29 -16.5t27 -5.5q16 0 31 9.5t33 31.5l14 -9q-20 -28 -38.5 -40t-39.5 -12q-16 0 -29 5.5zM570 623
q60 -68 60 -196q0 -99 -31.5 -199t-104 -169t-186.5 -69q-105 0 -165 69.5t-60 197.5q0 96 32.5 196t105 169t183.5 69q106 0 166 -68zM233 604.5q-67 -66.5 -97 -162t-30 -186.5q0 -118 53.5 -181t148.5 -63q108 0 175 66.5t95 161.5t28 187q0 119 -53 181.5t-149 62.5
q-104 0 -171 -66.5z" />
    <glyph glyph-name="uni022D" unicode="&#x22d;" horiz-adv-x="561" 
d="M115 44q-46 54 -46 152q0 75 25 151.5t81 129t143 52.5q83 0 129 -52t46 -150q0 -74 -24.5 -151.5t-80.5 -131.5t-144 -54q-83 0 -129 54zM375 61q51 50 73.5 122.5t22.5 143.5q0 88 -39.5 135t-113.5 47q-80 0 -131 -50.5t-73.5 -122.5t-22.5 -141q0 -88 40 -136
t113 -48q80 0 131 50zM356 610.5q-13 5.5 -34 17.5q-16 10 -27 15t-23 5q-19 0 -31.5 -7.5t-33.5 -28.5l-13 10q20 23 39 34.5t39 11.5q14 0 26 -5t30 -16t30.5 -16.5t26.5 -5.5q16 0 31 9.5t33 31.5l14 -9q-20 -28 -38.5 -40t-39.5 -12q-16 0 -29 5.5zM438 728h-207l3 21
h207z" />
    <glyph glyph-name="uni022E" unicode="&#x22e;" horiz-adv-x="689" 
d="M570 623q60 -68 60 -196q0 -99 -31.5 -199t-104 -169t-186.5 -69q-105 0 -165 69.5t-60 197.5q0 96 32.5 196t105 169t183.5 69q106 0 166 -68zM233 604.5q-67 -66.5 -97 -162t-30 -186.5q0 -118 53.5 -181t148.5 -63q108 0 175 66.5t95 161.5t28 187q0 119 -53 181.5
t-149 62.5q-104 0 -171 -66.5zM410 815.5q-5 4.5 -5 12.5q0 9 6 15.5t15 6.5t14 -5t5 -13t-6 -14.5t-16 -6.5q-8 0 -13 4.5z" />
    <glyph glyph-name="uni022F" unicode="&#x22f;" horiz-adv-x="561" 
d="M115 44q-46 54 -46 152q0 75 25 151.5t81 129t143 52.5q83 0 129 -52t46 -150q0 -74 -24.5 -151.5t-80.5 -131.5t-144 -54q-83 0 -129 54zM375 61q51 50 73.5 122.5t22.5 143.5q0 88 -39.5 135t-113.5 47q-80 0 -131 -50.5t-73.5 -122.5t-22.5 -141q0 -88 40 -136
t113 -48q80 0 131 50zM330 689.5q-5 4.5 -5 12.5q0 9 6 15.5t15 6.5t14 -5t5 -13t-6 -14.5t-16 -6.5q-8 0 -13 4.5z" />
    <glyph glyph-name="uni0230" unicode="&#x230;" horiz-adv-x="689" 
d="M570 623q60 -68 60 -196q0 -99 -31.5 -199t-104 -169t-186.5 -69q-105 0 -165 69.5t-60 197.5q0 96 32.5 196t105 169t183.5 69q106 0 166 -68zM233 604.5q-67 -66.5 -97 -162t-30 -186.5q0 -118 53.5 -181t148.5 -63q108 0 175 66.5t95 161.5t28 187q0 119 -53 181.5
t-149 62.5q-104 0 -171 -66.5zM397 751.5q-5 4.5 -5 12.5q0 9 6 15.5t15 6.5t14 -5t5 -13t-6 -14.5t-16 -6.5q-8 0 -13 4.5zM527 849h-207l3 21h207z" />
    <glyph glyph-name="uni0231" unicode="&#x231;" horiz-adv-x="561" 
d="M115 44q-46 54 -46 152q0 75 25 151.5t81 129t143 52.5q83 0 129 -52t46 -150q0 -74 -24.5 -151.5t-80.5 -131.5t-144 -54q-83 0 -129 54zM375 61q51 50 73.5 122.5t22.5 143.5q0 88 -39.5 135t-113.5 47q-80 0 -131 -50.5t-73.5 -122.5t-22.5 -141q0 -88 40 -136
t113 -48q80 0 131 50zM321 636.5q-5 4.5 -5 12.5q0 9 6 15.5t15 6.5t14 -5t5 -13t-6 -14.5t-16 -6.5q-8 0 -13 4.5zM451 745h-207l3 21h207z" />
    <glyph glyph-name="uni0232" unicode="&#x232;" horiz-adv-x="494" 
d="M532 681l-271 -410l-38 -271h-23l38 270l-158 411h25l146 -388l254 388h27zM425 811h-207l3 21h207z" />
    <glyph glyph-name="uni0233" unicode="&#x233;" horiz-adv-x="444" 
d="M205 -2q-30 -61 -55.5 -96t-61 -58t-92.5 -39l-2 19q53 15 84.5 35.5t53 51t51.5 89.5h-10l-113 519h23l108 -503l242 503h25zM379 685h-207l3 21h207z" />
    <glyph glyph-name="uni0234" unicode="&#x234;" horiz-adv-x="334" 
d="M321.5 161q22.5 -21 22.5 -55q0 -50 -42 -83t-103 -33q-65 0 -92 41l-61 -87l-17 8l68 98q-6 18 -6 40q0 8 2 26l87 617l22 3l-88 -620q-2 -20 -2 -27q0 -10 1 -15q35 55 69 81.5t79 26.5q38 0 60.5 -21zM286.5 36.5q35.5 25.5 35.5 69.5q0 26 -16.5 41t-45.5 15
q-37 0 -68.5 -25t-72.5 -87q17 -39 80 -39q52 0 87.5 25.5z" />
    <glyph glyph-name="uni0235" unicode="&#x235;" horiz-adv-x="668" 
d="M655.5 161q22.5 -21 22.5 -55q0 -50 -42 -83t-104 -33q-66 0 -92 40l-60 -86l-17 8l68 97q-7 17 -7 42q0 7 2 25l36 251q3 21 3 38q0 105 -97 105q-62 0 -116.5 -50t-103.5 -145l-45 -315h-22l74 519h18l-20 -161q44 85 99 128t117 43q58 0 88 -31.5t30 -90.5
q0 -18 -3 -38l-36 -253q-2 -20 -2 -27q0 -10 1 -15q35 55 69 81.5t79 26.5q38 0 60.5 -21zM620.5 36.5q35.5 25.5 35.5 69.5q0 26 -17 41t-46 15q-37 0 -68.5 -25t-71.5 -86q17 -40 80 -40q52 0 87.5 25.5z" />
    <glyph glyph-name="uni0236" unicode="&#x236;" horiz-adv-x="333" 
d="M320.5 161q22.5 -21 22.5 -55q0 -50 -41.5 -83t-103.5 -33q-65 0 -92 41l-60 -87l-17 8l68 97q-7 17 -7 42q0 7 2 25l53 383h-85l2 20h86l24 131l17 2l-19 -133h144l-6 -20h-140l-54 -384q-3 -26 -2 -41q35 55 69.5 81.5t79.5 26.5q37 0 59.5 -21zM286 36.5
q35 25.5 35 69.5q0 26 -16.5 41t-45.5 15q-37 0 -68 -25t-72 -87q16 -39 80 -39q52 0 87 25.5z" />
    <glyph glyph-name="uni0237" unicode="&#x237;" horiz-adv-x="258" 
d="M-41 -178q40 20 63.5 40t38 54t22.5 91l72 512h22l-72 -514q-9 -63 -25.5 -99t-42.5 -57.5t-72 -43.5z" />
    <glyph glyph-name="uni0238" unicode="&#x238;" horiz-adv-x="837" 
d="M731.5 480q37.5 -49 37.5 -140q0 -88 -25.5 -168.5t-75.5 -131t-121 -50.5q-49 0 -84.5 31t-53.5 83l-17 -104h-16l11 104q-66 -114 -169 -114q-69 0 -109.5 53t-40.5 148q0 85 28.5 163t81.5 126.5t123 48.5q88 0 133 -91l42 295l22 3l-42 -300q34 43 78 68t92 25
q68 0 105.5 -49zM314.5 43.5q41.5 32.5 78.5 100.5l38 269q-27 48 -56 72t-73 24q-64 0 -112 -46t-73.5 -119.5t-25.5 -152.5q0 -86 34 -133t94 -47q54 0 95.5 32.5zM656.5 59.5q45.5 48.5 68 124.5t22.5 157q0 82 -31 125t-90 43q-49 0 -91.5 -26t-82.5 -74l-38 -267
q37 -131 133 -131q64 0 109.5 48.5z" />
    <glyph glyph-name="uni0239" unicode="&#x239;" horiz-adv-x="837" 
d="M732 480q37 -49 37 -140q0 -88 -25.5 -168.5t-75.5 -131t-120 -50.5q-49 0 -85.5 29t-54.5 76l-40 -287l-23 -4l41 287q-70 -101 -167 -101q-70 0 -110.5 53t-40.5 148q0 86 28.5 164t82 126t124.5 48q88 0 132 -94l14 84h16l-9 -84q79 94 172 94q67 0 104 -49zM312 40.5
q41 29.5 79 86.5l40 282q-46 100 -127 100q-65 0 -113.5 -46t-74 -119.5t-25.5 -152.5q0 -86 34 -133t94 -47q52 0 93 29.5zM657 59.5q45 48.5 67.5 124t22.5 156.5q0 82 -31 125.5t-88 43.5q-50 0 -91 -25.5t-85 -75.5l-39 -282q21 -56 54.5 -85.5t79.5 -29.5
q65 0 110 48.5z" />
    <glyph glyph-name="uni023A" unicode="&#x23a;" horiz-adv-x="557" 
d="M469 0l-41 203h-180l-108 -269l-17 4l106 265h-116l-98 -203h-24l333 681h27l24 -116l69 172l17 -5l-79 -198l111 -534h-24zM123 224h115l123 307l-26 131zM257 224h167l-56 276z" />
    <glyph glyph-name="uni023B" unicode="&#x23b;" horiz-adv-x="538" 
d="M457 665l-252 -627q44 -26 101 -26q53 0 90.5 15.5t74.5 43.5l13 -18q-81 -63 -179 -63q-62 0 -109 26l-33 -82l-17 4l35 88q-47 31 -72.5 90t-25.5 141q0 100 32.5 199.5t104.5 167t183 67.5q24 0 44 -3l20 49l17 -5l-19 -48q50 -12 91 -51l-14 -16q-42 38 -85 48z
M439 668q-22 2 -35 2q-104 0 -171 -64.5t-97 -159t-30 -188.5q0 -75 21.5 -128t62.5 -83z" />
    <glyph glyph-name="uni023C" unicode="&#x23c;" horiz-adv-x="464" 
d="M374 501l-197 -476q31 -14 70 -14q72 0 135 48l12 -16q-68 -53 -148 -53q-45 0 -77 16l-30 -72l-16 4l31 75q-40 24 -62.5 71t-22.5 113q0 78 27 154.5t83.5 127t140.5 50.5q23 0 46 -5l26 62l16 -4l-26 -62q38 -12 67 -41l-14 -14q-26 26 -61 36zM359 505q-17 4 -40 4
q-76 0 -127.5 -47.5t-75.5 -119.5t-24 -145q0 -60 18.5 -101.5t52.5 -62.5z" />
    <glyph glyph-name="uni023D" unicode="&#x23d;" horiz-adv-x="478" 
d="M138 22h289l-8 -22h-307l50 352h-107l3 21h107l43 308h23l-43 -308h113l-3 -21h-113z" />
    <glyph glyph-name="uni023E" unicode="&#x23e;" horiz-adv-x="476" 
d="M515 659h-128l-126 -313l-49 -346h-22l37 262l-132 -328l-17 4l159 394l46 327h-210l2 22h302l23 56l16 -5l-21 -51h127zM271 416l98 243h-64z" />
    <glyph glyph-name="uni023F" unicode="&#x23f;" horiz-adv-x="461" 
d="M154.5 479q-40.5 -30 -40.5 -80q0 -39 26.5 -65t98.5 -48q78 -25 110.5 -58t32.5 -87q0 -65 -48.5 -108t-139.5 -43q-46 0 -97 22q28 -24 45.5 -50.5t36.5 -63.5q20 -40 35.5 -57.5t43.5 -17.5q35 0 65 20l10 -15q-33 -25 -75 -25q-25 0 -41.5 9.5t-27 25.5t-26.5 46
q-26 52 -55.5 92t-85.5 80l10 13q47 -31 79.5 -44.5t82.5 -13.5q72 0 118.5 33t46.5 96q0 47 -28 75.5t-102 51.5q-78 25 -108 55.5t-30 76.5q0 58 48 94t120 36q45 0 81 -13t67 -40l-14 -14q-30 24 -61 35.5t-73 11.5q-64 0 -104.5 -30z" />
    <glyph glyph-name="uni0240" unicode="&#x240;" horiz-adv-x="410" 
d="M-2 18l381 481h-287l3 20h315l-3 -18l-385 -486q47 -8 78.5 -26.5t50 -40t40.5 -54.5q23 -36 42.5 -53.5t51.5 -17.5q33 0 63 20l11 -15q-33 -25 -74 -25q-39 0 -61.5 18.5t-49.5 58.5q-22 34 -42 56t-53.5 40t-83.5 24z" />
    <glyph glyph-name="uni0241" unicode="&#x241;" horiz-adv-x="453" 
d="M170 289l66 16q95 22 142 74t47 141q0 70 -38.5 110t-111.5 40q-52 0 -98.5 -20t-92.5 -57l-13 16q50 41 99 61.5t106 20.5q82 0 127.5 -46.5t45.5 -124.5q0 -97 -52.5 -153.5t-154.5 -81.5l-51 -12l-39 -273h-23z" />
    <glyph glyph-name="uni0242" unicode="&#x242;" horiz-adv-x="416" 
d="M124 171l71 17q161 41 161 184q0 64 -36.5 100.5t-101.5 36.5q-50 0 -88 -17t-77 -48l-12 16q41 33 82.5 51t95.5 18q74 0 116.5 -42.5t42.5 -114.5q0 -158 -181 -204l-53 -13l-22 -155h-22z" />
    <glyph glyph-name="uni0243" unicode="&#x243;" horiz-adv-x="591" 
d="M481 318.5q40 -36.5 40 -103.5q0 -55 -24 -103.5t-81 -80t-149 -31.5h-177l26 183h-90l3 21h90l67 477h147q95 0 146.5 -36.5t51.5 -108.5q0 -71 -43 -118.5t-113 -56.5q66 -6 106 -42.5zM165 370h166q54 0 94 22t62 59.5t22 83.5q0 63 -45 94t-129 31h-129zM445 77.5
q53 56.5 53 138.5q0 65 -44 99.5t-119 34.5h-173l-20 -146h193l-3 -21h-193l-23 -162h154q122 0 175 56.5z" />
    <glyph glyph-name="uni0244" unicode="&#x244;" horiz-adv-x="661" 
d="M636 520h-58l-44 -313q-14 -100 -73 -158.5t-163 -58.5q-93 0 -138 45.5t-45 124.5q0 14 4 48l44 312h-61l3 18h60l20 143h23l-20 -143h369l20 143h23l-20 -143h59zM554 520h-369l-43 -311q-3 -24 -3 -46q0 -72 38.5 -111.5t120.5 -39.5q95 0 148 53.5t65 144.5z" />
    <glyph glyph-name="uni0245" unicode="&#x245;" horiz-adv-x="557" 
d="M351 681l142 -681h-24l-134 663l-320 -663h-24l333 681h27z" />
    <glyph glyph-name="uni0246" unicode="&#x246;" horiz-adv-x="494" 
d="M497 660h-60l-117 -290h96l-3 -21h-101l-132 -328h238l-4 -21h-242l-27 -66l-17 4l25 62h-67l96 681h245l23 56l16 -5l-21 -51h58zM302 370l117 290h-217l-41 -290h141zM161 21l133 328h-136l-46 -328h49z" />
    <glyph glyph-name="uni0247" unicode="&#x247;" horiz-adv-x="510" 
d="M265 236l-89 -212q29 -13 68 -13q45 0 80 13.5t75 42.5l12 -16q-41 -31 -80.5 -46t-86.5 -15q-42 0 -76 14l-29 -70l-15 4l30 73q-42 23 -64 69.5t-22 114.5q0 76 28 153t86.5 129t145.5 52q21 0 39 -3l25 60l16 -4l-25 -60q41 -12 64.5 -41t23.5 -70q0 -127 -206 -175z
M204.5 468q-50.5 -41 -77.5 -103.5t-34 -130.5q100 6 162 20l104 253q-20 2 -31 2q-73 0 -123.5 -41zM429.5 469q-19.5 24 -54.5 34l-101 -244q175 42 175 151q0 35 -19.5 59zM246 232q-67 -12 -155 -18v-18q0 -122 72 -165z" />
    <glyph glyph-name="uni0248" unicode="&#x248;" horiz-adv-x="293" 
d="M281 332h-109l-34 -245q-8 -53 -22.5 -84.5t-45.5 -55t-89 -47.5l-6 17q50 22 78 44t41.5 51.5t20.5 77.5l34 242h-111l3 21h111l46 328h23l-46 -328h109z" />
    <glyph glyph-name="uni0249" unicode="&#x249;" horiz-adv-x="287" 
d="M262 233h-112l-32 -228q-9 -63 -25.5 -99t-42.5 -57.5t-72 -43.5l-6 17q40 20 63.5 40t38 54t22.5 91l32 226h-110l3 21h110l37 265h22l-37 -265h112zM191 689.5q-5 4.5 -5 12.5q0 9 6 15.5t15 6.5t14 -5t5 -13t-6 -14.5t-16 -6.5q-8 0 -13 4.5z" />
    <glyph glyph-name="uni024A" unicode="&#x24a;" horiz-adv-x="653" 
d="M630 -168q-41 -29 -92 -29q-39 0 -61.5 22t-22.5 64q0 8 2 26l11 85l10 74q-76 -84 -186 -84q-95 0 -152 67.5t-57 191.5q0 109 37 211t106 166.5t161 64.5q107 0 167 -83l12 73h19l-94 -681l-12 -86q-1 -8 -1 -22q0 -68 61 -68q44 0 82 25zM482 104l67 478
q-58 88 -163 88q-87 0 -151 -62.5t-97 -160t-33 -199.5q0 -114 51 -175t135 -61q114 0 191 92z" />
    <glyph glyph-name="uni024B" unicode="&#x24b;" horiz-adv-x="556" 
d="M477 -187q-23 -10 -47 -10q-31 0 -47.5 16t-16.5 48q0 13 1 20l17 114l14 96q-31 -50 -76 -78.5t-95 -28.5q-75 0 -117 53.5t-42 146.5q0 78 26.5 156t85 130.5t148.5 52.5q45 0 78 -10.5t67 -30.5l-67 -487l-17 -116q-1 -7 -1 -18q0 -22 10.5 -32.5t33.5 -10.5
q19 0 40 8zM324 42.5q45 31.5 79 92.5l48 342q-53 33 -123 33q-83 0 -136.5 -50t-77.5 -123.5t-24 -145.5q0 -85 36 -132.5t102 -47.5q51 0 96 31.5z" />
    <glyph glyph-name="uni024C" unicode="&#x24c;" horiz-adv-x="578" 
d="M492 397q-47 -58 -141 -71l146 -326h-25l-145 324h-166l-46 -324h-23l46 324h-92l3 21h92l47 336h154q197 0 197 -150q0 -76 -47 -134zM426.5 372q46.5 27 67.5 69t21 90q0 64 -41.5 96.5t-134.5 32.5h-131l-44 -315h144q72 0 118.5 27z" />
    <glyph glyph-name="uni024D" unicode="&#x24d;" horiz-adv-x="374" 
d="M392 522l-6 -19q-20 6 -42 6q-60 0 -102.5 -44.5t-81.5 -140.5l-5 -33h114l-3 -19h-113l-39 -272h-22l39 272h-108l3 19h107l33 228h19l-21 -148q32 80 75 119t105 39q22 0 48 -7z" />
    <glyph glyph-name="uni024E" unicode="&#x24e;" horiz-adv-x="498" 
d="M534 681l-64 -97h52l-3 -17h-60l-195 -296l-39 -271h-22l37 270l-113 297h-62l3 17h52l-37 97h25l36 -97h300l64 97h26zM253 293l180 274h-282z" />
    <glyph glyph-name="uni024F" unicode="&#x24f;" horiz-adv-x="445" 
d="M391 382h49l-3 -18h-54l-178 -366q-30 -61 -55.5 -96t-61 -58t-92.5 -39l-2 19q53 15 84.5 35.5t53 51t51.5 89.5h-10l-79 364h-57l3 18h50l-30 137h23l29 -137h255l66 137h25zM191 16l167 348h-242z" />
    <glyph glyph-name="uni0250" unicode="&#x250;" horiz-adv-x="512" 
d="M116 148q-3 -21 -3 -39q0 -50 27 -74t85 -24q39 0 74 8t75 24l7 -19q-43 -17 -79.5 -25.5t-76.5 -8.5q-68 0 -101.5 29.5t-33.5 89.5q0 17 3 38l37 263q4 30 4 41q0 23 -8.5 38t-28.5 23l7 17q50 -18 50 -78q0 -14 -1 -21q37 50 80.5 74.5t98.5 24.5q66 0 102.5 -35.5
t36.5 -95.5q0 -88 -64 -137.5t-164 -49.5h-119zM127 231h115q93 0 149.5 44t56.5 123q0 53 -30 81.5t-86 28.5q-110 0 -182 -110z" />
    <glyph glyph-name="uni0251" unicode="&#x251;" horiz-adv-x="547" 
d="M413 68q0 -23 8 -38t28 -23l-6 -17q-26 10 -38 29t-12 50q0 8 2 28q-31 -51 -74.5 -79t-94.5 -28q-74 0 -116 53.5t-42 146.5q0 76 27.5 155t83 131.5t132.5 52.5q102 0 134 -96l16 86h17l-61 -407q-4 -32 -4 -44zM400 135l39 262q-16 59 -48.5 85.5t-80.5 26.5
q-70 0 -120 -50t-75 -124t-25 -144q0 -84 36 -132t101 -48q102 0 173 124z" />
    <glyph glyph-name="uni0252" unicode="&#x252;" horiz-adv-x="547" 
d="M437 475.5q42 -53.5 42 -146.5q0 -76 -27.5 -155t-83 -131.5t-132.5 -52.5q-102 0 -134 96l-16 -86h-17l61 407q4 32 4 44q0 23 -8 38t-28 23l6 17q26 -10 38 -29t12 -50q0 -8 -2 -28q31 51 74.5 79t94.5 28q74 0 116 -53.5zM357 60q50 50 75 124t25 144q0 84 -36 132
t-101 48q-102 0 -173 -124l-39 -262q16 -59 48.5 -85.5t80.5 -26.5q70 0 120 50z" />
    <glyph glyph-name="uni0253" unicode="&#x253;" horiz-adv-x="565" 
d="M459 480q39 -49 39 -141q0 -78 -25 -158t-82 -135.5t-146 -55.5q-43 0 -78.5 7.5t-81.5 26.5l70 494h-1l14 100q8 57 46 88t94 31q61 0 112 -31l-10 -17q-48 27 -101 27q-49 0 -80.5 -25.5t-38.5 -76.5l-14 -96h1l-11 -82q79 93 179 93q75 0 114 -49zM379 64
q52 53 74.5 128.5t22.5 147.5q0 83 -33 126t-98 43q-55 0 -97.5 -25.5t-86.5 -75.5l-51 -369q33 -14 63.5 -21t70.5 -7q83 0 135 53z" />
    <glyph glyph-name="uni0254" unicode="&#x254;" horiz-adv-x="461" 
d="M72 6q-34 16 -62 44l15 13q25 -25 55 -38.5t72 -13.5q68 0 117.5 45t75 117.5t25.5 154.5q0 87 -37.5 134t-105.5 47q-42 0 -75 -12.5t-67 -36.5l-11 17q69 52 153 52q77 0 121.5 -52t44.5 -148q0 -88 -28.5 -165.5t-83 -125.5t-129.5 -48q-46 0 -80 16z" />
    <glyph glyph-name="uni0255" unicode="&#x255;" horiz-adv-x="475" 
d="M191.5 460.5q-51.5 -48.5 -75.5 -121t-24 -145.5q0 -100 51 -146q49 84 92 119t93 35q44 0 67.5 -23.5t23.5 -61.5q0 -58 -45.5 -92.5t-120.5 -34.5q-32 0 -56.5 7t-48.5 21l-45 -74l-17 8l46 77q-63 55 -63 168q0 78 27 154.5t83.5 127t140.5 50.5q79 0 129 -50l-14 -14
q-44 44 -114 44q-78 0 -129.5 -48.5zM245 150q-38 -32 -85 -114q37 -25 93 -25q63 0 103.5 27.5t40.5 78.5q0 31 -17.5 48t-51.5 17q-45 0 -83 -32z" />
    <glyph glyph-name="uni0256" unicode="&#x256;" horiz-adv-x="569" 
d="M555 -168q-41 -29 -92 -29q-39 0 -61.5 22t-22.5 64q0 7 2 25l11 86l18 126q-35 -61 -80 -98.5t-108 -37.5q-71 0 -112.5 53t-41.5 147q0 76 24.5 154t79 131.5t139.5 53.5q55 0 90 -24t54 -60l41 291l22 -3l-104 -733l-11 -86q-2 -16 -2 -23q0 -68 62 -68q44 0 82 25z
M328.5 52q44.5 41 88.5 119l34 245q-44 93 -140 93q-76 0 -126 -50t-72.5 -123t-22.5 -145q0 -85 35.5 -132.5t96.5 -47.5q62 0 106.5 41z" />
    <glyph glyph-name="uni0257" unicode="&#x257;" horiz-adv-x="569" 
d="M641 728.5q20 -8.5 37 -22.5l-12 -14q-16 12 -33 18.5t-41 6.5q-35 0 -59 -22.5t-31 -70.5l-15 -105l-73 -519h-18l15 130q-36 -63 -81 -101.5t-108 -38.5q-71 0 -112.5 53t-41.5 147q0 76 24.5 154t79 131.5t139.5 53.5q55 0 90 -24t54 -60l10 74l16 108q8 54 37.5 82
t73.5 28q29 0 49 -8.5zM451 416q-44 93 -140 93q-76 0 -126 -50t-72.5 -123t-22.5 -145q0 -85 35.5 -132.5t96.5 -47.5q62 0 106.5 41t88.5 119z" />
    <glyph glyph-name="uni0258" unicode="&#x258;" horiz-adv-x="512" 
d="M394.5 468q47.5 -61 47.5 -153q0 -87 -30 -161.5t-86.5 -119t-132.5 -44.5q-48 0 -83.5 15t-68.5 46l15 15q30 -28 61.5 -41.5t75.5 -13.5q83 0 138.5 56.5t76.5 146.5q-117 4 -189.5 21t-107.5 51t-35 89q0 44 21.5 79t61 55t90.5 20q98 0 145.5 -61zM130.5 296.5
q31.5 -29.5 99.5 -44.5t182 -18q7 36 7 80q0 85 -41.5 140t-128.5 55q-70 0 -110 -37.5t-40 -96.5q0 -49 31.5 -78.5z" />
    <glyph glyph-name="uni0259" unicode="&#x259;" horiz-adv-x="509" 
d="M394.5 476q46.5 -53 46.5 -152q0 -76 -28 -153t-87 -129t-145 -52q-65 0 -104 32t-39 86q0 88 97 137t284 60v18q0 92 -41 138.5t-113 46.5q-45 0 -79.5 -13.5t-75.5 -42.5l-12 16q41 31 80.5 46t86.5 15q83 0 129.5 -53zM304 51q51 41 78.5 103.5t34.5 130.5
q-356 -21 -356 -176q0 -46 31.5 -72.5t88.5 -26.5q72 0 123 41z" />
    <glyph glyph-name="uni025A" unicode="&#x25a;" horiz-adv-x="632" 
d="M680 363q-43 -29 -92 -29q-39 0 -62.5 22.5t-23.5 64.5q0 7 2 25l8 52l-102 -44q31 -51 31 -130q0 -76 -28 -153t-87 -129t-145 -52q-65 0 -104 32t-39 86q0 88 97 137t284 60v18q0 92 -41 138.5t-113 46.5q-45 0 -79.5 -13.5t-75.5 -42.5l-12 16q41 31 80.5 46t86.5 15
q89 0 134 -59l116 49h22l-11 -75q-2 -16 -2 -23q0 -35 17 -51.5t47 -16.5q25 0 43 6.5t38 19.5zM304 51q51 41 78.5 103.5t34.5 130.5q-356 -21 -356 -176q0 -46 31.5 -72.5t88.5 -26.5q72 0 123 41z" />
    <glyph glyph-name="uni025B" unicode="&#x25b;" horiz-adv-x="457" 
d="M100 27q-44 37 -44 101q0 58 40 100t117 46q-99 18 -99 108q0 35 19.5 69t60.5 56t100 22q48 0 83 -12t63 -34l-15 -15q-52 41 -131 41q-54 0 -89.5 -19t-52 -48t-16.5 -60q0 -45 32 -72t95 -27h58l-5 -20h-58q-98 0 -139 -39.5t-41 -96.5q0 -55 37 -85.5t101 -30.5
q53 0 89 13.5t75 42.5l12 -16q-38 -30 -79.5 -45.5t-96.5 -15.5q-72 0 -116 37z" />
    <glyph glyph-name="uni025C" unicode="&#x25c;" horiz-adv-x="463" 
d="M352 496q38 -33 38 -88q0 -54 -35.5 -90t-100.5 -43q59 -5 93 -35t34 -85q0 -42 -20.5 -79.5t-65 -61.5t-112.5 -24q-59 0 -101 19t-74 51l15 14q30 -30 67.5 -46.5t91.5 -16.5q91 0 133.5 42.5t42.5 101.5q0 54 -39 82t-114 28h-57l5 19h53q79 0 119.5 35t40.5 89
q0 46 -30.5 73.5t-87.5 27.5q-45 0 -80 -11.5t-79 -36.5l-11 16q43 26 83 39t87 13q66 0 104 -33z" />
    <glyph glyph-name="uni025D" unicode="&#x25d;" horiz-adv-x="599" 
d="M647 363q-43 -29 -92 -29q-39 0 -62.5 22.5t-23.5 64.5q0 7 2 25l8 52l-98 -42q9 -22 9 -48q0 -54 -35.5 -90t-100.5 -43q59 -5 93 -35t34 -85q0 -42 -20.5 -79.5t-65 -61.5t-112.5 -24q-59 0 -101 19t-74 51l15 14q30 -30 67.5 -46.5t91.5 -16.5q91 0 133.5 42.5
t42.5 101.5q0 54 -39 82t-114 28h-57l5 19h53q79 0 119.5 35t40.5 89q0 46 -30.5 73.5t-87.5 27.5q-45 0 -80 -11.5t-79 -36.5l-11 16q43 26 83 39t87 13q43 0 75 -14.5t49 -41.5l110 46h22l-11 -75q-2 -16 -2 -23q0 -35 17 -51.5t47 -16.5q25 0 43 6.5t38 19.5z" />
    <glyph glyph-name="uni025E" unicode="&#x25e;" horiz-adv-x="542" 
d="M117.5 43.5q-48.5 53.5 -48.5 151.5q0 90 30 166.5t88.5 122t140.5 45.5q65 0 103 -33.5t38 -88.5t-34.5 -89t-101.5 -43q59 -5 93 -35t34 -85q0 -42 -20.5 -79.5t-66 -61.5t-115.5 -24q-92 0 -140.5 53.5zM394 53.5q43 42.5 43 101.5q0 54 -39 82t-114 28h-38l5 19h34
q79 0 119.5 34t40.5 89q0 46 -30 74t-87 28q-77 0 -130 -43.5t-79.5 -115t-26.5 -155.5q0 -89 42 -136.5t124 -47.5q93 0 136 42.5z" />
    <glyph glyph-name="uni025F" unicode="&#x25f;" horiz-adv-x="287" 
d="M262 233h-112l-32 -228q-9 -63 -25.5 -99t-42.5 -57.5t-72 -43.5l-6 17q40 20 63.5 40t38 54t22.5 91l32 226h-110l3 21h110l37 265h22l-37 -265h112z" />
    <glyph glyph-name="uni0260" unicode="&#x260;" horiz-adv-x="562" 
d="M634 728.5q20 -8.5 37 -22.5l-12 -14q-16 12 -33 18.5t-41 6.5q-35 0 -59 -22.5t-31 -70.5l-15 -105l-77 -524q-29 -192 -193 -192q-84 0 -164 47l9 16q38 -21 74 -32.5t81 -11.5q67 0 112.5 40.5t58.5 130.5l17 115q-31 -51 -75 -79.5t-94 -28.5q-75 0 -117.5 55
t-42.5 148q0 74 26.5 149.5t85 126t147.5 50.5q72 0 127 -32l3 22l16 108q8 54 37.5 82t73.5 28q29 0 49 -8.5zM403 144l49 334q-54 32 -123 32q-82 0 -136 -48.5t-78 -120t-23 -140.5q0 -83 36 -131.5t101 -48.5q103 0 174 123z" />
    <glyph glyph-name="uni0261" unicode="&#x261;" horiz-adv-x="555" 
d="M406.5 518.5q33.5 -10.5 67.5 -30.5l-71 -493q-28 -192 -193 -192q-84 0 -164 47l9 16q38 -21 74 -32.5t81 -11.5q67 0 112.5 40.5t58.5 130.5l17 115q-31 -51 -75 -79.5t-94 -28.5q-75 0 -117.5 55t-42.5 148q0 74 26.5 149.5t85 126t147.5 50.5q45 0 78.5 -10.5z
M193 461.5q-54 -48.5 -78 -120t-23 -140.5q0 -83 36 -131.5t101 -48.5q103 0 174 123l48 333q-53 33 -122 33q-82 0 -136 -48.5z" />
    <glyph glyph-name="uni0262" unicode="&#x262;" horiz-adv-x="550" 
d="M407 518.5q34 -12.5 64 -37.5l-15 -15q-54 45 -126 45q-73 0 -127.5 -43t-83 -114.5t-28.5 -153.5q0 -95 45 -141t125 -46q76 0 140 32l28 207h-124v20h151l-33 -239q-77 -41 -162 -41q-90 0 -141 53t-51 158q0 87 32.5 162t91.5 120.5t136 45.5q44 0 78 -12.5z" />
    <glyph glyph-name="uni0263" unicode="&#x263;" horiz-adv-x="447" 
d="M206 43q18 -49 26.5 -83t8.5 -64q0 -41 -21.5 -67t-59.5 -26q-28 0 -44 17t-16 45q0 33 20 75t61 105l-121 474h23l113 -457l239 457h26zM213.5 -46q-6.5 30 -21.5 74q-33 -52 -52 -92t-19 -71q0 -42 39 -42q29 0 44.5 20t15.5 53q0 28 -6.5 58z" />
    <glyph glyph-name="uni0264" unicode="&#x264;" horiz-adv-x="512" 
d="M540 504l-11 -15q-13 11 -24 15.5t-25 4.5q-21 0 -37 -12.5t-34 -42.5l-146 -246q20 -44 30 -75.5t10 -56.5q0 -37 -22 -61.5t-59 -24.5q-30 0 -46.5 17.5t-16.5 46.5t20 66t58 89l-78 246q-9 30 -21.5 42t-32.5 12q-15 0 -27.5 -4.5t-28.5 -15.5l-8 16q31 24 64 24
q30 0 46.5 -16.5t28.5 -54.5l71 -233l136 233q22 38 43 54.5t50 16.5q31 0 60 -25zM273.5 124.5q-7.5 25.5 -25.5 67.5q-34 -48 -50.5 -79t-16.5 -60q0 -43 41 -43q29 0 44 18t15 48q0 23 -7.5 48.5z" />
    <glyph glyph-name="uni0265" unicode="&#x265;" horiz-adv-x="576" 
d="M428 161q-43 -84 -98 -127.5t-117 -43.5q-58 0 -88 31.5t-30 89.5q0 18 3 39l52 369h22l-52 -367q-3 -22 -3 -40q0 -103 99 -103q62 0 115.5 49.5t102.5 145.5l44 315h22l-100 -713l-22 -3z" />
    <glyph glyph-name="uni0266" unicode="&#x266;" horiz-adv-x="581" 
d="M457.5 498q29.5 -31 29.5 -90q0 -18 -3 -39l-52 -369h-22l52 367q3 21 3 39q0 104 -99 104q-62 0 -115.5 -49.5t-102.5 -145.5l-45 -315h-22l73 518l14 100q8 57 46 88t94 31q61 0 112 -31l-10 -17q-48 27 -101 27q-49 0 -80.5 -25.5t-38.5 -76.5l-14 -96l-22 -159
q42 84 97.5 127t117.5 43q59 0 88.5 -31z" />
    <glyph glyph-name="uni0267" unicode="&#x267;" horiz-adv-x="581" 
d="M457.5 498q29.5 -31 29.5 -90q0 -18 -3 -39l-52 -369l-12 -87q-8 -54 -38.5 -82t-74.5 -28q-48 0 -85 31l13 14q15 -12 31.5 -18.5t40.5 -6.5q35 0 59.5 22t31.5 70l12 85l52 367q3 21 3 39q0 104 -99 104q-62 0 -115.5 -49.5t-102.5 -145.5l-45 -315h-22l73 518l14 100
q8 57 46 88t94 31q61 0 112 -31l-10 -17q-48 27 -101 27q-49 0 -80.5 -25.5t-38.5 -76.5l-14 -96l-22 -159q42 84 97.5 127t117.5 43q59 0 88.5 -31z" />
    <glyph glyph-name="uni0268" unicode="&#x268;" horiz-adv-x="286" 
d="M193 689.5q-5 4.5 -5 12.5q0 9 6 15.5t15 6.5t14 -5t5 -13t-6 -14.5t-16 -6.5q-8 0 -13 4.5zM269 291l-3 -19h-109l-39 -272h-22l39 272h-112l3 19h111l33 228h22l-33 -228h110z" />
    <glyph glyph-name="uni0269" unicode="&#x269;" horiz-adv-x="275" 
d="M150 519h22l-63 -446q-2 -14 -2 -19q0 -45 44 -45q17 0 40 9l6 -18q-28 -10 -48 -10q-30 0 -47 16t-17 46q0 6 2 22z" />
    <glyph glyph-name="uni026A" unicode="&#x26a;" horiz-adv-x="300" 
d="M305 501h-111l-67 -483h111l-3 -18h-243l2 18h111l67 483h-110l3 18h243z" />
    <glyph glyph-name="uni026B" unicode="&#x26b;" horiz-adv-x="284" 
d="M304 377q-22 -27 -41.5 -40.5t-45.5 -13.5q-27 0 -65 22l-38 -272q-1 -6 -1 -18q0 -44 43 -44q17 0 41 8l6 -19q-28 -10 -48 -10q-31 0 -48 16.5t-17 48.5q0 6 2 20l40 282q-36 21 -57 21q-24 0 -40 -10.5t-36 -32.5l-14 10q22 27 42.5 41t47.5 14q26 0 60 -19l50 352
l22 3l-52 -367q19 -12 33.5 -18t28.5 -6q22 0 37.5 10t35.5 32z" />
    <glyph glyph-name="uni026C" unicode="&#x26c;" horiz-adv-x="306" 
d="M138 73q-1 -6 -1 -18q0 -44 43 -44q17 0 41 8l6 -19q-28 -10 -48 -10q-31 0 -48 16.5t-17 48.5q0 6 2 20l29 205q-50 0 -78.5 20t-28.5 58q0 40 28.5 63t73.5 23q12 0 28 -2l41 291l22 3l-61 -436q41 1 86 9l-1 -19q-37 -7 -88 -9zM81.5 314q21.5 -14 66.5 -14l17 122
q-16 2 -26 2q-36 0 -57.5 -17.5t-21.5 -48.5q0 -30 21.5 -44z" />
    <glyph glyph-name="uni026D" unicode="&#x26d;" horiz-adv-x="259" 
d="M245 -168q-41 -29 -92 -29q-39 0 -61.5 22t-22.5 64q0 7 2 25l11 86l103 733l22 3l-103 -736l-11 -86q-2 -16 -2 -23q0 -68 62 -68q44 0 82 25z" />
    <glyph glyph-name="uni026E" unicode="&#x26e;" horiz-adv-x="596" 
d="M566 501l-265 -307h21q203 0 203 -155q0 -69 -28.5 -122.5t-80.5 -83.5t-120 -30q-56 0 -97 20.5t-73 60.5l15 12q31 -38 68 -55t87 -17q63 0 110 27.5t72 76t25 110.5q0 70 -44.5 102.5t-134.5 32.5h-53l3 21l262 305h-367l-60 -426q-1 -6 -1 -18q0 -44 43 -44
q17 0 41 8l6 -19q-28 -10 -48 -10q-31 0 -48 16.5t-17 48.5q0 6 2 20l93 658l22 3l-30 -217h397z" />
    <glyph glyph-name="uni026F" unicode="&#x26f;" horiz-adv-x="847" 
d="M766 519l-74 -519h-18l20 161q-43 -85 -93 -128t-106 -43q-50 0 -76.5 30.5t-26.5 87.5q0 20 3 42l1 4q-42 -81 -93 -122.5t-105 -41.5q-50 0 -76.5 30.5t-26.5 87.5q0 20 3 42l51 369h22l-51 -367q-3 -22 -3 -42q0 -50 21 -75.5t62 -25.5q55 0 104.5 48.5t97.5 144.5
l45 317h22l-52 -367q-3 -22 -3 -41q0 -50 21.5 -76t61.5 -26q106 0 202 195l45 315h22z" />
    <glyph glyph-name="uni0270" unicode="&#x270;" horiz-adv-x="842" 
d="M766 519l-100 -712l-23 -3l50 354q-85 -168 -198 -168q-52 0 -77.5 32t-25.5 86q0 14 4 44v3q-85 -165 -198 -165q-49 0 -76 31t-27 88q0 19 3 41l51 369h22l-51 -367q-3 -22 -3 -42q0 -50 21 -75.5t62 -25.5q55 0 105.5 49.5t97.5 144.5l44 316h22l-52 -367
q-3 -22 -3 -41q0 -50 21.5 -76t61.5 -26q106 0 202 195l45 315h22z" />
    <glyph glyph-name="uni0271" unicode="&#x271;" horiz-adv-x="847" 
d="M725.5 498.5q26.5 -30.5 26.5 -87.5q0 -19 -3 -42l-51 -369l-12 -87q-8 -54 -38.5 -82t-74.5 -28q-48 0 -85 31l13 14q15 -12 31.5 -18.5t40.5 -6.5q35 0 59.5 22t31.5 70l12 85l51 367q3 23 3 42q0 50 -21 75.5t-62 25.5q-55 0 -104.5 -48.5t-97.5 -144.5l-45 -317h-22
l52 367q3 23 3 41q0 50 -21.5 76t-61.5 26q-106 0 -202 -195l-45 -315h-22l74 519h18l-20 -161q43 85 93 128t106 43q50 0 76.5 -30.5t26.5 -87.5q0 -19 -3 -42l-1 -4q42 81 93 122.5t105 41.5q50 0 76.5 -30.5z" />
    <glyph glyph-name="uni0272" unicode="&#x272;" horiz-adv-x="581" 
d="M457 497.5q30 -31.5 30 -90.5q0 -18 -3 -38l-52 -369h-22l52 367q3 21 3 38q0 105 -97 105q-62 0 -116.5 -50t-103.5 -145l-45 -315l-12 -87q-8 -54 -38.5 -82t-74.5 -28q-48 0 -85 31l13 14q15 -12 31.5 -18.5t40.5 -6.5q35 0 59.5 22t31.5 70l12 85l74 519h18l-20 -161
q44 85 99 128t117 43q58 0 88 -31.5z" />
    <glyph glyph-name="uni0273" unicode="&#x273;" horiz-adv-x="581" 
d="M573 -168q-41 -29 -92 -29q-39 0 -61.5 22t-22.5 64q0 7 2 25l11 86l52 367q3 21 3 38q0 105 -97 105q-62 0 -116.5 -50t-103.5 -145l-45 -315h-22l74 519h18l-20 -161q44 85 99 128t117 43q58 0 88 -31.5t30 -90.5q0 -18 -3 -38l-52 -369l-11 -86q-2 -16 -2 -23
q0 -68 62 -68q44 0 82 25z" />
    <glyph glyph-name="uni0274" unicode="&#x274;" horiz-adv-x="583" 
d="M428 0h-28l-230 497q-6 -66 -20 -162l-48 -335h-21l74 519h28l230 -497l4 34l15 123l49 340h21z" />
    <glyph glyph-name="uni0275" unicode="&#x275;" horiz-adv-x="561" 
d="M447 477q46 -52 46 -150q0 -74 -24.5 -151.5t-80.5 -131.5t-144 -54q-83 0 -129 54t-46 152q0 75 25 151.5t81 129t143 52.5q83 0 129 -52zM169 440q-54 -69 -71 -167h370q3 29 3 54q0 88 -39.5 135t-113.5 47q-95 0 -149 -69zM394.5 82q54.5 71 70.5 171h-370
q-4 -27 -4 -58q0 -88 40 -136t113 -48q96 0 150.5 71z" />
    <glyph glyph-name="uni0276" unicode="&#x276;" horiz-adv-x="715" 
d="M690 499h-272q34 -20 55 -65t21 -108q0 -28 -1 -41h132l-3 -20h-131q-10 -81 -46 -147.5t-94 -96.5h281l-3 -21h-320q-32 -10 -66 -10q-82 0 -128 54t-46 152q0 75 25 151.5t81 129t143 52.5q38 0 65 -10h313zM431.5 460.5q-39.5 48.5 -113.5 48.5q-80 0 -131 -50.5
t-73.5 -122.5t-22.5 -141q0 -88 40 -136t113 -48q80 0 131 49t73.5 121.5t22.5 145.5q0 85 -39.5 133.5z" />
    <glyph glyph-name="uni0277" unicode="&#x277;" horiz-adv-x="740" 
d="M601.5 467.5q65.5 -61.5 65.5 -173.5q0 -77 -21.5 -146.5t-66.5 -113.5t-113 -44q-59 0 -88 35t-27 99q-17 -68 -56.5 -101t-93.5 -33q-63 0 -99.5 42.5t-36.5 130.5q0 112 39.5 194.5t117 127t186.5 44.5q128 0 193.5 -61.5zM566 53q40 42 59 106.5t19 134.5
q0 104 -59.5 159.5t-178.5 55.5q-154 0 -236 -93.5t-82 -252.5q0 -152 114 -152q54 0 93.5 40t51.5 127l19 134l23 4l-20 -141q-3 -24 -3 -46q0 -118 99 -118q61 0 101 42z" />
    <glyph glyph-name="uni0278" unicode="&#x278;" horiz-adv-x="621" 
d="M533 152.5q-33 -67.5 -96 -105.5t-152 -40l-28 -199l-22 -4l29 203q-101 3 -154.5 56.5t-53.5 148.5q0 88 33.5 155t96.5 105t150 40l31 221l22 3l-31 -224q101 -4 154 -56.5t53 -146.5q1 -89 -32 -156.5zM476 107.5q67 76.5 67 201.5q-1 87 -49 134t-141 50l-65 -466
q121 4 188 80.5zM126.5 76.5q48.5 -47.5 141.5 -49.5l64 466q-80 -3 -137 -39.5t-87 -98.5t-30 -143q0 -88 48.5 -135.5z" />
    <glyph glyph-name="uni0279" unicode="&#x279;" horiz-adv-x="362" 
d="M-19 -3l6 19q20 -6 42 -6q60 0 102.5 44.5t81.5 140.5l46 324h22l-74 -519h-19l21 148q-32 -80 -75 -119t-105 -39q-22 0 -48 7z" />
    <glyph glyph-name="uni027A" unicode="&#x27a;" horiz-adv-x="362" 
d="M311 733l-30 -214l-74 -519h-19l21 148q-32 -80 -75 -119t-105 -39q-22 0 -48 7l6 19q20 -6 42 -6q60 0 102.5 44.5t81.5 140.5l46 324l30 217z" />
    <glyph glyph-name="uni027B" unicode="&#x27b;" horiz-adv-x="362" 
d="M349 -168q-41 -29 -92 -29q-39 0 -61.5 22t-22.5 64q0 7 2 25l11 86l20 144q-29 -76 -72.5 -115t-104.5 -39q-24 0 -47 7l6 19q18 -6 41 -6q60 0 103 45t81 140l46 324h22l-73 -519l-11 -86q-2 -16 -2 -23q0 -68 62 -68q45 0 82 25z" />
    <glyph glyph-name="uni027C" unicode="&#x27c;" horiz-adv-x="363" 
d="M382 522l-6 -19q-20 6 -42 6q-61 0 -103.5 -45t-80.5 -140l-74 -518l-22 -3l101 716h19l-20 -148q32 80 75 119t105 39q22 0 48 -7z" />
    <glyph glyph-name="uni027D" unicode="&#x27d;" horiz-adv-x="362" 
d="M381 522l-6 -19q-20 6 -42 6q-60 0 -102.5 -44.5t-81.5 -140.5l-46 -324l-11 -86q-2 -16 -2 -23q0 -68 62 -68q45 0 82 25l10 -16q-41 -29 -92 -29q-39 0 -61.5 22t-22.5 64q0 7 2 25l11 86l74 519h19l-21 -148q32 80 75 119t105 39q22 0 48 -7z" />
    <glyph glyph-name="uni027E" unicode="&#x27e;" horiz-adv-x="324" 
d="M333 496l-13 -14q-15 12 -31.5 18.5t-40.5 6.5q-35 0 -59.5 -22t-31.5 -70l-12 -85l-46 -330h-22l46 330l12 87q8 54 38.5 82t74.5 28q48 0 85 -31z" />
    <glyph glyph-name="uni027F" unicode="&#x27f;" horiz-adv-x="324" 
d="M211.5 505q22.5 -22 22.5 -64q0 -7 -2 -25l-11 -86l-46 -330h-22l46 330l11 86q2 16 2 23q0 68 -62 68q-45 0 -82 -25l-10 16q41 29 92 29q39 0 61.5 -22z" />
    <glyph glyph-name="uni0280" unicode="&#x280;" horiz-adv-x="508" 
d="M406.5 286.5q-43.5 -39.5 -113.5 -50.5l122 -236h-24l-120 234h-135l-33 -234h-22l74 519h120q175 0 175 -124q0 -69 -43.5 -108.5zM250 254q80 0 128.5 36.5t48.5 104.5q0 52 -37 78t-119 26h-97l-35 -245h111z" />
    <glyph glyph-name="uni0281" unicode="&#x281;" horiz-adv-x="508" 
d="M385 244.5q31 -29.5 31 -80.5q0 -83 -58 -123.5t-158 -40.5h-119l74 519h22l-33 -234h135l184 234h26l-188 -236q53 -9 84 -38.5zM394 165q0 50 -35.5 75t-97.5 25h-120l-35 -244h93q195 0 195 144z" />
    <glyph glyph-name="uni0282" unicode="&#x282;" horiz-adv-x="460" 
d="M153.5 479q-40.5 -30 -40.5 -80q0 -39 26.5 -65t98.5 -48q78 -25 110.5 -58t32.5 -87q0 -65 -48.5 -108t-138.5 -43q-49 0 -85.5 13t-67.5 36l-19 -132q-2 -16 -2 -23q0 -68 63 -68q25 0 43 6.5t39 18.5l11 -15q-44 -30 -92 -30q-40 0 -63 23t-23 66q0 7 2 23l21 148
l13 12q36 -28 71.5 -42.5t86.5 -14.5q73 0 119.5 33t46.5 96q0 47 -28 75.5t-101 51.5q-78 25 -108.5 55.5t-30.5 76.5q0 58 48 94t120 36q46 0 82 -13t67 -40l-15 -16q-29 25 -60.5 37t-73.5 12q-64 0 -104.5 -30z" />
    <glyph glyph-name="uni0283" unicode="&#x283;" horiz-adv-x="258" 
d="M330 728.5q20 -8.5 37 -22.5l-12 -14q-16 12 -33 18.5t-41 6.5q-35 0 -59 -22.5t-31 -70.5l-15 -105h1l-74 -519l-12 -87q-8 -54 -38.5 -82t-74.5 -28q-48 0 -85 31l13 14q15 -12 31.5 -18.5t40.5 -6.5q35 0 59.5 22t31.5 70l12 85l74 519h-1l16 108q8 54 37.5 82
t73.5 28q29 0 49 -8.5z" />
    <glyph glyph-name="uni0284" unicode="&#x284;" horiz-adv-x="286" 
d="M344 728.5q20 -8.5 37 -22.5l-12 -14q-16 12 -33 18.5t-41 6.5q-35 0 -59 -22.5t-31 -70.5l-15 -105h1l-71 -498h111l-3 -21h-111q-9 -61 -25.5 -96t-42 -56t-70.5 -43l-7 17q40 19 63 38.5t38 52t23 87.5h-112l3 21h112l70 498h-1l16 108q8 54 37.5 82t73.5 28
q29 0 49 -8.5z" />
    <glyph glyph-name="uni0285" unicode="&#x285;" horiz-adv-x="375" 
d="M329 19q-41 -29 -92 -29q-39 0 -61.5 22t-22.5 64q0 7 2 25l11 86l21 145l11 86q2 16 2 23q0 68 -62 68q-45 0 -82 -25l-10 16q41 29 92 29q39 0 61.5 -22t22.5 -64q0 -7 -2 -25l-11 -86l-21 -145l-11 -86q-2 -16 -2 -23q0 -68 62 -68q45 0 82 25z" />
    <glyph glyph-name="uni0286" unicode="&#x286;" horiz-adv-x="271" 
d="M343 728.5q20 -8.5 37 -22.5l-12 -14q-16 12 -33 18.5t-41 6.5q-35 0 -59 -22.5t-31 -70.5l-15 -105l-77 -548q42 -12 88 -34l-9 -17q-40 20 -82 31q-12 -70 -48 -109t-98 -39q-43 0 -68.5 23t-25.5 59q0 46 36 72.5t92 26.5q46 0 93 -9l77 544l16 108q8 54 37.5 82
t73.5 28q29 0 49 -8.5zM46 -144.5q28 32.5 40 99.5q-20 4 -41 6.5t-48 2.5q-49 0 -77.5 -20.5t-28.5 -58.5q0 -29 19 -45.5t54 -16.5q54 0 82 32.5z" />
    <glyph glyph-name="uni0287" unicode="&#x287;" horiz-adv-x="324" 
d="M262 0h-86l-24 -131l-17 -2l19 133h-144l6 20h140l54 381q2 20 2 29q0 79 -77 79q-45 0 -95 -27l-8 17q53 30 105 30q46 0 71.5 -25.5t25.5 -73.5q0 -8 -2 -28l-53 -382h85z" />
    <glyph glyph-name="uni0288" unicode="&#x288;" horiz-adv-x="324" 
d="M86 -86q-2 -16 -2 -23q0 -68 62 -68q45 0 82 25l10 -16q-41 -29 -92 -29q-39 0 -61.5 22t-22.5 64q0 7 2 25l11 86l70 499h-85l2 20h86l24 131l17 2l-19 -133h144l-6 -20h-141l-70 -499z" />
    <glyph glyph-name="uni0289" unicode="&#x289;" horiz-adv-x="597" 
d="M566 364h-86l-51 -364h-17l21 164q-35 -80 -90 -127t-121 -47q-57 0 -88.5 32.5t-31.5 92.5q0 17 3 35l30 214h-88l3 18h87l19 137h22l-19 -137h302l19 137h22l-19 -137h86zM458 364h-301l-30 -214q-3 -19 -3 -36q0 -51 26.5 -77t73.5 -26q64 0 118 51.5t94 141.5z" />
    <glyph glyph-name="uni028A" unicode="&#x28a;" horiz-adv-x="562" 
d="M114 42q-47 52 -47 144q0 95 40.5 175.5t109.5 137.5h-98l3 20h122l-3 -21q-151 -129 -151 -312q0 -85 40.5 -130t114.5 -45q70 0 120.5 38.5t76 103t25.5 139.5q0 121 -78 207l2 20h123l-3 -20h-96q74 -87 74 -207q0 -82 -29 -151t-84.5 -110t-130.5 -41q-84 0 -131 52z
" />
    <glyph glyph-name="uni028B" unicode="&#x28b;" horiz-adv-x="565" 
d="M133.5 24.5q-37.5 34.5 -37.5 99.5q0 21 2 32l51 363h22l-51 -364q-2 -11 -2 -32q0 -57 31 -84.5t83 -27.5q79 0 135 60t75 192l26 184q1 6 1 17q0 45 -44 45q-19 0 -40 -8l-6 18q22 10 48 10q30 0 47 -16.5t17 -48.5q0 -11 -1 -17l-26 -185q-20 -137 -81 -204.5
t-151 -67.5q-61 0 -98.5 34.5z" />
    <glyph glyph-name="uni028C" unicode="&#x28c;" horiz-adv-x="447" 
d="M-14 0l255 519h29l117 -519h-23l-110 500l-242 -500h-26z" />
    <glyph glyph-name="uni028D" unicode="&#x28d;" horiz-adv-x="680" 
d="M-4 0l210 519h28l71 -497l210 497h30l65 -519h-22l-61 498l-211 -498h-28l-71 498l-198 -498h-23z" />
    <glyph glyph-name="uni028E" unicode="&#x28e;" horiz-adv-x="444" 
d="M239 521q34 71 64.5 111.5t68.5 64t96 39.5l2 -17q-55 -16 -89.5 -38.5t-61 -59.5t-59.5 -103l11 1l113 -519h-23l-108 503l-242 -503h-25z" />
    <glyph glyph-name="uni028F" unicode="&#x28f;" horiz-adv-x="418" 
d="M432 519l-217 -307l-30 -212h-22l30 211l-133 308h22l123 -288l201 288h26z" />
    <glyph glyph-name="uni0290" unicode="&#x290;" horiz-adv-x="410" 
d="M473 -168q-41 -29 -92 -29q-39 0 -61.5 22t-22.5 64q0 7 2 25l11 86h-315l3 18l381 481h-287l3 20h315l-3 -18l-380 -480h308l-3 -21l-11 -86q-2 -16 -2 -23q0 -68 62 -68q44 0 82 25z" />
    <glyph glyph-name="uni0291" unicode="&#x291;" horiz-adv-x="420" 
d="M404.5 171.5q21.5 -20.5 21.5 -56.5q0 -65 -53.5 -90t-150.5 -25q-12 -73 -15 -103l-20 2q3 33 15 101h-207l3 18l381 481h-287l3 20h315l-3 -18l-381 -480h180q15 83 51 127t89 44q37 0 58.5 -20.5zM357.5 39.5q47.5 20.5 47.5 74.5q0 58 -59 58q-90 0 -120 -151
q84 -2 131.5 18.5z" />
    <glyph glyph-name="uni0292" unicode="&#x292;" horiz-adv-x="443" 
d="M413 501l-265 -307h24q201 0 201 -156q0 -68 -28.5 -121.5t-81 -83.5t-119.5 -30q-57 0 -99 21t-75 61l16 12q32 -38 69 -55.5t88 -17.5q63 0 110 27.5t72 75.5t25 110q0 71 -44 103.5t-135 32.5h-53l3 21l263 305h-311l3 20h340z" />
    <glyph glyph-name="uni0293" unicode="&#x293;" horiz-adv-x="443" 
d="M413 501l-265 -307h23q202 0 202 -154q0 -75 -38 -131.5t-109 -84.5l20 -58l-20 -8l-19 60q-48 -15 -109 -15q-69 0 -106.5 28.5t-37.5 77.5q0 43 30 74t77 31q57 0 94 -37t65 -132q63 25 96.5 76t33.5 118q0 69 -44 101.5t-135 32.5h-53l3 21l263 305h-311l3 20h340z
M8 -154.5q32 -21.5 91 -21.5q55 0 102 14q-27 89 -59 123t-80 34q-39 0 -62.5 -24.5t-23.5 -61.5q0 -42 32 -63.5z" />
    <glyph glyph-name="uni0294" unicode="&#x294;" horiz-adv-x="425" 
d="M144 330l68 16q188 44 188 221q0 68 -39.5 108t-110.5 40q-53 0 -94 -18t-83 -53l-13 15q45 38 90 58t102 20q80 0 125 -47t45 -123q0 -194 -207 -241l-50 -12l-45 -314h-22z" />
    <glyph glyph-name="uni0295" unicode="&#x295;" horiz-adv-x="425" 
d="M233 0l44 314l-42 10q-73 19 -114.5 55.5t-41.5 113.5q0 68 29 124t81.5 88t119.5 32q54 0 94 -20.5t74 -58.5l-15 -14q-31 35 -67 53t-85 18q-61 0 -108.5 -29.5t-73 -80.5t-25.5 -112q-1 -67 35 -99t100 -49l63 -15l-46 -330h-22z" />
    <glyph glyph-name="uni0296" unicode="&#x296;" horiz-adv-x="491" 
d="M258 736l-44 -318l43 -10q69 -17 111.5 -56t43.5 -118q0 -66 -29 -121t-80 -86.5t-114 -31.5q-59 0 -99 20t-76 59l15 12q32 -34 68.5 -52t89.5 -18q58 0 104 29t72 78.5t26 110.5q0 70 -37.5 104t-97.5 49l-65 15l47 331z" />
    </font>
</defs>
</svg>
