<?xml version="1.0" standalone="no"?>
<!DOCTYPE svg PUBLIC "-//W3C//DTD SVG 1.1//EN" "http://www.w3.org/Graphics/SVG/1.1/DTD/svg11.dtd" >
<svg xmlns="http://www.w3.org/2000/svg" xmlns:xlink="http://www.w3.org/1999/xlink" version="1.1">
<metadata>
Created by FontForge 20170731 at Fri Dec  2 11:32:35 2016
 By Aleksey,,,
Digitized data copyright 2012-2016, The Mozilla Foundation and Telefonica S.A.
</metadata>
<defs>
<font id="FiraSans-MediumItalic" horiz-adv-x="560" >
  <font-face 
    font-family="Fira Sans Medium"
    font-weight="500"
    font-style="italic"
    font-stretch="normal"
    units-per-em="1000"
    panose-1="2 11 6 3 5 0 0 2 0 4"
    ascent="800"
    descent="-200"
    x-height="529"
    cap-height="691"
    bbox="-780 -354 1417 1148"
    underline-thickness="50"
    underline-position="-150"
    slope="-8"
    unicode-range="U+000D-FEFF"
  />
<missing-glyph horiz-adv-x="658" 
d="M647 1050l-198 -1400h-414l197 1400h415zM586 998h-306l-183 -1296h306zM417.5 425.5q23.5 -25.5 23.5 -66.5q0 -9 -2 -27q-7 -52 -32 -79.5t-75 -34.5l-9 -47q-1 -11 -8.5 -16.5t-15.5 -5.5q-11 0 -18.5 7.5t-6.5 18.5l10 82q53 3 75.5 21t27.5 60q2 14 2 21
q0 44 -50 44q-30 0 -53 -13l-12 -1q-12 0 -19 7.5t-5 19.5q2 17 31 26t62 9q51 0 74.5 -25.5zM313.5 109q9.5 -11 7.5 -28q-2 -14 -12.5 -23.5t-24.5 -9.5q-16 0 -25 12t-6 29q1 13 11 22t24 9q16 0 25.5 -11z" />
    <glyph glyph-name="fi" unicode="fi" horiz-adv-x="583" 
d="M470 0h-126l61 437h-165l-55 -392q-11 -78 -39.5 -127.5t-72.5 -79t-112 -56.5l-34 94q41 17 66.5 35t42 49t23.5 82l56 395h-86l13 92h85l9 61q10 74 66 119.5t147 45.5q48 0 86.5 -11.5t75.5 -33.5l-45 -82q-53 30 -108 30q-46 0 -69 -18.5t-28 -57.5l-8 -53h291z" />
    <glyph glyph-name="fl" unicode="fl" horiz-adv-x="602" 
d="M544 94l19 -90q-41 -19 -88 -19q-53 0 -82 28.5t-29 83.5q0 21 2 33l73 516q-41 14 -87 14q-43 0 -64.5 -19.5t-26.5 -58.5l-8 -53h112l-27 -92h-98l-55 -392q-11 -78 -39.5 -127.5t-72.5 -79t-112 -56.5l-34 94q41 17 66.5 35t42 49t23.5 82l56 395h-86l13 92h85l9 61
q10 74 64 119.5t142 45.5q70 0 124 -20l112 12l-87 -621l-1 -11q0 -15 6 -21t18 -6q10 0 30 6z" />
    <glyph glyph-name=".notdef" horiz-adv-x="658" 
d="M647 1050l-198 -1400h-414l197 1400h415zM586 998h-306l-183 -1296h306zM417.5 425.5q23.5 -25.5 23.5 -66.5q0 -9 -2 -27q-7 -52 -32 -79.5t-75 -34.5l-9 -47q-1 -11 -8.5 -16.5t-15.5 -5.5q-11 0 -18.5 7.5t-6.5 18.5l10 82q53 3 75.5 21t27.5 60q2 14 2 21
q0 44 -50 44q-30 0 -53 -13l-12 -1q-12 0 -19 7.5t-5 19.5q2 17 31 26t62 9q51 0 74.5 -25.5zM313.5 109q9.5 -11 7.5 -28q-2 -14 -12.5 -23.5t-24.5 -9.5q-16 0 -25 12t-6 29q1 13 11 22t24 9q16 0 25.5 -11z" />
    <glyph glyph-name=".null" horiz-adv-x="0" 
 />
    <glyph glyph-name="nonmarkingreturn" unicode="&#xd;" horiz-adv-x="242" 
 />
    <glyph glyph-name="space" unicode=" " horiz-adv-x="242" 
 />
    <glyph glyph-name="exclam" unicode="!" horiz-adv-x="233" 
d="M60 244l48 447h136l-79 -447h-105zM32.5 6q-20.5 21 -20.5 52q0 37 25.5 63t62.5 26q32 0 52 -20.5t20 -51.5q0 -37 -25.5 -63.5t-62.5 -26.5q-31 0 -51.5 21z" />
    <glyph glyph-name="quotedbl" unicode="&#x22;" horiz-adv-x="413" 
d="M89 420l22 271h121l-55 -271h-88zM281 420l22 271h121l-55 -271h-88z" />
    <glyph glyph-name="numbersign" unicode="#" horiz-adv-x="531" 
d="M542 443h-72l-55 -203h62l-13 -88h-73l-41 -152h-105l41 152h-123l-41 -152h-105l41 152h-60l13 88h71l54 203h-60l13 89h71l38 141h106l-38 -141h123l38 141h105l-38 -141h61zM310 240l55 203h-123l-55 -203h123z" />
    <glyph glyph-name="dollar" unicode="$" horiz-adv-x="533" 
d="M449.5 326.5q44.5 -45.5 44.5 -116.5q0 -80 -54 -141.5t-162 -75.5l-22 -151h-97l21 149q-61 6 -108.5 30t-80.5 62l76 70q61 -66 160 -66q59 0 97 28t38 81q0 36 -24 59.5t-86 45.5q-89 31 -131 75.5t-42 108.5q0 80 53.5 133t147.5 63l21 146h97l-22 -149
q90 -14 158 -79l-69 -69q-68 56 -145 56q-51 0 -81 -21.5t-30 -64.5q0 -35 24.5 -56.5t90.5 -43.5q81 -28 125.5 -73.5z" />
    <glyph glyph-name="percent" unicode="%" horiz-adv-x="836" 
d="M669 716l-554 -699l75 -53l554 699zM112 376q-41 41 -41 107q0 48 20.5 94.5t63.5 77t106 30.5q66 0 107.5 -40t41.5 -106q0 -47 -20 -94t-63 -78.5t-108 -31.5q-66 0 -107 41zM293 454q20 39 20 83q0 68 -56 68q-50 0 -70 -38.5t-20 -81.5q0 -70 57 -70q49 0 69 39z
M486.5 26q-41.5 41 -41.5 107q0 47 21 94t64 77.5t106 30.5q66 0 107.5 -40t41.5 -106q0 -47 -20 -94t-63 -78.5t-108 -31.5q-66 0 -107.5 41zM668 104q20 39 20 83q0 68 -56 68q-50 0 -70 -38.5t-20 -81.5q0 -70 57 -70q49 0 69 39z" />
    <glyph glyph-name="ampersand" unicode="&#x26;" horiz-adv-x="741" 
d="M491.5 664.5q51.5 -41.5 51.5 -107.5q0 -59 -40 -102t-123 -91l132 -146q42 66 71 142l105 -36q-49 -100 -111 -177l96 -103l-103 -59l-74 84q-50 -42 -104.5 -63t-119.5 -21q-63 0 -110.5 23t-73 63t-25.5 90q0 66 34.5 116t121.5 101q-38 43 -56 78.5t-18 75.5
q0 45 22.5 84.5t69.5 64.5t116 25q87 0 138.5 -41.5zM289 596.5q-23 -23.5 -23 -62.5q0 -26 12 -50t37 -52q56 32 82 60t26 64q0 30 -19.5 47t-51.5 17q-40 0 -63 -23.5zM212.5 240.5q-17.5 -32.5 -17.5 -72.5q0 -42 25 -65t72 -23q75 0 142 56l-152 170
q-52 -33 -69.5 -65.5z" />
    <glyph glyph-name="quotesingle" unicode="'" horiz-adv-x="221" 
d="M89 420l22 271h121l-55 -271h-88z" />
    <glyph glyph-name="parenleft" unicode="(" horiz-adv-x="316" 
d="M370 796q-111 -135 -162.5 -271.5t-51.5 -299.5q0 -96 21 -171t65 -156l-86 -49q-42 73 -67 125.5t-42 119t-17 145.5q0 127 30 228.5t86 190t148 196.5z" />
    <glyph glyph-name="parenright" unicode=")" horiz-adv-x="316" 
d="M250.5 725.5q25.5 -52.5 42.5 -119t17 -146.5q0 -126 -30.5 -228t-86 -190t-147.5 -196l-76 58q111 136 162.5 272t51.5 299q0 96 -21 171t-65 156l85 49q42 -73 67.5 -125.5z" />
    <glyph glyph-name="asterisk" unicode="*" horiz-adv-x="436" 
d="M464 547l-149 -28l86 -108l-99 -68l-54 130l-89 -130l-82 67l115 110l-141 27l47 104l127 -61l1 151h119l-41 -150l138 63z" />
    <glyph glyph-name="plus" unicode="+" horiz-adv-x="508" 
d="M346 535l-22 -153h147l-14 -101h-147l-22 -153h-108l22 153h-147l15 101h146l21 153h109z" />
    <glyph glyph-name="comma" unicode="," horiz-adv-x="241" 
d="M152.5 126.5q20.5 -20.5 20.5 -51.5q0 -21 -8 -41.5t-29 -58.5l-85 -147h-79l67 173q-26 21 -26 56q0 37 25.5 63.5t62.5 26.5q31 0 51.5 -20.5z" />
    <glyph glyph-name="hyphen" unicode="-" horiz-adv-x="398" 
d="M49 262l14 102h299l-14 -102h-299z" />
    <glyph glyph-name="period" unicode="." horiz-adv-x="240" 
d="M32.5 6q-20.5 21 -20.5 52q0 37 25.5 63t62.5 26q32 0 52 -20.5t20 -51.5q0 -37 -25.5 -63.5t-62.5 -26.5q-31 0 -51.5 21z" />
    <glyph glyph-name="slash" unicode="/" horiz-adv-x="512" 
d="M392 813l108 -26l-356 -895l-108 27z" />
    <glyph glyph-name="zero" unicode="0" horiz-adv-x="565" 
d="M168.5 614.5q-65.5 -70.5 -93.5 -173t-28 -206.5q0 -121 51 -185.5t147 -64.5q105 0 170.5 70.5t93.5 174t28 206.5q0 120 -51 184.5t-147 64.5q-105 0 -170.5 -70.5zM391.5 558.5q19.5 -29.5 19.5 -97.5q0 -85 -16.5 -172.5t-52 -147t-90.5 -59.5q-39 0 -58.5 30.5
t-19.5 97.5q0 85 16.5 172t52 146.5t90.5 59.5q39 0 58.5 -29.5z" />
    <glyph glyph-name="one" unicode="1" horiz-adv-x="442" 
d="M406 673l-94 -673h-125l76 535l-161 -91l-43 95l235 134h112z" />
    <glyph glyph-name="two" unicode="2" horiz-adv-x="499" 
d="M428.5 636.5q52.5 -48.5 52.5 -125.5q0 -53 -25 -104t-95.5 -124.5t-206.5 -183.5l283 2l-28 -101h-413l12 96q155 139 224 208.5t93.5 111t24.5 86.5q0 40 -23 61t-61 21q-39 0 -71 -17t-68 -55l-73 68q50 53 106 79t123 26q93 0 145.5 -48.5z" />
    <glyph glyph-name="three" unicode="3" horiz-adv-x="502" 
d="M425 640q50 -45 50 -115q0 -58 -37.5 -103.5t-115.5 -66.5q57 -5 93 -40.5t36 -97.5q0 -54 -29 -107.5t-89.5 -89t-149.5 -35.5q-68 0 -119.5 25.5t-84.5 73.5l80 65q26 -34 57 -49t70 -15q61 0 99 39t38 103q0 43 -26.5 61t-78.5 18h-55l27 91h35q61 0 92.5 33.5
t31.5 81.5q0 36 -22 55.5t-61 19.5t-73 -14.5t-70 -45.5l-58 75q51 42 104.5 62.5t114.5 20.5q91 0 141 -45z" />
    <glyph glyph-name="four" unicode="4" horiz-adv-x="542" 
d="M516 252l-14 -98h-79l-22 -154h-123l21 154h-282l12 88l251 444l106 -41l-219 -393h147l37 169h109l-24 -169h80z" />
    <glyph glyph-name="five" unicode="5" horiz-adv-x="512" 
d="M477 578h-249l-24 -166q49 24 103 24q76 0 120 -48t44 -136q0 -60 -29 -122t-91.5 -103.5t-156.5 -41.5q-68 0 -116.5 25t-84.5 70l79 67q24 -32 54.5 -47.5t70.5 -15.5q49 0 81.5 24.5t48 62t15.5 78.5q0 95 -87 95q-25 0 -46.5 -5t-46.5 -18h-92l50 352h385z" />
    <glyph glyph-name="six" unicode="6" horiz-adv-x="542" 
d="M463.5 400.5q44.5 -47.5 44.5 -133.5q0 -62 -27.5 -127t-85.5 -110t-144 -45q-106 0 -156.5 63t-50.5 176q0 119 39 225t113.5 171t175.5 65q83 0 140 -45l-56 -77q-38 27 -89 27q-64 0 -111 -57t-67 -156q70 71 157 71q73 0 117.5 -47.5zM330 110q28 30 40 72.5t12 83.5
q0 48 -18.5 68.5t-53.5 20.5q-36 0 -70 -19.5t-63 -53.5q-5 -37 -5 -76q0 -67 20 -96.5t64 -29.5q46 0 74 30z" />
    <glyph glyph-name="seven" unicode="7" horiz-adv-x="449" 
d="M484 673l-12 -90l-327 -596l-113 38l307 549h-279l14 99h410z" />
    <glyph glyph-name="eight" unicode="8" horiz-adv-x="559" 
d="M513 203q0 -61 -34 -111t-96 -78.5t-141 -28.5q-68 0 -117.5 23t-76 63.5t-26.5 92.5q0 127 153 188q-80 51 -80 138q0 52 28.5 97t82 71.5t125.5 26.5q87 0 145 -42t58 -115q0 -54 -31.5 -95t-101.5 -74q112 -56 112 -156zM243 565q-26 -30 -26 -71q0 -36 20.5 -56.5
t64.5 -38.5l17 -6q54 31 73 62.5t19 66.5t-21.5 54t-63.5 19q-57 0 -83 -30zM349.5 115.5q36.5 35.5 36.5 90.5q0 34 -23.5 56t-81.5 44l-27 9q-103 -49 -103 -145q0 -42 26.5 -66t73.5 -24q62 0 98.5 35.5z" />
    <glyph glyph-name="nine" unicode="9" horiz-adv-x="536" 
d="M469.5 627q54.5 -58 54.5 -157q0 -175 -96.5 -308.5t-354.5 -187.5l-18 93q136 34 213 91t105 153q-61 -73 -151 -73q-46 0 -83.5 22.5t-58.5 64t-21 96.5q0 64 27.5 124.5t85.5 100t142 39.5q101 0 155.5 -58zM330 351q33 20 61 56q5 47 5 69q0 61 -21 87.5t-66 26.5
q-66 0 -95 -51.5t-29 -115.5q0 -46 20.5 -69t55.5 -23q36 0 69 20z" />
    <glyph glyph-name="colon" unicode=":" horiz-adv-x="240" 
d="M32.5 6q-20.5 21 -20.5 52q0 37 25.5 63t62.5 26q32 0 52 -20.5t20 -51.5q0 -37 -25.5 -63.5t-62.5 -26.5q-31 0 -51.5 21zM82.5 362q-20.5 21 -20.5 52q0 37 25.5 63t62.5 26q32 0 52 -20.5t20 -51.5q0 -37 -25.5 -63.5t-62.5 -26.5q-31 0 -51.5 21z" />
    <glyph glyph-name="semicolon" unicode=";" horiz-adv-x="243" 
d="M153.5 126.5q20.5 -20.5 20.5 -51.5q0 -21 -8 -41.5t-29 -58.5l-85 -147h-79l67 173q-26 21 -26 56q0 37 25.5 63.5t62.5 26.5q31 0 51.5 -20.5zM85.5 362q-20.5 21 -20.5 52q0 37 25.5 63t62.5 26q32 0 52 -20.5t20 -51.5q0 -37 -25.5 -63.5t-62.5 -26.5q-31 0 -51.5 21
z" />
    <glyph glyph-name="less" unicode="&#x3c;" horiz-adv-x="504" 
d="M461 565l35 -101l-341 -132l298 -134l-55 -97l-356 172l16 119z" />
    <glyph glyph-name="equal" unicode="=" horiz-adv-x="503" 
d="M69 381l15 102h396l-15 -102h-396zM41 179l15 102h396l-15 -102h-396z" />
    <glyph glyph-name="greater" unicode="&#x3e;" horiz-adv-x="502" 
d="M123 565l356 -173l-16 -119l-403 -172l-32 102l339 134l-298 133z" />
    <glyph glyph-name="question" unicode="?" horiz-adv-x="463" 
d="M435 664q48 -42 48 -106q0 -50 -19 -83.5t-46.5 -53t-71.5 -42.5q-35 -19 -54.5 -32t-32.5 -32t-13 -46q0 -10 3 -25l-112 -18q-9 24 -9 50q0 45 18 76t43 49t66 41q49 26 72 47.5t23 58.5q0 27 -18.5 41.5t-51.5 14.5q-71 0 -139 -68l-73 68q97 102 230 102
q89 0 137 -42zM130.5 6q-20.5 21 -20.5 52q0 37 25.5 63t62.5 26q32 0 52 -20.5t20 -51.5q0 -37 -25.5 -63.5t-62.5 -26.5q-31 0 -51.5 21z" />
    <glyph glyph-name="at" unicode="@" horiz-adv-x="1012" 
d="M782.5 659.5q88.5 -46.5 134 -127.5t45.5 -182q0 -77 -25.5 -156.5t-80 -133.5t-137.5 -54q-54 0 -86 29.5t-38 70.5q-56 -97 -150 -97q-72 0 -113 47.5t-41 127.5q0 73 26 145t84.5 120.5t150.5 48.5q85 0 160 -45l-39 -288q-1 -8 -1 -22q0 -25 9.5 -38t33.5 -13
q44 0 73.5 41.5t43 102t13.5 119.5q0 122 -72 188t-209 66q-140 0 -228.5 -66t-127 -163t-38.5 -197q0 -88 36 -156.5t105.5 -107.5t166.5 -39q93 0 192 35l22 -93q-113 -40 -223 -40q-125 0 -220 51t-147 142.5t-52 208.5q0 119 55 239.5t172.5 201.5t293.5 81
q123 0 211.5 -46.5zM526.5 116.5q23.5 22.5 37.5 49.5l34 237q-23 10 -53 10q-74 0 -106 -71t-32 -163q0 -43 15 -64t46 -21q35 0 58.5 22.5z" />
    <glyph glyph-name="A" unicode="A" horiz-adv-x="574" 
d="M405 0l-20 160h-228l-64 -160h-136l310 691h160l115 -691h-137zM197 260h176l-41 335z" />
    <glyph glyph-name="B" unicode="B" horiz-adv-x="605" 
d="M525 320.5q38 -33.5 38 -100.5q0 -100 -73 -160t-240 -60h-207l97 691h197q113 0 177 -38t64 -118q0 -69 -43.5 -112t-109.5 -58q62 -11 100 -44.5zM256 594l-26 -187h79q63 0 99 31t36 86q0 39 -27.5 54.5t-77.5 15.5h-83zM390.5 133q37.5 34 37.5 95q0 87 -118 87h-93
l-30 -216h72q94 0 131.5 34z" />
    <glyph glyph-name="C" unicode="C" 
d="M591 629l-72 -70q-29 23 -58 34t-63 11q-75 0 -123 -53t-69 -130.5t-21 -155.5q0 -89 36 -131.5t99 -42.5q41 0 75 15t73 43l53 -82q-42 -36 -96.5 -59t-120.5 -23q-117 0 -186 74t-69 210q0 102 36 202.5t114 167.5t195 67q120 0 197 -77z" />
    <glyph glyph-name="D" unicode="D" horiz-adv-x="641" 
d="M531 634q84 -57 84 -205q0 -119 -38.5 -215.5t-124 -155t-221.5 -58.5h-188l97 691h167q140 0 224 -57zM257 592l-69 -493h62q84 0 136 49t73.5 124t21.5 158q0 95 -43 128.5t-120 33.5h-61z" />
    <glyph glyph-name="E" unicode="E" horiz-adv-x="523" 
d="M536 691l-28 -98h-251l-28 -193h219l-13 -98h-219l-28 -203h269l-14 -99h-400l97 691h396z" />
    <glyph glyph-name="F" unicode="F" horiz-adv-x="482" 
d="M526 691l-27 -98h-242l-29 -207h210l-13 -98h-211l-40 -288h-131l97 691h386z" />
    <glyph glyph-name="G" unicode="G" horiz-adv-x="630" 
d="M623 622l-76 -67q-34 27 -64.5 39t-71.5 12q-80 0 -131 -54.5t-74 -137t-23 -168.5q0 -84 33 -122t100 -38q59 0 112 28l26 179h-102v98h244l-46 -336q-112 -70 -245 -70q-124 0 -190.5 70t-66.5 204q0 109 38.5 211.5t120.5 169t205 66.5q129 0 211 -84z" />
    <glyph glyph-name="H" unicode="H" horiz-adv-x="664" 
d="M173 0h-130l97 691h131l-40 -277h243l39 277h131l-97 -691h-131l43 309h-242z" />
    <glyph glyph-name="I" unicode="I" horiz-adv-x="291" 
d="M271 691l-97 -691h-131l97 691h131z" />
    <glyph glyph-name="J" unicode="J" horiz-adv-x="306" 
d="M206 99q-15 -111 -74 -167t-160 -87l-25 96q46 17 72 39t38.5 52t18.5 76l83 583h130z" />
    <glyph glyph-name="K" unicode="K" horiz-adv-x="605" 
d="M43 0l97 691h131l-97 -691h-131zM423 0l-192 369l279 322h144l-283 -322l204 -369h-152z" />
    <glyph glyph-name="L" unicode="L" horiz-adv-x="499" 
d="M271 691l-82 -583h272l-29 -108h-389l97 691h131z" />
    <glyph glyph-name="M" unicode="M" horiz-adv-x="774" 
d="M690 0h-127l23 292q12 167 30 286l-194 -503h-125l-63 501q-7 -119 -43 -293l-55 -283h-127l151 691h161l56 -489l181 489h175z" />
    <glyph glyph-name="N" unicode="N" horiz-adv-x="664" 
d="M547 0h-167l-159 580q1 -72 -3.5 -142t-17.5 -162l-38 -276h-119l97 691h167l161 -580q-1 24 -1 69q0 94 13 193l46 318h118z" />
    <glyph glyph-name="O" unicode="O" horiz-adv-x="683" 
d="M590 632.5q68 -73.5 68 -208.5q0 -103 -35 -203.5t-114 -168t-203 -67.5q-121 0 -189 73.5t-68 207.5q0 102 35 202.5t114 169t203 68.5q121 0 189 -73.5zM269 548.5q-47 -56.5 -66 -136t-19 -154.5q0 -172 129 -172q78 0 124.5 56.5t65.5 136t19 155.5q0 89 -32.5 130
t-96.5 41q-77 0 -124 -56.5z" />
    <glyph glyph-name="P" unicode="P" horiz-adv-x="583" 
d="M524.5 643.5q65.5 -47.5 65.5 -140.5q0 -69 -30.5 -128t-98 -96.5t-172.5 -37.5h-81l-34 -241h-131l97 691h200q119 0 184.5 -47.5zM416 386q37 46 37 113q0 50 -31.5 72.5t-92.5 22.5h-72l-35 -254h67q90 0 127 46z" />
    <glyph glyph-name="Q" unicode="Q" horiz-adv-x="681" 
d="M610.5 195q-47.5 -108 -149.5 -155q59 -2 102 -18.5t79 -45.5l-93 -104q-50 59 -102.5 86t-140.5 27q-121 0 -189 73.5t-68 207.5q0 102 35 202.5t114 169t203 68.5q121 0 189 -73.5t68 -208.5q0 -121 -47.5 -229zM313 86q78 0 125 57t65.5 138.5t18.5 161.5
q0 162 -129 162q-77 0 -124 -57t-66 -137.5t-19 -158.5q0 -166 129 -166z" />
    <glyph glyph-name="R" unicode="R" horiz-adv-x="603" 
d="M549.5 386q-38.5 -57 -127.5 -88l135 -298h-144l-114 277h-86l-39 -277h-131l97 691h202q122 0 184 -45.5t62 -132.5q0 -70 -38.5 -127zM226 372h84q75 0 108.5 40.5t33.5 95.5q0 46 -29.5 66.5t-92.5 20.5h-73z" />
    <glyph glyph-name="S" unicode="S" horiz-adv-x="552" 
d="M550 619l-74 -72q-32 30 -66 44t-76 14q-54 0 -87.5 -25t-33.5 -68q0 -24 11 -40t36.5 -30t74.5 -30q87 -27 133 -71t46 -122q0 -59 -30 -112.5t-94 -87.5t-161 -34q-150 0 -238 97l78 76q33 -34 72.5 -51.5t90.5 -17.5q67 0 105.5 30.5t38.5 83.5q0 38 -25.5 61.5
t-91.5 46.5q-95 32 -138.5 75.5t-43.5 112.5q0 52 29 99.5t86.5 77.5t138.5 30q134 0 219 -87z" />
    <glyph glyph-name="T" unicode="T" horiz-adv-x="522" 
d="M578 691l-29 -105h-178l-82 -586h-131l82 586h-184l15 105h507z" />
    <glyph glyph-name="U" unicode="U" horiz-adv-x="648" 
d="M573 224q-15 -108 -90.5 -173.5t-195.5 -65.5q-110 0 -167.5 53.5t-57.5 145.5q0 22 3 44l65 463h131l-65 -461q-3 -22 -3 -41q0 -51 25 -76t77 -25q65 0 101 37t47 110l64 456h131z" />
    <glyph glyph-name="V" unicode="V" horiz-adv-x="556" 
d="M620 691l-299 -691h-155l-111 691h136l67 -574l227 574h135z" />
    <glyph glyph-name="W" unicode="W" horiz-adv-x="829" 
d="M872 691l-222 -691h-170l-26 551l-184 -551h-165l-27 691h127l5 -586l194 586h139l27 -586l178 586h124z" />
    <glyph glyph-name="X" unicode="X" horiz-adv-x="554" 
d="M595 691l-228 -319l150 -372h-141l-96 285l-175 -285h-143l250 368l-136 323h141l81 -242l155 242h142z" />
    <glyph glyph-name="Y" unicode="Y" horiz-adv-x="566" 
d="M628 691l-279 -429l-37 -262h-132l37 261l-159 430h139l100 -321l190 321h141z" />
    <glyph glyph-name="Z" unicode="Z" horiz-adv-x="526" 
d="M-15 0l14 101l386 485h-284l14 105h434l-14 -102l-383 -481h318l-29 -108h-456z" />
    <glyph glyph-name="bracketleft" unicode="[" horiz-adv-x="315" 
d="M359 820l-14 -100h-116l-104 -741h116l-14 -99h-235l132 940h235z" />
    <glyph glyph-name="backslash" unicode="\" horiz-adv-x="512" 
d="M270 811l106 -895l-111 -24l-105 895z" />
    <glyph glyph-name="bracketright" unicode="]" horiz-adv-x="315" 
d="M348 820l-132 -940h-236l14 99h116l105 742h-116l14 99h235z" />
    <glyph glyph-name="asciicircum" unicode="^" horiz-adv-x="542" 
d="M409 842l143 -315h-127l-86 214l-146 -214h-129l231 315h114z" />
    <glyph glyph-name="underscore" unicode="_" horiz-adv-x="512" 
d="M-47 -158l14 103h488l-14 -103h-488z" />
    <glyph glyph-name="grave" unicode="`" horiz-adv-x="315" 
d="M151 820l193 -126l-37 -63l-213 89z" />
    <glyph glyph-name="a" unicode="a" horiz-adv-x="571" 
d="M533 493l-51 -355q-2 -18 -2 -23q0 -17 6.5 -27t23.5 -17l-36 -84q-93 10 -109 88q-66 -90 -158 -90q-81 0 -125.5 56t-44.5 151q0 82 30.5 163t96.5 135t167 54q104 0 202 -51zM238 410.5q-36 -39.5 -52.5 -99t-16.5 -119.5q0 -110 73 -110q34 0 62 21.5t58 62.5l38 270
q-32 14 -71 14q-55 0 -91 -39.5z" />
    <glyph glyph-name="b" unicode="b" horiz-adv-x="580" 
d="M500.5 490q42.5 -54 42.5 -153q0 -85 -28.5 -165t-95.5 -133.5t-174 -53.5q-51 0 -98.5 9.5t-104.5 30.5l101 716l127 14l-38 -274q68 63 149 63q77 0 119.5 -54zM275 430q-28 -18 -57 -50l-39 -285q40 -14 78 -14q53 0 88 40t51 99t16 119q0 109 -76 109q-33 0 -61 -18z
" />
    <glyph glyph-name="c" unicode="c" horiz-adv-x="471" 
d="M484 481l-64 -76q-23 21 -46 29.5t-51 8.5q-81 0 -116.5 -74.5t-35.5 -167.5q0 -59 24 -85.5t70 -26.5q29 0 54.5 9.5t58.5 29.5l48 -85q-83 -58 -175 -58q-101 0 -157 59.5t-56 163.5q0 76 30 153.5t94 130t160 52.5q98 0 162 -63z" />
    <glyph glyph-name="d" unicode="d" horiz-adv-x="586" 
d="M577 740l-104 -740h-111l1 81q-63 -96 -159 -96q-81 0 -124 56.5t-43 155.5q0 78 26.5 158t83 134.5t141.5 54.5q78 0 127 -58l38 267zM229.5 407q-32.5 -41 -46.5 -99.5t-14 -114.5q0 -111 72 -111q38 0 69 28t64 80l29 208q-18 25 -39.5 37.5t-49.5 12.5
q-52 0 -84.5 -41z" />
    <glyph glyph-name="e" unicode="e" horiz-adv-x="525" 
d="M416 256q-93 -46 -249 -62q4 -110 103 -110q36 0 69 11.5t69 37.5l49 -80q-96 -68 -201 -68q-106 0 -162 58.5t-56 161.5q0 80 29.5 157.5t94 129.5t164.5 52q58 0 99.5 -19t62.5 -51t21 -70q0 -102 -93 -148zM329 318.5q50 29.5 50 80.5q0 21 -14 37.5t-46 16.5
q-63 0 -98.5 -50t-47.5 -124q106 10 156 39.5z" />
    <glyph glyph-name="f" unicode="f" horiz-adv-x="339" 
d="M286 639.5q-20 -18.5 -25 -57.5l-8 -53h125l-26 -92h-112l-55 -392q-11 -78 -39.5 -127.5t-72.5 -79t-112 -56.5l-34 94q41 17 66.5 35t42 49t23.5 82l56 395h-86l13 92h85l9 61q10 75 62 120t138 45q74 0 137 -41l-45 -80q-38 24 -83 24q-39 0 -59 -18.5z" />
    <glyph glyph-name="g" unicode="g" horiz-adv-x="578" 
d="M539 493l-69 -465q-19 -132 -83.5 -190t-178.5 -58q-47 0 -98.5 15t-92.5 40l44 89q33 -19 70.5 -30.5t73.5 -11.5q56 0 93 27.5t48 106.5l8 58q-29 -34 -66 -54t-79 -20q-81 0 -126 55t-45 147q0 83 31 161t98 129.5t169 51.5q107 0 203 -51zM241 413q-37 -37 -54 -93
t-17 -116q0 -56 20 -81.5t55 -25.5q34 0 63.5 22.5t58.5 62.5l40 254q-19 8 -35.5 11t-37.5 3q-56 0 -93 -37z" />
    <glyph glyph-name="h" unicode="h" horiz-adv-x="574" 
d="M488 509.5q33 -34.5 33 -95.5q0 -22 -2 -34l-54 -380h-126l51 359q2 20 2 26q0 30 -11.5 42t-31.5 12q-70 0 -143 -136l-41 -303h-126l104 740l127 13l-45 -317q32 50 76 79t95 29q59 0 92 -34.5z" />
    <glyph glyph-name="i" unicode="i" horiz-adv-x="278" 
d="M239 529l-74 -529h-126l74 529h126zM144 661.5q-20 19.5 -20 49.5q0 37 25 61.5t62 24.5q32 0 52 -19.5t20 -50.5q0 -36 -25 -60.5t-62 -24.5q-32 0 -52 19.5z" />
    <glyph glyph-name="j" unicode="j" horiz-adv-x="277" 
d="M-87 -126q41 18 66.5 36.5t41.5 49.5t23 82l69 487h126l-68 -484q-11 -78 -40 -127.5t-72.5 -79t-112.5 -56.5zM144 661.5q-20 19.5 -20 49.5q0 37 25 61.5t62 24.5q32 0 52 -19.5t20 -50.5q0 -36 -25 -60.5t-62 -24.5q-32 0 -52 19.5z" />
    <glyph glyph-name="k" unicode="k" horiz-adv-x="557" 
d="M228 449q75 95 177 95q61 0 98.5 -34.5t37.5 -89.5q0 -63 -38 -110.5t-114 -74.5l107 -235h-139l-110 257q88 26 126 60.5t38 83.5q0 24 -13.5 37t-37.5 13q-38 0 -78.5 -32t-71.5 -96l-45 -323h-126l104 741l127 14z" />
    <glyph glyph-name="l" unicode="l" horiz-adv-x="288" 
d="M177 125l-1 -11q0 -14 6 -20t18 -6q10 0 30 6l19 -90q-41 -19 -88 -19q-53 0 -82 28.5t-29 83.5q0 21 2 33l86 611l128 14z" />
    <glyph glyph-name="m" unicode="m" horiz-adv-x="839" 
d="M755 509.5q32 -34.5 32 -94.5q0 -22 -2 -34l-54 -381h-126l51 359q2 20 2 27q0 30 -11.5 41.5t-32.5 11.5q-57 0 -123 -131l-44 -308h-126l51 359q2 20 2 27q0 30 -11.5 41.5t-32.5 11.5q-57 0 -123 -135l-42 -304h-126l74 529h109l-5 -93q74 108 169 108q46 0 77.5 -27
t38.5 -76q34 49 77 76t90 27q54 0 86 -34.5z" />
    <glyph glyph-name="n" unicode="n" horiz-adv-x="573" 
d="M488.5 509.5q32.5 -34.5 32.5 -95.5q0 -16 -3 -36l-53 -378h-126l51 359q2 18 2 25q0 30 -12 42.5t-33 12.5q-68 0 -139 -136l-43 -303h-126l74 529h109l-5 -98q78 113 182 113q57 0 89.5 -34.5z" />
    <glyph glyph-name="o" unicode="o" horiz-adv-x="576" 
d="M94.5 44q-55.5 59 -55.5 164q0 78 28.5 155t92.5 129t164 52q102 0 157.5 -59.5t55.5 -162.5q0 -78 -28 -155t-92 -129.5t-165 -52.5q-102 0 -157.5 59zM347 123.5q33 41.5 46 99.5t13 113q0 111 -89 111q-55 0 -88 -40.5t-46.5 -97.5t-13.5 -111q0 -116 90 -116
q55 0 88 41.5z" />
    <glyph glyph-name="p" unicode="p" horiz-adv-x="580" 
d="M113 529h110l-1 -62q72 77 158 77q77 0 120 -54t43 -153q0 -84 -28.5 -164.5t-91.5 -134t-161 -53.5q-50 0 -98 16l-30 -206l-126 -15zM346 121q35 40 51 99t16 119q0 109 -77 109q-33 0 -61.5 -18t-56.5 -50l-39 -285q40 -14 79 -14q53 0 88 40z" />
    <glyph glyph-name="q" unicode="q" horiz-adv-x="575" 
d="M348 54q-21 -28 -59 -48.5t-82 -20.5q-81 0 -125.5 56t-44.5 151q0 83 30.5 164t97 134.5t167.5 53.5q106 0 204 -51l-100 -698l-126 -15zM305 103q28 21 58 63l39 270q-18 8 -34.5 11t-37.5 3q-55 0 -91 -39.5t-53 -99t-17 -119.5q0 -110 74 -110q34 0 62 21z" />
    <glyph glyph-name="r" unicode="r" horiz-adv-x="387" 
d="M423 535l-37 -123q-24 6 -44 6q-47 0 -80 -40t-60 -117l-37 -261h-126l74 529h109l-4 -103q29 58 68 87.5t84 29.5q26 0 53 -8z" />
    <glyph glyph-name="s" unicode="s" horiz-adv-x="468" 
d="M452 477l-58 -71q-60 43 -127 43q-41 0 -63.5 -15t-22.5 -41q0 -24 21 -37.5t83 -33.5q73 -23 108 -60.5t35 -98.5q0 -53 -28.5 -93.5t-80.5 -62.5t-121 -22q-66 0 -119.5 23t-88.5 59l66 69q64 -55 145 -55q50 0 74.5 20.5t24.5 47.5q0 21 -9.5 34.5t-31.5 24t-67 25.5
q-73 23 -105.5 58.5t-32.5 91.5q0 42 24.5 79t72.5 59.5t116 22.5q108 0 185 -67z" />
    <glyph glyph-name="t" unicode="t" horiz-adv-x="367" 
d="M197 159q-2 -20 -2 -25q0 -24 10 -34.5t32 -10.5q28 0 68 19l36 -85q-61 -38 -133 -38q-67 0 -103.5 35.5t-36.5 100.5q0 18 3 39l39 277h-82l13 92h87l33 120l106 12l-18 -132h122l-27 -92h-108z" />
    <glyph glyph-name="u" unicode="u" horiz-adv-x="569" 
d="M85.5 19.5q-33.5 34.5 -33.5 95.5q0 18 3 37l53 377h126l-51 -361q-2 -20 -2 -28q0 -29 11.5 -41t34.5 -12q35 0 66.5 28t62.5 74l48 340h126l-74 -529h-109l5 87q-37 -49 -79 -75.5t-92 -26.5q-62 0 -95.5 34.5z" />
    <glyph glyph-name="v" unicode="v" horiz-adv-x="496" 
d="M532 529l-243 -529h-151l-99 529h136l52 -426l171 426h134z" />
    <glyph glyph-name="w" unicode="w" horiz-adv-x="726" 
d="M751 529l-186 -529h-157l-21 415l-139 -415h-156l-42 529h126l12 -435l152 435h129l23 -435l138 435h121z" />
    <glyph glyph-name="x" unicode="x" horiz-adv-x="493" 
d="M511 529l-186 -252l134 -277h-139l-81 207l-137 -207h-142l213 283l-121 246h139l65 -182l114 182h141z" />
    <glyph glyph-name="y" unicode="y" horiz-adv-x="498" 
d="M295 -3q-43 -97 -117 -151.5t-187 -63.5l-4 93q77 12 116.5 39t72.5 86h-45l-92 529h132l52 -441l180 441h131z" />
    <glyph glyph-name="z" unicode="z" horiz-adv-x="441" 
d="M452 529l-12 -92l-290 -337h246l-26 -100h-390l12 92l290 337h-220l14 100h376z" />
    <glyph glyph-name="braceleft" unicode="{" horiz-adv-x="315" 
d="M351 746q-46 0 -67 -15.5t-26 -50.5l-30 -210q-8 -58 -32.5 -83t-74.5 -40q38 -10 56.5 -29.5t18.5 -60.5q0 -20 -2 -32l-30 -210q-1 -6 -1 -16q0 -25 16.5 -35t57.5 -10l-9 -92q-94 0 -138.5 31.5t-44.5 96.5q0 21 2 32l27 198q3 17 3 30q0 26 -13.5 36.5t-47.5 10.5
l16 105q38 0 56 19.5t24 62.5l28 199q8 56 30 89.5t67.5 49.5t123.5 16z" />
    <glyph glyph-name="bar" unicode="|" horiz-adv-x="380" 
d="M324 809l-127 -913h-116l127 913h116z" />
    <glyph glyph-name="braceright" unicode="}" horiz-adv-x="315" 
d="M-12 -46q46 0 67 15.5t26 50.5l30 210q8 58 32.5 83t74.5 40q-38 10 -56.5 29.5t-18.5 60.5q0 20 2 32l30 210q1 6 1 16q0 25 -16.5 35t-57.5 10l9 92q94 0 138.5 -31.5t44.5 -96.5q0 -21 -2 -32l-27 -198q-3 -16 -3 -30q0 -26 13.5 -36.5t47.5 -10.5l-16 -105
q-38 0 -56 -19.5t-24 -62.5l-28 -199q-8 -56 -30 -89.5t-67.5 -49.5t-123.5 -16z" />
    <glyph glyph-name="asciitilde" unicode="~" horiz-adv-x="494" 
d="M273 249.5q-21 9.5 -44 26.5q-18 13 -29.5 19t-25.5 6q-26 0 -44 -15t-36 -41l-68 42q70 111 162 111q29 0 48.5 -9t42.5 -26q19 -13 31 -19t27 -6q25 0 44 14t35 38l67 -42q-30 -48 -68.5 -78t-90.5 -30q-30 0 -51 9.5z" />
    <glyph glyph-name="uni00A0" unicode="&#xa0;" horiz-adv-x="242" 
 />
    <glyph glyph-name="exclamdown" unicode="&#xa1;" horiz-adv-x="232" 
d="M81.5 362q-20.5 21 -20.5 52q0 37 25.5 63t62.5 26q32 0 52 -20.5t20 -51.5q0 -37 -25.5 -63.5t-62.5 -26.5q-31 0 -51.5 21zM168 241l-47 -445h-136l78 445h105z" />
    <glyph glyph-name="cent" unicode="&#xa2;" horiz-adv-x="471" 
d="M426 43q-71 -49 -145 -56l-21 -145h-97l22 151q-70 18 -108.5 74t-38.5 141q0 67 23.5 137t74 123.5t126.5 69.5l21 150h96l-21 -146q76 -11 126 -61l-64 -76q-23 21 -46 29.5t-51 8.5q-81 0 -116.5 -74.5t-35.5 -167.5q0 -59 24 -85.5t70 -26.5q29 0 54.5 9.5t58.5 29.5
z" />
    <glyph glyph-name="sterling" unicode="&#xa3;" horiz-adv-x="522" 
d="M303 561q-27 -25 -33 -73l-14 -100h192l-10 -72h-192l-13 -94q-7 -48 -23.5 -75.5t-54.5 -47.5h307l-28 -99h-439l12 96q38 12 57.5 27.5t29 38t14.5 61.5l13 93h-66l11 72h65l15 105q12 88 69.5 140t151.5 52q120 0 181 -94l-83 -56q-18 28 -39 39.5t-52 11.5
q-44 0 -71 -25z" />
    <glyph glyph-name="currency" unicode="&#xa4;" 
d="M462 221l76 -75l-63 -63l-78 76q-51 -31 -118 -31q-64 0 -115 32l-78 -77l-63 63l77 77q-34 51 -34 118q0 65 33 118l-76 79l63 63l78 -79q51 32 115 32q67 0 118 -31l78 78l63 -63l-76 -77q35 -52 35 -120t-35 -120zM361.5 251.5q27.5 32.5 27.5 90.5t-27.5 90t-80.5 32
t-81 -32t-28 -90q0 -59 28 -91t81 -32t80.5 32.5z" />
    <glyph glyph-name="yen" unicode="&#xa5;" horiz-adv-x="546" 
d="M605 673l-226 -324h103l-10 -73h-134l-11 -80h133l-10 -72h-133l-17 -124h-127l17 124h-133l10 72h133l11 80h-133l10 73h103l-135 324h134l101 -288l181 288h133z" />
    <glyph glyph-name="brokenbar" unicode="&#xa6;" horiz-adv-x="380" 
d="M324 809l-51 -366h-116l51 366h116zM248 262l-51 -366h-116l51 366h116z" />
    <glyph glyph-name="section" unicode="&#xa7;" horiz-adv-x="534" 
d="M447 396.5q34 -33.5 34 -82.5q0 -45 -24.5 -78.5t-72.5 -61.5q43 -37 43 -93q0 -42 -23 -78t-73 -58.5t-126 -22.5q-52 0 -97 15t-80 40l51 78q57 -40 128 -40q52 0 74.5 17t22.5 44q0 19 -9 31t-30.5 22.5t-66.5 25.5q-70 22 -102 53.5t-32 82.5q0 87 100 139
q-44 38 -44 94q0 74 59 116.5t152 42.5q104 0 183 -58l-53 -73q-59 40 -128 40q-48 0 -69.5 -17t-21.5 -44q0 -26 21 -42.5t82 -37.5q68 -21 102 -54.5zM317 213q26 21 37 39t11 40q0 25 -18 42.5t-65 33.5q-28 9 -57 23q-25 -21 -34.5 -39.5t-9.5 -40.5q0 -25 15 -41.5
t54 -29.5q42 -15 67 -27z" />
    <glyph glyph-name="dieresis" unicode="&#xa8;" horiz-adv-x="420" 
d="M111 664.5q-18 17.5 -18 43.5q0 33 22.5 54.5t55.5 21.5q28 0 46 -17.5t18 -43.5q0 -33 -22.5 -54.5t-55.5 -21.5q-28 0 -46 17.5zM330 664.5q-18 17.5 -18 43.5q0 33 22.5 54.5t55.5 21.5q28 0 46 -17.5t18 -43.5q0 -33 -22.5 -54.5t-55.5 -21.5q-28 0 -46 17.5z" />
    <glyph glyph-name="copyright" unicode="&#xa9;" horiz-adv-x="810" 
d="M594.5 716.5q74.5 -41.5 117.5 -115.5t43 -168q0 -93 -43 -167t-117.5 -115.5t-164.5 -41.5t-165.5 41.5t-119 115.5t-43.5 167t43.5 167.5t119 116t165.5 41.5t164.5 -41.5zM302 658.5q-57 -32.5 -89.5 -91.5t-32.5 -134t32.5 -133.5t89 -90.5t128.5 -32q71 0 127.5 32
t88.5 90.5t32 133.5t-32 134t-89 91.5t-127 32.5q-71 0 -128 -32.5zM556 582l-42 -55q-34 26 -74 26q-37 0 -59.5 -29t-22.5 -90q0 -60 21.5 -89t59.5 -29q24 0 43 7.5t39 23.5l38 -57q-53 -50 -126 -50q-79 0 -125.5 51t-46.5 143q0 60 22.5 104t61.5 67t87 23
q70 0 124 -46z" />
    <glyph glyph-name="ordfeminine" unicode="&#xaa;" horiz-adv-x="487" 
d="M100.5 300q-33.5 33 -33.5 84q0 61 49 102t164 41h47l2 16q2 14 2 19q0 24 -14 33.5t-46 9.5q-48 0 -117 -22l-20 79q81 29 162 29q75 0 112 -29.5t37 -92.5q0 -9 -2 -31l-20 -145q-1 -6 -1 -16q0 -11 5 -18.5t18 -12.5l-33 -77q-35 3 -57 16.5t-33 40.5
q-49 -59 -130 -59q-58 0 -91.5 33zM309 394l9 66h-37q-49 0 -71 -18.5t-22 -48.5q0 -41 41 -41q48 0 80 42zM12 0l15 102h389l-15 -102h-389z" />
    <glyph glyph-name="guillemotleft" unicode="&#xab;" horiz-adv-x="596" 
d="M259 547l73 -53l-159 -208l101 -209l-82 -52l-152 219l11 83zM512 547l73 -53l-159 -208l101 -209l-82 -52l-152 219l11 83z" />
    <glyph glyph-name="logicalnot" unicode="&#xac;" horiz-adv-x="508" 
d="M471 377l-35 -251h-114l21 149h-288l14 102h402z" />
    <glyph glyph-name="uni00AD" unicode="&#xad;" horiz-adv-x="398" 
d="M49 262l14 102h299l-14 -102h-299z" />
    <glyph glyph-name="registered" unicode="&#xae;" horiz-adv-x="639" 
d="M486.5 720q60.5 -35 95.5 -96t35 -136q0 -74 -34.5 -134.5t-95.5 -95t-136 -34.5q-74 0 -134.5 34.5t-95.5 95t-35 134.5t35 135.5t95.5 96.5t134.5 35q75 0 135.5 -35zM454 309q45 26 70 72.5t25 106.5q0 61 -25 108t-70 73.5t-103 26.5q-56 0 -101 -26.5t-70.5 -73.5
t-25.5 -108q0 -60 25.5 -106.5t70 -72.5t101.5 -26q58 0 103 26zM445.5 500.5q-16.5 -19.5 -44.5 -29.5l74 -116h-75l-59 104h-23v-104h-65v279h81q128 0 128 -86q0 -28 -16.5 -47.5zM318 511h29q49 0 49 38q0 36 -50 36h-28v-74z" />
    <glyph glyph-name="macron" unicode="&#xaf;" horiz-adv-x="348" 
d="M373 661h-287l12 91h288z" />
    <glyph glyph-name="degree" unicode="&#xb0;" horiz-adv-x="514" 
d="M125 413.5q-42 38.5 -42 104.5q0 54 25 97t67.5 67t94.5 24q66 0 108 -38.5t42 -105.5q0 -53 -25 -96t-67.5 -67t-94.5 -24q-66 0 -108 38.5zM303.5 483q24.5 30 24.5 77q0 33 -16 50.5t-46 17.5q-42 0 -66.5 -30t-24.5 -78q0 -33 16 -50t46 -17q42 0 66.5 30z" />
    <glyph glyph-name="plusminus" unicode="&#xb1;" horiz-adv-x="508" 
d="M19 0l15 102h396l-15 -102h-396zM353 585l-22 -153h147l-14 -101h-147l-22 -153h-108l22 153h-147l15 101h146l21 153h109z" />
    <glyph glyph-name="uni00B2" unicode="&#xb2;" horiz-adv-x="392" 
d="M355 717.5q35 -31.5 35 -80.5q0 -42 -24 -79t-62 -70t-113 -90h177l-21 -77h-281l10 73l38 31q92 77 133.5 121.5t41.5 84.5q0 20 -12.5 30.5t-34.5 10.5q-24 0 -43.5 -10.5t-42.5 -33.5l-56 49q67 72 158 72q62 0 97 -31.5z" />
    <glyph glyph-name="uni00B3" unicode="&#xb3;" horiz-adv-x="392" 
d="M357 720.5q35 -28.5 35 -71.5q0 -42 -27.5 -68.5t-76.5 -38.5q40 -4 64.5 -26t24.5 -61q0 -42 -23.5 -75t-64.5 -51.5t-90 -18.5t-85 17.5t-59 48.5l60 49q35 -39 84 -39q35 0 57 20t22 55q0 25 -15.5 35t-48.5 10h-37l21 68h22q33 0 53 17t20 45q0 19 -12.5 29t-35.5 10
q-46 0 -93 -36l-44 55q68 55 152 55q62 0 97 -28.5z" />
    <glyph glyph-name="acute" unicode="&#xb4;" horiz-adv-x="316" 
d="M311 820l40 -100l-233 -90l-29 65z" />
    <glyph glyph-name="uni00B5" unicode="&#xb5;" horiz-adv-x="577" 
d="M475 82q0 -44 7 -84l-117 -11q-7 22 -9 41.5t-2 47.5q-57 -87 -136 -87q-47 0 -71 29q5 -22 5 -46q0 -31 -7 -79l-14 -97l-123 -13l105 746h126l-52 -372q-2 -14 -2 -19q0 -53 52 -53q67 0 118 81l50 363h126l-49 -350q-7 -52 -7 -97z" />
    <glyph glyph-name="paragraph" unicode="&#xb6;" horiz-adv-x="755" 
d="M689 691l-126 -895l-111 -15l113 816h-104l-112 -801l-111 -15l68 491q-100 4 -151 51.5t-51 126.5q0 75 36 129.5t101 83t149 28.5h299z" />
    <glyph glyph-name="periodcentered" unicode="&#xb7;" horiz-adv-x="239" 
d="M66.5 249q-20.5 21 -20.5 52q0 37 25.5 63t62.5 26q32 0 52 -20.5t20 -51.5q0 -37 -25.5 -63.5t-62.5 -26.5q-31 0 -51.5 21z" />
    <glyph glyph-name="cedilla" unicode="&#xb8;" horiz-adv-x="296" 
d="M122 -52q43 -4 65 -27t22 -59q0 -29 -16 -55.5t-49 -43t-81 -16.5q-60 0 -101 30l38 61q27 -16 61 -16q23 0 37.5 9.5t15.5 27.5q0 20 -18.5 27.5t-65.5 7.5l30 122h74z" />
    <glyph glyph-name="uni00B9" unicode="&#xb9;" horiz-adv-x="392" 
d="M349 740l-59 -419h-96l44 323l-100 -57l-35 67l158 86h88z" />
    <glyph glyph-name="ordmasculine" unicode="&#xba;" horiz-adv-x="492" 
d="M434.5 645.5q46.5 -45.5 46.5 -127.5q0 -72 -28.5 -129t-81 -89.5t-121.5 -32.5q-85 0 -131.5 45.5t-46.5 127.5q0 72 28.5 129t81 89.5t121.5 32.5q85 0 131.5 -45.5zM218 555q-26 -49 -26 -119q0 -82 64 -82q53 0 79 50t26 120q0 80 -63 80q-54 0 -80 -49zM10 0l15 102
h396l-15 -102h-396z" />
    <glyph glyph-name="guillemotright" unicode="&#xbb;" horiz-adv-x="596" 
d="M156 547l152 -220l-11 -83l-209 -219l-73 52l160 209l-101 208zM409 547l152 -220l-11 -83l-209 -219l-73 52l160 209l-101 208z" />
    <glyph glyph-name="onequarter" unicode="&#xbc;" horiz-adv-x="928" 
d="M342 691l-59 -419h-96l44 323l-100 -57l-35 67l158 86h88zM696 755l71 -38l-514 -799l-73 38zM882 164l-11 -74h-47l-13 -90h-94l12 90h-186l9 67l160 271l79 -31l-136 -233h86l28 99h79l-14 -99h48z" />
    <glyph glyph-name="onehalf" unicode="&#xbd;" horiz-adv-x="928" 
d="M342 691l-59 -419h-96l44 323l-100 -57l-35 67l158 86h88zM696 755l71 -38l-514 -799l-73 38zM846 396.5q35 -31.5 35 -80.5q0 -42 -24 -79t-62 -70t-113 -90h177l-21 -77h-281l10 73l38 31q92 77 133.5 121.5t41.5 84.5q0 20 -12.5 30.5t-34.5 10.5q-24 0 -43.5 -10.5
t-42.5 -33.5l-56 49q67 72 158 72q62 0 97 -31.5z" />
    <glyph glyph-name="threequarters" unicode="&#xbe;" horiz-adv-x="928" 
d="M350 671.5q35 -28.5 35 -71.5q0 -42 -27.5 -68.5t-76.5 -38.5q40 -4 64.5 -26t24.5 -61q0 -42 -23.5 -75t-64.5 -51.5t-90 -18.5t-85 17.5t-59 48.5l60 49q35 -39 84 -39q35 0 57 20t22 55q0 25 -15.5 35t-48.5 10h-37l21 68h22q33 0 53 17t20 45q0 19 -12.5 29t-35.5 10
q-46 0 -93 -36l-44 55q68 55 152 55q62 0 97 -28.5zM696 755l71 -38l-514 -799l-73 38zM882 164l-11 -74h-47l-13 -90h-94l12 90h-186l9 67l160 271l79 -31l-136 -233h86l28 99h79l-14 -99h48z" />
    <glyph glyph-name="questiondown" unicode="&#xbf;" horiz-adv-x="463" 
d="M325.5 487q20.5 -21 20.5 -52q0 -37 -25.5 -63t-62.5 -26q-32 0 -52 20.5t-20 51.5q0 37 25.5 63.5t62.5 26.5q31 0 51.5 -21zM22 -178.5q-48 41.5 -48 103.5q0 51 19 84.5t46 52.5t71 43q35 19 54.5 32t33 32.5t13.5 47.5q0 12 -3 25l112 18q9 -22 9 -49
q0 -45 -17.5 -75.5t-43 -49.5t-65.5 -41q-48 -26 -72 -48.5t-24 -59.5q0 -26 18.5 -40t52.5 -14q71 0 137 67l74 -68q-97 -102 -230 -102q-89 0 -137 41.5z" />
    <glyph glyph-name="Agrave" unicode="&#xc0;" horiz-adv-x="574" 
d="M405 0l-20 160h-228l-64 -160h-136l310 691h160l115 -691h-137zM197 260h176l-41 335zM302 930l193 -115l-36 -64l-212 79z" />
    <glyph glyph-name="Aacute" unicode="&#xc1;" horiz-adv-x="574" 
d="M405 0l-20 160h-228l-64 -160h-136l310 691h160l115 -691h-137zM197 260h176l-41 335zM461 931l40 -100l-234 -80l-27 65z" />
    <glyph glyph-name="Acircumflex" unicode="&#xc2;" horiz-adv-x="574" 
d="M405 0l-20 160h-228l-64 -160h-136l310 691h160l115 -691h-137zM197 260h176l-41 335zM226 757l-44 55l153 121h79l120 -121l-51 -55l-118 83z" />
    <glyph glyph-name="Atilde" unicode="&#xc3;" horiz-adv-x="574" 
d="M405 0l-20 160h-228l-64 -160h-136l310 691h160l115 -691h-137zM197 260h176l-41 335zM384.5 777.5q-15.5 7.5 -34.5 21.5q-9 7 -19 12.5t-19 5.5q-18 0 -31.5 -11.5t-30.5 -35.5l-63 37q25 46 58.5 74.5t71.5 28.5q22 0 37.5 -7.5t32.5 -20.5q12 -9 20 -13.5t17 -4.5
q16 0 30 11t30 34l65 -37q-27 -48 -60 -75t-68 -27q-21 0 -36.5 7.5z" />
    <glyph glyph-name="Adieresis" unicode="&#xc4;" horiz-adv-x="574" 
d="M405 0l-20 160h-228l-64 -160h-136l310 691h160l115 -691h-137zM197 260h176l-41 335zM205 790.5q-18 17.5 -18 43.5q0 33 22.5 54.5t55.5 21.5q28 0 46 -17.5t18 -43.5q0 -33 -22.5 -54.5t-55.5 -21.5q-28 0 -46 17.5zM424 790.5q-18 17.5 -18 43.5q0 33 22.5 54.5
t55.5 21.5q28 0 46 -17.5t18 -43.5q0 -33 -22.5 -54.5t-55.5 -21.5q-28 0 -46 17.5z" />
    <glyph glyph-name="Aring" unicode="&#xc5;" horiz-adv-x="574" 
d="M405 0l-20 160h-228l-64 -160h-136l310 691h160l115 -691h-137zM197 260h176l-41 335zM468 948.5q31 -30.5 31 -77.5q0 -35 -18 -65.5t-50.5 -48.5t-71.5 -18q-52 0 -83 30.5t-31 78.5q0 34 18 64.5t50.5 48.5t71.5 18q52 0 83 -30.5zM338.5 894q-15.5 -19 -15.5 -44
q0 -21 10.5 -32.5t29.5 -11.5q28 0 43.5 19t15.5 44q0 21 -11 32.5t-30 11.5q-27 0 -42.5 -19z" />
    <glyph glyph-name="AE" unicode="&#xc6;" horiz-adv-x="821" 
d="M774 593h-286l17 -194h246l-13 -98h-225l18 -202h226l-14 -99h-329l-11 160h-239l-78 -160h-140l361 691h495zM213 260h184l-22 331z" />
    <glyph glyph-name="Ccedilla" unicode="&#xc7;" 
d="M340 -13l-7 -39q43 -4 65 -27t22 -59q0 -29 -16 -55.5t-49 -43t-81 -16.5q-60 0 -101 30l38 61q27 -16 61 -16q23 0 37.5 9.5t15.5 27.5q0 20 -18.5 27.5t-65.5 7.5l23 93q-100 13 -157.5 86t-57.5 196q0 102 36 202.5t114 167.5t195 67q120 0 197 -77l-72 -70
q-29 23 -58 34t-63 11q-75 0 -123 -53t-69 -130.5t-21 -155.5q0 -89 36 -131.5t99 -42.5q41 0 75 15t73 43l53 -82q-81 -70 -181 -80z" />
    <glyph glyph-name="Egrave" unicode="&#xc8;" horiz-adv-x="523" 
d="M536 691l-28 -98h-251l-28 -193h219l-13 -98h-219l-28 -203h269l-14 -99h-400l97 691h396zM296 930l193 -115l-36 -64l-212 79z" />
    <glyph glyph-name="Eacute" unicode="&#xc9;" horiz-adv-x="523" 
d="M536 691l-28 -98h-251l-28 -193h219l-13 -98h-219l-28 -203h269l-14 -99h-400l97 691h396zM455 931l40 -100l-234 -80l-27 65z" />
    <glyph glyph-name="Ecircumflex" unicode="&#xca;" horiz-adv-x="523" 
d="M536 691l-28 -98h-251l-28 -193h219l-13 -98h-219l-28 -203h269l-14 -99h-400l97 691h396zM220 757l-44 55l153 121h79l120 -121l-51 -55l-118 83z" />
    <glyph glyph-name="Edieresis" unicode="&#xcb;" horiz-adv-x="523" 
d="M536 691l-28 -98h-251l-28 -193h219l-13 -98h-219l-28 -203h269l-14 -99h-400l97 691h396zM199 790.5q-18 17.5 -18 43.5q0 33 22.5 54.5t55.5 21.5q28 0 46 -17.5t18 -43.5q0 -33 -22.5 -54.5t-55.5 -21.5q-28 0 -46 17.5zM418 790.5q-18 17.5 -18 43.5q0 33 22.5 54.5
t55.5 21.5q28 0 46 -17.5t18 -43.5q0 -33 -22.5 -54.5t-55.5 -21.5q-28 0 -46 17.5z" />
    <glyph glyph-name="Igrave" unicode="&#xcc;" horiz-adv-x="291" 
d="M271 691l-97 -691h-131l97 691h131zM160 930l193 -115l-36 -64l-212 79z" />
    <glyph glyph-name="Iacute" unicode="&#xcd;" horiz-adv-x="291" 
d="M271 691l-97 -691h-131l97 691h131zM319 931l40 -100l-234 -80l-27 65z" />
    <glyph glyph-name="Icircumflex" unicode="&#xce;" horiz-adv-x="291" 
d="M271 691l-97 -691h-131l97 691h131zM84 757l-44 55l153 121h79l120 -121l-51 -55l-118 83z" />
    <glyph glyph-name="Idieresis" unicode="&#xcf;" horiz-adv-x="291" 
d="M271 691l-97 -691h-131l97 691h131zM63 790.5q-18 17.5 -18 43.5q0 33 22.5 54.5t55.5 21.5q28 0 46 -17.5t18 -43.5q0 -33 -22.5 -54.5t-55.5 -21.5q-28 0 -46 17.5zM282 790.5q-18 17.5 -18 43.5q0 33 22.5 54.5t55.5 21.5q28 0 46 -17.5t18 -43.5q0 -33 -22.5 -54.5
t-55.5 -21.5q-28 0 -46 17.5z" />
    <glyph glyph-name="Eth" unicode="&#xd0;" horiz-adv-x="650" 
d="M541 634q84 -57 84 -205q0 -119 -38.5 -215.5t-124 -155t-221.5 -58.5h-188l44 310h-75l11 86h76l41 295h167q140 0 224 -57zM396 148q52 49 73.5 124t21.5 158q0 95 -43 128.5t-120 33.5h-61l-27 -196h143l-12 -86h-143l-30 -211h62q84 0 136 49z" />
    <glyph glyph-name="Ntilde" unicode="&#xd1;" horiz-adv-x="664" 
d="M547 0h-167l-159 580q1 -72 -3.5 -142t-17.5 -162l-38 -276h-119l97 691h167l161 -580q-1 24 -1 69q0 94 13 193l46 318h118zM437.5 777.5q-15.5 7.5 -34.5 21.5q-9 7 -19 12.5t-19 5.5q-18 0 -31.5 -11.5t-30.5 -35.5l-63 37q25 46 58.5 74.5t71.5 28.5q22 0 37.5 -7.5
t32.5 -20.5q12 -9 20 -13.5t17 -4.5q16 0 30 11t30 34l65 -37q-27 -48 -60 -75t-68 -27q-21 0 -36.5 7.5z" />
    <glyph glyph-name="Ograve" unicode="&#xd2;" horiz-adv-x="683" 
d="M590 632.5q68 -73.5 68 -208.5q0 -103 -35 -203.5t-114 -168t-203 -67.5q-121 0 -189 73.5t-68 207.5q0 102 35 202.5t114 169t203 68.5q121 0 189 -73.5zM269 548.5q-47 -56.5 -66 -136t-19 -154.5q0 -172 129 -172q78 0 124.5 56.5t65.5 136t19 155.5q0 89 -32.5 130
t-96.5 41q-77 0 -124 -56.5zM359 930l193 -115l-36 -64l-212 79z" />
    <glyph glyph-name="Oacute" unicode="&#xd3;" horiz-adv-x="683" 
d="M590 632.5q68 -73.5 68 -208.5q0 -103 -35 -203.5t-114 -168t-203 -67.5q-121 0 -189 73.5t-68 207.5q0 102 35 202.5t114 169t203 68.5q121 0 189 -73.5zM269 548.5q-47 -56.5 -66 -136t-19 -154.5q0 -172 129 -172q78 0 124.5 56.5t65.5 136t19 155.5q0 89 -32.5 130
t-96.5 41q-77 0 -124 -56.5zM518 931l40 -100l-234 -80l-27 65z" />
    <glyph glyph-name="Ocircumflex" unicode="&#xd4;" horiz-adv-x="683" 
d="M590 632.5q68 -73.5 68 -208.5q0 -103 -35 -203.5t-114 -168t-203 -67.5q-121 0 -189 73.5t-68 207.5q0 102 35 202.5t114 169t203 68.5q121 0 189 -73.5zM269 548.5q-47 -56.5 -66 -136t-19 -154.5q0 -172 129 -172q78 0 124.5 56.5t65.5 136t19 155.5q0 89 -32.5 130
t-96.5 41q-77 0 -124 -56.5zM283 757l-44 55l153 121h79l120 -121l-51 -55l-118 83z" />
    <glyph glyph-name="Otilde" unicode="&#xd5;" horiz-adv-x="683" 
d="M590 632.5q68 -73.5 68 -208.5q0 -103 -35 -203.5t-114 -168t-203 -67.5q-121 0 -189 73.5t-68 207.5q0 102 35 202.5t114 169t203 68.5q121 0 189 -73.5zM269 548.5q-47 -56.5 -66 -136t-19 -154.5q0 -172 129 -172q78 0 124.5 56.5t65.5 136t19 155.5q0 89 -32.5 130
t-96.5 41q-77 0 -124 -56.5zM441.5 777.5q-15.5 7.5 -34.5 21.5q-9 7 -19 12.5t-19 5.5q-18 0 -31.5 -11.5t-30.5 -35.5l-63 37q25 46 58.5 74.5t71.5 28.5q22 0 37.5 -7.5t32.5 -20.5q12 -9 20 -13.5t17 -4.5q16 0 30 11t30 34l65 -37q-27 -48 -60 -75t-68 -27
q-21 0 -36.5 7.5z" />
    <glyph glyph-name="Odieresis" unicode="&#xd6;" horiz-adv-x="683" 
d="M590 632.5q68 -73.5 68 -208.5q0 -103 -35 -203.5t-114 -168t-203 -67.5q-121 0 -189 73.5t-68 207.5q0 102 35 202.5t114 169t203 68.5q121 0 189 -73.5zM269 548.5q-47 -56.5 -66 -136t-19 -154.5q0 -172 129 -172q78 0 124.5 56.5t65.5 136t19 155.5q0 89 -32.5 130
t-96.5 41q-77 0 -124 -56.5zM262 790.5q-18 17.5 -18 43.5q0 33 22.5 54.5t55.5 21.5q28 0 46 -17.5t18 -43.5q0 -33 -22.5 -54.5t-55.5 -21.5q-28 0 -46 17.5zM481 790.5q-18 17.5 -18 43.5q0 33 22.5 54.5t55.5 21.5q28 0 46 -17.5t18 -43.5q0 -33 -22.5 -54.5
t-55.5 -21.5q-28 0 -46 17.5z" />
    <glyph glyph-name="multiply" unicode="&#xd7;" horiz-adv-x="503" 
d="M399 499l65 -73l-134 -118l102 -122l-81 -71l-99 121l-136 -121l-64 73l133 118l-102 122l82 71l98 -121z" />
    <glyph glyph-name="Oslash" unicode="&#xd8;" horiz-adv-x="683" 
d="M631 570q27 -61 27 -146q0 -103 -35 -203.5t-114 -168t-203 -67.5q-27 0 -59 5l-52 -121l-100 27l59 131q-51 34 -78 94.5t-27 144.5q0 102 35 202.5t114 169t203 68.5q28 0 56 -5l55 123l99 -28l-59 -131q52 -34 79 -95zM268.5 548q-47.5 -57 -67 -137.5t-19.5 -158.5
q0 -93 33 -131l212 482q-22 2 -34 2q-77 0 -124.5 -57zM438 143q47 57 66 138.5t19 161.5q0 92 -33 129l-211 -484q20 -2 34 -2q78 0 125 57z" />
    <glyph glyph-name="Ugrave" unicode="&#xd9;" horiz-adv-x="648" 
d="M573 224q-15 -108 -90.5 -173.5t-195.5 -65.5q-110 0 -167.5 53.5t-57.5 145.5q0 22 3 44l65 463h131l-65 -461q-3 -22 -3 -41q0 -51 25 -76t77 -25q65 0 101 37t47 110l64 456h131zM339 930l193 -115l-36 -64l-212 79z" />
    <glyph glyph-name="Uacute" unicode="&#xda;" horiz-adv-x="648" 
d="M573 224q-15 -108 -90.5 -173.5t-195.5 -65.5q-110 0 -167.5 53.5t-57.5 145.5q0 22 3 44l65 463h131l-65 -461q-3 -22 -3 -41q0 -51 25 -76t77 -25q65 0 101 37t47 110l64 456h131zM498 931l40 -100l-234 -80l-27 65z" />
    <glyph glyph-name="Ucircumflex" unicode="&#xdb;" horiz-adv-x="648" 
d="M573 224q-15 -108 -90.5 -173.5t-195.5 -65.5q-110 0 -167.5 53.5t-57.5 145.5q0 22 3 44l65 463h131l-65 -461q-3 -22 -3 -41q0 -51 25 -76t77 -25q65 0 101 37t47 110l64 456h131zM263 757l-44 55l153 121h79l120 -121l-51 -55l-118 83z" />
    <glyph glyph-name="Udieresis" unicode="&#xdc;" horiz-adv-x="648" 
d="M573 224q-15 -108 -90.5 -173.5t-195.5 -65.5q-110 0 -167.5 53.5t-57.5 145.5q0 22 3 44l65 463h131l-65 -461q-3 -22 -3 -41q0 -51 25 -76t77 -25q65 0 101 37t47 110l64 456h131zM242 790.5q-18 17.5 -18 43.5q0 33 22.5 54.5t55.5 21.5q28 0 46 -17.5t18 -43.5
q0 -33 -22.5 -54.5t-55.5 -21.5q-28 0 -46 17.5zM461 790.5q-18 17.5 -18 43.5q0 33 22.5 54.5t55.5 21.5q28 0 46 -17.5t18 -43.5q0 -33 -22.5 -54.5t-55.5 -21.5q-28 0 -46 17.5z" />
    <glyph glyph-name="Yacute" unicode="&#xdd;" horiz-adv-x="566" 
d="M628 691l-279 -429l-37 -262h-132l37 261l-159 430h139l100 -321l190 321h141zM459 931l40 -100l-234 -80l-27 65z" />
    <glyph glyph-name="Thorn" unicode="&#xde;" horiz-adv-x="583" 
d="M509 530q65 -48 65 -145q0 -66 -29 -126t-96.5 -99.5t-176.5 -39.5h-81l-17 -120h-131l97 691h131l-16 -113h69q120 0 185 -48zM399 267q38 48 38 116q0 52 -31.5 75t-92.5 23h-71l-37 -262h67q89 0 127 48z" />
    <glyph glyph-name="germandbls" unicode="&#xdf;" horiz-adv-x="591" 
d="M-87 -124q40 16 65 33.5t41.5 47t23.5 77.5l71 504q14 103 77 160t167 57q83 0 129 -38.5t46 -98.5q0 -44 -19.5 -70t-57.5 -56q-26 -20 -39 -34.5t-13 -34.5t13.5 -36t40.5 -38q29 -24 47.5 -44t32 -51t13.5 -73q0 -47 -23.5 -92.5t-71.5 -74.5t-117 -29q-67 0 -123 31
l47 85q29 -16 66 -16q49 0 71 28t22 62q0 35 -16.5 58t-50.5 54q-33 28 -50 51.5t-17 58.5q0 42 17.5 67.5t50.5 53.5q29 25 43 44t14 48q0 25 -17 38t-45 13q-94 0 -111 -125l-69 -491q-11 -78 -39.5 -127.5t-72.5 -79t-112 -56.5z" />
    <glyph glyph-name="agrave" unicode="&#xe0;" horiz-adv-x="571" 
d="M533 493l-51 -355q-2 -18 -2 -23q0 -17 6.5 -27t23.5 -17l-36 -84q-93 10 -109 88q-66 -90 -158 -90q-81 0 -125.5 56t-44.5 151q0 82 30.5 163t96.5 135t167 54q104 0 202 -51zM238 410.5q-36 -39.5 -52.5 -99t-16.5 -119.5q0 -110 73 -110q34 0 62 21.5t58 62.5l38 270
q-32 14 -71 14q-55 0 -91 -39.5zM308 820l193 -126l-37 -63l-213 89z" />
    <glyph glyph-name="aacute" unicode="&#xe1;" horiz-adv-x="571" 
d="M533 493l-51 -355q-2 -18 -2 -23q0 -17 6.5 -27t23.5 -17l-36 -84q-93 10 -109 88q-66 -90 -158 -90q-81 0 -125.5 56t-44.5 151q0 82 30.5 163t96.5 135t167 54q104 0 202 -51zM238 410.5q-36 -39.5 -52.5 -99t-16.5 -119.5q0 -110 73 -110q34 0 62 21.5t58 62.5l38 270
q-32 14 -71 14q-55 0 -91 -39.5zM458 820l40 -100l-233 -90l-29 65z" />
    <glyph glyph-name="acircumflex" unicode="&#xe2;" horiz-adv-x="571" 
d="M533 493l-51 -355q-2 -18 -2 -23q0 -17 6.5 -27t23.5 -17l-36 -84q-93 10 -109 88q-66 -90 -158 -90q-81 0 -125.5 56t-44.5 151q0 82 30.5 163t96.5 135t167 54q104 0 202 -51zM238 410.5q-36 -39.5 -52.5 -99t-16.5 -119.5q0 -110 73 -110q34 0 62 21.5t58 62.5l38 270
q-32 14 -71 14q-55 0 -91 -39.5zM227 627l-44 55l154 126h79l120 -126l-55 -55l-115 88z" />
    <glyph glyph-name="atilde" unicode="&#xe3;" horiz-adv-x="571" 
d="M533 493l-51 -355q-2 -18 -2 -23q0 -17 6.5 -27t23.5 -17l-36 -84q-93 10 -109 88q-66 -90 -158 -90q-81 0 -125.5 56t-44.5 151q0 82 30.5 163t96.5 135t167 54q104 0 202 -51zM238 410.5q-36 -39.5 -52.5 -99t-16.5 -119.5q0 -110 73 -110q34 0 62 21.5t58 62.5l38 270
q-32 14 -71 14q-55 0 -91 -39.5zM383.5 651.5q-15.5 7.5 -34.5 21.5q-9 7 -19 12.5t-19 5.5q-18 0 -31.5 -11.5t-30.5 -35.5l-63 37q25 46 58.5 74.5t71.5 28.5q22 0 37.5 -7.5t32.5 -20.5q12 -9 20 -13.5t17 -4.5q16 0 30 11t30 34l65 -37q-27 -48 -60 -75t-68 -27
q-21 0 -36.5 7.5z" />
    <glyph glyph-name="adieresis" unicode="&#xe4;" horiz-adv-x="571" 
d="M533 493l-51 -355q-2 -18 -2 -23q0 -17 6.5 -27t23.5 -17l-36 -84q-93 10 -109 88q-66 -90 -158 -90q-81 0 -125.5 56t-44.5 151q0 82 30.5 163t96.5 135t167 54q104 0 202 -51zM238 410.5q-36 -39.5 -52.5 -99t-16.5 -119.5q0 -110 73 -110q34 0 62 21.5t58 62.5l38 270
q-32 14 -71 14q-55 0 -91 -39.5zM204 664.5q-18 17.5 -18 43.5q0 33 22.5 54.5t55.5 21.5q28 0 46 -17.5t18 -43.5q0 -33 -22.5 -54.5t-55.5 -21.5q-28 0 -46 17.5zM423 664.5q-18 17.5 -18 43.5q0 33 22.5 54.5t55.5 21.5q28 0 46 -17.5t18 -43.5q0 -33 -22.5 -54.5
t-55.5 -21.5q-28 0 -46 17.5z" />
    <glyph glyph-name="aring" unicode="&#xe5;" horiz-adv-x="571" 
d="M533 493l-51 -355q-2 -18 -2 -23q0 -17 6.5 -27t23.5 -17l-36 -84q-93 10 -109 88q-66 -90 -158 -90q-81 0 -125.5 56t-44.5 151q0 82 30.5 163t96.5 135t167 54q104 0 202 -51zM238 410.5q-36 -39.5 -52.5 -99t-16.5 -119.5q0 -110 73 -110q34 0 62 21.5t58 62.5l38 270
q-32 14 -71 14q-55 0 -91 -39.5zM465 822.5q31 -30.5 31 -77.5q0 -35 -18 -65.5t-50.5 -48.5t-71.5 -18q-52 0 -83 30.5t-31 78.5q0 34 18 64.5t50.5 48.5t71.5 18q52 0 83 -30.5zM335.5 768q-15.5 -19 -15.5 -44q0 -21 10.5 -32.5t29.5 -11.5q28 0 43.5 19t15.5 44
q0 21 -11 32.5t-30 11.5q-27 0 -42.5 -19z" />
    <glyph glyph-name="ae" unicode="&#xe6;" horiz-adv-x="826" 
d="M387 524q38 -20 59 -57q30 35 77 56t103 21q58 0 99.5 -19t62.5 -51t21 -70q0 -102 -93 -147t-251 -60q1 -61 29 -87t77 -26q35 0 68 11.5t70 37.5l48 -80q-95 -68 -201 -68q-65 0 -111.5 23.5t-72.5 67.5q-42 -49 -89 -70t-105 -21q-74 0 -117.5 39t-43.5 103
q0 81 62.5 134.5t204.5 53.5h69q7 32 19 64q-4 31 -32 49t-72 18q-34 0 -66.5 -6t-74.5 -19l-21 88q94 35 181 35q62 0 100 -20zM519 403.5q-36 -49.5 -48 -122.5q107 10 158 38.5t51 78.5q0 22 -14.5 38.5t-47.5 16.5q-63 0 -99 -49.5zM290 237q-68 0 -102.5 -24t-34.5 -76
q0 -59 62 -59q36 0 66.5 19t62.5 58q-2 11 -2.5 37t0.5 45h-52z" />
    <glyph glyph-name="ccedilla" unicode="&#xe7;" horiz-adv-x="471" 
d="M273 -14l-7 -38q43 -4 65 -27t22 -59q0 -29 -16 -55.5t-49 -43t-81 -16.5q-60 0 -101 30l38 61q27 -16 61 -16q23 0 37.5 9.5t15.5 27.5q0 20 -18.5 27.5t-65.5 7.5l24 96q-77 15 -118.5 72t-41.5 146q0 76 30 153.5t94 130t160 52.5q98 0 162 -63l-64 -76
q-23 21 -46 29.5t-51 8.5q-81 0 -116.5 -74.5t-35.5 -167.5q0 -59 24 -85.5t70 -26.5q29 0 54.5 9.5t58.5 29.5l48 -85q-73 -51 -153 -57z" />
    <glyph glyph-name="egrave" unicode="&#xe8;" horiz-adv-x="525" 
d="M416 256q-93 -46 -249 -62q4 -110 103 -110q36 0 69 11.5t69 37.5l49 -80q-96 -68 -201 -68q-106 0 -162 58.5t-56 161.5q0 80 29.5 157.5t94 129.5t164.5 52q58 0 99.5 -19t62.5 -51t21 -70q0 -102 -93 -148zM329 318.5q50 29.5 50 80.5q0 21 -14 37.5t-46 16.5
q-63 0 -98.5 -50t-47.5 -124q106 10 156 39.5zM282 820l193 -126l-37 -63l-213 89z" />
    <glyph glyph-name="eacute" unicode="&#xe9;" horiz-adv-x="525" 
d="M416 256q-93 -46 -249 -62q4 -110 103 -110q36 0 69 11.5t69 37.5l49 -80q-96 -68 -201 -68q-106 0 -162 58.5t-56 161.5q0 80 29.5 157.5t94 129.5t164.5 52q58 0 99.5 -19t62.5 -51t21 -70q0 -102 -93 -148zM329 318.5q50 29.5 50 80.5q0 21 -14 37.5t-46 16.5
q-63 0 -98.5 -50t-47.5 -124q106 10 156 39.5zM432 820l40 -100l-233 -90l-29 65z" />
    <glyph glyph-name="ecircumflex" unicode="&#xea;" horiz-adv-x="525" 
d="M416 256q-93 -46 -249 -62q4 -110 103 -110q36 0 69 11.5t69 37.5l49 -80q-96 -68 -201 -68q-106 0 -162 58.5t-56 161.5q0 80 29.5 157.5t94 129.5t164.5 52q58 0 99.5 -19t62.5 -51t21 -70q0 -102 -93 -148zM329 318.5q50 29.5 50 80.5q0 21 -14 37.5t-46 16.5
q-63 0 -98.5 -50t-47.5 -124q106 10 156 39.5zM201 627l-44 55l154 126h79l120 -126l-55 -55l-115 88z" />
    <glyph glyph-name="edieresis" unicode="&#xeb;" horiz-adv-x="525" 
d="M416 256q-93 -46 -249 -62q4 -110 103 -110q36 0 69 11.5t69 37.5l49 -80q-96 -68 -201 -68q-106 0 -162 58.5t-56 161.5q0 80 29.5 157.5t94 129.5t164.5 52q58 0 99.5 -19t62.5 -51t21 -70q0 -102 -93 -148zM329 318.5q50 29.5 50 80.5q0 21 -14 37.5t-46 16.5
q-63 0 -98.5 -50t-47.5 -124q106 10 156 39.5zM178 664.5q-18 17.5 -18 43.5q0 33 22.5 54.5t55.5 21.5q28 0 46 -17.5t18 -43.5q0 -33 -22.5 -54.5t-55.5 -21.5q-28 0 -46 17.5zM397 664.5q-18 17.5 -18 43.5q0 33 22.5 54.5t55.5 21.5q28 0 46 -17.5t18 -43.5
q0 -33 -22.5 -54.5t-55.5 -21.5q-28 0 -46 17.5z" />
    <glyph glyph-name="igrave" unicode="&#xec;" horiz-adv-x="278" 
d="M239 529l-74 -529h-126l74 529h126zM143 820l193 -126l-37 -63l-213 89z" />
    <glyph glyph-name="iacute" unicode="&#xed;" horiz-adv-x="278" 
d="M239 529l-74 -529h-126l74 529h126zM293 820l40 -100l-233 -90l-29 65z" />
    <glyph glyph-name="icircumflex" unicode="&#xee;" horiz-adv-x="278" 
d="M239 529l-74 -529h-126l74 529h126zM62 627l-44 55l154 126h79l120 -126l-55 -55l-115 88z" />
    <glyph glyph-name="idieresis" unicode="&#xef;" horiz-adv-x="278" 
d="M239 529l-74 -529h-126l74 529h126zM39 664.5q-18 17.5 -18 43.5q0 33 22.5 54.5t55.5 21.5q28 0 46 -17.5t18 -43.5q0 -33 -22.5 -54.5t-55.5 -21.5q-28 0 -46 17.5zM258 664.5q-18 17.5 -18 43.5q0 33 22.5 54.5t55.5 21.5q28 0 46 -17.5t18 -43.5q0 -33 -22.5 -54.5
t-55.5 -21.5q-28 0 -46 17.5z" />
    <glyph glyph-name="eth" unicode="&#xf0;" horiz-adv-x="574" 
d="M498.5 539q30.5 -71 30.5 -163q0 -112 -32.5 -200.5t-97.5 -139.5t-157 -51q-60 0 -107 24.5t-73.5 71.5t-26.5 111q0 67 26.5 133t80.5 109t130 43q84 0 133 -54q-5 54 -24.5 95t-58.5 77l-71 -62l-78 40l74 67q-38 15 -95 26l34 88q84 -17 139 -43l83 77l61 -60
l-69 -64q68 -54 98.5 -125zM355.5 148q34.5 67 43.5 180q-34 56 -105 56q-70 0 -100 -59t-30 -136q0 -54 22 -81t63 -27q72 0 106.5 67z" />
    <glyph glyph-name="ntilde" unicode="&#xf1;" horiz-adv-x="573" 
d="M488.5 509.5q32.5 -34.5 32.5 -95.5q0 -16 -3 -36l-53 -378h-126l51 359q2 18 2 25q0 30 -12 42.5t-33 12.5q-68 0 -139 -136l-43 -303h-126l74 529h109l-5 -98q78 113 182 113q57 0 89.5 -34.5zM367.5 651.5q-15.5 7.5 -34.5 21.5q-9 7 -19 12.5t-19 5.5
q-18 0 -31.5 -11.5t-30.5 -35.5l-63 37q25 46 58.5 74.5t71.5 28.5q22 0 37.5 -7.5t32.5 -20.5q12 -9 20 -13.5t17 -4.5q16 0 30 11t30 34l65 -37q-27 -48 -60 -75t-68 -27q-21 0 -36.5 7.5z" />
    <glyph glyph-name="ograve" unicode="&#xf2;" horiz-adv-x="576" 
d="M94.5 44q-55.5 59 -55.5 164q0 78 28.5 155t92.5 129t164 52q102 0 157.5 -59.5t55.5 -162.5q0 -78 -28 -155t-92 -129.5t-165 -52.5q-102 0 -157.5 59zM347 123.5q33 41.5 46 99.5t13 113q0 111 -89 111q-55 0 -88 -40.5t-46.5 -97.5t-13.5 -111q0 -116 90 -116
q55 0 88 41.5zM289 820l193 -126l-37 -63l-213 89z" />
    <glyph glyph-name="oacute" unicode="&#xf3;" horiz-adv-x="576" 
d="M94.5 44q-55.5 59 -55.5 164q0 78 28.5 155t92.5 129t164 52q102 0 157.5 -59.5t55.5 -162.5q0 -78 -28 -155t-92 -129.5t-165 -52.5q-102 0 -157.5 59zM347 123.5q33 41.5 46 99.5t13 113q0 111 -89 111q-55 0 -88 -40.5t-46.5 -97.5t-13.5 -111q0 -116 90 -116
q55 0 88 41.5zM439 820l40 -100l-233 -90l-29 65z" />
    <glyph glyph-name="ocircumflex" unicode="&#xf4;" horiz-adv-x="576" 
d="M94.5 44q-55.5 59 -55.5 164q0 78 28.5 155t92.5 129t164 52q102 0 157.5 -59.5t55.5 -162.5q0 -78 -28 -155t-92 -129.5t-165 -52.5q-102 0 -157.5 59zM347 123.5q33 41.5 46 99.5t13 113q0 111 -89 111q-55 0 -88 -40.5t-46.5 -97.5t-13.5 -111q0 -116 90 -116
q55 0 88 41.5zM208 627l-44 55l154 126h79l120 -126l-55 -55l-115 88z" />
    <glyph glyph-name="otilde" unicode="&#xf5;" horiz-adv-x="576" 
d="M94.5 44q-55.5 59 -55.5 164q0 78 28.5 155t92.5 129t164 52q102 0 157.5 -59.5t55.5 -162.5q0 -78 -28 -155t-92 -129.5t-165 -52.5q-102 0 -157.5 59zM347 123.5q33 41.5 46 99.5t13 113q0 111 -89 111q-55 0 -88 -40.5t-46.5 -97.5t-13.5 -111q0 -116 90 -116
q55 0 88 41.5zM364.5 651.5q-15.5 7.5 -34.5 21.5q-9 7 -19 12.5t-19 5.5q-18 0 -31.5 -11.5t-30.5 -35.5l-63 37q25 46 58.5 74.5t71.5 28.5q22 0 37.5 -7.5t32.5 -20.5q12 -9 20 -13.5t17 -4.5q16 0 30 11t30 34l65 -37q-27 -48 -60 -75t-68 -27q-21 0 -36.5 7.5z" />
    <glyph glyph-name="odieresis" unicode="&#xf6;" horiz-adv-x="576" 
d="M94.5 44q-55.5 59 -55.5 164q0 78 28.5 155t92.5 129t164 52q102 0 157.5 -59.5t55.5 -162.5q0 -78 -28 -155t-92 -129.5t-165 -52.5q-102 0 -157.5 59zM347 123.5q33 41.5 46 99.5t13 113q0 111 -89 111q-55 0 -88 -40.5t-46.5 -97.5t-13.5 -111q0 -116 90 -116
q55 0 88 41.5zM185 664.5q-18 17.5 -18 43.5q0 33 22.5 54.5t55.5 21.5q28 0 46 -17.5t18 -43.5q0 -33 -22.5 -54.5t-55.5 -21.5q-28 0 -46 17.5zM404 664.5q-18 17.5 -18 43.5q0 33 22.5 54.5t55.5 21.5q28 0 46 -17.5t18 -43.5q0 -33 -22.5 -54.5t-55.5 -21.5
q-28 0 -46 17.5z" />
    <glyph glyph-name="divide" unicode="&#xf7;" horiz-adv-x="502" 
d="M171.5 37q-20.5 21 -20.5 52q0 37 25.5 63t62.5 26q32 0 52 -20.5t20 -51.5q0 -37 -25.5 -63.5t-62.5 -26.5q-31 0 -51.5 21zM237.5 508q-20.5 21 -20.5 52q0 37 25.5 63t62.5 26q32 0 52 -20.5t20 -51.5q0 -37 -25.5 -63.5t-62.5 -26.5q-31 0 -51.5 21zM55 281l15 102
h396l-15 -102h-396z" />
    <glyph glyph-name="oslash" unicode="&#xf8;" horiz-adv-x="576" 
d="M516.5 429.5q20.5 -47.5 20.5 -107.5q0 -78 -28 -155t-92 -129.5t-165 -52.5q-23 0 -44 3l-53 -121l-93 29l58 127q-40 28 -60.5 75.5t-20.5 109.5q0 78 28.5 155t92.5 129t164 52q23 0 44 -3l54 121l94 -29l-60 -127q40 -29 60.5 -76.5zM226 406.5
q-35 -40.5 -49.5 -97.5t-14.5 -110q0 -58 20 -86l156 333q-6 1 -20 1q-57 0 -92 -40.5zM350.5 122.5q34.5 40.5 48.5 97.5t14 109q0 56 -19 86l-155 -332q6 -1 20 -1q57 0 91.5 40.5z" />
    <glyph glyph-name="ugrave" unicode="&#xf9;" horiz-adv-x="569" 
d="M85.5 19.5q-33.5 34.5 -33.5 95.5q0 18 3 37l53 377h126l-51 -361q-2 -20 -2 -28q0 -29 11.5 -41t34.5 -12q35 0 66.5 28t62.5 74l48 340h126l-74 -529h-109l5 87q-37 -49 -79 -75.5t-92 -26.5q-62 0 -95.5 34.5zM286 820l193 -126l-37 -63l-213 89z" />
    <glyph glyph-name="uacute" unicode="&#xfa;" horiz-adv-x="569" 
d="M85.5 19.5q-33.5 34.5 -33.5 95.5q0 18 3 37l53 377h126l-51 -361q-2 -20 -2 -28q0 -29 11.5 -41t34.5 -12q35 0 66.5 28t62.5 74l48 340h126l-74 -529h-109l5 87q-37 -49 -79 -75.5t-92 -26.5q-62 0 -95.5 34.5zM436 820l40 -100l-233 -90l-29 65z" />
    <glyph glyph-name="ucircumflex" unicode="&#xfb;" horiz-adv-x="569" 
d="M85.5 19.5q-33.5 34.5 -33.5 95.5q0 18 3 37l53 377h126l-51 -361q-2 -20 -2 -28q0 -29 11.5 -41t34.5 -12q35 0 66.5 28t62.5 74l48 340h126l-74 -529h-109l5 87q-37 -49 -79 -75.5t-92 -26.5q-62 0 -95.5 34.5zM205 627l-44 55l154 126h79l120 -126l-55 -55l-115 88z
" />
    <glyph glyph-name="udieresis" unicode="&#xfc;" horiz-adv-x="569" 
d="M85.5 19.5q-33.5 34.5 -33.5 95.5q0 18 3 37l53 377h126l-51 -361q-2 -20 -2 -28q0 -29 11.5 -41t34.5 -12q35 0 66.5 28t62.5 74l48 340h126l-74 -529h-109l5 87q-37 -49 -79 -75.5t-92 -26.5q-62 0 -95.5 34.5zM182 664.5q-18 17.5 -18 43.5q0 33 22.5 54.5t55.5 21.5
q28 0 46 -17.5t18 -43.5q0 -33 -22.5 -54.5t-55.5 -21.5q-28 0 -46 17.5zM401 664.5q-18 17.5 -18 43.5q0 33 22.5 54.5t55.5 21.5q28 0 46 -17.5t18 -43.5q0 -33 -22.5 -54.5t-55.5 -21.5q-28 0 -46 17.5z" />
    <glyph glyph-name="yacute" unicode="&#xfd;" horiz-adv-x="498" 
d="M295 -3q-43 -97 -117 -151.5t-187 -63.5l-4 93q77 12 116.5 39t72.5 86h-45l-92 529h132l52 -441l180 441h131zM403 820l40 -100l-233 -90l-29 65z" />
    <glyph glyph-name="thorn" unicode="&#xfe;" horiz-adv-x="580" 
d="M501 490q42 -54 42 -153q0 -84 -28 -164.5t-92 -134t-164 -53.5q-52 0 -95 18l-29 -208l-128 -15l136 961l127 14l-38 -274q33 30 71 46.5t78 16.5q78 0 120 -54zM345 121q35 40 51 99t16 119q0 109 -77 109q-32 0 -60 -18t-57 -51l-39 -283q39 -15 78 -15q53 0 88 40z
" />
    <glyph glyph-name="ydieresis" unicode="&#xff;" horiz-adv-x="498" 
d="M295 -3q-43 -97 -117 -151.5t-187 -63.5l-4 93q77 12 116.5 39t72.5 86h-45l-92 529h132l52 -441l180 441h131zM149 664.5q-18 17.5 -18 43.5q0 33 22.5 54.5t55.5 21.5q28 0 46 -17.5t18 -43.5q0 -33 -22.5 -54.5t-55.5 -21.5q-28 0 -46 17.5zM368 664.5
q-18 17.5 -18 43.5q0 33 22.5 54.5t55.5 21.5q28 0 46 -17.5t18 -43.5q0 -33 -22.5 -54.5t-55.5 -21.5q-28 0 -46 17.5z" />
    <glyph glyph-name="Amacron" unicode="&#x100;" horiz-adv-x="574" 
d="M405 0l-20 160h-228l-64 -160h-136l310 691h160l115 -691h-137zM197 260h176l-41 335zM505 787h-287l12 91h288z" />
    <glyph glyph-name="amacron" unicode="&#x101;" horiz-adv-x="571" 
d="M533 493l-51 -355q-2 -18 -2 -23q0 -17 6.5 -27t23.5 -17l-36 -84q-93 10 -109 88q-66 -90 -158 -90q-81 0 -125.5 56t-44.5 151q0 82 30.5 163t96.5 135t167 54q104 0 202 -51zM238 410.5q-36 -39.5 -52.5 -99t-16.5 -119.5q0 -110 73 -110q34 0 62 21.5t58 62.5l38 270
q-32 14 -71 14q-55 0 -91 -39.5zM503 661h-287l12 91h288z" />
    <glyph glyph-name="Abreve" unicode="&#x102;" horiz-adv-x="574" 
d="M405 0l-20 160h-228l-64 -160h-136l310 691h160l115 -691h-137zM197 260h176l-41 335zM251 796q-38 42 -36 105l73 10q13 -65 75 -65q34 0 59.5 18.5t38.5 49.5l75 -18q-15 -62 -63.5 -102t-115.5 -40q-68 0 -106 42z" />
    <glyph glyph-name="abreve" unicode="&#x103;" horiz-adv-x="571" 
d="M533 493l-51 -355q-2 -18 -2 -23q0 -17 6.5 -27t23.5 -17l-36 -84q-93 10 -109 88q-66 -90 -158 -90q-81 0 -125.5 56t-44.5 151q0 82 30.5 163t96.5 135t167 54q104 0 202 -51zM238 410.5q-36 -39.5 -52.5 -99t-16.5 -119.5q0 -110 73 -110q34 0 62 21.5t58 62.5l38 270
q-32 14 -71 14q-55 0 -91 -39.5zM245.5 681q-37.5 44 -34.5 113l76 10q8 -75 71 -75q35 0 60.5 21t40.5 58l73 -19q-15 -68 -64 -110t-116 -42q-69 0 -106.5 44z" />
    <glyph glyph-name="Aogonek" unicode="&#x104;" horiz-adv-x="574" 
d="M347 -119q0 -35 46 -35q25 0 62 8l-18 -86q-37 -7 -65 -7q-56 0 -90 27.5t-34 72.5q0 104 154 162l-17 137h-228l-64 -160h-136l310 691h160l115 -691h-57q-138 -54 -138 -119zM197 260h176l-41 335z" />
    <glyph glyph-name="aogonek" unicode="&#x105;" horiz-adv-x="571" 
d="M480 115q0 -17 6.5 -27t23.5 -17l-36 -84q-138 -54 -138 -119q0 -35 46 -35q25 0 62 8l-18 -86q-37 -7 -65 -7q-56 0 -90 27.5t-34 72.5q0 108 163 166q-26 22 -35 61q-66 -90 -158 -90q-81 0 -125.5 56t-44.5 151q0 82 30.5 163t96.5 135t167 54q104 0 202 -51l-51 -355
q-2 -18 -2 -23zM400 436q-32 14 -71 14q-55 0 -91 -39.5t-52.5 -99t-16.5 -119.5q0 -110 73 -110q34 0 62 21.5t58 62.5z" />
    <glyph glyph-name="Cacute" unicode="&#x106;" 
d="M591 629l-72 -70q-29 23 -58 34t-63 11q-75 0 -123 -53t-69 -130.5t-21 -155.5q0 -89 36 -131.5t99 -42.5q41 0 75 15t73 43l53 -82q-42 -36 -96.5 -59t-120.5 -23q-117 0 -186 74t-69 210q0 102 36 202.5t114 167.5t195 67q120 0 197 -77zM521 931l40 -100l-234 -80
l-27 65z" />
    <glyph glyph-name="cacute" unicode="&#x107;" horiz-adv-x="471" 
d="M484 481l-64 -76q-23 21 -46 29.5t-51 8.5q-81 0 -116.5 -74.5t-35.5 -167.5q0 -59 24 -85.5t70 -26.5q29 0 54.5 9.5t58.5 29.5l48 -85q-83 -58 -175 -58q-101 0 -157 59.5t-56 163.5q0 76 30 153.5t94 130t160 52.5q98 0 162 -63zM440 820l40 -100l-233 -90l-29 65z
" />
    <glyph glyph-name="Ccircumflex" unicode="&#x108;" 
d="M591 629l-72 -70q-29 23 -58 34t-63 11q-75 0 -123 -53t-69 -130.5t-21 -155.5q0 -89 36 -131.5t99 -42.5q41 0 75 15t73 43l53 -82q-42 -36 -96.5 -59t-120.5 -23q-117 0 -186 74t-69 210q0 102 36 202.5t114 167.5t195 67q120 0 197 -77zM286 757l-44 55l153 121h79
l120 -121l-51 -55l-118 83z" />
    <glyph glyph-name="ccircumflex" unicode="&#x109;" horiz-adv-x="471" 
d="M484 481l-64 -76q-23 21 -46 29.5t-51 8.5q-81 0 -116.5 -74.5t-35.5 -167.5q0 -59 24 -85.5t70 -26.5q29 0 54.5 9.5t58.5 29.5l48 -85q-83 -58 -175 -58q-101 0 -157 59.5t-56 163.5q0 76 30 153.5t94 130t160 52.5q98 0 162 -63zM209 627l-44 55l154 126h79l120 -126
l-55 -55l-115 88z" />
    <glyph glyph-name="Cdotaccent" unicode="&#x10a;" 
d="M591 629l-72 -70q-29 23 -58 34t-63 11q-75 0 -123 -53t-69 -130.5t-21 -155.5q0 -89 36 -131.5t99 -42.5q41 0 75 15t73 43l53 -82q-42 -36 -96.5 -59t-120.5 -23q-117 0 -186 74t-69 210q0 102 36 202.5t114 167.5t195 67q120 0 197 -77zM372 787.5q-20 19.5 -20 49.5
q0 37 25 61.5t62 24.5q33 0 52.5 -19.5t19.5 -50.5q0 -36 -25 -60.5t-62 -24.5q-32 0 -52 19.5z" />
    <glyph glyph-name="cdotaccent" unicode="&#x10b;" horiz-adv-x="471" 
d="M484 481l-64 -76q-23 21 -46 29.5t-51 8.5q-81 0 -116.5 -74.5t-35.5 -167.5q0 -59 24 -85.5t70 -26.5q29 0 54.5 9.5t58.5 29.5l48 -85q-83 -58 -175 -58q-101 0 -157 59.5t-56 163.5q0 76 30 153.5t94 130t160 52.5q98 0 162 -63zM291 661.5q-20 19.5 -20 49.5
q0 37 25 61.5t62 24.5q32 0 52 -19.5t20 -50.5q0 -36 -25 -60.5t-62 -24.5q-32 0 -52 19.5z" />
    <glyph glyph-name="Ccaron" unicode="&#x10c;" 
d="M591 629l-72 -70q-29 23 -58 34t-63 11q-75 0 -123 -53t-69 -130.5t-21 -155.5q0 -89 36 -131.5t99 -42.5q41 0 75 15t73 43l53 -82q-42 -36 -96.5 -59t-120.5 -23q-117 0 -186 74t-69 210q0 102 36 202.5t114 167.5t195 67q120 0 197 -77zM565 928l42 -56l-152 -120h-79
l-121 120l54 56l116 -83z" />
    <glyph glyph-name="ccaron" unicode="&#x10d;" horiz-adv-x="471" 
d="M484 481l-64 -76q-23 21 -46 29.5t-51 8.5q-81 0 -116.5 -74.5t-35.5 -167.5q0 -59 24 -85.5t70 -26.5q29 0 54.5 9.5t58.5 29.5l48 -85q-83 -58 -175 -58q-101 0 -157 59.5t-56 163.5q0 76 30 153.5t94 130t160 52.5q98 0 162 -63zM483 800l43 -56l-154 -125h-79
l-120 125l52 56l115 -88z" />
    <glyph glyph-name="Dcaron" unicode="&#x10e;" horiz-adv-x="641" 
d="M531 634q84 -57 84 -205q0 -119 -38.5 -215.5t-124 -155t-221.5 -58.5h-188l97 691h167q140 0 224 -57zM257 592l-69 -493h62q84 0 136 49t73.5 124t21.5 158q0 95 -43 128.5t-120 33.5h-61zM513 928l42 -56l-152 -120h-79l-121 120l54 56l116 -83z" />
    <glyph glyph-name="dcaron" unicode="&#x10f;" horiz-adv-x="627" 
d="M577 740l-104 -740h-111l1 81q-63 -96 -159 -96q-81 0 -124 56.5t-43 155.5q0 78 26.5 158t83 134.5t141.5 54.5q78 0 127 -58l38 267zM229.5 407q-32.5 -41 -46.5 -99.5t-14 -114.5q0 -111 72 -111q38 0 69 28t64 80l29 208q-18 25 -39.5 37.5t-49.5 12.5
q-52 0 -84.5 -41zM631 753l100 -12l-74 -201l-68 8z" />
    <glyph glyph-name="Dcroat" unicode="&#x110;" horiz-adv-x="650" 
d="M541 634q84 -57 84 -205q0 -119 -38.5 -215.5t-124 -155t-221.5 -58.5h-188l44 310h-75l11 86h76l41 295h167q140 0 224 -57zM396 148q52 49 73.5 124t21.5 158q0 95 -43 128.5t-120 33.5h-61l-27 -196h143l-12 -86h-143l-30 -211h62q84 0 136 49z" />
    <glyph glyph-name="dcroat" unicode="&#x111;" horiz-adv-x="595" 
d="M626 601h-69l-84 -601h-111l1 81q-63 -96 -159 -96q-81 0 -124 56.5t-43 155.5q0 78 26.5 158t83 134.5t141.5 54.5q78 0 127 -58l16 115h-138v82h150l10 70l124 -13l-8 -57h69zM403 398q-18 25 -39.5 37.5t-49.5 12.5q-52 0 -84.5 -41t-46.5 -99.5t-14 -114.5
q0 -111 72 -111q38 0 69 28t64 80z" />
    <glyph glyph-name="Emacron" unicode="&#x112;" horiz-adv-x="523" 
d="M536 691l-28 -98h-251l-28 -193h219l-13 -98h-219l-28 -203h269l-14 -99h-400l97 691h396zM499 787h-287l12 91h288z" />
    <glyph glyph-name="emacron" unicode="&#x113;" horiz-adv-x="525" 
d="M416 256q-93 -46 -249 -62q4 -110 103 -110q36 0 69 11.5t69 37.5l49 -80q-96 -68 -201 -68q-106 0 -162 58.5t-56 161.5q0 80 29.5 157.5t94 129.5t164.5 52q58 0 99.5 -19t62.5 -51t21 -70q0 -102 -93 -148zM329 318.5q50 29.5 50 80.5q0 21 -14 37.5t-46 16.5
q-63 0 -98.5 -50t-47.5 -124q106 10 156 39.5zM477 661h-287l12 91h288z" />
    <glyph glyph-name="Ebreve" unicode="&#x114;" horiz-adv-x="523" 
d="M536 691l-28 -98h-251l-28 -193h219l-13 -98h-219l-28 -203h269l-14 -99h-400l97 691h396zM245 796q-38 42 -36 105l73 10q13 -65 75 -65q34 0 59.5 18.5t38.5 49.5l75 -18q-15 -62 -63.5 -102t-115.5 -40q-68 0 -106 42z" />
    <glyph glyph-name="ebreve" unicode="&#x115;" horiz-adv-x="525" 
d="M416 256q-93 -46 -249 -62q4 -110 103 -110q36 0 69 11.5t69 37.5l49 -80q-96 -68 -201 -68q-106 0 -162 58.5t-56 161.5q0 80 29.5 157.5t94 129.5t164.5 52q58 0 99.5 -19t62.5 -51t21 -70q0 -102 -93 -148zM329 318.5q50 29.5 50 80.5q0 21 -14 37.5t-46 16.5
q-63 0 -98.5 -50t-47.5 -124q106 10 156 39.5zM219.5 681q-37.5 44 -34.5 113l76 10q8 -75 71 -75q35 0 60.5 21t40.5 58l73 -19q-15 -68 -64 -110t-116 -42q-69 0 -106.5 44z" />
    <glyph glyph-name="Edotaccent" unicode="&#x116;" horiz-adv-x="523" 
d="M536 691l-28 -98h-251l-28 -193h219l-13 -98h-219l-28 -203h269l-14 -99h-400l97 691h396zM306 787.5q-20 19.5 -20 49.5q0 37 25 61.5t62 24.5q33 0 52.5 -19.5t19.5 -50.5q0 -36 -25 -60.5t-62 -24.5q-32 0 -52 19.5z" />
    <glyph glyph-name="edotaccent" unicode="&#x117;" horiz-adv-x="525" 
d="M416 256q-93 -46 -249 -62q4 -110 103 -110q36 0 69 11.5t69 37.5l49 -80q-96 -68 -201 -68q-106 0 -162 58.5t-56 161.5q0 80 29.5 157.5t94 129.5t164.5 52q58 0 99.5 -19t62.5 -51t21 -70q0 -102 -93 -148zM329 318.5q50 29.5 50 80.5q0 21 -14 37.5t-46 16.5
q-63 0 -98.5 -50t-47.5 -124q106 10 156 39.5zM283 661.5q-20 19.5 -20 49.5q0 37 25 61.5t62 24.5q32 0 52 -19.5t20 -50.5q0 -36 -25 -60.5t-62 -24.5q-32 0 -52 19.5z" />
    <glyph glyph-name="Eogonek" unicode="&#x118;" horiz-adv-x="523" 
d="M257 593l-28 -193h219l-13 -98h-219l-28 -203h269l-14 -99h-38q-138 -54 -138 -119q0 -35 46 -35q25 0 62 8l-18 -86q-37 -7 -65 -7q-56 0 -90 27.5t-34 72.5q0 85 101 139h-226l97 691h396l-28 -98h-251z" />
    <glyph glyph-name="eogonek" unicode="&#x119;" horiz-adv-x="525" 
d="M416 256q-93 -46 -249 -62q4 -110 103 -110q36 0 69 11.5t69 37.5l49 -80q-54 -39 -115 -56q-56 -26 -77.5 -50.5t-21.5 -50.5q0 -42 52 -42q28 0 62 7l-15 -85q-37 -7 -67 -7q-60 0 -96 29t-36 76q0 71 80 113q-90 9 -137.5 66.5t-47.5 151.5q0 80 29.5 157.5t94 129.5
t164.5 52q58 0 99.5 -19t62.5 -51t21 -70q0 -102 -93 -148zM329 318.5q50 29.5 50 80.5q0 21 -14 37.5t-46 16.5q-63 0 -98.5 -50t-47.5 -124q106 10 156 39.5z" />
    <glyph glyph-name="Ecaron" unicode="&#x11a;" horiz-adv-x="523" 
d="M536 691l-28 -98h-251l-28 -193h219l-13 -98h-219l-28 -203h269l-14 -99h-400l97 691h396zM499 928l42 -56l-152 -120h-79l-121 120l54 56l116 -83z" />
    <glyph glyph-name="ecaron" unicode="&#x11b;" horiz-adv-x="525" 
d="M416 256q-93 -46 -249 -62q4 -110 103 -110q36 0 69 11.5t69 37.5l49 -80q-96 -68 -201 -68q-106 0 -162 58.5t-56 161.5q0 80 29.5 157.5t94 129.5t164.5 52q58 0 99.5 -19t62.5 -51t21 -70q0 -102 -93 -148zM329 318.5q50 29.5 50 80.5q0 21 -14 37.5t-46 16.5
q-63 0 -98.5 -50t-47.5 -124q106 10 156 39.5zM475 800l43 -56l-154 -125h-79l-120 125l52 56l115 -88z" />
    <glyph glyph-name="Gcircumflex" unicode="&#x11c;" horiz-adv-x="630" 
d="M623 622l-76 -67q-34 27 -64.5 39t-71.5 12q-80 0 -131 -54.5t-74 -137t-23 -168.5q0 -84 33 -122t100 -38q59 0 112 28l26 179h-102v98h244l-46 -336q-112 -70 -245 -70q-124 0 -190.5 70t-66.5 204q0 109 38.5 211.5t120.5 169t205 66.5q129 0 211 -84zM290 757l-44 55
l153 121h79l120 -121l-51 -55l-118 83z" />
    <glyph glyph-name="gcircumflex" unicode="&#x11d;" horiz-adv-x="578" 
d="M539 493l-69 -465q-19 -132 -83.5 -190t-178.5 -58q-47 0 -98.5 15t-92.5 40l44 89q33 -19 70.5 -30.5t73.5 -11.5q56 0 93 27.5t48 106.5l8 58q-29 -34 -66 -54t-79 -20q-81 0 -126 55t-45 147q0 83 31 161t98 129.5t169 51.5q107 0 203 -51zM241 413q-37 -37 -54 -93
t-17 -116q0 -56 20 -81.5t55 -25.5q34 0 63.5 22.5t58.5 62.5l40 254q-19 8 -35.5 11t-37.5 3q-56 0 -93 -37zM218 627l-44 55l154 126h79l120 -126l-55 -55l-115 88z" />
    <glyph glyph-name="Gbreve" unicode="&#x11e;" horiz-adv-x="630" 
d="M623 622l-76 -67q-34 27 -64.5 39t-71.5 12q-80 0 -131 -54.5t-74 -137t-23 -168.5q0 -84 33 -122t100 -38q59 0 112 28l26 179h-102v98h244l-46 -336q-112 -70 -245 -70q-124 0 -190.5 70t-66.5 204q0 109 38.5 211.5t120.5 169t205 66.5q129 0 211 -84zM315 796
q-38 42 -36 105l73 10q13 -65 75 -65q34 0 59.5 18.5t38.5 49.5l75 -18q-15 -62 -63.5 -102t-115.5 -40q-68 0 -106 42z" />
    <glyph glyph-name="gbreve" unicode="&#x11f;" horiz-adv-x="578" 
d="M539 493l-69 -465q-19 -132 -83.5 -190t-178.5 -58q-47 0 -98.5 15t-92.5 40l44 89q33 -19 70.5 -30.5t73.5 -11.5q56 0 93 27.5t48 106.5l8 58q-29 -34 -66 -54t-79 -20q-81 0 -126 55t-45 147q0 83 31 161t98 129.5t169 51.5q107 0 203 -51zM241 413q-37 -37 -54 -93
t-17 -116q0 -56 20 -81.5t55 -25.5q34 0 63.5 22.5t58.5 62.5l40 254q-19 8 -35.5 11t-37.5 3q-56 0 -93 -37zM236.5 681q-37.5 44 -34.5 113l76 10q8 -75 71 -75q35 0 60.5 21t40.5 58l73 -19q-15 -68 -64 -110t-116 -42q-69 0 -106.5 44z" />
    <glyph glyph-name="Gdotaccent" unicode="&#x120;" horiz-adv-x="630" 
d="M623 622l-76 -67q-34 27 -64.5 39t-71.5 12q-80 0 -131 -54.5t-74 -137t-23 -168.5q0 -84 33 -122t100 -38q59 0 112 28l26 179h-102v98h244l-46 -336q-112 -70 -245 -70q-124 0 -190.5 70t-66.5 204q0 109 38.5 211.5t120.5 169t205 66.5q129 0 211 -84zM376 787.5
q-20 19.5 -20 49.5q0 37 25 61.5t62 24.5q33 0 52.5 -19.5t19.5 -50.5q0 -36 -25 -60.5t-62 -24.5q-32 0 -52 19.5z" />
    <glyph glyph-name="gdotaccent" unicode="&#x121;" horiz-adv-x="578" 
d="M539 493l-69 -465q-19 -132 -83.5 -190t-178.5 -58q-47 0 -98.5 15t-92.5 40l44 89q33 -19 70.5 -30.5t73.5 -11.5q56 0 93 27.5t48 106.5l8 58q-29 -34 -66 -54t-79 -20q-81 0 -126 55t-45 147q0 83 31 161t98 129.5t169 51.5q107 0 203 -51zM241 413q-37 -37 -54 -93
t-17 -116q0 -56 20 -81.5t55 -25.5q34 0 63.5 22.5t58.5 62.5l40 254q-19 8 -35.5 11t-37.5 3q-56 0 -93 -37zM300 661.5q-20 19.5 -20 49.5q0 37 25 61.5t62 24.5q32 0 52 -19.5t20 -50.5q0 -36 -25 -60.5t-62 -24.5q-32 0 -52 19.5z" />
    <glyph glyph-name="Gcommaaccent" unicode="&#x122;" horiz-adv-x="630" 
d="M623 622l-76 -67q-34 27 -64.5 39t-71.5 12q-80 0 -131 -54.5t-74 -137t-23 -168.5q0 -84 33 -122t100 -38q59 0 112 28l26 179h-102v98h244l-46 -336q-112 -70 -245 -70q-124 0 -190.5 70t-66.5 204q0 109 38.5 211.5t120.5 169t205 66.5q129 0 211 -84zM339.5 -90
q17.5 -18 17.5 -43q0 -20 -8 -39t-29 -52l-55 -88h-67l46 118q-23 19 -23 48q0 32 21 53t52 21q28 0 45.5 -18z" />
    <glyph glyph-name="gcommaaccent" unicode="&#x123;" horiz-adv-x="578" 
d="M539 493l-69 -465q-19 -132 -83.5 -190t-178.5 -58q-47 0 -98.5 15t-92.5 40l44 89q33 -19 70.5 -30.5t73.5 -11.5q56 0 93 27.5t48 106.5l8 58q-29 -34 -66 -54t-79 -20q-81 0 -126 55t-45 147q0 83 31 161t98 129.5t169 51.5q107 0 203 -51zM241 413q-37 -37 -54 -93
t-17 -116q0 -56 20 -81.5t55 -25.5q34 0 63.5 22.5t58.5 62.5l40 254q-19 8 -35.5 11t-37.5 3q-56 0 -93 -37zM298.5 603q-17.5 18 -17.5 43q0 20 8 39t29 52l55 88h67l-46 -118q23 -19 23 -48q0 -32 -21 -53t-52 -21q-28 0 -45.5 18z" />
    <glyph glyph-name="Hcircumflex" unicode="&#x124;" horiz-adv-x="664" 
d="M173 0h-130l97 691h131l-40 -277h243l39 277h131l-97 -691h-131l43 309h-242zM271 757l-44 55l153 121h79l120 -121l-51 -55l-118 83z" />
    <glyph glyph-name="hcircumflex" unicode="&#x125;" horiz-adv-x="574" 
d="M488 509.5q33 -34.5 33 -95.5q0 -22 -2 -34l-54 -380h-126l51 359q2 20 2 26q0 30 -11.5 42t-31.5 12q-70 0 -143 -136l-41 -303h-126l104 740l127 13l-45 -317q32 50 76 79t95 29q59 0 92 -34.5zM232 807l-44 55l153 121h79l120 -121l-51 -55l-118 83z" />
    <glyph glyph-name="Hbar" unicode="&#x126;" horiz-adv-x="678" 
d="M697 585l-12 -81h-62l-71 -504h-131l43 309h-242l-44 -309h-130l71 504h-61l11 81h61l15 106h131l-15 -106h242l15 106h131l-15 -106h63zM479 414l13 90h-243l-13 -90h243z" />
    <glyph glyph-name="hbar" unicode="&#x127;" horiz-adv-x="582" 
d="M497 509.5q33 -34.5 33 -95.5q0 -22 -2 -34l-54 -380h-126l51 359q2 20 2 26q0 30 -11.5 42t-31.5 12q-70 0 -143 -136l-41 -303h-126l84 601h-69l12 82h69l8 57l127 13l-10 -70h145l-23 -82h-134l-23 -165q32 50 76 79t95 29q59 0 92 -34.5z" />
    <glyph glyph-name="Itilde" unicode="&#x128;" horiz-adv-x="291" 
d="M271 691l-97 -691h-131l97 691h131zM242.5 777.5q-15.5 7.5 -34.5 21.5q-9 7 -19 12.5t-19 5.5q-18 0 -31.5 -11.5t-30.5 -35.5l-63 37q25 46 58.5 74.5t71.5 28.5q22 0 37.5 -7.5t32.5 -20.5q12 -9 20 -13.5t17 -4.5q16 0 30 11t30 34l65 -37q-27 -48 -60 -75t-68 -27
q-21 0 -36.5 7.5z" />
    <glyph glyph-name="itilde" unicode="&#x129;" horiz-adv-x="278" 
d="M239 529l-74 -529h-126l74 529h126zM218.5 651.5q-15.5 7.5 -34.5 21.5q-9 7 -19 12.5t-19 5.5q-18 0 -31.5 -11.5t-30.5 -35.5l-63 37q25 46 58.5 74.5t71.5 28.5q22 0 37.5 -7.5t32.5 -20.5q12 -9 20 -13.5t17 -4.5q16 0 30 11t30 34l65 -37q-27 -48 -60 -75t-68 -27
q-21 0 -36.5 7.5z" />
    <glyph glyph-name="Imacron" unicode="&#x12a;" horiz-adv-x="291" 
d="M271 691l-97 -691h-131l97 691h131zM363 787h-287l12 91h288z" />
    <glyph glyph-name="imacron" unicode="&#x12b;" horiz-adv-x="278" 
d="M239 529l-74 -529h-126l74 529h126zM338 661h-287l12 91h288z" />
    <glyph glyph-name="Ibreve" unicode="&#x12c;" horiz-adv-x="291" 
d="M271 691l-97 -691h-131l97 691h131zM109 796q-38 42 -36 105l73 10q13 -65 75 -65q34 0 59.5 18.5t38.5 49.5l75 -18q-15 -62 -63.5 -102t-115.5 -40q-68 0 -106 42z" />
    <glyph glyph-name="ibreve" unicode="&#x12d;" horiz-adv-x="278" 
d="M239 529l-74 -529h-126l74 529h126zM80.5 681q-37.5 44 -34.5 113l76 10q8 -75 71 -75q35 0 60.5 21t40.5 58l73 -19q-15 -68 -64 -110t-116 -42q-69 0 -106.5 44z" />
    <glyph glyph-name="Iogonek" unicode="&#x12e;" horiz-adv-x="291" 
d="M271 691l-97 -691h-28q-138 -54 -138 -119q0 -35 46 -35q25 0 62 8l-18 -86q-37 -7 -65 -7q-56 0 -90 27.5t-34 72.5q0 98 136 155l95 675h131z" />
    <glyph glyph-name="iogonek" unicode="&#x12f;" horiz-adv-x="278" 
d="M263.5 777.5q19.5 -19.5 19.5 -50.5q0 -36 -25 -60.5t-62 -24.5q-32 0 -52 19.5t-20 49.5q0 37 25 61.5t62 24.5q33 0 52.5 -19.5zM113 529h126l-74 -529h-32q-138 -54 -138 -119q0 -35 46 -35q25 0 62 8l-18 -86q-37 -7 -65 -7q-56 0 -90 27.5t-34 72.5q0 102 146 159z
" />
    <glyph glyph-name="Idotaccent" unicode="&#x130;" horiz-adv-x="291" 
d="M271 691l-97 -691h-131l97 691h131zM170 787.5q-20 19.5 -20 49.5q0 37 25 61.5t62 24.5q33 0 52.5 -19.5t19.5 -50.5q0 -36 -25 -60.5t-62 -24.5q-32 0 -52 19.5z" />
    <glyph glyph-name="dotlessi" unicode="&#x131;" horiz-adv-x="278" 
d="M239 529l-74 -529h-126l74 529h126z" />
    <glyph glyph-name="IJ" unicode="&#x132;" horiz-adv-x="597" 
d="M271 691l-97 -691h-131l97 691h131zM497 99q-15 -111 -74 -167t-160 -87l-25 96q46 17 72 39t38.5 52t18.5 76l83 583h130z" />
    <glyph glyph-name="ij" unicode="&#x133;" horiz-adv-x="555" 
d="M239 529l-74 -529h-126l74 529h126zM144 661.5q-20 19.5 -20 49.5q0 37 25 61.5t62 24.5q32 0 52 -19.5t20 -50.5q0 -36 -25 -60.5t-62 -24.5q-32 0 -52 19.5zM191 -126q41 18 66.5 36.5t41.5 49.5t23 82l69 487h126l-68 -484q-11 -78 -40 -127.5t-72.5 -79t-112.5 -56.5
zM422 661.5q-20 19.5 -20 49.5q0 37 25 61.5t62 24.5q32 0 52 -19.5t20 -50.5q0 -36 -25 -60.5t-62 -24.5q-32 0 -52 19.5z" />
    <glyph glyph-name="Jcircumflex" unicode="&#x134;" horiz-adv-x="306" 
d="M206 99q-15 -111 -74 -167t-160 -87l-25 96q46 17 72 39t38.5 52t18.5 76l83 583h130zM103 757l-44 55l153 121h79l120 -121l-51 -55l-118 83z" />
    <glyph glyph-name="jcircumflex" unicode="&#x135;" horiz-adv-x="277" 
d="M-87 -126q41 18 66.5 36.5t41.5 49.5t23 82l69 487h126l-68 -484q-11 -78 -40 -127.5t-72.5 -79t-112.5 -56.5zM62 627l-44 55l154 126h79l120 -126l-55 -55l-115 88z" />
    <glyph glyph-name="Kcommaaccent" unicode="&#x136;" horiz-adv-x="605" 
d="M43 0l97 691h131l-97 -691h-131zM423 0l-192 369l279 322h144l-283 -322l204 -369h-152zM314.5 -90q17.5 -18 17.5 -43q0 -20 -8 -39t-29 -52l-55 -88h-67l46 118q-23 19 -23 48q0 32 21 53t52 21q28 0 45.5 -18z" />
    <glyph glyph-name="kcommaaccent" unicode="&#x137;" horiz-adv-x="557" 
d="M228 449q75 95 177 95q61 0 98.5 -34.5t37.5 -89.5q0 -63 -38 -110.5t-114 -74.5l107 -235h-139l-110 257q88 26 126 60.5t38 83.5q0 24 -13.5 37t-37.5 13q-38 0 -78.5 -32t-71.5 -96l-45 -323h-126l104 741l127 14zM287.5 -90q17.5 -18 17.5 -43q0 -20 -8 -39t-29 -52
l-55 -88h-67l46 118q-23 19 -23 48q0 32 21 53t52 21q28 0 45.5 -18z" />
    <glyph glyph-name="kgreenlandic" unicode="&#x138;" horiz-adv-x="526" 
d="M239 529l-74 -529h-126l74 529h126zM550 529l-207 -249l149 -280h-140l-145 279l202 250h141z" />
    <glyph glyph-name="Lacute" unicode="&#x139;" horiz-adv-x="499" 
d="M271 691l-82 -583h272l-29 -108h-389l97 691h131zM319 931l40 -100l-234 -80l-27 65z" />
    <glyph glyph-name="lacute" unicode="&#x13a;" horiz-adv-x="288" 
d="M177 125l-1 -11q0 -14 6 -20t18 -6q10 0 30 6l19 -90q-41 -19 -88 -19q-53 0 -82 28.5t-29 83.5q0 21 2 33l86 611l128 14zM315 981l40 -100l-234 -80l-27 65z" />
    <glyph glyph-name="Lcommaaccent" unicode="&#x13b;" horiz-adv-x="499" 
d="M271 691l-82 -583h272l-29 -108h-389l97 691h131zM273.5 -90q17.5 -18 17.5 -43q0 -20 -8 -39t-29 -52l-55 -88h-67l46 118q-23 19 -23 48q0 32 21 53t52 21q28 0 45.5 -18z" />
    <glyph glyph-name="lcommaaccent" unicode="&#x13c;" horiz-adv-x="288" 
d="M177 125l-1 -11q0 -14 6 -20t18 -6q10 0 30 6l19 -90q-41 -19 -88 -19q-53 0 -82 28.5t-29 83.5q0 21 2 33l86 611l128 14zM185.5 -90q17.5 -18 17.5 -43q0 -20 -8 -39t-29 -52l-55 -88h-67l46 118q-23 19 -23 48q0 32 21 53t52 21q28 0 45.5 -18z" />
    <glyph glyph-name="Lcaron" unicode="&#x13d;" horiz-adv-x="499" 
d="M271 691l-82 -583h272l-29 -108h-389l97 691h131zM336 703l100 -12l-74 -201l-68 8z" />
    <glyph glyph-name="lcaron" unicode="&#x13e;" horiz-adv-x="324" 
d="M177 125l-1 -11q0 -14 6 -20t18 -6q10 0 30 6l19 -90q-41 -19 -88 -19q-53 0 -82 28.5t-29 83.5q0 21 2 33l86 611l128 14zM319 753l100 -12l-74 -201l-68 8z" />
    <glyph glyph-name="Ldot" unicode="&#x13f;" horiz-adv-x="499" 
d="M271 691l-82 -583h272l-29 -108h-389l97 691h131zM347 335.5q-20 19.5 -20 49.5q0 37 25 61.5t62 24.5q32 0 52 -19.5t20 -50.5q0 -36 -25 -60.5t-62 -24.5q-32 0 -52 19.5z" />
    <glyph glyph-name="ldot" unicode="&#x140;" horiz-adv-x="383" 
d="M177 125l-1 -11q0 -14 6 -20t18 -6q10 0 30 6l19 -90q-41 -19 -88 -19q-53 0 -82 28.5t-29 83.5q0 21 2 33l86 611l128 14zM279 318.5q-20 19.5 -20 49.5q0 37 25 61.5t62 24.5q32 0 52 -19.5t20 -50.5q0 -36 -25 -60.5t-62 -24.5q-32 0 -52 19.5z" />
    <glyph glyph-name="Lslash" unicode="&#x141;" horiz-adv-x="522" 
d="M212 108h272l-29 -108h-389l33 237l-49 -28l-35 75l99 57l49 350h131l-38 -267l155 89l36 -75l-205 -119z" />
    <glyph glyph-name="lslash" unicode="&#x142;" horiz-adv-x="317" 
d="M242 94l19 -90q-41 -19 -88 -19q-53 0 -82 28.5t-29 83.5q0 21 2 33l22 156l-47 -27l-25 83l87 50l49 349l128 14l-40 -285l73 42l23 -84l-111 -64l-34 -239l-1 -11q0 -14 6 -20t18 -6q10 0 30 6z" />
    <glyph glyph-name="Nacute" unicode="&#x143;" horiz-adv-x="664" 
d="M547 0h-167l-159 580q1 -72 -3.5 -142t-17.5 -162l-38 -276h-119l97 691h167l161 -580q-1 24 -1 69q0 94 13 193l46 318h118zM514 931l40 -100l-234 -80l-27 65z" />
    <glyph glyph-name="nacute" unicode="&#x144;" horiz-adv-x="573" 
d="M488.5 509.5q32.5 -34.5 32.5 -95.5q0 -16 -3 -36l-53 -378h-126l51 359q2 18 2 25q0 30 -12 42.5t-33 12.5q-68 0 -139 -136l-43 -303h-126l74 529h109l-5 -98q78 113 182 113q57 0 89.5 -34.5zM442 820l40 -100l-233 -90l-29 65z" />
    <glyph glyph-name="Ncommaaccent" unicode="&#x145;" horiz-adv-x="664" 
d="M547 0h-167l-159 580q1 -72 -3.5 -142t-17.5 -162l-38 -276h-119l97 691h167l161 -580q-1 24 -1 69q0 94 13 193l46 318h118zM331.5 -90q17.5 -18 17.5 -43q0 -20 -8 -39t-29 -52l-55 -88h-67l46 118q-23 19 -23 48q0 32 21 53t52 21q28 0 45.5 -18z" />
    <glyph glyph-name="ncommaaccent" unicode="&#x146;" horiz-adv-x="573" 
d="M488.5 509.5q32.5 -34.5 32.5 -95.5q0 -16 -3 -36l-53 -378h-126l51 359q2 18 2 25q0 30 -12 42.5t-33 12.5q-68 0 -139 -136l-43 -303h-126l74 529h109l-5 -98q78 113 182 113q57 0 89.5 -34.5zM284.5 -90q17.5 -18 17.5 -43q0 -20 -8 -39t-29 -52l-55 -88h-67l46 118
q-23 19 -23 48q0 32 21 53t52 21q28 0 45.5 -18z" />
    <glyph glyph-name="Ncaron" unicode="&#x147;" horiz-adv-x="664" 
d="M547 0h-167l-159 580q1 -72 -3.5 -142t-17.5 -162l-38 -276h-119l97 691h167l161 -580q-1 24 -1 69q0 94 13 193l46 318h118zM558 928l42 -56l-152 -120h-79l-121 120l54 56l116 -83z" />
    <glyph glyph-name="ncaron" unicode="&#x148;" horiz-adv-x="573" 
d="M488.5 509.5q32.5 -34.5 32.5 -95.5q0 -16 -3 -36l-53 -378h-126l51 359q2 18 2 25q0 30 -12 42.5t-33 12.5q-68 0 -139 -136l-43 -303h-126l74 529h109l-5 -98q78 113 182 113q57 0 89.5 -34.5zM485 800l43 -56l-154 -125h-79l-120 125l52 56l115 -88z" />
    <glyph glyph-name="napostrophe" unicode="&#x149;" horiz-adv-x="691" 
d="M208.5 741q16.5 -16 16.5 -41q0 -17 -6.5 -32t-28.5 -51l-52 -83h-62l43 110q-21 18 -21 46q0 27 20.5 47t48.5 20q25 0 41.5 -16zM606.5 509.5q32.5 -34.5 32.5 -95.5q0 -16 -3 -36l-53 -378h-126l51 359q2 18 2 25q0 30 -12 42.5t-33 12.5q-68 0 -139 -136l-43 -303
h-126l74 529h109l-5 -98q78 113 182 113q57 0 89.5 -34.5z" />
    <glyph glyph-name="Eng" unicode="&#x14a;" horiz-adv-x="664" 
d="M644 691l-97 -691l-6 -46q-13 -86 -64.5 -129t-132.5 -43q-72 0 -124 42l54 79q17 -11 31 -16t35 -5q60 0 70 69l7 49h-37l-159 580q1 -72 -3.5 -142t-17.5 -162l-38 -276h-119l97 691h167l161 -580q-1 24 -1 69q0 94 13 193l46 318h118z" />
    <glyph glyph-name="eng" unicode="&#x14b;" horiz-adv-x="573" 
d="M488.5 509.5q32.5 -34.5 32.5 -95.5q0 -16 -3 -36l-53 -378l-6 -46q-13 -85 -64.5 -128.5t-130.5 -43.5q-72 0 -124 42l53 76q18 -11 31.5 -16t33.5 -5q30 0 49.5 17t23.5 52l8 52l51 359q2 18 2 25q0 30 -12 42.5t-33 12.5q-68 0 -139 -136l-43 -303h-126l74 529h109
l-5 -98q78 113 182 113q57 0 89.5 -34.5z" />
    <glyph glyph-name="Omacron" unicode="&#x14c;" horiz-adv-x="683" 
d="M590 632.5q68 -73.5 68 -208.5q0 -103 -35 -203.5t-114 -168t-203 -67.5q-121 0 -189 73.5t-68 207.5q0 102 35 202.5t114 169t203 68.5q121 0 189 -73.5zM269 548.5q-47 -56.5 -66 -136t-19 -154.5q0 -172 129 -172q78 0 124.5 56.5t65.5 136t19 155.5q0 89 -32.5 130
t-96.5 41q-77 0 -124 -56.5zM562 787h-287l12 91h288z" />
    <glyph glyph-name="omacron" unicode="&#x14d;" horiz-adv-x="576" 
d="M94.5 44q-55.5 59 -55.5 164q0 78 28.5 155t92.5 129t164 52q102 0 157.5 -59.5t55.5 -162.5q0 -78 -28 -155t-92 -129.5t-165 -52.5q-102 0 -157.5 59zM347 123.5q33 41.5 46 99.5t13 113q0 111 -89 111q-55 0 -88 -40.5t-46.5 -97.5t-13.5 -111q0 -116 90 -116
q55 0 88 41.5zM484 661h-287l12 91h288z" />
    <glyph glyph-name="Obreve" unicode="&#x14e;" horiz-adv-x="683" 
d="M590 632.5q68 -73.5 68 -208.5q0 -103 -35 -203.5t-114 -168t-203 -67.5q-121 0 -189 73.5t-68 207.5q0 102 35 202.5t114 169t203 68.5q121 0 189 -73.5zM269 548.5q-47 -56.5 -66 -136t-19 -154.5q0 -172 129 -172q78 0 124.5 56.5t65.5 136t19 155.5q0 89 -32.5 130
t-96.5 41q-77 0 -124 -56.5zM308 796q-38 42 -36 105l73 10q13 -65 75 -65q34 0 59.5 18.5t38.5 49.5l75 -18q-15 -62 -63.5 -102t-115.5 -40q-68 0 -106 42z" />
    <glyph glyph-name="obreve" unicode="&#x14f;" horiz-adv-x="576" 
d="M94.5 44q-55.5 59 -55.5 164q0 78 28.5 155t92.5 129t164 52q102 0 157.5 -59.5t55.5 -162.5q0 -78 -28 -155t-92 -129.5t-165 -52.5q-102 0 -157.5 59zM347 123.5q33 41.5 46 99.5t13 113q0 111 -89 111q-55 0 -88 -40.5t-46.5 -97.5t-13.5 -111q0 -116 90 -116
q55 0 88 41.5zM226.5 681q-37.5 44 -34.5 113l76 10q8 -75 71 -75q35 0 60.5 21t40.5 58l73 -19q-15 -68 -64 -110t-116 -42q-69 0 -106.5 44z" />
    <glyph glyph-name="Ohungarumlaut" unicode="&#x150;" horiz-adv-x="683" 
d="M590 632.5q68 -73.5 68 -208.5q0 -103 -35 -203.5t-114 -168t-203 -67.5q-121 0 -189 73.5t-68 207.5q0 102 35 202.5t114 169t203 68.5q121 0 189 -73.5zM269 548.5q-47 -56.5 -66 -136t-19 -154.5q0 -172 129 -172q78 0 124.5 56.5t65.5 136t19 155.5q0 89 -32.5 130
t-96.5 41q-77 0 -124 -56.5zM400 973l87 -46l-126 -167l-68 30zM563 973l86 -48l-136 -170l-66 32z" />
    <glyph glyph-name="ohungarumlaut" unicode="&#x151;" horiz-adv-x="576" 
d="M94.5 44q-55.5 59 -55.5 164q0 78 28.5 155t92.5 129t164 52q102 0 157.5 -59.5t55.5 -162.5q0 -78 -28 -155t-92 -129.5t-165 -52.5q-102 0 -157.5 59zM347 123.5q33 41.5 46 99.5t13 113q0 111 -89 111q-55 0 -88 -40.5t-46.5 -97.5t-13.5 -111q0 -116 90 -116
q55 0 88 41.5zM327 847l87 -46l-126 -167l-68 30zM490 847l86 -48l-136 -170l-66 32z" />
    <glyph glyph-name="OE" unicode="&#x152;" horiz-adv-x="889" 
d="M875 593h-287q47 -68 47 -181v-12h180l-13 -98h-178q-24 -124 -102 -203h301l-14 -99h-430q-42 -15 -88 -15q-112 0 -177 73.5t-65 206.5q0 100 34.5 201.5t110.5 170.5t191 69q48 0 86 -15h431zM215 126q31 -40 88 -40q72 0 116.5 55.5t63.5 137t19 165.5
q0 161 -119 161q-72 0 -116.5 -55.5t-63.5 -136t-19 -162.5q0 -85 31 -125z" />
    <glyph glyph-name="oe" unicode="&#x153;" horiz-adv-x="885" 
d="M775.5 256q-92.5 -46 -248.5 -62q4 -110 103 -110q35 0 68 11.5t70 37.5l48 -80q-95 -68 -201 -68q-118 0 -175 90q-66 -90 -188 -90q-101 0 -157 59.5t-56 163.5q0 78 28 155t92 129t163 52q57 0 99.5 -25t68.5 -67q73 92 195 92q58 0 99.5 -19t62.5 -51t21 -70
q0 -102 -92.5 -148zM688 318.5q51 29.5 51 79.5q0 22 -14.5 38.5t-47.5 16.5q-65 0 -100 -48.5t-45 -125.5q105 10 156 39.5zM348 123q33 41 46 97.5t14 111.5q0 115 -90 115q-55 0 -88.5 -40.5t-47 -97.5t-13.5 -111q0 -116 91 -116q55 0 88 41z" />
    <glyph glyph-name="Racute" unicode="&#x154;" horiz-adv-x="603" 
d="M549.5 386q-38.5 -57 -127.5 -88l135 -298h-144l-114 277h-86l-39 -277h-131l97 691h202q122 0 184 -45.5t62 -132.5q0 -70 -38.5 -127zM226 372h84q75 0 108.5 40.5t33.5 95.5q0 46 -29.5 66.5t-92.5 20.5h-73zM474 931l40 -100l-234 -80l-27 65z" />
    <glyph glyph-name="racute" unicode="&#x155;" horiz-adv-x="387" 
d="M423 535l-37 -123q-24 6 -44 6q-47 0 -80 -40t-60 -117l-37 -261h-126l74 529h109l-4 -103q29 58 68 87.5t84 29.5q26 0 53 -8zM387 820l40 -100l-233 -90l-29 65z" />
    <glyph glyph-name="Rcommaaccent" unicode="&#x156;" horiz-adv-x="603" 
d="M549.5 386q-38.5 -57 -127.5 -88l135 -298h-144l-114 277h-86l-39 -277h-131l97 691h202q122 0 184 -45.5t62 -132.5q0 -70 -38.5 -127zM226 372h84q75 0 108.5 40.5t33.5 95.5q0 46 -29.5 66.5t-92.5 20.5h-73zM304.5 -90q17.5 -18 17.5 -43q0 -20 -8 -39t-29 -52
l-55 -88h-67l46 118q-23 19 -23 48q0 32 21 53t52 21q28 0 45.5 -18z" />
    <glyph glyph-name="rcommaaccent" unicode="&#x157;" horiz-adv-x="387" 
d="M423 535l-37 -123q-24 6 -44 6q-47 0 -80 -40t-60 -117l-37 -261h-126l74 529h109l-4 -103q29 58 68 87.5t84 29.5q26 0 53 -8zM133.5 -90q17.5 -18 17.5 -43q0 -20 -8 -39t-29 -52l-55 -88h-67l46 118q-23 19 -23 48q0 32 21 53t52 21q28 0 45.5 -18z" />
    <glyph glyph-name="Rcaron" unicode="&#x158;" horiz-adv-x="603" 
d="M549.5 386q-38.5 -57 -127.5 -88l135 -298h-144l-114 277h-86l-39 -277h-131l97 691h202q122 0 184 -45.5t62 -132.5q0 -70 -38.5 -127zM226 372h84q75 0 108.5 40.5t33.5 95.5q0 46 -29.5 66.5t-92.5 20.5h-73zM518 928l42 -56l-152 -120h-79l-121 120l54 56l116 -83z
" />
    <glyph glyph-name="rcaron" unicode="&#x159;" horiz-adv-x="387" 
d="M423 535l-37 -123q-24 6 -44 6q-47 0 -80 -40t-60 -117l-37 -261h-126l74 529h109l-4 -103q29 58 68 87.5t84 29.5q26 0 53 -8zM430 800l43 -56l-154 -125h-79l-120 125l52 56l115 -88z" />
    <glyph glyph-name="Sacute" unicode="&#x15a;" horiz-adv-x="552" 
d="M550 619l-74 -72q-32 30 -66 44t-76 14q-54 0 -87.5 -25t-33.5 -68q0 -24 11 -40t36.5 -30t74.5 -30q87 -27 133 -71t46 -122q0 -59 -30 -112.5t-94 -87.5t-161 -34q-150 0 -238 97l78 76q33 -34 72.5 -51.5t90.5 -17.5q67 0 105.5 30.5t38.5 83.5q0 38 -25.5 61.5
t-91.5 46.5q-95 32 -138.5 75.5t-43.5 112.5q0 52 29 99.5t86.5 77.5t138.5 30q134 0 219 -87zM457 931l40 -100l-234 -80l-27 65z" />
    <glyph glyph-name="sacute" unicode="&#x15b;" horiz-adv-x="468" 
d="M452 477l-58 -71q-60 43 -127 43q-41 0 -63.5 -15t-22.5 -41q0 -24 21 -37.5t83 -33.5q73 -23 108 -60.5t35 -98.5q0 -53 -28.5 -93.5t-80.5 -62.5t-121 -22q-66 0 -119.5 23t-88.5 59l66 69q64 -55 145 -55q50 0 74.5 20.5t24.5 47.5q0 21 -9.5 34.5t-31.5 24t-67 25.5
q-73 23 -105.5 58.5t-32.5 91.5q0 42 24.5 79t72.5 59.5t116 22.5q108 0 185 -67zM394 820l40 -100l-233 -90l-29 65z" />
    <glyph glyph-name="Scircumflex" unicode="&#x15c;" horiz-adv-x="552" 
d="M550 619l-74 -72q-32 30 -66 44t-76 14q-54 0 -87.5 -25t-33.5 -68q0 -24 11 -40t36.5 -30t74.5 -30q87 -27 133 -71t46 -122q0 -59 -30 -112.5t-94 -87.5t-161 -34q-150 0 -238 97l78 76q33 -34 72.5 -51.5t90.5 -17.5q67 0 105.5 30.5t38.5 83.5q0 38 -25.5 61.5
t-91.5 46.5q-95 32 -138.5 75.5t-43.5 112.5q0 52 29 99.5t86.5 77.5t138.5 30q134 0 219 -87zM222 757l-44 55l153 121h79l120 -121l-51 -55l-118 83z" />
    <glyph glyph-name="scircumflex" unicode="&#x15d;" horiz-adv-x="468" 
d="M452 477l-58 -71q-60 43 -127 43q-41 0 -63.5 -15t-22.5 -41q0 -24 21 -37.5t83 -33.5q73 -23 108 -60.5t35 -98.5q0 -53 -28.5 -93.5t-80.5 -62.5t-121 -22q-66 0 -119.5 23t-88.5 59l66 69q64 -55 145 -55q50 0 74.5 20.5t24.5 47.5q0 21 -9.5 34.5t-31.5 24t-67 25.5
q-73 23 -105.5 58.5t-32.5 91.5q0 42 24.5 79t72.5 59.5t116 22.5q108 0 185 -67zM163 627l-44 55l154 126h79l120 -126l-55 -55l-115 88z" />
    <glyph glyph-name="Scedilla" unicode="&#x15e;" horiz-adv-x="552" 
d="M468 341q46 -44 46 -122q0 -55 -25.5 -105t-80 -84.5t-136.5 -42.5l-7 -39q43 -4 65 -27t22 -59q0 -29 -16 -55.5t-49 -43t-81 -16.5q-60 0 -101 30l38 61q27 -16 61 -16q23 0 37.5 9.5t15.5 27.5q0 20 -18.5 27.5t-65.5 7.5l23 92q-127 11 -205 96l78 76
q33 -34 72.5 -51.5t90.5 -17.5q67 0 105.5 30.5t38.5 83.5q0 38 -25.5 61.5t-91.5 46.5q-95 32 -138.5 75.5t-43.5 112.5q0 52 29 99.5t86.5 77.5t138.5 30q134 0 219 -87l-74 -72q-32 30 -66 44t-76 14q-54 0 -87.5 -25t-33.5 -68q0 -24 11 -40t36.5 -30t74.5 -30
q87 -27 133 -71z" />
    <glyph glyph-name="scedilla" unicode="&#x15f;" horiz-adv-x="468" 
d="M393 261.5q35 -37.5 35 -98.5q0 -74 -53.5 -121.5t-144.5 -55.5l-7 -38q43 -4 65 -27t22 -59q0 -29 -16 -55.5t-49 -43t-81 -16.5q-60 0 -101 30l38 61q27 -16 61 -16q23 0 37.5 9.5t15.5 27.5q0 20 -18.5 27.5t-65.5 7.5l23 94q-52 6 -93.5 27.5t-70.5 51.5l66 69
q64 -55 145 -55q50 0 74.5 20.5t24.5 47.5q0 21 -9.5 34.5t-31.5 24t-67 25.5q-73 23 -105.5 58.5t-32.5 91.5q0 42 24.5 79t72.5 59.5t116 22.5q108 0 185 -67l-58 -71q-60 43 -127 43q-41 0 -63.5 -15t-22.5 -41q0 -24 21 -37.5t83 -33.5q73 -23 108 -60.5z" />
    <glyph glyph-name="Scaron" unicode="&#x160;" horiz-adv-x="552" 
d="M550 619l-74 -72q-32 30 -66 44t-76 14q-54 0 -87.5 -25t-33.5 -68q0 -24 11 -40t36.5 -30t74.5 -30q87 -27 133 -71t46 -122q0 -59 -30 -112.5t-94 -87.5t-161 -34q-150 0 -238 97l78 76q33 -34 72.5 -51.5t90.5 -17.5q67 0 105.5 30.5t38.5 83.5q0 38 -25.5 61.5
t-91.5 46.5q-95 32 -138.5 75.5t-43.5 112.5q0 52 29 99.5t86.5 77.5t138.5 30q134 0 219 -87zM501 928l42 -56l-152 -120h-79l-121 120l54 56l116 -83z" />
    <glyph glyph-name="scaron" unicode="&#x161;" horiz-adv-x="468" 
d="M452 477l-58 -71q-60 43 -127 43q-41 0 -63.5 -15t-22.5 -41q0 -24 21 -37.5t83 -33.5q73 -23 108 -60.5t35 -98.5q0 -53 -28.5 -93.5t-80.5 -62.5t-121 -22q-66 0 -119.5 23t-88.5 59l66 69q64 -55 145 -55q50 0 74.5 20.5t24.5 47.5q0 21 -9.5 34.5t-31.5 24t-67 25.5
q-73 23 -105.5 58.5t-32.5 91.5q0 42 24.5 79t72.5 59.5t116 22.5q108 0 185 -67zM437 800l43 -56l-154 -125h-79l-120 125l52 56l115 -88z" />
    <glyph glyph-name="uni0162" unicode="&#x162;" horiz-adv-x="522" 
d="M578 691l-29 -105h-178l-82 -586h-1l-8 -52q43 -4 64.5 -26t21.5 -57q0 -28 -15.5 -55t-48.5 -45t-84 -18q-30 0 -56 8.5t-43 21.5l38 61q27 -16 58 -16q24 0 40 10t16 29q0 18 -18.5 25.5t-65.5 7.5l26 106h-55l82 586h-184l15 105h507z" />
    <glyph glyph-name="uni0163" unicode="&#x163;" horiz-adv-x="367" 
d="M197 159q-2 -20 -2 -25q0 -24 10 -34.5t32 -10.5q28 0 68 19l36 -85q-49 -31 -106 -36l-7 -39q43 -4 65 -27t22 -59q0 -29 -16 -55.5t-49 -43t-81 -16.5q-60 0 -101 30l38 61q27 -16 61 -16q23 0 37.5 9.5t15.5 27.5q0 20 -18.5 27.5t-65.5 7.5l24 97q-45 11 -68.5 44.5
t-23.5 85.5q0 18 3 39l39 277h-82l13 92h87l33 120l106 12l-18 -132h122l-27 -92h-108z" />
    <glyph glyph-name="Tcaron" unicode="&#x164;" horiz-adv-x="522" 
d="M578 691l-29 -105h-178l-82 -586h-131l82 586h-184l15 105h507zM478 928l42 -56l-152 -120h-79l-121 120l54 56l116 -83z" />
    <glyph glyph-name="tcaron" unicode="&#x165;" horiz-adv-x="367" 
d="M438 767l-74 -201l-68 8l42 205zM249 529h122l-27 -92h-108l-39 -278q-2 -20 -2 -25q0 -24 10 -34.5t32 -10.5q28 0 68 19l36 -85q-61 -38 -133 -38q-67 0 -103.5 35.5t-36.5 100.5q0 18 3 39l39 277h-82l13 92h87l33 120l106 12z" />
    <glyph glyph-name="Tbar" unicode="&#x166;" horiz-adv-x="522" 
d="M549 586h-178l-27 -196h115l-11 -83h-116l-43 -307h-131l43 307h-116l11 83h117l27 196h-184l15 105h507z" />
    <glyph glyph-name="tbar" unicode="&#x167;" horiz-adv-x="367" 
d="M236 437l-11 -78h111l-26 -89h-98l-15 -111q-2 -20 -2 -25q0 -24 10 -34.5t32 -10.5q28 0 68 19l36 -85q-61 -38 -133 -38q-67 0 -103.5 35.5t-36.5 100.5q0 18 3 39l15 110h-69l13 89h69l11 78h-82l13 92h87l33 120l106 12l-18 -132h122l-27 -92h-108z" />
    <glyph glyph-name="Utilde" unicode="&#x168;" horiz-adv-x="648" 
d="M573 224q-15 -108 -90.5 -173.5t-195.5 -65.5q-110 0 -167.5 53.5t-57.5 145.5q0 22 3 44l65 463h131l-65 -461q-3 -22 -3 -41q0 -51 25 -76t77 -25q65 0 101 37t47 110l64 456h131zM421.5 777.5q-15.5 7.5 -34.5 21.5q-9 7 -19 12.5t-19 5.5q-18 0 -31.5 -11.5
t-30.5 -35.5l-63 37q25 46 58.5 74.5t71.5 28.5q22 0 37.5 -7.5t32.5 -20.5q12 -9 20 -13.5t17 -4.5q16 0 30 11t30 34l65 -37q-27 -48 -60 -75t-68 -27q-21 0 -36.5 7.5z" />
    <glyph glyph-name="utilde" unicode="&#x169;" horiz-adv-x="569" 
d="M85.5 19.5q-33.5 34.5 -33.5 95.5q0 18 3 37l53 377h126l-51 -361q-2 -20 -2 -28q0 -29 11.5 -41t34.5 -12q35 0 66.5 28t62.5 74l48 340h126l-74 -529h-109l5 87q-37 -49 -79 -75.5t-92 -26.5q-62 0 -95.5 34.5zM361.5 651.5q-15.5 7.5 -34.5 21.5q-9 7 -19 12.5
t-19 5.5q-18 0 -31.5 -11.5t-30.5 -35.5l-63 37q25 46 58.5 74.5t71.5 28.5q22 0 37.5 -7.5t32.5 -20.5q12 -9 20 -13.5t17 -4.5q16 0 30 11t30 34l65 -37q-27 -48 -60 -75t-68 -27q-21 0 -36.5 7.5z" />
    <glyph glyph-name="Umacron" unicode="&#x16a;" horiz-adv-x="648" 
d="M573 224q-15 -108 -90.5 -173.5t-195.5 -65.5q-110 0 -167.5 53.5t-57.5 145.5q0 22 3 44l65 463h131l-65 -461q-3 -22 -3 -41q0 -51 25 -76t77 -25q65 0 101 37t47 110l64 456h131zM542 787h-287l12 91h288z" />
    <glyph glyph-name="umacron" unicode="&#x16b;" horiz-adv-x="569" 
d="M85.5 19.5q-33.5 34.5 -33.5 95.5q0 18 3 37l53 377h126l-51 -361q-2 -20 -2 -28q0 -29 11.5 -41t34.5 -12q35 0 66.5 28t62.5 74l48 340h126l-74 -529h-109l5 87q-37 -49 -79 -75.5t-92 -26.5q-62 0 -95.5 34.5zM481 661h-287l12 91h288z" />
    <glyph glyph-name="Ubreve" unicode="&#x16c;" horiz-adv-x="648" 
d="M573 224q-15 -108 -90.5 -173.5t-195.5 -65.5q-110 0 -167.5 53.5t-57.5 145.5q0 22 3 44l65 463h131l-65 -461q-3 -22 -3 -41q0 -51 25 -76t77 -25q65 0 101 37t47 110l64 456h131zM288 796q-38 42 -36 105l73 10q13 -65 75 -65q34 0 59.5 18.5t38.5 49.5l75 -18
q-15 -62 -63.5 -102t-115.5 -40q-68 0 -106 42z" />
    <glyph glyph-name="ubreve" unicode="&#x16d;" horiz-adv-x="569" 
d="M85.5 19.5q-33.5 34.5 -33.5 95.5q0 18 3 37l53 377h126l-51 -361q-2 -20 -2 -28q0 -29 11.5 -41t34.5 -12q35 0 66.5 28t62.5 74l48 340h126l-74 -529h-109l5 87q-37 -49 -79 -75.5t-92 -26.5q-62 0 -95.5 34.5zM223.5 681q-37.5 44 -34.5 113l76 10q8 -75 71 -75
q35 0 60.5 21t40.5 58l73 -19q-15 -68 -64 -110t-116 -42q-69 0 -106.5 44z" />
    <glyph glyph-name="Uring" unicode="&#x16e;" horiz-adv-x="648" 
d="M573 224q-15 -108 -90.5 -173.5t-195.5 -65.5q-110 0 -167.5 53.5t-57.5 145.5q0 22 3 44l65 463h131l-65 -461q-3 -22 -3 -41q0 -51 25 -76t77 -25q65 0 101 37t47 110l64 456h131zM505 948.5q31 -30.5 31 -77.5q0 -35 -18 -65.5t-50.5 -48.5t-71.5 -18q-52 0 -83 30.5
t-31 78.5q0 34 18 64.5t50.5 48.5t71.5 18q52 0 83 -30.5zM375.5 894q-15.5 -19 -15.5 -44q0 -21 10.5 -32.5t29.5 -11.5q28 0 43.5 19t15.5 44q0 21 -11 32.5t-30 11.5q-27 0 -42.5 -19z" />
    <glyph glyph-name="uring" unicode="&#x16f;" horiz-adv-x="569" 
d="M85.5 19.5q-33.5 34.5 -33.5 95.5q0 18 3 37l53 377h126l-51 -361q-2 -20 -2 -28q0 -29 11.5 -41t34.5 -12q35 0 66.5 28t62.5 74l48 340h126l-74 -529h-109l5 87q-37 -49 -79 -75.5t-92 -26.5q-62 0 -95.5 34.5zM443 822.5q31 -30.5 31 -77.5q0 -35 -18 -65.5
t-50.5 -48.5t-71.5 -18q-52 0 -83 30.5t-31 78.5q0 34 18 64.5t50.5 48.5t71.5 18q52 0 83 -30.5zM313.5 768q-15.5 -19 -15.5 -44q0 -21 10.5 -32.5t29.5 -11.5q28 0 43.5 19t15.5 44q0 21 -11 32.5t-30 11.5q-27 0 -42.5 -19z" />
    <glyph glyph-name="Uhungarumlaut" unicode="&#x170;" horiz-adv-x="648" 
d="M573 224q-15 -108 -90.5 -173.5t-195.5 -65.5q-110 0 -167.5 53.5t-57.5 145.5q0 22 3 44l65 463h131l-65 -461q-3 -22 -3 -41q0 -51 25 -76t77 -25q65 0 101 37t47 110l64 456h131zM380 973l87 -46l-126 -167l-68 30zM543 973l86 -48l-136 -170l-66 32z" />
    <glyph glyph-name="uhungarumlaut" unicode="&#x171;" horiz-adv-x="569" 
d="M85.5 19.5q-33.5 34.5 -33.5 95.5q0 18 3 37l53 377h126l-51 -361q-2 -20 -2 -28q0 -29 11.5 -41t34.5 -12q35 0 66.5 28t62.5 74l48 340h126l-74 -529h-109l5 87q-37 -49 -79 -75.5t-92 -26.5q-62 0 -95.5 34.5zM324 847l87 -46l-126 -167l-68 30zM487 847l86 -48
l-136 -170l-66 32z" />
    <glyph glyph-name="Uogonek" unicode="&#x172;" horiz-adv-x="648" 
d="M638 691l-65 -467q-12 -85 -62.5 -145t-132.5 -82q-67 -28 -92 -54.5t-25 -54.5q0 -42 52 -42q28 0 62 7l-15 -85q-37 -7 -67 -7q-60 0 -96 29t-36 76q0 77 95 120q-95 8 -144.5 60.5t-49.5 136.5q0 23 3 45l65 463h131l-65 -461q-3 -22 -3 -41q0 -51 25 -76t77 -25
q65 0 101 37t47 110l64 456h131z" />
    <glyph glyph-name="uogonek" unicode="&#x173;" horiz-adv-x="569" 
d="M318 -119q0 -35 46 -35q25 0 62 8l-18 -86q-37 -7 -65 -7q-56 0 -90 27.5t-34 72.5q0 95 129 152l4 74q-37 -49 -79 -75.5t-92 -26.5q-62 0 -95.5 34.5t-33.5 95.5q0 18 3 37l53 377h126l-51 -361q-2 -20 -2 -28q0 -29 11.5 -41t34.5 -12q35 0 66.5 28t62.5 74l48 340
h126l-74 -529q-138 -54 -138 -119z" />
    <glyph glyph-name="Wcircumflex" unicode="&#x174;" horiz-adv-x="829" 
d="M872 691l-222 -691h-170l-26 551l-184 -551h-165l-27 691h127l5 -586l194 586h139l27 -586l178 586h124zM354 757l-44 55l153 121h79l120 -121l-51 -55l-118 83z" />
    <glyph glyph-name="wcircumflex" unicode="&#x175;" horiz-adv-x="726" 
d="M751 529l-186 -529h-157l-21 415l-139 -415h-156l-42 529h126l12 -435l152 435h129l23 -435l138 435h121zM287 627l-44 55l154 126h79l120 -126l-55 -55l-115 88z" />
    <glyph glyph-name="Ycircumflex" unicode="&#x176;" horiz-adv-x="566" 
d="M628 691l-279 -429l-37 -262h-132l37 261l-159 430h139l100 -321l190 321h141zM224 757l-44 55l153 121h79l120 -121l-51 -55l-118 83z" />
    <glyph glyph-name="ycircumflex" unicode="&#x177;" horiz-adv-x="498" 
d="M295 -3q-43 -97 -117 -151.5t-187 -63.5l-4 93q77 12 116.5 39t72.5 86h-45l-92 529h132l52 -441l180 441h131zM172 627l-44 55l154 126h79l120 -126l-55 -55l-115 88z" />
    <glyph glyph-name="Ydieresis" unicode="&#x178;" horiz-adv-x="566" 
d="M628 691l-279 -429l-37 -262h-132l37 261l-159 430h139l100 -321l190 321h141zM203 790.5q-18 17.5 -18 43.5q0 33 22.5 54.5t55.5 21.5q28 0 46 -17.5t18 -43.5q0 -33 -22.5 -54.5t-55.5 -21.5q-28 0 -46 17.5zM422 790.5q-18 17.5 -18 43.5q0 33 22.5 54.5t55.5 21.5
q28 0 46 -17.5t18 -43.5q0 -33 -22.5 -54.5t-55.5 -21.5q-28 0 -46 17.5z" />
    <glyph glyph-name="Zacute" unicode="&#x179;" horiz-adv-x="526" 
d="M-15 0l14 101l386 485h-284l14 105h434l-14 -102l-383 -481h318l-29 -108h-456zM444 931l40 -100l-234 -80l-27 65z" />
    <glyph glyph-name="zacute" unicode="&#x17a;" horiz-adv-x="441" 
d="M452 529l-12 -92l-290 -337h246l-26 -100h-390l12 92l290 337h-220l14 100h376zM381 820l40 -100l-233 -90l-29 65z" />
    <glyph glyph-name="Zdotaccent" unicode="&#x17b;" horiz-adv-x="526" 
d="M-15 0l14 101l386 485h-284l14 105h434l-14 -102l-383 -481h318l-29 -108h-456zM295 787.5q-20 19.5 -20 49.5q0 37 25 61.5t62 24.5q33 0 52.5 -19.5t19.5 -50.5q0 -36 -25 -60.5t-62 -24.5q-32 0 -52 19.5z" />
    <glyph glyph-name="zdotaccent" unicode="&#x17c;" horiz-adv-x="441" 
d="M452 529l-12 -92l-290 -337h246l-26 -100h-390l12 92l290 337h-220l14 100h376zM232 661.5q-20 19.5 -20 49.5q0 37 25 61.5t62 24.5q32 0 52 -19.5t20 -50.5q0 -36 -25 -60.5t-62 -24.5q-32 0 -52 19.5z" />
    <glyph glyph-name="Zcaron" unicode="&#x17d;" horiz-adv-x="526" 
d="M-15 0l14 101l386 485h-284l14 105h434l-14 -102l-383 -481h318l-29 -108h-456zM488 928l42 -56l-152 -120h-79l-121 120l54 56l116 -83z" />
    <glyph glyph-name="zcaron" unicode="&#x17e;" horiz-adv-x="441" 
d="M452 529l-12 -92l-290 -337h246l-26 -100h-390l12 92l290 337h-220l14 100h376zM424 800l43 -56l-154 -125h-79l-120 125l52 56l115 -88z" />
    <glyph glyph-name="longs" unicode="&#x17f;" horiz-adv-x="339" 
d="M473 714l-45 -80q-38 24 -83 24q-39 0 -59 -18.5t-25 -57.5l-82 -582h-126l61 437h-85l13 92h85l9 61q10 75 62 120t138 45q74 0 137 -41z" />
    <glyph glyph-name="uni0180" unicode="&#x180;" horiz-adv-x="590" 
d="M510.5 490q42.5 -54 42.5 -153q0 -85 -28.5 -165t-95.5 -133.5t-174 -53.5q-51 0 -98.5 9.5t-104.5 30.5l81 576h-70l12 82h70l8 58l127 14l-10 -72h144l-23 -82h-132l-17 -120q68 63 149 63q77 0 119.5 -54zM355 121q35 40 51 99t16 119q0 109 -76 109q-33 0 -61 -18
t-57 -50l-39 -285q40 -14 78 -14q53 0 88 40z" />
    <glyph glyph-name="uni0181" unicode="&#x181;" horiz-adv-x="718" 
d="M639 320.5q38 -33.5 38 -100.5q0 -100 -73 -160t-240 -60h-207l83 593h-27q-28 0 -43 -16t-15 -47q0 -23 9 -51l-92 -37q-25 48 -25 93q0 72 48 114t131 42h225q113 0 177 -38t64 -118q0 -69 -43.5 -112t-109.5 -58q62 -11 100 -44.5zM370 594l-26 -187h79q63 0 99 31
t36 86q0 39 -27.5 54.5t-77.5 15.5h-83zM504.5 133q37.5 34 37.5 95q0 87 -118 87h-93l-30 -216h72q94 0 131.5 34z" />
    <glyph glyph-name="uni0182" unicode="&#x182;" horiz-adv-x="580" 
d="M492 391.5q63 -47.5 63 -139.5q0 -64 -29 -121t-95.5 -94t-174.5 -37h-213l97 691h402l-29 -103h-257l-21 -149h79q115 0 178 -47.5zM381 141q36 42 36 106q0 50 -30 73t-90 23h-75l-34 -244h75q82 0 118 42z" />
    <glyph glyph-name="uni0183" unicode="&#x183;" horiz-adv-x="581" 
d="M501 483.5q42 -53.5 42 -153.5q0 -81 -29 -160t-95.5 -132t-173.5 -53q-51 0 -98.5 9.5t-104.5 30.5l101 716h346l-29 -94h-205l-24 -173q68 63 151 63q77 0 119 -53.5zM345 120.5q35 39.5 51 97t16 113.5q0 110 -77 110q-59 0 -117 -68l-39 -278q40 -14 78 -14
q53 0 88 39.5z" />
    <glyph glyph-name="uni0184" unicode="&#x184;" horiz-adv-x="584" 
d="M500 397.5q63 -49.5 63 -144.5q0 -66 -30 -123.5t-97 -93.5t-173 -36h-213l71 506l-65 47q61 56 111 138h111l-34 -244h78q115 0 178 -49.5zM390 142q35 43 35 105q0 54 -29.5 79t-89.5 25h-76l-35 -252h76q84 0 119 43z" />
    <glyph glyph-name="uni0185" unicode="&#x185;" horiz-adv-x="521" 
d="M436 320q52 -42 52 -119q0 -53 -26 -102.5t-81.5 -81.5t-140.5 -32q-91 0 -189 30l47 339l-66 47q64 58 109 128h107l-23 -167h50q109 0 161 -42zM330.5 112q28.5 37 28.5 88q0 36 -22 55.5t-73 19.5h-51l-27 -194q30 -6 54 -6q62 0 90.5 37z" />
    <glyph glyph-name="uni0186" unicode="&#x186;" 
d="M467 632q66 -74 66 -209q0 -118 -42 -218.5t-121.5 -160t-187.5 -59.5q-66 0 -113.5 24t-84.5 62l69 75q33 -27 62.5 -41t68.5 -14q72 0 120 49t70.5 125.5t22.5 159.5q0 179 -125 179q-38 0 -73 -12.5t-73 -38.5l-57 82q49 36 100.5 53.5t117.5 17.5q114 0 180 -74z" />
    <glyph glyph-name="uni0187" unicode="&#x187;" horiz-adv-x="568" 
d="M780 803l-50 -78q-17 11 -31 15.5t-34 4.5q-28 0 -46 -17t-22 -52l-7 -47l-61 -63q-62 38 -129 38q-76 0 -124.5 -53t-69.5 -130.5t-21 -155.5q0 -89 36 -131.5t99 -42.5q41 0 74 15t74 44l53 -83q-42 -36 -96.5 -59t-118.5 -23q-120 0 -189 73.5t-69 210.5
q0 100 37.5 201.5t113.5 168.5t185 67q54 0 97 -19q11 75 56.5 115.5t121.5 40.5q69 0 121 -40z" />
    <glyph glyph-name="uni0188" unicode="&#x188;" horiz-adv-x="471" 
d="M682 715l-49 -77q-17 10 -31.5 15t-33.5 5q-60 0 -69 -70l-15 -107l-54 -65q-56 27 -107 27q-81 0 -116.5 -74.5t-35.5 -167.5q0 -59 24 -85.5t70 -26.5q29 0 54.5 9.5t58.5 29.5l48 -85q-83 -58 -175 -58q-101 0 -157 59.5t-56 163.5q0 75 30 153t91.5 130.5t149.5 52.5
q35 0 65 -11l9 60q11 79 56.5 120.5t121.5 41.5q71 0 121 -40z" />
    <glyph glyph-name="uni0189" unicode="&#x189;" horiz-adv-x="650" 
d="M541 634q84 -57 84 -205q0 -119 -38.5 -215.5t-124 -155t-221.5 -58.5h-188l44 310h-75l11 86h76l41 295h167q140 0 224 -57zM396 148q52 49 73.5 124t21.5 158q0 95 -43 128.5t-120 33.5h-61l-27 -196h143l-12 -86h-143l-30 -211h62q84 0 136 49z" />
    <glyph glyph-name="uni018A" unicode="&#x18a;" horiz-adv-x="754" 
d="M645 634q84 -57 84 -205q0 -119 -38.5 -215.5t-124 -155t-221.5 -58.5h-188l83 593h-27q-28 0 -43 -16t-15 -47q0 -23 9 -51l-92 -37q-25 48 -25 93q0 72 48 114t131 42h195q140 0 224 -57zM500 148q52 49 73.5 124t21.5 158q0 95 -43 128.5t-120 33.5h-61l-69 -493h62
q84 0 136 49z" />
    <glyph glyph-name="uni018B" unicode="&#x18b;" horiz-adv-x="583" 
d="M562 690l-97 -690h-217q-106 0 -169.5 49t-63.5 153q0 113 80 175t218 62h84l21 149h-266l14 103h397zM349 99l34 244h-73q-79 0 -118 -36.5t-39 -102.5q0 -56 28 -80.5t89 -24.5h79z" />
    <glyph glyph-name="uni018C" unicode="&#x18c;" horiz-adv-x="586" 
d="M473 0h-111l1 81q-63 -96 -159 -96q-82 0 -124.5 56t-42.5 156q0 78 26 156t82.5 131t141.5 53q79 0 127 -58l24 168h-213l13 94h339zM402 391q-18 26 -39 38t-50 12q-51 0 -83.5 -39.5t-46.5 -96.5t-14 -112q0 -111 72 -111q38 0 69 28t63 80z" />
    <glyph glyph-name="uni018D" unicode="&#x18d;" horiz-adv-x="572" 
d="M114 -202.5q-43 17.5 -77 50.5l65 66q27 -23 53 -32.5t61 -9.5q42 0 64 18t22 47q0 24 -18.5 40.5t-74.5 41.5q-86 38 -127 88t-41 128q0 64 28.5 136t91.5 122.5t160 50.5q65 0 113.5 -27.5t74 -76t25.5 -110.5q0 -93 -42.5 -161t-144.5 -110q43 -28 61 -57.5t18 -63.5
q0 -39 -23.5 -75.5t-70.5 -59.5t-114 -23q-61 0 -104 17.5zM376.5 199q26.5 58 26.5 137q0 52 -22.5 81.5t-66.5 29.5q-51 0 -83 -35.5t-45.5 -85t-13.5 -95.5q0 -48 24 -78t82 -58q72 46 98.5 104z" />
    <glyph glyph-name="uni018E" unicode="&#x18e;" horiz-adv-x="522" 
d="M107 691h394l-96 -691h-400l13 99h269l29 203h-219l13 98h219l28 193h-264z" />
    <glyph glyph-name="uni018F" unicode="&#x18f;" horiz-adv-x="636" 
d="M546.5 638q65.5 -68 65.5 -199q0 -125 -38 -228t-114 -164.5t-184 -61.5q-116 0 -177.5 69t-61.5 195q0 34 5 77t13 73l423 -1q3 30 3 54q0 80 -33.5 116.5t-97.5 36.5q-50 0 -92.5 -17t-83.5 -47l-54 80q55 43 115 64t129 21q117 0 182.5 -68zM463 298h-298
q-5 -40 -5 -65q0 -148 119 -148q144 0 184 213z" />
    <glyph glyph-name="uni0190" unicode="&#x190;" horiz-adv-x="525" 
d="M456.5 683.5q51.5 -22.5 94.5 -67.5l-73 -69q-60 59 -135 59q-58 0 -89 -30.5t-31 -77.5q0 -41 26.5 -62.5t75.5 -21.5h71l-29 -99h-51q-74 0 -115.5 -33.5t-41.5 -96.5q0 -48 29 -72.5t84 -24.5q46 0 84.5 16.5t74.5 48.5l65 -74q-97 -94 -241 -94q-69 0 -122 23.5
t-82 67t-29 99.5q0 83 52 133.5t140 60.5q-60 14 -92 49t-32 89q0 58 33 103.5t89.5 70.5t123.5 25q69 0 120.5 -22.5z" />
    <glyph glyph-name="uni0191" unicode="&#x191;" horiz-adv-x="482" 
d="M257 593l-29 -207h210l-13 -98h-211l-40 -288h-1l-6 -46q-13 -86 -64.5 -129t-132.5 -43q-72 0 -124 42l54 79q17 -11 31 -16t35 -5q60 0 70 69l7 49l97 691h386l-27 -98h-242z" />
    <glyph glyph-name="florin" unicode="&#x192;" horiz-adv-x="339" 
d="M286 639.5q-20 -18.5 -25 -57.5l-8 -53h125l-26 -92h-112l-55 -392q-11 -78 -39.5 -127.5t-72.5 -79t-112 -56.5l-34 94q41 17 66.5 35t42 49t23.5 82l56 395h-86l13 92h85l9 61q10 75 62 120t138 45q74 0 137 -41l-45 -80q-38 24 -83 24q-39 0 -59 -18.5z" />
    <glyph glyph-name="uni0193" unicode="&#x193;" horiz-adv-x="601" 
d="M813 803l-50 -78q-17 11 -31 15.5t-34 4.5q-28 0 -46 -17t-22 -52l-7 -54l-68 -60q-67 44 -144 44q-80 0 -131 -54.5t-74 -137t-23 -168.5q0 -84 33 -122t100 -38q59 0 112 28l26 179h-103l1 98h243l-46 -336q-110 -70 -245 -70q-124 0 -190.5 70t-66.5 204q0 108 40 211
t120.5 169.5t196.5 66.5q63 0 109 -23q11 77 57 118.5t122 41.5q69 0 121 -40z" />
    <glyph glyph-name="uni0194" unicode="&#x194;" horiz-adv-x="556" 
d="M322 78q22 -49 32 -85t10 -73q0 -66 -40 -102t-110 -36q-60 0 -91 29t-31 77q0 41 21.5 85t68.5 109l-127 609h136l73 -521l221 521h136zM243 8q-47 -73 -47 -110q0 -26 25 -26q18 0 28 12.5t10 32.5q0 38 -16 91z" />
    <glyph glyph-name="uni0195" unicode="&#x195;" horiz-adv-x="864" 
d="M406.5 29.5q-44.5 44.5 -44.5 112.5q0 21 2 31l26 186q2 20 2 26q0 30 -11.5 42t-31.5 12q-71 0 -142 -136l-42 -303h-126l104 740l127 13l-45 -317q32 50 76 79t95 29q59 0 92 -34.5t33 -95.5q0 -22 -2 -34l-29 -205q-2 -16 -2 -24q0 -69 60 -69q86 0 117.5 103.5
t31.5 242.5q0 59 -5 101h120q8 -62 8 -122q0 -422 -282 -422q-87 0 -131.5 44.5z" />
    <glyph glyph-name="uni0196" unicode="&#x196;" horiz-adv-x="369" 
d="M340 24q-58 -39 -131 -39t-114.5 36.5t-41.5 105.5q0 23 2 35l6 41l70 488h131l-70 -488l-8 -54q-1 -6 -1 -17q0 -47 46 -47q22 0 37.5 5t36.5 16z" />
    <glyph glyph-name="uni0197" unicode="&#x197;" horiz-adv-x="322" 
d="M331 409l-14 -99h-82l-44 -310h-131l44 310h-86l14 99h85l40 282h131l-40 -282h83z" />
    <glyph glyph-name="uni0198" unicode="&#x198;" horiz-adv-x="635" 
d="M231 369l191 236q45 57 81 79t88 22q35 0 60 -11t47 -31l-52 -72q-13 8 -23 11.5t-23 3.5q-20 0 -36.5 -11t-44.5 -45l-148 -180l204 -371h-153zM43 0l97 691h131l-97 -691h-131z" />
    <glyph glyph-name="uni0199" unicode="&#x199;" horiz-adv-x="557" 
d="M503 309.5q-38 -47.5 -114 -74.5l107 -235h-139l-110 257q88 26 126 60.5t38 83.5q0 24 -13.5 37t-37.5 13q-38 0 -78.5 -32t-71.5 -96l-45 -323h-126l74 528l9 62q10 74 63 119.5t139 45.5q71 0 133 -32l-45 -84q-38 19 -82 19q-38 0 -57.5 -18.5t-25.5 -57.5l-7 -54
l-12 -78q74 94 177 94q61 0 98.5 -34.5t37.5 -89.5q0 -63 -38 -110.5z" />
    <glyph glyph-name="uni019A" unicode="&#x19a;" horiz-adv-x="324" 
d="M202 125l-1 -11q0 -14 6 -20t18 -6q10 0 30 6l19 -90q-41 -19 -88 -19q-53 0 -82 28.5t-29 83.5q0 21 2 33l28 196h-86l14 92h85l45 323l128 14l-48 -337h89l-14 -92h-88z" />
    <glyph glyph-name="uni019B" unicode="&#x19b;" horiz-adv-x="506" 
d="M420.5 181.5q21.5 -85.5 65.5 -155.5l-123 -40q-29 53 -46.5 103t-28 122t-14.5 183l-175 -409l-121 31l238 483l54 -10q-5 63 -16 94l-69 -56l-68 44l88 75q-28 17 -81 26l24 84q45 -8 77.5 -19.5t56.5 -30.5l80 67l51 -62l-77 -66l-1 -1q19 -35 31 -86t19 -126
q14 -165 35.5 -250.5z" />
    <glyph glyph-name="uni019C" unicode="&#x19c;" horiz-adv-x="911" 
d="M891 691l-97 -691h-114v70q-40 -45 -79.5 -65t-85.5 -20q-52 0 -86 25t-49 70q-42 -49 -86.5 -72t-94.5 -23q-69 0 -106 43.5t-37 115.5q0 20 3 41l71 506h131l-72 -506q-2 -18 -2 -26q0 -35 14.5 -53.5t42.5 -18.5q35 0 63.5 19t64.5 62l2 17l71 506h131l-71 -506
q-2 -20 -2 -28q0 -34 14.5 -52t42.5 -18q34 0 63 19t64 61l73 524h131z" />
    <glyph glyph-name="uni019D" unicode="&#x19d;" horiz-adv-x="664" 
d="M644 691l-97 -691h-167l-159 580q1 -72 -3.5 -142t-17.5 -162l-38 -276l-7 -46q-12 -86 -60.5 -129t-124.5 -43q-72 0 -124 42l54 75q18 -11 32 -16t34 -5q29 0 47.5 18t22.5 55l7 49l97 691h167l161 -580q-1 24 -1 69q0 94 13 193l46 318h118z" />
    <glyph glyph-name="uni019E" unicode="&#x19e;" horiz-adv-x="573" 
d="M488 509.5q33 -34.5 33 -95.5q0 -16 -3 -36l-82 -584l-129 -14l84 579q3 17 3 28q0 52 -46 52q-68 0 -141 -136l-42 -303h-126l74 529h109l-5 -98q37 53 83 83t98 30q57 0 90 -34.5z" />
    <glyph glyph-name="uni019F" unicode="&#x19f;" horiz-adv-x="683" 
d="M590 632.5q68 -73.5 68 -208.5q0 -103 -35 -203.5t-114 -168t-203 -67.5q-121 0 -189 73.5t-68 207.5q0 102 35 202.5t114 169t203 68.5q121 0 189 -73.5zM263 546q-49 -61 -70 -154h334q1 14 1 41q0 90 -33.5 132t-99.5 42q-83 0 -132 -61zM448 149q49 64 68 161h-335
q-2 -36 -2 -50q0 -92 34 -133.5t99 -41.5q87 0 136 64z" />
    <glyph glyph-name="Ohorn" unicode="&#x1a0;" horiz-adv-x="699" 
d="M712 620.5q-29 -35.5 -83 -46.5q29 -63 29 -150q0 -103 -35 -203.5t-114 -168t-203 -67.5q-121 0 -189 73.5t-68 207.5q0 102 35 202.5t114 169t203 68.5q118 0 185 -69q33 3 48 22.5t15 54.5q0 23 -5 46l88 11q9 -25 9 -57q0 -58 -29 -93.5zM437.5 142.5
q46.5 56.5 65.5 136t19 155.5q0 89 -32.5 130t-96.5 41q-77 0 -124 -56.5t-66 -136t-19 -154.5q0 -172 129 -172q78 0 124.5 56.5z" />
    <glyph glyph-name="ohorn" unicode="&#x1a1;" horiz-adv-x="606" 
d="M615 453q-31 -36 -90 -45q12 -39 12 -86q0 -78 -28 -155t-92 -129.5t-165 -52.5q-102 0 -157.5 59t-55.5 164q0 78 28.5 155t92.5 129t164 52q56 0 98.5 -18.5t69.5 -53.5q62 7 62 77q0 28 -6 49l89 11q9 -31 9 -60q0 -60 -31 -96zM317 447q-55 0 -88 -40.5t-46.5 -97.5
t-13.5 -111q0 -116 90 -116q55 0 88 41.5t46 99.5t13 113q0 111 -89 111z" />
    <glyph glyph-name="uni01A2" unicode="&#x1a2;" horiz-adv-x="933" 
d="M851 670q42 -37 42 -106q0 -18 -3 -36l-103 -734h-131l104 739q2 18 2 24q0 27 -12.5 40.5t-41.5 13.5q-44 0 -87 -23q37 -68 37 -164q0 -103 -35 -203.5t-114 -168t-203 -67.5q-121 0 -189 73.5t-68 207.5q0 102 35 202.5t114 169t203 68.5q98 0 163 -51q77 52 166 52
q79 0 121 -37zM437.5 142.5q46.5 56.5 65.5 136t19 155.5q0 89 -32.5 130t-96.5 41q-77 0 -124 -56.5t-66 -136t-19 -154.5q0 -172 129 -172q78 0 124.5 56.5z" />
    <glyph glyph-name="uni01A3" unicode="&#x1a3;" horiz-adv-x="796" 
d="M702.5 506q39.5 -38 39.5 -106q0 -18 -3 -36l-80 -570l-128 -14l83 597q2 16 2 21q0 50 -52 50q-26 0 -53 -9q26 -50 26 -117q0 -78 -28 -155t-92 -129.5t-165 -52.5q-102 0 -157.5 59t-55.5 164q0 78 28.5 155t92.5 129t164 52q73 0 126 -36q34 19 67 27.5t71 8.5
q75 0 114.5 -38zM317 447q-55 0 -88 -40.5t-46.5 -97.5t-13.5 -111q0 -116 90 -116q55 0 88 41.5t46 99.5t13 113q0 111 -89 111z" />
    <glyph glyph-name="uni01A4" unicode="&#x1a4;" horiz-adv-x="696" 
d="M637.5 643.5q65.5 -47.5 65.5 -140.5q0 -69 -30.5 -128t-98 -96.5t-172.5 -37.5h-81l-34 -241h-131l83 593h-26q-28 0 -43 -16t-15 -47q0 -23 9 -51l-92 -37q-25 48 -25 93q0 72 48 114t131 42h227q119 0 184.5 -47.5zM529 386q37 46 37 113q0 50 -31.5 72.5t-92.5 22.5
h-72l-35 -254h67q90 0 127 46z" />
    <glyph glyph-name="uni01A5" unicode="&#x1a5;" horiz-adv-x="581" 
d="M502 490q42 -54 42 -153q0 -84 -28.5 -164.5t-91.5 -134t-161 -53.5q-50 0 -98 16l-28 -206l-128 -15l105 748h-1l9 62q10 74 63 119.5t139 45.5q71 0 133 -32l-45 -84q-38 19 -82 19q-38 0 -57.5 -18.5t-25.5 -57.5l-7 -54l-6 -52q60 68 148 68q78 0 120 -54zM347 121
q35 40 51 99t16 119q0 109 -78 109q-32 0 -59.5 -18t-56.5 -52l-40 -283q40 -14 79 -14q53 0 88 40z" />
    <glyph glyph-name="uni01A6" unicode="&#x1a6;" horiz-adv-x="603" 
d="M406 180l134 -298h-142l-116 277h-86l-22 -159h-131l97 691h131l-17 -118h72q245 0 245 -173q0 -161 -165 -220zM210 254h84q76 0 108.5 41t32.5 98q0 45 -29 64.5t-92 19.5h-73z" />
    <glyph glyph-name="uni01A7" unicode="&#x1a7;" horiz-adv-x="543" 
d="M489 661.5q56 -44.5 56 -120.5q0 -90 -58.5 -141.5t-176.5 -87.5q-61 -18 -95 -37.5t-48 -44t-14 -60.5q0 -39 28 -60.5t76 -21.5q91 0 184 69l59 -79q-106 -93 -258 -93q-69 0 -119.5 23t-77.5 64.5t-27 94.5q0 94 57 151t173 92q61 18 95 34t50.5 38t16.5 56
q0 67 -86 67q-46 0 -86 -14.5t-82 -45.5l-56 78q54 42 112 62.5t128 20.5q93 0 149 -44.5z" />
    <glyph glyph-name="uni01A8" unicode="&#x1a8;" horiz-adv-x="466" 
d="M394 506q49 -38 49 -98q0 -57 -37.5 -102t-134.5 -73q-57 -16 -85 -31.5t-36.5 -30t-8.5 -34.5q0 -24 19.5 -39.5t55.5 -15.5q39 0 79.5 14.5t73.5 39.5l57 -78q-42 -34 -101.5 -53.5t-123.5 -19.5q-85 0 -140 41t-55 110q0 62 43.5 106t151.5 76q70 20 91.5 40t21.5 45
q0 22 -17 34t-48 12q-66 0 -133 -45l-47 77q42 31 91.5 47t102.5 16q82 0 131 -38z" />
    <glyph glyph-name="uni01A9" unicode="&#x1a9;" horiz-adv-x="497" 
d="M527 691l-14 -100h-295l151 -223l-8 -64l-208 -202h292l-15 -102h-437l14 100l237 241l-167 250l13 100h437z" />
    <glyph glyph-name="uni01AA" unicode="&#x1aa;" horiz-adv-x="358" 
d="M395 -179q-59 -39 -133 -39q-73 0 -114 37t-41 107q0 9 2 33l6 41l64 458q-30 -14 -61 -14q-51 0 -86.5 36.5t-35.5 94.5q0 53 24 94t65.5 63.5t91.5 22.5q69 0 108 -37t39 -107q0 -18 -3 -39l-80 -572l-7 -57q-1 -6 -1 -17q0 -25 12 -36t36 -11q22 0 38 4.5t38 15.5z
M191 543l8 58q2 18 2 23q0 20 -7.5 29t-24.5 9q-28 0 -43.5 -24t-14.5 -59q0 -42 40 -42q19 0 40 6z" />
    <glyph glyph-name="uni01AB" unicode="&#x1ab;" horiz-adv-x="367" 
d="M196 154q-2 -18 -2 -23q0 -24 11 -35t35 -11q30 0 68 15l33 -77l-10 -68q-13 -86 -63.5 -129t-129.5 -43q-76 0 -126 42l53 75q18 -11 35 -16t41 -5q31 0 51 17t25 52l5 38q-6 -1 -18 -1q-67 1 -101.5 35t-34.5 99q0 20 3 41l39 277h-82l13 92h87l33 120l106 12l-18 -132
h121l-26 -92h-108z" />
    <glyph glyph-name="uni01AC" unicode="&#x1ac;" horiz-adv-x="569" 
d="M596 586h-178l-82 -586h-131l82 586h-76q-28 0 -42 -15.5t-14 -42.5q0 -21 9 -49l-92 -37q-25 48 -25 93q0 71 46.5 113.5t124.5 42.5h407z" />
    <glyph glyph-name="uni01AD" unicode="&#x1ad;" horiz-adv-x="367" 
d="M280 643.5q-18 -17.5 -23 -51.5l-9 -63h122l-26 -92h-109l-38 -278q-2 -18 -2 -25q0 -24 10 -34.5t33 -10.5q31 0 67 20l36 -86q-61 -38 -134 -38q-69 1 -104 35t-35 100q0 19 3 40l38 277h-81l13 92h81l8 57q11 80 60 124.5t126 44.5q67 0 119 -40l-50 -74
q-16 10 -30 15t-31 5q-26 0 -44 -17.5z" />
    <glyph glyph-name="uni01AE" unicode="&#x1ae;" horiz-adv-x="522" 
d="M281 -54q-1 -6 -1 -17q0 -47 46 -47q22 0 37.5 5t36.5 16l37 -82q-58 -39 -131 -39t-114.5 36.5t-41.5 105.5q0 23 2 35l6 41l82 586h-184l15 105h507l-29 -105h-178l-82 -586z" />
    <glyph glyph-name="Uhorn" unicode="&#x1af;" horiz-adv-x="690" 
d="M733 609q-39 -37 -112 -40l-48 -345q-15 -108 -90.5 -173.5t-195.5 -65.5q-110 0 -167.5 53.5t-57.5 145.5q0 22 3 44l65 463h131l-65 -461q-3 -22 -3 -41q0 -51 25 -76t77 -25q65 0 101 37t47 110l64 456h131l-7 -52q49 11 49 75q0 23 -5 46l88 11q9 -25 9 -57
q0 -68 -39 -105z" />
    <glyph glyph-name="uhorn" unicode="&#x1b0;" horiz-adv-x="623" 
d="M624 445q-39 -37 -111 -40l-57 -405h-109l5 87q-37 -49 -79 -75.5t-92 -26.5q-62 0 -95.5 34.5t-33.5 95.5q0 18 3 37l53 377h126l-51 -361q-2 -20 -2 -28q0 -29 11.5 -41t34.5 -12q35 0 66.5 28t62.5 74l48 340h126l-8 -55q49 13 49 75q0 28 -6 49l89 11q9 -31 9 -60
q0 -67 -39 -104z" />
    <glyph glyph-name="uni01B1" unicode="&#x1b1;" horiz-adv-x="683" 
d="M166 18q-59 33 -90 93t-31 138q0 222 178 344h-112l13 98h218l-13 -98q-75 -65 -111 -153.5t-36 -192.5q0 -79 33.5 -120t98.5 -41q68 0 113.5 42.5t67.5 112.5t22 151q0 71 -16.5 118t-50.5 87l12 94h217l-14 -101h-108q44 -36 69 -87t25 -127q0 -110 -43 -199
t-121.5 -140.5t-180.5 -51.5q-81 0 -140 33z" />
    <glyph glyph-name="uni01B2" unicode="&#x1b2;" horiz-adv-x="636" 
d="M589 676q32 -30 32 -89q0 -16 -3 -36l-35 -257q-21 -147 -104 -228t-209 -81q-99 0 -154.5 53.5t-55.5 139.5q0 18 3 37l67 476h131l-67 -478q-2 -11 -2 -32q0 -93 87 -93q68 0 113 53t60 159l36 266q1 5 1 13q0 27 -24 27q-16 0 -33 -6l-17 89q39 17 84 17q58 0 90 -30z
" />
    <glyph glyph-name="uni01B3" unicode="&#x1b3;" horiz-adv-x="602" 
d="M217 261l-159 430h140l99 -321l121 214q36 69 73 95.5t97 26.5q67 0 113 -41l-49 -74q-25 18 -53 18q-22 0 -37 -12t-35 -44l-178 -291l-38 -262h-131z" />
    <glyph glyph-name="uni01B4" unicode="&#x1b4;" horiz-adv-x="505" 
d="M-13 -125q78 12 117.5 39t71.5 86h-45l-92 529h132l52 -442l138 371q24 65 56.5 92.5t89.5 27.5q39 0 75 -17l-34 -84q-15 5 -29 5q-18 0 -29 -10t-21 -35l-168 -422q-43 -111 -118 -167t-192 -66z" />
    <glyph glyph-name="uni01B5" unicode="&#x1b5;" horiz-adv-x="526" 
d="M549 691l-14 -102l-159 -197h83l-15 -90h-141l-157 -194h324l-29 -108h-456l14 101l164 201h-89l15 90h147l158 194h-293l14 105h434z" />
    <glyph glyph-name="uni01B6" unicode="&#x1b6;" horiz-adv-x="441" 
d="M451 529l-12 -89l-115 -130h70l-13 -83h-130l-115 -130h259l-26 -97h-390l12 89l122 138h-73l13 83h134l108 122h-234l14 97h376z" />
    <glyph glyph-name="uni01B7" unicode="&#x1b7;" horiz-adv-x="529" 
d="M511 593l-216 -193q95 -3 144 -46.5t49 -122.5q0 -75 -37.5 -130.5t-102.5 -85.5t-146 -30q-77 0 -129.5 25t-87.5 74l77 66q29 -34 61 -48.5t78 -14.5q68 0 110 38t42 102q0 49 -30 69.5t-93 20.5h-95l1 1l11 80l211 193h-267l14 100h419z" />
    <glyph glyph-name="uni01B8" unicode="&#x1b8;" horiz-adv-x="531" 
d="M530 591h-277l165 -194l-10 -80l-2 1l1 -1h-91q-73 0 -115 -36.5t-42 -99.5q0 -45 27 -69.5t78 -24.5t89.5 15.5t77.5 49.5l64 -72q-49 -47 -108 -71t-137 -24q-106 0 -166.5 52.5t-60.5 139.5q0 67 33 117.5t91.5 78t132.5 27.5l-169 193l13 98h420z" />
    <glyph glyph-name="uni01B9" unicode="&#x1b9;" horiz-adv-x="492" 
d="M486 430h-276l160 -223l-10 -79l-2 1l1 -1h-83q-77 0 -118 -37.5t-41 -105.5q0 -52 27.5 -77.5t78.5 -25.5q45 0 82 15t79 49l60 -69q-47 -47 -104.5 -71t-130.5 -24q-105 0 -165 54t-60 144q0 67 32 118.5t90.5 80.5t134.5 31h5l-169 228l12 91h410z" />
    <glyph glyph-name="uni01BA" unicode="&#x1ba;" horiz-adv-x="486" 
d="M14 -159.5q-34 34.5 -34 75.5q0 60 47 91t141 49q81 15 113.5 33t32.5 58q0 26 -17.5 37.5t-54.5 11.5h-141l10 77l193 161h-256l13 95h407l-11 -87l-206 -166h35q75 0 117 -33t42 -93q0 -79 -57 -121.5t-162 -62.5q-53 -10 -80 -18t-37 -17t-10 -21q0 -16 12.5 -28
t38.5 -27l-43 -73q-59 24 -93 58.5z" />
    <glyph glyph-name="uni01BB" unicode="&#x1bb;" horiz-adv-x="499" 
d="M465 427q-16 -41 -57 -92h72l-13 -89h-144q-58 -56 -169 -147l283 2l-28 -101h-413l12 96l15 14l149 136h-93l13 89h170q52 56 70 92t18 75q0 40 -23 61t-61 21q-39 0 -71 -17t-68 -55l-73 68q50 53 106 79t123 26q93 0 145.5 -48.5t52.5 -125.5q0 -43 -16 -84z" />
    <glyph glyph-name="uni01BC" unicode="&#x1bc;" horiz-adv-x="520" 
d="M-7 81l79 65q47 -62 128 -62q54 0 88 27.5t48.5 68t14.5 82.5q0 92 -87 92q-26 0 -47.5 -5.5t-50.5 -18.5l-94 1l51 360h393l-29 -94h-256l-25 -176q51 25 109 25q75 0 120.5 -48t45.5 -133q0 -66 -28.5 -130t-92.5 -107t-164 -43q-128 0 -203 96z" />
    <glyph glyph-name="uni01BD" unicode="&#x1bd;" horiz-adv-x="461" 
d="M401 432h-200l-16 -103q40 18 87 18q64 0 104 -39t41 -108q0 -63 -31.5 -112t-86.5 -76t-123 -27q-63 0 -104 19.5t-77 58.5l73 68q28 -24 52 -34.5t60 -10.5q46 0 77 29t31 79q0 30 -17 45.5t-45 15.5q-39 0 -82 -18l-86 1l41 291h335z" />
    <glyph glyph-name="uni01BE" unicode="&#x1be;" horiz-adv-x="504" 
d="M418 371.5q38 -43.5 38 -120.5q0 -76 -34 -136.5t-95 -94.5t-138 -34q-63 0 -112 23t-89 67l71 64q30 -30 59 -43.5t66 -13.5q67 0 104.5 46.5t37.5 120.5q0 54 -24.5 83.5t-76.5 43.5l-61 13l21 147h-73l11 82h73l17 121l126 13l-19 -134h107l-12 -82h-106l-14 -98
l26 -8q59 -16 97 -59.5z" />
    <glyph glyph-name="uni01BF" unicode="&#x1bf;" horiz-adv-x="585" 
d="M512 500q43 -44 43 -121q0 -88 -41 -152.5t-108.5 -111t-168.5 -94.5l-74 -34l-27 -191l-128 -14l105 747h110l-1 -66q38 40 80.5 60.5t94.5 20.5q72 0 115 -44zM371 227.5q51 62.5 51 146.5q0 74 -68 74q-70 0 -136 -68l-42 -296l51 29q93 52 144 114.5z" />
    <glyph glyph-name="uni01C0" unicode="&#x1c0;" horiz-adv-x="272" 
d="M261 753l-107 -753h-111l104 741z" />
    <glyph glyph-name="uni01C1" unicode="&#x1c1;" horiz-adv-x="461" 
d="M261 753l-107 -753h-111l104 741zM450 753l-107 -753h-111l104 741z" />
    <glyph glyph-name="uni01C2" unicode="&#x1c2;" horiz-adv-x="323" 
d="M330 402h-94l-10 -72h94l-11 -77h-94l-36 -253h-111l36 253h-95l11 77h94l10 72h-93l11 77h93l37 262l114 12l-39 -274h94z" />
    <glyph glyph-name="uni01C3" unicode="&#x1c3;" horiz-adv-x="319" 
d="M283 753l-75 -529h-111l72 517zM72.5 6q-20.5 21 -20.5 52q0 37 25.5 63t62.5 26q32 0 52 -20.5t20 -51.5q0 -37 -25.5 -63.5t-62.5 -26.5q-31 0 -51.5 21z" />
    <glyph glyph-name="uni01C4" unicode="&#x1c4;" horiz-adv-x="1142" 
d="M531 634q84 -57 84 -205q0 -119 -38.5 -215.5t-124 -155t-221.5 -58.5h-188l97 691h167q140 0 224 -57zM257 592l-69 -493h62q84 0 136 49t73.5 124t21.5 158q0 95 -43 128.5t-120 33.5h-61zM601 0l14 101l386 485h-284l14 105h434l-14 -102l-383 -481h318l-29 -108h-456
zM1104 928l42 -56l-152 -120h-79l-121 120l54 56l116 -83z" />
    <glyph glyph-name="uni01C5" unicode="&#x1c5;" horiz-adv-x="1072" 
d="M531 634q84 -57 84 -205q0 -119 -38.5 -215.5t-124 -155t-221.5 -58.5h-188l97 691h167q140 0 224 -57zM257 592l-69 -493h62q84 0 136 49t73.5 124t21.5 158q0 95 -43 128.5t-120 33.5h-61zM1083 529l-12 -92l-290 -337h246l-26 -100h-390l12 92l290 337h-220l14 100
h376zM1055 800l43 -56l-154 -125h-79l-120 125l52 56l115 -88z" />
    <glyph glyph-name="uni01C6" unicode="&#x1c6;" horiz-adv-x="1027" 
d="M577 740l-104 -740h-111l1 81q-63 -96 -159 -96q-81 0 -124 56.5t-43 155.5q0 78 26.5 158t83 134.5t141.5 54.5q78 0 127 -58l38 267zM229.5 407q-32.5 -41 -46.5 -99.5t-14 -114.5q0 -111 72 -111q38 0 69 28t64 80l29 208q-18 25 -39.5 37.5t-49.5 12.5
q-52 0 -84.5 -41zM1038 529l-12 -92l-290 -337h246l-26 -100h-390l12 92l290 337h-220l14 100h376zM1010 800l43 -56l-154 -125h-79l-120 125l52 56l115 -88z" />
    <glyph glyph-name="uni01C7" unicode="&#x1c7;" horiz-adv-x="784" 
d="M271 691l-82 -583h272l-29 -108h-389l97 691h131zM684 99q-15 -111 -74 -167t-160 -87l-25 96q46 17 72 39t38.5 52t18.5 76l83 583h130z" />
    <glyph glyph-name="uni01C8" unicode="&#x1c8;" horiz-adv-x="761" 
d="M271 691l-82 -583h272l-29 -108h-389l97 691h131zM397 -126q41 18 66.5 36.5t41.5 49.5t23 82l69 487h126l-68 -484q-11 -78 -40 -127.5t-72.5 -79t-112.5 -56.5zM628 661.5q-20 19.5 -20 49.5q0 37 25 61.5t62 24.5q32 0 52 -19.5t20 -50.5q0 -36 -25 -60.5t-62 -24.5
q-32 0 -52 19.5z" />
    <glyph glyph-name="uni01C9" unicode="&#x1c9;" horiz-adv-x="565" 
d="M177 125l-1 -11q0 -14 6 -20t18 -6q10 0 30 6l19 -90q-41 -19 -88 -19q-53 0 -82 28.5t-29 83.5q0 21 2 33l86 611l128 14zM201 -126q41 18 66.5 36.5t41.5 49.5t23 82l69 487h126l-68 -484q-11 -78 -40 -127.5t-72.5 -79t-112.5 -56.5zM432 661.5q-20 19.5 -20 49.5
q0 37 25 61.5t62 24.5q32 0 52 -19.5t20 -50.5q0 -36 -25 -60.5t-62 -24.5q-32 0 -52 19.5z" />
    <glyph glyph-name="uni01CA" unicode="&#x1ca;" horiz-adv-x="970" 
d="M547 0h-167l-159 580q1 -72 -3.5 -142t-17.5 -162l-38 -276h-119l97 691h167l161 -580q-1 24 -1 69q0 94 13 193l46 318h118zM870 99q-15 -111 -74 -167t-160 -87l-25 96q46 17 72 39t38.5 52t18.5 76l83 583h130z" />
    <glyph glyph-name="uni01CB" unicode="&#x1cb;" horiz-adv-x="941" 
d="M547 0h-167l-159 580q1 -72 -3.5 -142t-17.5 -162l-38 -276h-119l97 691h167l161 -580q-1 24 -1 69q0 94 13 193l46 318h118zM577 -126q41 18 66.5 36.5t41.5 49.5t23 82l69 487h126l-68 -484q-11 -78 -40 -127.5t-72.5 -79t-112.5 -56.5zM808 661.5q-20 19.5 -20 49.5
q0 37 25 61.5t62 24.5q32 0 52 -19.5t20 -50.5q0 -36 -25 -60.5t-62 -24.5q-32 0 -52 19.5z" />
    <glyph glyph-name="uni01CC" unicode="&#x1cc;" horiz-adv-x="850" 
d="M488.5 509.5q32.5 -34.5 32.5 -95.5q0 -16 -3 -36l-53 -378h-126l51 359q2 18 2 25q0 30 -12 42.5t-33 12.5q-68 0 -139 -136l-43 -303h-126l74 529h109l-5 -98q78 113 182 113q57 0 89.5 -34.5zM486 -126q41 18 66.5 36.5t41.5 49.5t23 82l69 487h126l-68 -484
q-11 -78 -40 -127.5t-72.5 -79t-112.5 -56.5zM717 661.5q-20 19.5 -20 49.5q0 37 25 61.5t62 24.5q32 0 52 -19.5t20 -50.5q0 -36 -25 -60.5t-62 -24.5q-32 0 -52 19.5z" />
    <glyph glyph-name="uni01CD" unicode="&#x1cd;" horiz-adv-x="574" 
d="M405 0l-20 160h-228l-64 -160h-136l310 691h160l115 -691h-137zM197 260h176l-41 335zM505 928l42 -56l-152 -120h-79l-121 120l54 56l116 -83z" />
    <glyph glyph-name="uni01CE" unicode="&#x1ce;" horiz-adv-x="571" 
d="M533 493l-51 -355q-2 -18 -2 -23q0 -17 6.5 -27t23.5 -17l-36 -84q-93 10 -109 88q-66 -90 -158 -90q-81 0 -125.5 56t-44.5 151q0 82 30.5 163t96.5 135t167 54q104 0 202 -51zM238 410.5q-36 -39.5 -52.5 -99t-16.5 -119.5q0 -110 73 -110q34 0 62 21.5t58 62.5l38 270
q-32 14 -71 14q-55 0 -91 -39.5zM501 800l43 -56l-154 -125h-79l-120 125l52 56l115 -88z" />
    <glyph glyph-name="uni01CF" unicode="&#x1cf;" horiz-adv-x="291" 
d="M271 691l-97 -691h-131l97 691h131zM363 928l42 -56l-152 -120h-79l-121 120l54 56l116 -83z" />
    <glyph glyph-name="uni01D0" unicode="&#x1d0;" horiz-adv-x="278" 
d="M239 529l-74 -529h-126l74 529h126zM336 800l43 -56l-154 -125h-79l-120 125l52 56l115 -88z" />
    <glyph glyph-name="uni01D1" unicode="&#x1d1;" horiz-adv-x="683" 
d="M590 632.5q68 -73.5 68 -208.5q0 -103 -35 -203.5t-114 -168t-203 -67.5q-121 0 -189 73.5t-68 207.5q0 102 35 202.5t114 169t203 68.5q121 0 189 -73.5zM269 548.5q-47 -56.5 -66 -136t-19 -154.5q0 -172 129 -172q78 0 124.5 56.5t65.5 136t19 155.5q0 89 -32.5 130
t-96.5 41q-77 0 -124 -56.5zM562 928l42 -56l-152 -120h-79l-121 120l54 56l116 -83z" />
    <glyph glyph-name="uni01D2" unicode="&#x1d2;" horiz-adv-x="576" 
d="M94.5 44q-55.5 59 -55.5 164q0 78 28.5 155t92.5 129t164 52q102 0 157.5 -59.5t55.5 -162.5q0 -78 -28 -155t-92 -129.5t-165 -52.5q-102 0 -157.5 59zM347 123.5q33 41.5 46 99.5t13 113q0 111 -89 111q-55 0 -88 -40.5t-46.5 -97.5t-13.5 -111q0 -116 90 -116
q55 0 88 41.5zM482 800l43 -56l-154 -125h-79l-120 125l52 56l115 -88z" />
    <glyph glyph-name="uni01D3" unicode="&#x1d3;" horiz-adv-x="648" 
d="M573 224q-15 -108 -90.5 -173.5t-195.5 -65.5q-110 0 -167.5 53.5t-57.5 145.5q0 22 3 44l65 463h131l-65 -461q-3 -22 -3 -41q0 -51 25 -76t77 -25q65 0 101 37t47 110l64 456h131zM542 928l42 -56l-152 -120h-79l-121 120l54 56l116 -83z" />
    <glyph glyph-name="uni01D4" unicode="&#x1d4;" horiz-adv-x="569" 
d="M85.5 19.5q-33.5 34.5 -33.5 95.5q0 18 3 37l53 377h126l-51 -361q-2 -20 -2 -28q0 -29 11.5 -41t34.5 -12q35 0 66.5 28t62.5 74l48 340h126l-74 -529h-109l5 87q-37 -49 -79 -75.5t-92 -26.5q-62 0 -95.5 34.5zM479 800l43 -56l-154 -125h-79l-120 125l52 56l115 -88z
" />
    <glyph glyph-name="uni01D5" unicode="&#x1d5;" horiz-adv-x="648" 
d="M573 224q-15 -108 -90.5 -173.5t-195.5 -65.5q-110 0 -167.5 53.5t-57.5 145.5q0 22 3 44l65 463h131l-65 -461q-3 -22 -3 -41q0 -51 25 -76t77 -25q65 0 101 37t47 110l64 456h131zM233 763.5q-18 17.5 -18 43.5q0 33 22.5 54.5t55.5 21.5q28 0 46 -17.5t18 -43.5
q0 -33 -22.5 -54.5t-55.5 -21.5q-28 0 -46 17.5zM452 763.5q-18 17.5 -18 43.5q0 33 22.5 54.5t55.5 21.5q28 0 46 -17.5t18 -43.5q0 -33 -22.5 -54.5t-55.5 -21.5q-28 0 -46 17.5zM551 924h-287l12 91h288z" />
    <glyph glyph-name="uni01D6" unicode="&#x1d6;" horiz-adv-x="569" 
d="M85.5 19.5q-33.5 34.5 -33.5 95.5q0 18 3 37l53 377h126l-51 -361q-2 -20 -2 -28q0 -29 11.5 -41t34.5 -12q35 0 66.5 28t62.5 74l48 340h126l-74 -529h-109l5 87q-37 -49 -79 -75.5t-92 -26.5q-62 0 -95.5 34.5zM177 629.5q-18 17.5 -18 43.5q0 33 22.5 54.5t55.5 21.5
q28 0 46 -17.5t18 -43.5q0 -33 -22.5 -54.5t-55.5 -21.5q-28 0 -46 17.5zM396 629.5q-18 17.5 -18 43.5q0 33 22.5 54.5t55.5 21.5q28 0 46 -17.5t18 -43.5q0 -33 -22.5 -54.5t-55.5 -21.5q-28 0 -46 17.5zM495 797h-287l12 91h288z" />
    <glyph glyph-name="uni01D7" unicode="&#x1d7;" horiz-adv-x="648" 
d="M573 224q-15 -108 -90.5 -173.5t-195.5 -65.5q-110 0 -167.5 53.5t-57.5 145.5q0 22 3 44l65 463h131l-65 -461q-3 -22 -3 -41q0 -51 25 -76t77 -25q65 0 101 37t47 110l64 456h131zM503 1060l65 -70l-163 -134l-46 45zM234 765.5q-18 17.5 -18 43.5q0 33 22.5 54.5
t55.5 21.5q28 0 46 -17.5t18 -43.5q0 -33 -22.5 -54.5t-55.5 -21.5q-28 0 -46 17.5zM460 765.5q-18 17.5 -18 43.5q0 33 22.5 54.5t55.5 21.5q28 0 46 -17.5t18 -43.5q0 -33 -22.5 -54.5t-55.5 -21.5q-28 0 -46 17.5z" />
    <glyph glyph-name="uni01D8" unicode="&#x1d8;" horiz-adv-x="569" 
d="M85.5 19.5q-33.5 34.5 -33.5 95.5q0 18 3 37l53 377h126l-51 -361q-2 -20 -2 -28q0 -29 11.5 -41t34.5 -12q35 0 66.5 28t62.5 74l48 340h126l-74 -529h-109l5 87q-37 -49 -79 -75.5t-92 -26.5q-62 0 -95.5 34.5zM436 924l65 -70l-163 -134l-46 45zM167.5 629.5
q-17.5 17.5 -17.5 44.5q0 32 22 54t56 22q28 0 45.5 -17.5t17.5 -44.5q0 -32 -22 -54t-55 -22q-29 0 -46.5 17.5zM394 629.5q-18 17.5 -18 44.5q0 32 22.5 54t55.5 22q28 0 46 -17.5t18 -44.5q0 -32 -22.5 -54t-55.5 -22q-28 0 -46 17.5z" />
    <glyph glyph-name="uni01D9" unicode="&#x1d9;" horiz-adv-x="648" 
d="M573 224q-15 -108 -90.5 -173.5t-195.5 -65.5q-110 0 -167.5 53.5t-57.5 145.5q0 22 3 44l65 463h131l-65 -461q-3 -22 -3 -41q0 -51 25 -76t77 -25q65 0 101 37t47 110l64 456h131zM553 1064l42 -56l-152 -120h-79l-121 120l54 56l116 -83zM233 765.5q-18 17.5 -18 43.5
q0 33 22.5 54.5t55.5 21.5q28 0 46 -17.5t18 -43.5q0 -33 -22.5 -54.5t-55.5 -21.5q-28 0 -46 17.5zM458.5 765q-17.5 17 -17.5 44q0 33 22 54.5t56 21.5q28 0 45.5 -17t17.5 -44q0 -33 -22 -54.5t-55 -21.5q-29 0 -46.5 17z" />
    <glyph glyph-name="uni01DA" unicode="&#x1da;" horiz-adv-x="569" 
d="M85.5 19.5q-33.5 34.5 -33.5 95.5q0 18 3 37l53 377h126l-51 -361q-2 -20 -2 -28q0 -29 11.5 -41t34.5 -12q35 0 66.5 28t62.5 74l48 340h126l-74 -529h-109l5 87q-37 -49 -79 -75.5t-92 -26.5q-62 0 -95.5 34.5zM486 928l42 -56l-152 -120h-79l-121 120l54 56l116 -83z
M165 629.5q-18 17.5 -18 44.5q0 32 22.5 54t55.5 22q28 0 46 -17.5t18 -44.5q0 -32 -22.5 -54t-55.5 -22q-28 0 -46 17.5zM391.5 629.5q-17.5 17.5 -17.5 44.5q0 32 22 54t56 22q28 0 45.5 -17.5t17.5 -44.5q0 -32 -22 -54t-56 -22q-28 0 -45.5 17.5z" />
    <glyph glyph-name="uni01DB" unicode="&#x1db;" horiz-adv-x="648" 
d="M573 224q-15 -108 -90.5 -173.5t-195.5 -65.5q-110 0 -167.5 53.5t-57.5 145.5q0 22 3 44l65 463h131l-65 -461q-3 -22 -3 -41q0 -51 25 -76t77 -25q65 0 101 37t47 110l64 456h131zM351 1058l102 -161l-52 -41l-128 137zM232 765.5q-18 17.5 -18 43.5q0 33 22.5 54.5
t55.5 21.5q28 0 46 -17.5t18 -43.5q0 -33 -22.5 -54.5t-55.5 -21.5q-28 0 -46 17.5zM458 765.5q-18 17.5 -18 43.5q0 33 22.5 54.5t55.5 21.5q28 0 46 -17.5t18 -43.5q0 -33 -22.5 -54.5t-55.5 -21.5q-28 0 -46 17.5z" />
    <glyph glyph-name="uni01DC" unicode="&#x1dc;" horiz-adv-x="569" 
d="M85.5 19.5q-33.5 34.5 -33.5 95.5q0 18 3 37l53 377h126l-51 -361q-2 -20 -2 -28q0 -29 11.5 -41t34.5 -12q35 0 66.5 28t62.5 74l48 340h126l-74 -529h-109l5 87q-37 -49 -79 -75.5t-92 -26.5q-62 0 -95.5 34.5zM287 922l102 -161l-52 -41l-128 137zM170.5 629.5
q-17.5 17.5 -17.5 44.5q0 32 22 54t56 22q28 0 45.5 -17.5t17.5 -44.5q0 -32 -22 -54t-55 -22q-29 0 -46.5 17.5zM397 629.5q-18 17.5 -18 44.5q0 32 22.5 54t55.5 22q28 0 46 -17.5t18 -44.5q0 -32 -22.5 -54t-55.5 -22q-28 0 -46 17.5z" />
    <glyph glyph-name="uni01DD" unicode="&#x1dd;" horiz-adv-x="525" 
d="M431 485.5q56 -58.5 56 -161.5q0 -80 -29.5 -157.5t-94 -129.5t-164.5 -52q-58 0 -99.5 19t-62.5 51t-21 70q0 102 93 148t249 62q-4 110 -103 110q-36 0 -69 -11.5t-69 -37.5l-49 80q96 68 201 68q106 0 162 -58.5zM304.5 126q35.5 50 47.5 124q-106 -10 -156 -39.5
t-50 -80.5q0 -21 14 -37.5t46 -16.5q63 0 98.5 50z" />
    <glyph glyph-name="uni01DE" unicode="&#x1de;" horiz-adv-x="574" 
d="M405 0l-20 160h-228l-64 -160h-136l310 691h160l115 -691h-137zM197 260h176l-41 335zM196 763.5q-18 17.5 -18 43.5q0 33 22.5 54.5t55.5 21.5q28 0 46 -17.5t18 -43.5q0 -33 -22.5 -54.5t-55.5 -21.5q-28 0 -46 17.5zM415 763.5q-18 17.5 -18 43.5q0 33 22.5 54.5
t55.5 21.5q28 0 46 -17.5t18 -43.5q0 -33 -22.5 -54.5t-55.5 -21.5q-28 0 -46 17.5zM514 924h-287l12 91h288z" />
    <glyph glyph-name="uni01DF" unicode="&#x1df;" horiz-adv-x="571" 
d="M533 493l-51 -355q-2 -18 -2 -23q0 -17 6.5 -27t23.5 -17l-36 -84q-93 10 -109 88q-66 -90 -158 -90q-81 0 -125.5 56t-44.5 151q0 82 30.5 163t96.5 135t167 54q104 0 202 -51zM238 410.5q-36 -39.5 -52.5 -99t-16.5 -119.5q0 -110 73 -110q34 0 62 21.5t58 62.5l38 270
q-32 14 -71 14q-55 0 -91 -39.5zM199 629.5q-18 17.5 -18 43.5q0 33 22.5 54.5t55.5 21.5q28 0 46 -17.5t18 -43.5q0 -33 -22.5 -54.5t-55.5 -21.5q-28 0 -46 17.5zM418 629.5q-18 17.5 -18 43.5q0 33 22.5 54.5t55.5 21.5q28 0 46 -17.5t18 -43.5q0 -33 -22.5 -54.5
t-55.5 -21.5q-28 0 -46 17.5zM517 797h-287l12 91h288z" />
    <glyph glyph-name="uni01E0" unicode="&#x1e0;" horiz-adv-x="574" 
d="M405 0l-20 160h-228l-64 -160h-136l310 691h160l115 -691h-137zM197 260h176l-41 335zM301 757.5q-20 19.5 -20 49.5q0 37 25 61.5t62 24.5q33 0 52.5 -19.5t19.5 -50.5q0 -36 -25 -60.5t-62 -24.5q-32 0 -52 19.5zM519 925h-287l12 91h288z" />
    <glyph glyph-name="uni01E1" unicode="&#x1e1;" horiz-adv-x="571" 
d="M533 493l-51 -355q-2 -18 -2 -23q0 -17 6.5 -27t23.5 -17l-36 -84q-93 10 -109 88q-66 -90 -158 -90q-81 0 -125.5 56t-44.5 151q0 82 30.5 163t96.5 135t167 54q104 0 202 -51zM238 410.5q-36 -39.5 -52.5 -99t-16.5 -119.5q0 -110 73 -110q34 0 62 21.5t58 62.5l38 270
q-32 14 -71 14q-55 0 -91 -39.5zM301 618.5q-20 19.5 -20 49.5q0 37 25 61.5t62 24.5q32 0 52 -19.5t20 -50.5q0 -36 -25 -60.5t-62 -24.5q-32 0 -52 19.5zM519 788h-287l12 91h288z" />
    <glyph glyph-name="uni01E2" unicode="&#x1e2;" horiz-adv-x="821" 
d="M774 593h-286l17 -194h246l-13 -98h-225l18 -202h226l-14 -99h-329l-11 160h-239l-78 -160h-140l361 691h495zM213 260h184l-22 331zM692 787h-287l12 91h288z" />
    <glyph glyph-name="uni01E3" unicode="&#x1e3;" horiz-adv-x="826" 
d="M387 524q38 -20 59 -57q30 35 77 56t103 21q58 0 99.5 -19t62.5 -51t21 -70q0 -102 -93 -147t-251 -60q1 -61 29 -87t77 -26q35 0 68 11.5t70 37.5l48 -80q-95 -68 -201 -68q-65 0 -111.5 23.5t-72.5 67.5q-42 -49 -89 -70t-105 -21q-74 0 -117.5 39t-43.5 103
q0 81 62.5 134.5t204.5 53.5h69q7 32 19 64q-4 31 -32 49t-72 18q-34 0 -66.5 -6t-74.5 -19l-21 88q94 35 181 35q62 0 100 -20zM519 403.5q-36 -49.5 -48 -122.5q107 10 158 38.5t51 78.5q0 22 -14.5 38.5t-47.5 16.5q-63 0 -99 -49.5zM290 237q-68 0 -102.5 -24t-34.5 -76
q0 -59 62 -59q36 0 66.5 19t62.5 58q-2 11 -2.5 37t0.5 45h-52zM618 661h-287l12 91h288z" />
    <glyph glyph-name="uni01E4" unicode="&#x1e4;" horiz-adv-x="654" 
d="M635 173h-69l-16 -118q-112 -70 -245 -70q-124 0 -190.5 70t-66.5 204q0 109 38.5 211.5t120.5 169t205 66.5q129 0 211 -84l-78 -69q-32 28 -62.5 40.5t-71.5 12.5q-80 0 -131 -54.5t-74 -137t-23 -168.5q0 -84 33 -122t100 -38q63 0 116 28l8 59h-104l12 87h104l7 50
h-106v89h244l-19 -139h69z" />
    <glyph glyph-name="uni01E5" unicode="&#x1e5;" horiz-adv-x="541" 
d="M465 -12h64l-8 -63h-75q-31 -76 -89.5 -110.5t-145.5 -34.5q-50 0 -100.5 15t-92.5 40l43 84q75 -42 149 -42q40 0 66.5 10.5t43.5 37.5h-119l8 63h134l2 14l13 89q-29 -34 -67 -54t-79 -20q-83 0 -128 55t-45 145q0 77 31 152t98 125t168 50q106 0 205 -51l-69 -465
q-4 -25 -7 -40zM371 199l37 237q-19 8 -35 11t-38 3q-55 0 -92 -35t-54.5 -87.5t-17.5 -107.5q0 -54 20 -80t55 -26q64 0 125 85z" />
    <glyph glyph-name="Gcaron" unicode="&#x1e6;" horiz-adv-x="630" 
d="M623 622l-76 -67q-34 27 -64.5 39t-71.5 12q-80 0 -131 -54.5t-74 -137t-23 -168.5q0 -84 33 -122t100 -38q59 0 112 28l26 179h-102v98h244l-46 -336q-112 -70 -245 -70q-124 0 -190.5 70t-66.5 204q0 109 38.5 211.5t120.5 169t205 66.5q129 0 211 -84zM569 928l42 -56
l-152 -120h-79l-121 120l54 56l116 -83z" />
    <glyph glyph-name="gcaron" unicode="&#x1e7;" horiz-adv-x="578" 
d="M539 493l-69 -465q-19 -132 -83.5 -190t-178.5 -58q-47 0 -98.5 15t-92.5 40l44 89q33 -19 70.5 -30.5t73.5 -11.5q56 0 93 27.5t48 106.5l8 58q-29 -34 -66 -54t-79 -20q-81 0 -126 55t-45 147q0 83 31 161t98 129.5t169 51.5q107 0 203 -51zM241 413q-37 -37 -54 -93
t-17 -116q0 -56 20 -81.5t55 -25.5q34 0 63.5 22.5t58.5 62.5l40 254q-19 8 -35.5 11t-37.5 3q-56 0 -93 -37zM492 800l43 -56l-154 -125h-79l-120 125l52 56l115 -88z" />
    <glyph glyph-name="uni01E8" unicode="&#x1e8;" horiz-adv-x="605" 
d="M43 0l97 691h131l-97 -691h-131zM423 0l-192 369l279 322h144l-283 -322l204 -369h-152zM543 928l42 -56l-152 -120h-79l-121 120l54 56l116 -83z" />
    <glyph glyph-name="uni01E9" unicode="&#x1e9;" horiz-adv-x="557" 
d="M228 449q75 95 177 95q61 0 98.5 -34.5t37.5 -89.5q0 -63 -38 -110.5t-114 -74.5l107 -235h-139l-110 257q88 26 126 60.5t38 83.5q0 24 -13.5 37t-37.5 13q-38 0 -78.5 -32t-71.5 -96l-45 -323h-126l104 741l127 14zM522 978l42 -56l-152 -120h-79l-121 120l54 56
l116 -83z" />
    <glyph glyph-name="uni01EA" unicode="&#x1ea;" horiz-adv-x="683" 
d="M270 -119q0 -35 46 -35q25 0 62 8l-18 -86q-37 -7 -65 -7q-56 0 -90 27.5t-34 72.5q0 77 82 128q-97 15 -150.5 86.5t-53.5 190.5q0 102 35 202.5t114 169t203 68.5q121 0 189 -73.5t68 -208.5q0 -88 -25.5 -176t-83.5 -157t-148 -94q-131 -52 -131 -116zM313 86
q78 0 124.5 56.5t65.5 136t19 155.5q0 89 -32.5 130t-96.5 41q-77 0 -124 -56.5t-66 -136t-19 -154.5q0 -172 129 -172z" />
    <glyph glyph-name="uni01EB" unicode="&#x1eb;" horiz-adv-x="576" 
d="M207 -119q0 -35 46 -35q25 0 62 8l-18 -86q-37 -7 -65 -7q-56 0 -90 27.5t-34 72.5q0 77 85 130q-74 16 -114 72.5t-40 144.5q0 78 28.5 155t92.5 129t164 52q102 0 157.5 -59.5t55.5 -162.5q0 -65 -20 -131.5t-65.5 -119.5t-115.5 -74q-129 -53 -129 -116zM229 406.5
q-33 -40.5 -46.5 -97.5t-13.5 -111q0 -116 90 -116q55 0 88 41.5t46 99.5t13 113q0 111 -89 111q-55 0 -88 -40.5z" />
    <glyph glyph-name="uni01EC" unicode="&#x1ec;" horiz-adv-x="683" 
d="M575 878l-13 -91h-287l12 91h288zM270 -119q0 -35 46 -35q25 0 62 8l-18 -86q-37 -7 -65 -7q-56 0 -90 27.5t-34 72.5q0 77 82 128q-97 15 -150.5 86.5t-53.5 190.5q0 102 35 202.5t114 169t203 68.5q121 0 189 -73.5t68 -208.5q0 -88 -25.5 -176t-83.5 -157t-148 -94
q-131 -52 -131 -116zM313 86q78 0 124.5 56.5t65.5 136t19 155.5q0 89 -32.5 130t-96.5 41q-77 0 -124 -56.5t-66 -136t-19 -154.5q0 -172 129 -172z" />
    <glyph glyph-name="uni01ED" unicode="&#x1ed;" horiz-adv-x="576" 
d="M497 752l-13 -91h-287l12 91h288zM207 -119q0 -35 46 -35q25 0 62 8l-18 -86q-37 -7 -65 -7q-56 0 -90 27.5t-34 72.5q0 77 85 130q-74 16 -114 72.5t-40 144.5q0 78 28.5 155t92.5 129t164 52q102 0 157.5 -59.5t55.5 -162.5q0 -65 -20 -131.5t-65.5 -119.5t-115.5 -74
q-129 -53 -129 -116zM229 406.5q-33 -40.5 -46.5 -97.5t-13.5 -111q0 -116 90 -116q55 0 88 41.5t46 99.5t13 113q0 111 -89 111q-55 0 -88 -40.5z" />
    <glyph glyph-name="uni01EE" unicode="&#x1ee;" horiz-adv-x="529" 
d="M511 593l-216 -193q95 -3 144 -46.5t49 -122.5q0 -75 -37.5 -130.5t-102.5 -85.5t-146 -30q-77 0 -129.5 25t-87.5 74l77 66q29 -34 61 -48.5t78 -14.5q68 0 110 38t42 102q0 49 -30 69.5t-93 20.5h-95l1 1l11 80l211 193h-267l14 100h419zM473 928l42 -56l-152 -120h-79
l-121 120l54 56l116 -83z" />
    <glyph glyph-name="uni01EF" unicode="&#x1ef;" horiz-adv-x="489" 
d="M463 438l-225 -228q95 -4 144.5 -48.5t49.5 -123.5q0 -76 -36.5 -134t-101 -90t-145.5 -32q-72 0 -123 25.5t-87 73.5l76 64q33 -34 63.5 -48.5t72.5 -14.5q70 0 110 43t40 113q0 50 -29 70t-93 20h-88l1 1l11 80l213 221h-265l14 99h410zM430 800l43 -56l-154 -125h-79
l-120 125l52 56l115 -88z" />
    <glyph glyph-name="uni01F0" unicode="&#x1f0;" horiz-adv-x="277" 
d="M-87 -126q41 18 66.5 36.5t41.5 49.5t23 82l69 487h126l-68 -484q-11 -78 -40 -127.5t-72.5 -79t-112.5 -56.5zM336 800l43 -56l-154 -125h-79l-120 125l52 56l115 -88z" />
    <glyph glyph-name="uni01F1" unicode="&#x1f1;" horiz-adv-x="1142" 
d="M531 634q84 -57 84 -205q0 -119 -38.5 -215.5t-124 -155t-221.5 -58.5h-188l97 691h167q140 0 224 -57zM257 592l-69 -493h62q84 0 136 49t73.5 124t21.5 158q0 95 -43 128.5t-120 33.5h-61zM601 0l14 101l386 485h-284l14 105h434l-14 -102l-383 -481h318l-29 -108h-456
z" />
    <glyph glyph-name="uni01F2" unicode="&#x1f2;" horiz-adv-x="1072" 
d="M531 634q84 -57 84 -205q0 -119 -38.5 -215.5t-124 -155t-221.5 -58.5h-188l97 691h167q140 0 224 -57zM257 592l-69 -493h62q84 0 136 49t73.5 124t21.5 158q0 95 -43 128.5t-120 33.5h-61zM1083 529l-12 -92l-290 -337h246l-26 -100h-390l12 92l290 337h-220l14 100
h376z" />
    <glyph glyph-name="uni01F3" unicode="&#x1f3;" horiz-adv-x="1027" 
d="M577 740l-104 -740h-111l1 81q-63 -96 -159 -96q-81 0 -124 56.5t-43 155.5q0 78 26.5 158t83 134.5t141.5 54.5q78 0 127 -58l38 267zM229.5 407q-32.5 -41 -46.5 -99.5t-14 -114.5q0 -111 72 -111q38 0 69 28t64 80l29 208q-18 25 -39.5 37.5t-49.5 12.5
q-52 0 -84.5 -41zM1038 529l-12 -92l-290 -337h246l-26 -100h-390l12 92l290 337h-220l14 100h376z" />
    <glyph glyph-name="uni01F4" unicode="&#x1f4;" horiz-adv-x="630" 
d="M623 622l-76 -67q-34 27 -64.5 39t-71.5 12q-80 0 -131 -54.5t-74 -137t-23 -168.5q0 -84 33 -122t100 -38q59 0 112 28l26 179h-102v98h244l-46 -336q-112 -70 -245 -70q-124 0 -190.5 70t-66.5 204q0 109 38.5 211.5t120.5 169t205 66.5q129 0 211 -84zM525 931
l40 -100l-234 -80l-27 65z" />
    <glyph glyph-name="uni01F5" unicode="&#x1f5;" horiz-adv-x="578" 
d="M539 493l-69 -465q-19 -132 -83.5 -190t-178.5 -58q-47 0 -98.5 15t-92.5 40l44 89q33 -19 70.5 -30.5t73.5 -11.5q56 0 93 27.5t48 106.5l8 58q-29 -34 -66 -54t-79 -20q-81 0 -126 55t-45 147q0 83 31 161t98 129.5t169 51.5q107 0 203 -51zM241 413q-37 -37 -54 -93
t-17 -116q0 -56 20 -81.5t55 -25.5q34 0 63.5 22.5t58.5 62.5l40 254q-19 8 -35.5 11t-37.5 3q-56 0 -93 -37zM449 820l40 -100l-233 -90l-29 65z" />
    <glyph glyph-name="uni01F6" unicode="&#x1f6;" horiz-adv-x="946" 
d="M484 31q-45 46 -45 114q0 8 2 28l18 136h-242l-43 -309h-131l97 691h131l-40 -277h243l39 277h131l-72 -516q-2 -18 -2 -27q0 -66 59 -66q86 0 118 104t32 242q0 59 -5 101h120q8 -62 8 -122q0 -192 -63.5 -307t-219.5 -115q-90 0 -135 46z" />
    <glyph glyph-name="uni01F7" unicode="&#x1f7;" horiz-adv-x="583" 
d="M547.5 661q47.5 -45 47.5 -123q0 -80 -40 -137t-106 -96t-161 -73l-86 -30l-28 -202h-131l97 691h131l-6 -45q69 60 161 60q74 0 121.5 -45zM410 411q48 50 48 116q0 79 -76 79q-69 0 -130 -51l-36 -255l62 26q84 35 132 85z" />
    <glyph glyph-name="uni01F8" unicode="&#x1f8;" horiz-adv-x="664" 
d="M547 0h-167l-159 580q1 -72 -3.5 -142t-17.5 -162l-38 -276h-119l97 691h167l161 -580q-1 24 -1 69q0 94 13 193l46 318h118zM355 930l193 -115l-36 -64l-212 79z" />
    <glyph glyph-name="uni01F9" unicode="&#x1f9;" horiz-adv-x="573" 
d="M488.5 509.5q32.5 -34.5 32.5 -95.5q0 -16 -3 -36l-53 -378h-126l51 359q2 18 2 25q0 30 -12 42.5t-33 12.5q-68 0 -139 -136l-43 -303h-126l74 529h109l-5 -98q78 113 182 113q57 0 89.5 -34.5zM292 820l193 -126l-37 -63l-213 89z" />
    <glyph glyph-name="Aringacute" unicode="&#x1fa;" horiz-adv-x="574" 
d="M405 0l-20 160h-228l-64 -160h-136l310 691h160l115 -691h-137zM197 260h176l-41 335zM460 936.5q31 -30.5 31 -77.5q0 -35 -18 -65.5t-50.5 -48.5t-71.5 -18q-52 0 -83 30.5t-31 78.5q0 34 18 64.5t50.5 48.5t71.5 18q52 0 83 -30.5zM330.5 882q-15.5 -19 -15.5 -44
q0 -21 10.5 -32.5t29.5 -11.5q28 0 43.5 19t15.5 44q0 21 -11 32.5t-30 11.5q-27 0 -42.5 -19zM468 1148l40 -100l-234 -80l-27 65z" />
    <glyph glyph-name="aringacute" unicode="&#x1fb;" horiz-adv-x="571" 
d="M533 493l-51 -355q-2 -18 -2 -23q0 -17 6.5 -27t23.5 -17l-36 -84q-93 10 -109 88q-66 -90 -158 -90q-81 0 -125.5 56t-44.5 151q0 82 30.5 163t96.5 135t167 54q104 0 202 -51zM238 410.5q-36 -39.5 -52.5 -99t-16.5 -119.5q0 -110 73 -110q34 0 62 21.5t58 62.5l38 270
q-32 14 -71 14q-55 0 -91 -39.5zM460 789.5q31 -30.5 31 -77.5q0 -35 -18 -65.5t-50.5 -48.5t-71.5 -18q-52 0 -83 30.5t-31 78.5q0 34 18 64.5t50.5 48.5t71.5 18q52 0 83 -30.5zM330.5 735q-15.5 -19 -15.5 -44q0 -21 10.5 -32.5t29.5 -11.5q28 0 43.5 19t15.5 44
q0 21 -11 32.5t-30 11.5q-27 0 -42.5 -19zM469 1003l40 -100l-234 -80l-27 65z" />
    <glyph glyph-name="AEacute" unicode="&#x1fc;" horiz-adv-x="821" 
d="M774 593h-286l17 -194h246l-13 -98h-225l18 -202h226l-14 -99h-329l-11 160h-239l-78 -160h-140l361 691h495zM213 260h184l-22 331zM648 931l40 -100l-234 -80l-27 65z" />
    <glyph glyph-name="aeacute" unicode="&#x1fd;" horiz-adv-x="826" 
d="M387 524q38 -20 59 -57q30 35 77 56t103 21q58 0 99.5 -19t62.5 -51t21 -70q0 -102 -93 -147t-251 -60q1 -61 29 -87t77 -26q35 0 68 11.5t70 37.5l48 -80q-95 -68 -201 -68q-65 0 -111.5 23.5t-72.5 67.5q-42 -49 -89 -70t-105 -21q-74 0 -117.5 39t-43.5 103
q0 81 62.5 134.5t204.5 53.5h69q7 32 19 64q-4 31 -32 49t-72 18q-34 0 -66.5 -6t-74.5 -19l-21 88q94 35 181 35q62 0 100 -20zM519 403.5q-36 -49.5 -48 -122.5q107 10 158 38.5t51 78.5q0 22 -14.5 38.5t-47.5 16.5q-63 0 -99 -49.5zM290 237q-68 0 -102.5 -24t-34.5 -76
q0 -59 62 -59q36 0 66.5 19t62.5 58q-2 11 -2.5 37t0.5 45h-52zM573 820l40 -100l-233 -90l-29 65z" />
    <glyph glyph-name="Oslashacute" unicode="&#x1fe;" horiz-adv-x="683" 
d="M631 570q27 -61 27 -146q0 -103 -35 -203.5t-114 -168t-203 -67.5q-27 0 -59 5l-52 -121l-100 27l59 131q-51 34 -78 94.5t-27 144.5q0 102 35 202.5t114 169t203 68.5q28 0 56 -5l55 123l99 -28l-59 -131q52 -34 79 -95zM268.5 548q-47.5 -57 -67 -137.5t-19.5 -158.5
q0 -93 33 -131l212 482q-22 2 -34 2q-77 0 -124.5 -57zM438 143q47 57 66 138.5t19 161.5q0 92 -33 129l-211 -484q20 -2 34 -2q78 0 125 57zM517 957l40 -100l-234 -80l-27 65z" />
    <glyph glyph-name="oslashacute" unicode="&#x1ff;" horiz-adv-x="576" 
d="M516.5 429.5q20.5 -47.5 20.5 -107.5q0 -78 -28 -155t-92 -129.5t-165 -52.5q-23 0 -44 3l-53 -121l-93 29l58 127q-40 28 -60.5 75.5t-20.5 109.5q0 78 28.5 155t92.5 129t164 52q23 0 44 -3l54 121l94 -29l-60 -127q40 -29 60.5 -76.5zM226 406.5
q-35 -40.5 -49.5 -97.5t-14.5 -110q0 -58 20 -86l156 333q-6 1 -20 1q-57 0 -92 -40.5zM350.5 122.5q34.5 40.5 48.5 97.5t14 109q0 56 -19 86l-155 -332q6 -1 20 -1q57 0 91.5 40.5zM440 824l40 -100l-233 -90l-29 65z" />
    <glyph glyph-name="uni0200" unicode="&#x200;" horiz-adv-x="574" 
d="M405 0l-20 160h-228l-64 -160h-136l310 691h160l115 -691h-137zM197 260h176l-41 335zM260 973l65 -186l-73 -32l-90 170zM422 973l56 -183l-73 -30l-81 167z" />
    <glyph glyph-name="uni0201" unicode="&#x201;" horiz-adv-x="571" 
d="M533 493l-51 -355q-2 -18 -2 -23q0 -17 6.5 -27t23.5 -17l-36 -84q-93 10 -109 88q-66 -90 -158 -90q-81 0 -125.5 56t-44.5 151q0 82 30.5 163t96.5 135t167 54q104 0 202 -51zM238 410.5q-36 -39.5 -52.5 -99t-16.5 -119.5q0 -110 73 -110q34 0 62 21.5t58 62.5l38 270
q-32 14 -71 14q-55 0 -91 -39.5zM262 847l65 -186l-73 -32l-90 170zM424 847l56 -183l-73 -30l-81 167z" />
    <glyph glyph-name="uni0202" unicode="&#x202;" horiz-adv-x="574" 
d="M405 0l-20 160h-228l-64 -160h-136l310 691h160l115 -691h-137zM197 260h176l-41 335zM197 786q15 69 64 110.5t118 41.5t107.5 -44t35.5 -113l-76 -10q-9 75 -75 75q-68 0 -100 -78z" />
    <glyph glyph-name="uni0203" unicode="&#x203;" horiz-adv-x="571" 
d="M533 493l-51 -355q-2 -18 -2 -23q0 -17 6.5 -27t23.5 -17l-36 -84q-93 10 -109 88q-66 -90 -158 -90q-81 0 -125.5 56t-44.5 151q0 82 30.5 163t96.5 135t167 54q104 0 202 -51zM238 410.5q-36 -39.5 -52.5 -99t-16.5 -119.5q0 -110 73 -110q34 0 62 21.5t58 62.5l38 270
q-32 14 -71 14q-55 0 -91 -39.5zM191 624q15 69 64 110.5t118 41.5t107.5 -44t35.5 -113l-76 -10q-9 75 -75 75q-68 0 -100 -78z" />
    <glyph glyph-name="uni0204" unicode="&#x204;" horiz-adv-x="523" 
d="M536 691l-28 -98h-251l-28 -193h219l-13 -98h-219l-28 -203h269l-14 -99h-400l97 691h396zM254 973l65 -186l-73 -32l-90 170zM416 973l56 -183l-73 -30l-81 167z" />
    <glyph glyph-name="uni0205" unicode="&#x205;" horiz-adv-x="525" 
d="M416 256q-93 -46 -249 -62q4 -110 103 -110q36 0 69 11.5t69 37.5l49 -80q-96 -68 -201 -68q-106 0 -162 58.5t-56 161.5q0 80 29.5 157.5t94 129.5t164.5 52q58 0 99.5 -19t62.5 -51t21 -70q0 -102 -93 -148zM329 318.5q50 29.5 50 80.5q0 21 -14 37.5t-46 16.5
q-63 0 -98.5 -50t-47.5 -124q106 10 156 39.5zM236 847l65 -186l-73 -32l-90 170zM398 847l56 -183l-73 -30l-81 167z" />
    <glyph glyph-name="uni0206" unicode="&#x206;" horiz-adv-x="523" 
d="M536 691l-28 -98h-251l-28 -193h219l-13 -98h-219l-28 -203h269l-14 -99h-400l97 691h396zM191 786q15 69 64 110.5t118 41.5t107.5 -44t35.5 -113l-76 -10q-9 75 -75 75q-68 0 -100 -78z" />
    <glyph glyph-name="uni0207" unicode="&#x207;" horiz-adv-x="525" 
d="M416 256q-93 -46 -249 -62q4 -110 103 -110q36 0 69 11.5t69 37.5l49 -80q-96 -68 -201 -68q-106 0 -162 58.5t-56 161.5q0 80 29.5 157.5t94 129.5t164.5 52q58 0 99.5 -19t62.5 -51t21 -70q0 -102 -93 -148zM329 318.5q50 29.5 50 80.5q0 21 -14 37.5t-46 16.5
q-63 0 -98.5 -50t-47.5 -124q106 10 156 39.5zM165 624q15 69 64 110.5t118 41.5t107.5 -44t35.5 -113l-76 -10q-9 75 -75 75q-68 0 -100 -78z" />
    <glyph glyph-name="uni0208" unicode="&#x208;" horiz-adv-x="291" 
d="M271 691l-97 -691h-131l97 691h131zM118 973l65 -186l-73 -32l-90 170zM280 973l56 -183l-73 -30l-81 167z" />
    <glyph glyph-name="uni0209" unicode="&#x209;" horiz-adv-x="278" 
d="M239 529l-74 -529h-126l74 529h126zM97 847l65 -186l-73 -32l-90 170zM259 847l56 -183l-73 -30l-81 167z" />
    <glyph glyph-name="uni020A" unicode="&#x20a;" horiz-adv-x="291" 
d="M271 691l-97 -691h-131l97 691h131zM55 786q15 69 64 110.5t118 41.5t107.5 -44t35.5 -113l-76 -10q-9 75 -75 75q-68 0 -100 -78z" />
    <glyph glyph-name="uni020B" unicode="&#x20b;" horiz-adv-x="278" 
d="M239 529l-74 -529h-126l74 529h126zM26 624q15 69 64 110.5t118 41.5t107.5 -44t35.5 -113l-76 -10q-9 75 -75 75q-68 0 -100 -78z" />
    <glyph glyph-name="uni020C" unicode="&#x20c;" horiz-adv-x="683" 
d="M590 632.5q68 -73.5 68 -208.5q0 -103 -35 -203.5t-114 -168t-203 -67.5q-121 0 -189 73.5t-68 207.5q0 102 35 202.5t114 169t203 68.5q121 0 189 -73.5zM269 548.5q-47 -56.5 -66 -136t-19 -154.5q0 -172 129 -172q78 0 124.5 56.5t65.5 136t19 155.5q0 89 -32.5 130
t-96.5 41q-77 0 -124 -56.5zM317 973l65 -186l-73 -32l-90 170zM479 973l56 -183l-73 -30l-81 167z" />
    <glyph glyph-name="uni020D" unicode="&#x20d;" horiz-adv-x="576" 
d="M94.5 44q-55.5 59 -55.5 164q0 78 28.5 155t92.5 129t164 52q102 0 157.5 -59.5t55.5 -162.5q0 -78 -28 -155t-92 -129.5t-165 -52.5q-102 0 -157.5 59zM347 123.5q33 41.5 46 99.5t13 113q0 111 -89 111q-55 0 -88 -40.5t-46.5 -97.5t-13.5 -111q0 -116 90 -116
q55 0 88 41.5zM243 847l65 -186l-73 -32l-90 170zM405 847l56 -183l-73 -30l-81 167z" />
    <glyph glyph-name="uni020E" unicode="&#x20e;" horiz-adv-x="683" 
d="M590 632.5q68 -73.5 68 -208.5q0 -103 -35 -203.5t-114 -168t-203 -67.5q-121 0 -189 73.5t-68 207.5q0 102 35 202.5t114 169t203 68.5q121 0 189 -73.5zM269 548.5q-47 -56.5 -66 -136t-19 -154.5q0 -172 129 -172q78 0 124.5 56.5t65.5 136t19 155.5q0 89 -32.5 130
t-96.5 41q-77 0 -124 -56.5zM254 786q15 69 64 110.5t118 41.5t107.5 -44t35.5 -113l-76 -10q-9 75 -75 75q-68 0 -100 -78z" />
    <glyph glyph-name="uni020F" unicode="&#x20f;" horiz-adv-x="576" 
d="M94.5 44q-55.5 59 -55.5 164q0 78 28.5 155t92.5 129t164 52q102 0 157.5 -59.5t55.5 -162.5q0 -78 -28 -155t-92 -129.5t-165 -52.5q-102 0 -157.5 59zM347 123.5q33 41.5 46 99.5t13 113q0 111 -89 111q-55 0 -88 -40.5t-46.5 -97.5t-13.5 -111q0 -116 90 -116
q55 0 88 41.5zM172 624q15 69 64 110.5t118 41.5t107.5 -44t35.5 -113l-76 -10q-9 75 -75 75q-68 0 -100 -78z" />
    <glyph glyph-name="uni0210" unicode="&#x210;" horiz-adv-x="603" 
d="M549.5 386q-38.5 -57 -127.5 -88l135 -298h-144l-114 277h-86l-39 -277h-131l97 691h202q122 0 184 -45.5t62 -132.5q0 -70 -38.5 -127zM226 372h84q75 0 108.5 40.5t33.5 95.5q0 46 -29.5 66.5t-92.5 20.5h-73zM273 973l65 -186l-73 -32l-90 170zM435 973l56 -183
l-73 -30l-81 167z" />
    <glyph glyph-name="uni0211" unicode="&#x211;" horiz-adv-x="387" 
d="M423 535l-37 -123q-24 6 -44 6q-47 0 -80 -40t-60 -117l-37 -261h-126l74 529h109l-4 -103q29 58 68 87.5t84 29.5q26 0 53 -8zM191 847l65 -186l-73 -32l-90 170zM353 847l56 -183l-73 -30l-81 167z" />
    <glyph glyph-name="uni0212" unicode="&#x212;" horiz-adv-x="603" 
d="M549.5 386q-38.5 -57 -127.5 -88l135 -298h-144l-114 277h-86l-39 -277h-131l97 691h202q122 0 184 -45.5t62 -132.5q0 -70 -38.5 -127zM226 372h84q75 0 108.5 40.5t33.5 95.5q0 46 -29.5 66.5t-92.5 20.5h-73zM210 786q15 69 64 110.5t118 41.5t107.5 -44t35.5 -113
l-76 -10q-9 75 -75 75q-68 0 -100 -78z" />
    <glyph glyph-name="uni0213" unicode="&#x213;" horiz-adv-x="387" 
d="M423 535l-37 -123q-24 6 -44 6q-47 0 -80 -40t-60 -117l-37 -261h-126l74 529h109l-4 -103q29 58 68 87.5t84 29.5q26 0 53 -8zM120 624q15 69 64 110.5t118 41.5t107.5 -44t35.5 -113l-76 -10q-9 75 -75 75q-68 0 -100 -78z" />
    <glyph glyph-name="uni0214" unicode="&#x214;" horiz-adv-x="648" 
d="M573 224q-15 -108 -90.5 -173.5t-195.5 -65.5q-110 0 -167.5 53.5t-57.5 145.5q0 22 3 44l65 463h131l-65 -461q-3 -22 -3 -41q0 -51 25 -76t77 -25q65 0 101 37t47 110l64 456h131zM297 973l65 -186l-73 -32l-90 170zM459 973l56 -183l-73 -30l-81 167z" />
    <glyph glyph-name="uni0215" unicode="&#x215;" horiz-adv-x="569" 
d="M85.5 19.5q-33.5 34.5 -33.5 95.5q0 18 3 37l53 377h126l-51 -361q-2 -20 -2 -28q0 -29 11.5 -41t34.5 -12q35 0 66.5 28t62.5 74l48 340h126l-74 -529h-109l5 87q-37 -49 -79 -75.5t-92 -26.5q-62 0 -95.5 34.5zM240 847l65 -186l-73 -32l-90 170zM402 847l56 -183
l-73 -30l-81 167z" />
    <glyph glyph-name="uni0216" unicode="&#x216;" horiz-adv-x="648" 
d="M573 224q-15 -108 -90.5 -173.5t-195.5 -65.5q-110 0 -167.5 53.5t-57.5 145.5q0 22 3 44l65 463h131l-65 -461q-3 -22 -3 -41q0 -51 25 -76t77 -25q65 0 101 37t47 110l64 456h131zM234 786q15 69 64 110.5t118 41.5t107.5 -44t35.5 -113l-76 -10q-9 75 -75 75
q-68 0 -100 -78z" />
    <glyph glyph-name="uni0217" unicode="&#x217;" horiz-adv-x="569" 
d="M85.5 19.5q-33.5 34.5 -33.5 95.5q0 18 3 37l53 377h126l-51 -361q-2 -20 -2 -28q0 -29 11.5 -41t34.5 -12q35 0 66.5 28t62.5 74l48 340h126l-74 -529h-109l5 87q-37 -49 -79 -75.5t-92 -26.5q-62 0 -95.5 34.5zM169 624q15 69 64 110.5t118 41.5t107.5 -44t35.5 -113
l-76 -10q-9 75 -75 75q-68 0 -100 -78z" />
    <glyph glyph-name="Scommaaccent" unicode="&#x218;" horiz-adv-x="552" 
d="M550 619l-74 -72q-32 30 -66 44t-76 14q-54 0 -87.5 -25t-33.5 -68q0 -24 11 -40t36.5 -30t74.5 -30q87 -27 133 -71t46 -122q0 -59 -30 -112.5t-94 -87.5t-161 -34q-150 0 -238 97l78 76q33 -34 72.5 -51.5t90.5 -17.5q67 0 105.5 30.5t38.5 83.5q0 38 -25.5 61.5
t-91.5 46.5q-95 32 -138.5 75.5t-43.5 112.5q0 52 29 99.5t86.5 77.5t138.5 30q134 0 219 -87zM270.5 -90q17.5 -18 17.5 -43q0 -20 -8 -39t-29 -52l-55 -88h-67l46 118q-23 19 -23 48q0 32 21 53t52 21q28 0 45.5 -18z" />
    <glyph glyph-name="scommaaccent" unicode="&#x219;" horiz-adv-x="468" 
d="M452 477l-58 -71q-60 43 -127 43q-41 0 -63.5 -15t-22.5 -41q0 -24 21 -37.5t83 -33.5q73 -23 108 -60.5t35 -98.5q0 -53 -28.5 -93.5t-80.5 -62.5t-121 -22q-66 0 -119.5 23t-88.5 59l66 69q64 -55 145 -55q50 0 74.5 20.5t24.5 47.5q0 21 -9.5 34.5t-31.5 24t-67 25.5
q-73 23 -105.5 58.5t-32.5 91.5q0 42 24.5 79t72.5 59.5t116 22.5q108 0 185 -67zM229.5 -90q17.5 -18 17.5 -43q0 -20 -8 -39t-29 -52l-55 -88h-67l46 118q-23 19 -23 48q0 32 21 53t52 21q28 0 45.5 -18z" />
    <glyph glyph-name="uni021A" unicode="&#x21a;" horiz-adv-x="522" 
d="M578 691l-29 -105h-178l-82 -586h-131l82 586h-184l15 105h507zM259.5 -90q17.5 -18 17.5 -43q0 -20 -8 -39t-29 -52l-55 -88h-67l46 118q-23 19 -23 48q0 32 21 53t52 21q28 0 45.5 -18z" />
    <glyph glyph-name="uni021B" unicode="&#x21b;" horiz-adv-x="367" 
d="M197 159q-2 -20 -2 -25q0 -24 10 -34.5t32 -10.5q28 0 68 19l36 -85q-61 -38 -133 -38q-67 0 -103.5 35.5t-36.5 100.5q0 18 3 39l39 277h-82l13 92h87l33 120l106 12l-18 -132h122l-27 -92h-108zM234.5 -90q17.5 -18 17.5 -43q0 -20 -8 -39t-29 -52l-55 -88h-67l46 118
q-23 19 -23 48q0 32 21 53t52 21q28 0 45.5 -18z" />
    <glyph glyph-name="uni021C" unicode="&#x21c;" horiz-adv-x="506" 
d="M435 659.5q53 -46.5 53 -121.5q0 -71 -43 -116t-124 -64q65 -5 104.5 -40.5t39.5 -98.5q0 -128 -125.5 -210t-321.5 -117l-1 100q148 36 229 88.5t81 139.5q0 44 -29 64.5t-90 20.5h-70l29 99h53q59 0 96 34t37 91q0 77 -86 77q-73 0 -157 -59l-57 72q54 44 111.5 65.5
t122.5 21.5q95 0 148 -46.5z" />
    <glyph glyph-name="uni021D" unicode="&#x21d;" horiz-adv-x="481" 
d="M384.5 507q51.5 -37 51.5 -104q0 -97 -129 -131q58 -1 90 -26.5t32 -70.5q0 -103 -112 -173.5t-293 -107.5l-5 89q141 41 209.5 85.5t68.5 103.5q0 26 -18 37t-52 11h-100l20 88h53q48 0 77.5 22t29.5 64q0 29 -20.5 43.5t-53.5 14.5q-37 0 -67.5 -10t-66.5 -30l-49 73
q47 30 95 44.5t104 14.5q84 0 135.5 -37z" />
    <glyph glyph-name="uni021E" unicode="&#x21e;" horiz-adv-x="664" 
d="M173 0h-130l97 691h131l-40 -277h243l39 277h131l-97 -691h-131l43 309h-242zM550 928l42 -56l-152 -120h-79l-121 120l54 56l116 -83z" />
    <glyph glyph-name="uni021F" unicode="&#x21f;" horiz-adv-x="574" 
d="M488 509.5q33 -34.5 33 -95.5q0 -22 -2 -34l-54 -380h-126l51 359q2 20 2 26q0 30 -11.5 42t-31.5 12q-70 0 -143 -136l-41 -303h-126l104 740l127 13l-45 -317q32 50 76 79t95 29q59 0 92 -34.5zM511 978l42 -56l-152 -120h-79l-121 120l54 56l116 -83z" />
    <glyph glyph-name="uni0220" unicode="&#x220;" horiz-adv-x="651" 
d="M574.5 662.5q41.5 -43.5 41.5 -115.5q0 -18 -3 -36l-100 -717h-130l97 702q3 18 3 33q0 38 -17.5 56.5t-54.5 18.5q-44 0 -80.5 -19.5t-83.5 -60.5l-74 -524h-130l97 691h114v-68q47 42 94.5 62.5t105.5 20.5q79 0 120.5 -43.5z" />
    <glyph glyph-name="uni0221" unicode="&#x221;" horiz-adv-x="756" 
d="M720 209q30 -27 30 -71q0 -72 -56.5 -112.5t-142.5 -40.5q-32 0 -59 6l-42 -71l-64 29l42 68q-41 28 -55 74q-71 -106 -169 -106q-82 0 -124.5 56t-42.5 156q0 78 26 158t83 134.5t144 54.5q40 0 71.5 -15.5t53.5 -42.5l38 267l124 -13l-82 -586q-2 -11 -2 -29l1 2
q30 54 65.5 81.5t84.5 27.5q46 0 76 -27zM403 398q-18 25 -39 37.5t-50 12.5q-52 0 -84.5 -41t-46.5 -99.5t-14 -114.5q0 -111 72 -111q37 0 68 28t64 79zM633 97q23 14 23 38t-26 24q-20 0 -38 -16t-45 -59q8 -1 26 -1q37 0 60 14z" />
    <glyph glyph-name="uni0222" unicode="&#x222;" horiz-adv-x="643" 
d="M561.5 451q-29.5 -38 -80.5 -61q55 -21 84.5 -60t29.5 -94q0 -70 -38.5 -127t-109 -90.5t-161.5 -33.5q-79 0 -136 26.5t-86.5 72t-29.5 102.5q0 74 43.5 126.5t120.5 78.5q-75 39 -75 128q0 9 2 31l20 141h131l-21 -147q-3 -16 -3 -32q0 -77 91 -77q58 0 88 31t37 82
l21 143h131l-21 -146q-8 -56 -37.5 -94zM414 126q44 40 44 108q0 49 -31 76t-92 27q-76 0 -120 -40t-44 -108q0 -50 31 -76.5t91 -26.5q77 0 121 40z" />
    <glyph glyph-name="uni0223" unicode="&#x223;" horiz-adv-x="570" 
d="M496.5 470q-27.5 -37 -72.5 -59q99 -40 99 -155q0 -76 -35.5 -138t-98 -97.5t-140.5 -35.5q-102 0 -158.5 55.5t-56.5 143.5q0 82 39.5 141t110.5 86q-65 37 -65 118q0 20 2 31l26 181h125l-27 -199q-2 -20 -2 -27q0 -66 65 -66q42 0 66.5 27t30.5 71l27 194h125
l-26 -185q-7 -49 -34.5 -86zM358 133q34 51 34 125q0 52 -22 77t-69 25q-67 0 -102 -52t-35 -124q0 -50 23.5 -76t67.5 -26q69 0 103 51z" />
    <glyph glyph-name="uni0224" unicode="&#x224;" horiz-adv-x="523" 
d="M535 589l-381 -481h309l-16 -108l-7 -48q-14 -85 -63.5 -127.5t-127.5 -42.5q-73 0 -125 42l53 77q17 -11 31.5 -16t35.5 -5q58 0 70 71l7 49h-336l14 101l386 485h-284l14 105h434z" />
    <glyph glyph-name="uni0225" unicode="&#x225;" horiz-adv-x="437" 
d="M440 437l-290 -337h238l-13 -100l-6 -47q-12 -85 -62 -128t-127 -43q-73 0 -125 42l54 76q17 -11 31 -16t34 -5q30 0 49.5 17t23.5 52l8 52h-275l12 92l290 337h-220l14 100h376z" />
    <glyph glyph-name="uni0226" unicode="&#x226;" horiz-adv-x="574" 
d="M405 0l-20 160h-228l-64 -160h-136l310 691h160l115 -691h-137zM197 260h176l-41 335zM312 787.5q-20 19.5 -20 49.5q0 37 25 61.5t62 24.5q33 0 52.5 -19.5t19.5 -50.5q0 -36 -25 -60.5t-62 -24.5q-32 0 -52 19.5z" />
    <glyph glyph-name="uni0227" unicode="&#x227;" horiz-adv-x="571" 
d="M533 493l-51 -355q-2 -18 -2 -23q0 -17 6.5 -27t23.5 -17l-36 -84q-93 10 -109 88q-66 -90 -158 -90q-81 0 -125.5 56t-44.5 151q0 82 30.5 163t96.5 135t167 54q104 0 202 -51zM238 410.5q-36 -39.5 -52.5 -99t-16.5 -119.5q0 -110 73 -110q34 0 62 21.5t58 62.5l38 270
q-32 14 -71 14q-55 0 -91 -39.5zM309 661.5q-20 19.5 -20 49.5q0 37 25 61.5t62 24.5q32 0 52 -19.5t20 -50.5q0 -36 -25 -60.5t-62 -24.5q-32 0 -52 19.5z" />
    <glyph glyph-name="uni0228" unicode="&#x228;" horiz-adv-x="523" 
d="M257 593l-28 -193h219l-13 -98h-219l-28 -203h269l-14 -99h-162l-9 -52q44 -4 65.5 -27t21.5 -58q0 -28 -15.5 -54.5t-49 -44t-83.5 -17.5q-58 0 -99 30l38 60q27 -15 62 -15q24 0 38 9.5t14 27.5q0 20 -18.5 27.5t-65.5 7.5l26 106h-163l97 691h396l-28 -98h-251z" />
    <glyph glyph-name="uni0229" unicode="&#x229;" horiz-adv-x="525" 
d="M416 256q-93 -46 -249 -62q4 -110 103 -110q36 0 69 11.5t69 37.5l49 -80q-83 -59 -172 -67l-7 -38q43 -4 65 -27t22 -59q0 -29 -16 -55.5t-49 -43t-81 -16.5q-60 0 -101 30l38 61q27 -16 61 -16q23 0 37.5 9.5t15.5 27.5q0 20 -18.5 27.5t-65.5 7.5l23 94
q-84 13 -127.5 69.5t-43.5 147.5q0 80 29.5 157.5t94 129.5t164.5 52q58 0 99.5 -19t62.5 -51t21 -70q0 -102 -93 -148zM329 318.5q50 29.5 50 80.5q0 21 -14 37.5t-46 16.5q-63 0 -98.5 -50t-47.5 -124q106 10 156 39.5z" />
    <glyph glyph-name="uni022A" unicode="&#x22a;" horiz-adv-x="683" 
d="M590 632.5q68 -73.5 68 -208.5q0 -103 -35 -203.5t-114 -168t-203 -67.5q-121 0 -189 73.5t-68 207.5q0 102 35 202.5t114 169t203 68.5q121 0 189 -73.5zM269 548.5q-47 -56.5 -66 -136t-19 -154.5q0 -172 129 -172q78 0 124.5 56.5t65.5 136t19 155.5q0 89 -32.5 130
t-96.5 41q-77 0 -124 -56.5zM253 763.5q-18 17.5 -18 43.5q0 33 22.5 54.5t55.5 21.5q28 0 46 -17.5t18 -43.5q0 -33 -22.5 -54.5t-55.5 -21.5q-28 0 -46 17.5zM472 763.5q-18 17.5 -18 43.5q0 33 22.5 54.5t55.5 21.5q28 0 46 -17.5t18 -43.5q0 -33 -22.5 -54.5
t-55.5 -21.5q-28 0 -46 17.5zM571 924h-287l12 91h288z" />
    <glyph glyph-name="uni022B" unicode="&#x22b;" horiz-adv-x="576" 
d="M94.5 44q-55.5 59 -55.5 164q0 78 28.5 155t92.5 129t164 52q102 0 157.5 -59.5t55.5 -162.5q0 -78 -28 -155t-92 -129.5t-165 -52.5q-102 0 -157.5 59zM347 123.5q33 41.5 46 99.5t13 113q0 111 -89 111q-55 0 -88 -40.5t-46.5 -97.5t-13.5 -111q0 -116 90 -116
q55 0 88 41.5zM180 629.5q-18 17.5 -18 43.5q0 33 22.5 54.5t55.5 21.5q28 0 46 -17.5t18 -43.5q0 -33 -22.5 -54.5t-55.5 -21.5q-28 0 -46 17.5zM399 629.5q-18 17.5 -18 43.5q0 33 22.5 54.5t55.5 21.5q28 0 46 -17.5t18 -43.5q0 -33 -22.5 -54.5t-55.5 -21.5
q-28 0 -46 17.5zM498 797h-287l12 91h288z" />
    <glyph glyph-name="uni022C" unicode="&#x22c;" horiz-adv-x="683" 
d="M572 929h-287l12 91h288zM435.5 763.5q-15.5 7.5 -34.5 21.5q-9 7 -19 12.5t-19 5.5q-18 0 -31.5 -11.5t-30.5 -35.5l-63 37q25 46 58.5 74.5t71.5 28.5q22 0 37.5 -7.5t32.5 -20.5q12 -9 20 -13.5t17 -4.5q16 0 30 11t30 34l65 -37q-27 -48 -60 -75t-68 -27
q-21 0 -36.5 7.5zM590 632.5q68 -73.5 68 -208.5q0 -103 -35 -203.5t-114 -168t-203 -67.5q-121 0 -189 73.5t-68 207.5q0 102 35 202.5t114 169t203 68.5q121 0 189 -73.5zM269 548.5q-47 -56.5 -66 -136t-19 -154.5q0 -172 129 -172q78 0 124.5 56.5t65.5 136t19 155.5
q0 89 -32.5 130t-96.5 41q-77 0 -124 -56.5z" />
    <glyph glyph-name="uni022D" unicode="&#x22d;" horiz-adv-x="576" 
d="M94.5 44q-55.5 59 -55.5 164q0 78 28.5 155t92.5 129t164 52q102 0 157.5 -59.5t55.5 -162.5q0 -78 -28 -155t-92 -129.5t-165 -52.5q-102 0 -157.5 59zM347 123.5q33 41.5 46 99.5t13 113q0 111 -89 111q-55 0 -88 -40.5t-46.5 -97.5t-13.5 -111q0 -116 90 -116
q55 0 88 41.5zM347.5 601.5q-15.5 7.5 -34.5 21.5q-9 7 -19 12.5t-19 5.5q-18 0 -31.5 -11.5t-30.5 -35.5l-63 37q25 46 58.5 74.5t71.5 28.5q22 0 37.5 -7.5t32.5 -20.5q12 -9 20 -13.5t17 -4.5q16 0 30 11t30 34l65 -37q-27 -48 -60 -75t-68 -27q-21 0 -36.5 7.5zM487 768
h-287l12 91h288z" />
    <glyph glyph-name="uni022E" unicode="&#x22e;" horiz-adv-x="683" 
d="M590 632.5q68 -73.5 68 -208.5q0 -103 -35 -203.5t-114 -168t-203 -67.5q-121 0 -189 73.5t-68 207.5q0 102 35 202.5t114 169t203 68.5q121 0 189 -73.5zM269 548.5q-47 -56.5 -66 -136t-19 -154.5q0 -172 129 -172q78 0 124.5 56.5t65.5 136t19 155.5q0 89 -32.5 130
t-96.5 41q-77 0 -124 -56.5zM369 787.5q-20 19.5 -20 49.5q0 37 25 61.5t62 24.5q33 0 52.5 -19.5t19.5 -50.5q0 -36 -25 -60.5t-62 -24.5q-32 0 -52 19.5z" />
    <glyph glyph-name="uni022F" unicode="&#x22f;" horiz-adv-x="576" 
d="M94.5 44q-55.5 59 -55.5 164q0 78 28.5 155t92.5 129t164 52q102 0 157.5 -59.5t55.5 -162.5q0 -78 -28 -155t-92 -129.5t-165 -52.5q-102 0 -157.5 59zM347 123.5q33 41.5 46 99.5t13 113q0 111 -89 111q-55 0 -88 -40.5t-46.5 -97.5t-13.5 -111q0 -116 90 -116
q55 0 88 41.5zM290 661.5q-20 19.5 -20 49.5q0 37 25 61.5t62 24.5q32 0 52 -19.5t20 -50.5q0 -36 -25 -60.5t-62 -24.5q-32 0 -52 19.5z" />
    <glyph glyph-name="uni0230" unicode="&#x230;" horiz-adv-x="683" 
d="M590 632.5q68 -73.5 68 -208.5q0 -103 -35 -203.5t-114 -168t-203 -67.5q-121 0 -189 73.5t-68 207.5q0 102 35 202.5t114 169t203 68.5q121 0 189 -73.5zM269 548.5q-47 -56.5 -66 -136t-19 -154.5q0 -172 129 -172q78 0 124.5 56.5t65.5 136t19 155.5q0 89 -32.5 130
t-96.5 41q-77 0 -124 -56.5zM358 757.5q-20 19.5 -20 49.5q0 37 25 61.5t62 24.5q33 0 52.5 -19.5t19.5 -50.5q0 -36 -25 -60.5t-62 -24.5q-32 0 -52 19.5zM576 925h-287l12 91h288z" />
    <glyph glyph-name="uni0231" unicode="&#x231;" horiz-adv-x="576" 
d="M94.5 44q-55.5 59 -55.5 164q0 78 28.5 155t92.5 129t164 52q102 0 157.5 -59.5t55.5 -162.5q0 -78 -28 -155t-92 -129.5t-165 -52.5q-102 0 -157.5 59zM347 123.5q33 41.5 46 99.5t13 113q0 111 -89 111q-55 0 -88 -40.5t-46.5 -97.5t-13.5 -111q0 -116 90 -116
q55 0 88 41.5zM282 618.5q-20 19.5 -20 49.5q0 37 25 61.5t62 24.5q32 0 52 -19.5t20 -50.5q0 -36 -25 -60.5t-62 -24.5q-32 0 -52 19.5zM500 788h-287l12 91h288z" />
    <glyph glyph-name="uni0232" unicode="&#x232;" horiz-adv-x="566" 
d="M628 691l-279 -429l-37 -262h-132l37 261l-159 430h139l100 -321l190 321h141zM503 787h-287l12 91h288z" />
    <glyph glyph-name="uni0233" unicode="&#x233;" horiz-adv-x="498" 
d="M295 -3q-43 -97 -117 -151.5t-187 -63.5l-4 93q77 12 116.5 39t72.5 86h-45l-92 529h132l52 -441l180 441h131zM448 661h-287l12 91h288z" />
    <glyph glyph-name="uni0234" unicode="&#x234;" horiz-adv-x="443" 
d="M407 209q30 -27 30 -71q0 -72 -57 -112.5t-142 -40.5q-30 0 -60 5l-41 -70l-64 29l41 66q-59 38 -59 118q0 9 2 31l81 577l128 14l-86 -607q-2 -19 -1 -26q32 58 67.5 86t84.5 28q46 0 76 -27zM319.5 97q22.5 14 22.5 38t-26 24q-20 0 -37.5 -16t-44.5 -59q8 -1 26 -1
q37 0 59.5 14z" />
    <glyph glyph-name="uni0235" unicode="&#x235;" horiz-adv-x="749" 
d="M713 209q30 -27 30 -71q0 -72 -57 -112.5t-142 -40.5q-30 0 -60 5l-41 -70l-64 29l40 67q-58 38 -58 116q0 21 2 32l28 195q2 20 2 27q0 29 -11.5 41t-33.5 12q-68 0 -141 -136l-42 -303h-126l74 529h109l-5 -98q37 53 83 83t98 30q57 0 90 -34.5t33 -95.5q0 -16 -3 -36
l-32 -230q-2 -19 -1 -26q32 58 67.5 86t84.5 28q46 0 76 -27zM625.5 97q22.5 14 22.5 38t-26 24q-21 0 -38 -15.5t-44 -59.5q8 -1 26 -1q37 0 59.5 14z" />
    <glyph glyph-name="uni0236" unicode="&#x236;" horiz-adv-x="458" 
d="M422.5 209q29.5 -27 29.5 -72q0 -71 -56.5 -111.5t-142.5 -40.5q-30 0 -60 5l-41 -70l-64 29l41 66q-59 38 -59 118q0 9 2 31l38 273h-82l13 92h87l33 120l106 12l-18 -132h122l-27 -92h-108l-41 -290q-2 -19 -1 -26q33 60 68.5 87.5t83.5 27.5q47 0 76.5 -27zM335 97
q23 14 23 38t-26 24q-21 0 -38.5 -16t-44.5 -59q8 -1 26 -1q37 0 60 14z" />
    <glyph glyph-name="uni0237" unicode="&#x237;" horiz-adv-x="277" 
d="M-87 -126q41 18 66.5 36.5t41.5 49.5t23 82l69 487h126l-68 -484q-11 -78 -40 -127.5t-72.5 -79t-112.5 -56.5z" />
    <glyph glyph-name="uni0238" unicode="&#x238;" horiz-adv-x="851" 
d="M774 490q40 -54 40 -151q-1 -90 -29.5 -171.5t-82.5 -132t-127 -50.5q-77 0 -117 82l-19 -67h-97l1 73q-30 -43 -68.5 -65.5t-80.5 -22.5q-73 0 -115 56.5t-42 152.5q0 89 29.5 169.5t84 130.5t125.5 50q38 0 68 -18t50 -53l37 268l128 14l-40 -284q62 73 144 73
q71 0 111 -54zM294 101.5q27 19.5 56 62.5l32 224q-31 60 -82 60q-43 0 -73 -39.5t-44 -97.5t-14 -114q0 -115 68 -115q30 0 57 19.5zM624.5 121.5q29.5 40.5 43.5 100t14 114.5q0 61 -17.5 86.5t-49.5 25.5q-31 0 -57.5 -19t-51.5 -51l-32 -228q16 -37 33.5 -53t45.5 -16
q42 0 71.5 40.5z" />
    <glyph glyph-name="uni0239" unicode="&#x239;" horiz-adv-x="850" 
d="M773.5 491q40.5 -53 40.5 -146q-1 -93 -29 -176t-82 -133.5t-127 -50.5q-36 0 -66 19.5t-48 61.5l-38 -270l-129 -14l39 280q-59 -77 -143 -77q-69 0 -111.5 57t-42.5 152q0 89 30 169.5t85.5 130.5t128.5 50q38 0 68.5 -19.5t51.5 -57.5l15 62h94l-1 -63q65 78 150 78
q74 0 114.5 -53zM293.5 101.5q27.5 19.5 55.5 62.5l31 218q-16 35 -35 50.5t-45 15.5q-43 0 -72.5 -39.5t-44 -98.5t-14.5 -115q0 -113 67 -113q30 0 57.5 19.5zM624.5 123.5q29.5 40.5 43.5 101t14 119.5q0 55 -16.5 79.5t-48.5 24.5q-29 0 -57.5 -20t-54.5 -52l-30 -216
q12 -41 31 -59t46 -18q43 0 72.5 40.5z" />
    <glyph glyph-name="uni023A" unicode="&#x23a;" horiz-adv-x="574" 
d="M416 0l-22 160h-125l-94 -232l-51 12l89 220h-63l-66 -160h-127l310 691h160l1 -3l26 65l51 -12l-61 -151l98 -590h-126zM189 254h62l97 239l-15 112zM307 254h74l-18 136z" />
    <glyph glyph-name="uni023B" unicode="&#x23b;" 
d="M395 106q34 15 73 43l53 -82q-42 -36 -96.5 -59t-120.5 -23q-44 0 -78 10l-27 -67l-52 12l30 74q-61 32 -94.5 97t-33.5 158q0 102 36 202.5t114 167.5t195 67q33 0 63 -6l21 53l51 -12l-22 -55q45 -18 84 -57l-72 -70q-28 22 -51 31l-199 -491q24 -8 51 -8q41 0 75 15z
M224 130l193 473q-6 1 -19 1q-75 0 -123 -53t-69 -130.5t-21 -155.5q0 -93 39 -135z" />
    <glyph glyph-name="uni023C" unicode="&#x23c;" horiz-adv-x="471" 
d="M319.5 98.5q25.5 9.5 58.5 29.5l48 -85q-83 -58 -175 -58q-25 0 -53 5l-25 -62l-48 12l26 64q-55 25 -84 77.5t-29 126.5q0 76 30 153.5t94 130t160 52.5q28 0 49 -4l24 58l48 -12l-25 -61q35 -15 66 -44l-64 -76q-22 18 -40 27l-140 -341q16 -2 25 -2q29 0 54.5 9.5z
M196 114l135 329h-8q-81 0 -116.5 -74.5t-35.5 -167.5q0 -59 25 -87z" />
    <glyph glyph-name="uni023D" unicode="&#x23d;" horiz-adv-x="512" 
d="M201 108h272l-29 -108h-389l44 312h-80l14 102h80l39 277h131l-39 -277h88l-14 -102h-88z" />
    <glyph glyph-name="uni023E" unicode="&#x23e;" horiz-adv-x="522" 
d="M550 589h-94l-123 -233l-50 -356h-119l7 49l-64 -121l-42 19l124 235l57 407h-190l15 102h388l33 62l41 -19l-23 -43h68zM352 488l53 101h-39z" />
    <glyph glyph-name="uni023F" unicode="&#x23f;" horiz-adv-x="477" 
d="M402 261.5q35 -37.5 35 -98.5q0 -52 -28.5 -92.5t-76.5 -63t-103 -22.5q-30 0 -58 7q24 -15 39.5 -31t30.5 -37q17 -23 30 -33.5t36 -10.5q30 0 57 12l23 -81q-42 -28 -102 -28q-40 0 -67.5 15.5t-45.5 39.5t-43 68q-31 55 -59 92t-72 69l58 68q39 -26 76 -40t81 -14
q48 0 72 20.5t24 47.5q0 21 -9.5 34.5t-31.5 24t-67 25.5q-73 23 -105.5 58.5t-32.5 91.5q0 42 24.5 79t72.5 59.5t116 22.5q108 0 185 -67l-58 -71q-60 43 -127 43q-41 0 -63.5 -15t-22.5 -41q0 -24 21 -37.5t83 -33.5q73 -23 108 -60.5z" />
    <glyph glyph-name="uni0240" unicode="&#x240;" horiz-adv-x="441" 
d="M-8 92l294 337h-224l14 100h376l-12 -92l-329 -371q48 -15 75 -43t53 -73q22 -37 39 -53.5t44 -16.5q30 0 58 13l23 -83q-43 -27 -101 -27q-39 0 -65.5 13t-42.5 31.5t-37 52.5q-23 36 -42 58t-52 39.5t-83 22.5z" />
    <glyph glyph-name="uni0241" unicode="&#x241;" horiz-adv-x="489" 
d="M159 325l63 18q72 20 108 60t36 107q0 46 -24 71t-71 25q-39 0 -76 -15.5t-77 -45.5l-59 74q51 43 107.5 65t124.5 22q98 0 155 -51t57 -136q0 -184 -194 -236l-26 -7l-39 -276h-130z" />
    <glyph glyph-name="uni0242" unicode="&#x242;" horiz-adv-x="452" 
d="M108 200l60 17q64 19 96.5 53t32.5 90q0 40 -21 62t-62 22q-36 0 -64 -12.5t-64 -38.5l-57 73q47 40 95 59t108 19t104.5 -23t68 -63t23.5 -92q0 -81 -44.5 -133.5t-125.5 -73.5l-31 -8l-21 -151h-126z" />
    <glyph glyph-name="uni0243" unicode="&#x243;" horiz-adv-x="616" 
d="M536 320.5q38 -33.5 38 -100.5q0 -100 -73 -160t-240 -60h-207l24 172h-75l11 76h75l62 443h197q113 0 177 -38t64 -118q0 -69 -43.5 -112t-109.5 -58q62 -11 100 -44.5zM267 594l-26 -187h79q63 0 99 31t36 86q0 39 -27.5 54.5t-77.5 15.5h-83zM401.5 133
q37.5 34 37.5 95q0 87 -118 87h-93l-9 -67h135l-12 -76h-134l-10 -73h72q94 0 131.5 34z" />
    <glyph glyph-name="uni0244" unicode="&#x244;" horiz-adv-x="682" 
d="M690 504h-62l-39 -280q-15 -108 -90.5 -173.5t-195.5 -65.5q-110 0 -167.5 53.5t-57.5 145.5q0 22 3 44l39 276h-62l11 81h62l15 106h131l-15 -106h246l15 106h131l-15 -106h62zM497 504h-246l-39 -274q-3 -22 -3 -41q0 -51 25 -76t77 -25q65 0 101 37t47 110z" />
    <glyph glyph-name="uni0245" unicode="&#x245;" horiz-adv-x="574" 
d="M427 691l115 -691h-135l-74 590l-238 -590h-138l310 691h160z" />
    <glyph glyph-name="uni0246" unicode="&#x246;" horiz-adv-x="523" 
d="M508 593h-54l-78 -193h72l-13 -98h-99l-83 -203h204l-14 -99h-230l-29 -72l-52 12l24 60h-113l97 691h297l25 62l52 -12l-20 -50h42zM319 400l78 193h-140l-28 -193h90zM197 99l82 203h-63l-28 -203h9z" />
    <glyph glyph-name="uni0247" unicode="&#x247;" horiz-adv-x="525" 
d="M443 274q-66 -46 -179 -66l-47 -114q21 -10 53 -10q36 0 69 11.5t69 37.5l49 -80q-96 -68 -201 -68q-41 0 -79 10l-28 -67l-48 12l31 74q-46 27 -70 76t-24 115q0 80 29.5 157.5t94 129.5t164.5 52q16 0 23 -1l23 55l47 -12l-21 -51q54 -15 82.5 -50.5t28.5 -80.5
q0 -84 -66 -130zM215 400.5q-35 -51.5 -46 -125.5q41 3 74 9l71 173q-64 -5 -99 -56.5zM362 448l-61 -149q85 31 85 101q0 32 -24 48zM208 199l-44 -5q1 -39 15 -65z" />
    <glyph glyph-name="uni0248" unicode="&#x248;" horiz-adv-x="322" 
d="M320 292h-85l-27 -193q-15 -111 -74 -167t-160 -87l-25 96q46 17 72 39t38.5 52t18.5 76l26 184h-83l14 102h84l42 297h130l-42 -297h85z" />
    <glyph glyph-name="uni0249" unicode="&#x249;" horiz-adv-x="328" 
d="M308 206h-85l-23 -161q-11 -78 -40 -127.5t-72.5 -79t-112.5 -56.5l-33 92q41 18 66.5 36.5t41.5 49.5t23 82l23 164h-87l13 92h87l33 231h126l-32 -231h85zM173 661.5q-20 19.5 -20 49.5q0 37 25 61.5t62 24.5q32 0 52 -19.5t20 -50.5q0 -36 -25 -60.5t-62 -24.5
q-32 0 -52 19.5z" />
    <glyph glyph-name="uni024A" unicode="&#x24a;" horiz-adv-x="666" 
d="M694 -179q-58 -39 -131 -39t-114.5 36.5t-41.5 105.5q0 23 2 35l6 41l6 45q-63 -60 -152 -60q-102 0 -162 71t-60 199q0 113 39.5 217t112.5 169t168 65q88 0 146 -63l14 48h116l-97 -691l-8 -54q-1 -6 -1 -17q0 -47 46 -47q22 0 37.5 5t36.5 16zM435 140l58 416
q-23 24 -50 36.5t-63 12.5q-64 0 -109 -54t-67 -136t-22 -166q0 -88 31.5 -126t88.5 -38q72 0 133 55z" />
    <glyph glyph-name="uni024B" unicode="&#x24b;" horiz-adv-x="575" 
d="M508 -110l18 -91q-37 -17 -85 -17q-54 0 -84 29t-30 81q0 8 2 28l12 81l7 53q-22 -28 -59.5 -48.5t-81.5 -20.5q-82 0 -126 55.5t-44 151.5q0 83 30.5 164t97 134.5t167.5 53.5q106 0 204 -51l-69 -492l-12 -83q-1 -5 -1 -13q0 -11 5 -16t17 -5q16 0 32 6zM305.5 103.5
q27.5 21.5 56.5 62.5l41 270q-19 8 -35 11t-38 3q-55 0 -91 -39.5t-53 -99t-17 -119.5q0 -110 76 -110q33 0 60.5 21.5z" />
    <glyph glyph-name="uni024C" unicode="&#x24c;" horiz-adv-x="615" 
d="M561.5 386q-38.5 -57 -127.5 -88l135 -298h-144l-114 277h-86l-39 -277h-131l39 277h-77l13 95h77l45 319h202q122 0 184 -45.5t62 -132.5q0 -70 -38.5 -127zM430.5 412.5q33.5 40.5 33.5 95.5q0 46 -29.5 66.5t-92.5 20.5h-73l-31 -223h84q75 0 108.5 40.5z" />
    <glyph glyph-name="uni024D" unicode="&#x24d;" horiz-adv-x="406" 
d="M442 535l-37 -123q-24 6 -44 6q-42 0 -72.5 -32t-55.5 -92h83l-14 -92h-89l-29 -202h-126l28 202h-83l14 92h82l33 235h109l-4 -103q29 58 68 87.5t84 29.5q26 0 53 -8z" />
    <glyph glyph-name="uni024E" unicode="&#x24e;" horiz-adv-x="566" 
d="M629 691l-53 -81h41l-11 -82h-83l-174 -266l-36 -262h-132l37 261l-99 267h-81l12 82h39l-30 81h132l26 -81h228l49 81h135zM297 363l99 165h-152z" />
    <glyph glyph-name="uni024F" unicode="&#x24f;" horiz-adv-x="519" 
d="M483 391h43l-12 -85h-69l-139 -309q-43 -97 -117 -151.5t-187 -63.5l-4 93q77 12 116.5 39t72.5 86h-45l-53 306h-71l12 85h44l-24 138h132l16 -138h160l56 138h131zM234 88l89 218h-115z" />
    <glyph glyph-name="uni0250" unicode="&#x250;" horiz-adv-x="535" 
d="M183 172q-1 -9 -1 -24q0 -37 18 -51.5t63 -14.5q55 0 141 28l25 -88q-98 -37 -193 -37q-89 0 -135 37t-46 109q0 18 3 39l31 222q2 16 2 23q0 17 -7 27t-24 17l37 84q43 -5 69 -22.5t36 -54.5q60 78 164 78q70 0 111 -38.5t41 -104.5q0 -96 -72.5 -146.5t-190.5 -50.5
h-68zM212 381l-14 -101h50q68 0 104 28t36 84q0 29 -16 44t-45 15q-68 0 -115 -70z" />
    <glyph glyph-name="uni0251" unicode="&#x251;" horiz-adv-x="571" 
d="M480 115q0 -17 6.5 -27t23.5 -17l-36 -84q-93 10 -109 88q-66 -90 -157 -90q-83 0 -127 55.5t-44 152.5q0 86 32 167t92 132.5t139 51.5q44 0 74 -17.5t48 -55.5l24 58h94l-58 -391q-2 -18 -2 -23zM393 376q-12 40 -34 57t-53 17q-43 0 -74 -37t-47 -96t-16 -124
q0 -111 75 -111q32 0 60 21.5t58 62.5z" />
    <glyph glyph-name="uni0252" unicode="&#x252;" horiz-adv-x="571" 
d="M490 488.5q44 -55.5 44 -152.5q0 -86 -32 -167t-92 -132.5t-139 -51.5q-44 0 -74 17.5t-48 55.5l-24 -58h-94l58 391q2 18 2 23q0 17 -6.5 27t-23.5 17l36 84q93 -10 109 -88q66 90 157 90q83 0 127 -55.5zM339 116q31 37 47 96t16 124q0 111 -75 111q-32 0 -60 -21.5
t-58 -62.5l-31 -210q12 -40 34 -57t53 -17q43 0 74 37z" />
    <glyph glyph-name="uni0253" unicode="&#x253;" horiz-adv-x="580" 
d="M501 490q42 -54 42 -153q0 -85 -28.5 -165t-95.5 -133.5t-174 -53.5q-51 0 -98.5 9.5t-104.5 30.5l71 503l9 62q10 74 63 119.5t139 45.5q71 0 133 -32l-45 -84q-38 19 -82 19q-38 0 -57.5 -18.5t-25.5 -57.5l-7 -54l-7 -47q32 30 70 46.5t78 16.5q78 0 120 -54zM345 121
q35 40 51 99t16 119q0 109 -77 109q-32 0 -60 -18t-57 -50l-39 -285q40 -14 78 -14q53 0 88 40z" />
    <glyph glyph-name="uni0254" unicode="&#x254;" horiz-adv-x="470" 
d="M55 0.5q-39 15.5 -72 45.5l65 73q25 -19 47 -27.5t53 -9.5q52 0 86.5 35.5t50 90.5t15.5 116q0 64 -23 93.5t-70 29.5q-54 0 -112 -38l-48 77q79 58 176 58q99 0 153.5 -58.5t54.5 -162.5q0 -96 -34.5 -173t-99 -121t-151.5 -44q-52 0 -91 15.5z" />
    <glyph glyph-name="uni0255" unicode="&#x255;" horiz-adv-x="491" 
d="M425 217.5q30 -27.5 30 -76.5q0 -74 -56.5 -115t-142.5 -41q-38 0 -70 9l-44 -74l-64 29l44 74q-40 27 -61.5 74t-21.5 111q0 76 29.5 153.5t93.5 130t160 52.5q99 0 162 -63l-64 -76q-22 20 -45 29t-52 9q-81 0 -116.5 -73.5t-35.5 -168.5q0 -48 14 -74q33 62 70.5 90
t88.5 28t81 -27.5zM338.5 98q22.5 15 22.5 43q0 27 -30 27q-23 0 -43.5 -17.5t-47.5 -62.5q15 -5 39 -5q37 0 59.5 15z" />
    <glyph glyph-name="uni0256" unicode="&#x256;" horiz-adv-x="591" 
d="M627 -179q-59 -39 -133 -39q-73 0 -114 37t-41 107q0 9 2 33l6 41l12 75q-26 -40 -65.5 -65t-89.5 -25q-82 0 -124.5 56t-42.5 156q0 78 26 158t83 134.5t144 54.5q40 0 71.5 -15.5t53.5 -42.5l38 267l124 -13l-104 -740l-7 -57q-1 -6 -1 -17q0 -25 12 -36t36 -11
q22 0 38 4.5t38 15.5zM310 110q31 28 63 80l30 208q-18 25 -39 37.5t-50 12.5q-52 0 -84.5 -41t-46.5 -99.5t-14 -114.5q0 -111 72 -111q38 0 69 28z" />
    <glyph glyph-name="uni0257" unicode="&#x257;" horiz-adv-x="586" 
d="M740 715l-50 -77q-17 10 -31.5 15t-33.5 5q-60 0 -70 -70l-8 -59l-74 -529h-111l1 81q-63 -96 -159 -96q-82 0 -124.5 56t-42.5 156q0 78 26 158t83 134.5t144 54.5q40 0 71.5 -15.5t53.5 -42.5l6 43l8 57q11 81 60.5 125t128.5 44q70 0 122 -40zM403 398
q-18 25 -39 37.5t-50 12.5q-52 0 -84.5 -41t-46.5 -99.5t-14 -114.5q0 -111 72 -111q38 0 69 28t63 80z" />
    <glyph glyph-name="uni0258" unicode="&#x258;" horiz-adv-x="528" 
d="M434 479.5q53 -64.5 53 -168.5q0 -93 -34 -167t-98 -116.5t-152 -42.5q-114 0 -190 71l62 72q30 -23 59.5 -33.5t69.5 -10.5q51 0 85.5 29t51.5 81q-138 8 -214 48.5t-76 124.5q0 51 27.5 91.5t76.5 63t111 22.5q115 0 168 -64.5zM223.5 305.5q43.5 -22.5 134.5 -27.5
q2 30 2 45q0 130 -97 130q-38 0 -60.5 -22t-22.5 -59q0 -44 43.5 -66.5z" />
    <glyph glyph-name="uni0259" unicode="&#x259;" horiz-adv-x="525" 
d="M431 485.5q56 -58.5 56 -161.5q0 -80 -29.5 -157.5t-94 -129.5t-164.5 -52q-58 0 -99.5 19t-62.5 51t-21 70q0 102 93 148t249 62q-4 110 -103 110q-36 0 -69 -11.5t-69 -37.5l-49 80q96 68 201 68q106 0 162 -58.5zM304.5 126q35.5 50 47.5 124q-106 -10 -156 -39.5
t-50 -80.5q0 -21 14 -37.5t46 -16.5q63 0 98.5 50z" />
    <glyph glyph-name="uni025A" unicode="&#x25a;" horiz-adv-x="783" 
d="M810 346q-54 -36 -124 -36q-68 0 -102 33.5t-32 90.5l1 8l-76 -40q10 -33 10 -78q0 -80 -29.5 -157.5t-94 -129.5t-164.5 -52q-58 0 -99.5 19t-62.5 51t-21 70q0 102 93 148t249 62q-4 110 -103 110q-36 0 -69 -11.5t-69 -37.5l-49 80q96 68 201 68q118 0 174 -73l117 58
h110l-9 -66q-1 -6 -1 -15q0 -45 46 -45q21 0 35.5 5t35.5 15zM304.5 126q35.5 50 47.5 124q-106 -10 -156 -39.5t-50 -80.5q0 -21 14 -37.5t46 -16.5q63 0 98.5 50z" />
    <glyph glyph-name="uni025B" unicode="&#x25b;" horiz-adv-x="485" 
d="M82 26.5q-56 41.5 -56 112.5q0 57 39 96t118 48q-99 26 -99 107q0 42 23.5 77t71 56t115.5 21q54 0 100 -16t79 -46l-61 -65q-26 18 -51.5 26.5t-59.5 8.5q-44 0 -68 -20t-24 -51q0 -30 20 -46.5t57 -16.5h65l-26 -88h-55q-60 0 -86 -23.5t-26 -61.5q0 -30 23 -47.5
t69 -17.5q34 0 66 11t73 36l47 -77q-41 -31 -94.5 -48t-111.5 -17q-92 0 -148 41.5z" />
    <glyph glyph-name="uni025C" unicode="&#x25c;" horiz-adv-x="489" 
d="M389.5 508q51.5 -36 51.5 -98q0 -48 -32.5 -81.5t-95.5 -46.5q59 -8 90 -39t31 -81q0 -47 -26 -87t-80.5 -65t-136.5 -25q-123 0 -202 66l63 73q63 -44 137 -44q57 0 85.5 24t28.5 61q0 65 -102 65h-77l20 88h56q56 0 84 21.5t28 55.5q0 29 -19.5 43t-53.5 14
q-38 0 -67 -10t-67 -30l-50 72q90 60 205 60q78 0 129.5 -36z" />
    <glyph glyph-name="uni025D" unicode="&#x25d;" horiz-adv-x="744" 
d="M771 346q-54 -36 -124 -36q-68 0 -102 33.5t-32 90.5l1 8l-73 -38q-2 -46 -35 -78t-93 -44q59 -8 90 -39t31 -81q0 -47 -26 -87t-80.5 -65t-136.5 -25q-123 0 -202 66l63 73q63 -44 137 -44q57 0 85.5 24t28.5 61q0 65 -102 65h-77l20 88h56q56 0 84 21.5t28 55.5
q0 29 -19.5 43t-53.5 14q-38 0 -67 -10t-67 -30l-50 72q90 60 205 60q52 0 94.5 -17t64.5 -48l102 50h110l-9 -66q-1 -6 -1 -15q0 -45 46 -45q21 0 35.5 5t35.5 15z" />
    <glyph glyph-name="uni025E" unicode="&#x25e;" 
d="M95 42q-56 57 -56 162q0 97 35 174t100.5 121.5t154.5 44.5q79 0 131.5 -37.5t52.5 -99.5q0 -47 -32.5 -79.5t-95.5 -45.5q59 -8 90 -39t31 -81q0 -46 -26.5 -86.5t-81.5 -65.5t-138 -25q-109 0 -165 57zM349 104.5q28 24.5 28 62.5q0 34 -26.5 48.5t-77.5 14.5h-28
l20 88h6q57 0 86 22t29 56q0 27 -17.5 41.5t-50.5 14.5q-52 0 -86.5 -38t-50.5 -96t-16 -118q0 -64 23.5 -92t76.5 -28q56 0 84 24.5z" />
    <glyph glyph-name="uni025F" unicode="&#x25f;" horiz-adv-x="328" 
d="M308 206h-85l-23 -161q-11 -78 -40 -127.5t-72.5 -79t-112.5 -56.5l-33 92q41 18 66.5 36.5t41.5 49.5t23 82l23 164h-87l13 92h87l33 231h126l-32 -231h85z" />
    <glyph glyph-name="uni0260" unicode="&#x260;" horiz-adv-x="583" 
d="M738 715l-50 -77q-17 10 -31.5 15t-33.5 5q-60 0 -70 -70l-8 -59l-75 -501q-19 -132 -83.5 -190t-178.5 -58q-47 0 -98.5 15t-92.5 40l44 89q33 -19 70.5 -30.5t73.5 -11.5q56 0 93 27.5t48 106.5l8 58q-29 -34 -66 -54t-77 -20q-83 0 -128 54.5t-45 147.5q0 83 31 161
t97 129.5t166 51.5q43 0 87 -13l8 55q11 81 60.5 125t128.5 44q70 0 122 -40zM405 437q-20 7 -35.5 10t-35.5 3q-56 0 -93 -37t-54 -93t-17 -116q0 -56 20 -81.5t55 -25.5q34 0 63.5 22.5t58.5 62.5z" />
    <glyph glyph-name="uni0261" unicode="&#x261;" horiz-adv-x="578" 
d="M539 493l-69 -465q-19 -132 -83.5 -190t-178.5 -58q-47 0 -98.5 15t-92.5 40l44 89q33 -19 70.5 -30.5t73.5 -11.5q56 0 93 27.5t48 106.5l8 58q-29 -34 -66 -54t-79 -20q-81 0 -126 55t-45 147q0 83 31 161t98 129.5t169 51.5q107 0 203 -51zM241 413q-37 -37 -54 -93
t-17 -116q0 -56 20 -81.5t55 -25.5q34 0 63.5 22.5t58.5 62.5l40 254q-19 8 -35.5 11t-37.5 3q-56 0 -93 -37z" />
    <glyph glyph-name="uni0262" unicode="&#x262;" horiz-adv-x="553" 
d="M441.5 526q42.5 -18 80.5 -52l-71 -69q-27 23 -54 33t-61 10q-55 0 -93 -35t-56 -92t-18 -122q0 -64 24 -91t72 -27q45 0 90 18l14 117h-79v89h212l-35 -261q-100 -57 -213 -57q-105 0 -160.5 54.5t-55.5 159.5q0 96 38 174.5t106 123.5t155 45q62 0 104.5 -18z" />
    <glyph glyph-name="uni0263" unicode="&#x263;" horiz-adv-x="496" 
d="M285 72q23 -48 33.5 -83t10.5 -70q0 -67 -38 -102t-106 -35q-55 0 -86.5 27t-31.5 72q0 41 23.5 87.5t69.5 106.5l-121 454h135l60 -371l164 371h134l-247 -456v-1zM221 -119.5q9 13.5 9 35.5q0 32 -17 83q-19 -29 -32.5 -58.5t-13.5 -48.5q0 -25 25 -25q20 0 29 13.5z
" />
    <glyph glyph-name="uni0264" unicode="&#x264;" horiz-adv-x="543" 
d="M540 536q20 -8 40 -23l-46 -71q-9 6 -15.5 8t-16.5 2q-16 0 -27 -9.5t-27 -33.5l-119 -178q21 -38 31 -66t10 -59q0 -53 -34.5 -87t-99.5 -34q-51 0 -80 26.5t-29 68.5q0 36 20.5 73.5t58.5 81.5l-67 184q-8 19 -15.5 26t-21.5 7q-20 0 -38 -11l-30 75q43 28 90 28
q49 0 74.5 -28t41.5 -88l37 -118l72 124q33 59 64.5 84.5t79.5 25.5q27 0 47 -8zM260 171q-39 -50 -39 -80q0 -23 23 -23q15 0 23.5 10.5t8.5 27.5q0 27 -16 65z" />
    <glyph glyph-name="uni0265" unicode="&#x265;" horiz-adv-x="569" 
d="M349 90q-33 -48 -76 -76.5t-94 -28.5q-60 0 -93 34.5t-33 96.5q0 22 2 34l54 379h126l-51 -358q-2 -11 -2 -28q0 -28 11 -40t31 -12q38 0 74 35.5t68 92.5l43 310h126l-103 -735l-126 -14z" />
    <glyph glyph-name="uni0266" unicode="&#x266;" horiz-adv-x="574" 
d="M488 509.5q33 -34.5 33 -95.5q0 -22 -2 -34l-54 -380h-126l52 359q2 20 2 27q0 53 -43 53q-38 0 -74.5 -37t-68.5 -99l-42 -303h-126l74 528l9 62q10 74 63 119.5t139 45.5q71 0 133 -32l-45 -84q-38 19 -82 19q-38 0 -57.5 -18.5t-25.5 -57.5l-7 -54l-14 -93
q31 51 74.5 80t94.5 29q60 0 93 -34.5z" />
    <glyph glyph-name="uni0267" unicode="&#x267;" horiz-adv-x="574" 
d="M488 509.5q33 -34.5 33 -95.5q0 -22 -2 -34l-54 -380l-6 -46q-13 -85 -64.5 -128.5t-130.5 -43.5q-72 0 -124 42l53 76q18 -11 31.5 -16t33.5 -5q30 0 49.5 17t23.5 52l8 52l52 359q2 20 2 27q0 53 -43 53q-38 0 -74.5 -37t-68.5 -99l-42 -303h-126l74 528l9 62
q10 74 63 119.5t139 45.5q71 0 133 -32l-45 -84q-38 19 -82 19q-38 0 -57.5 -18.5t-25.5 -57.5l-7 -54l-14 -93q31 51 74.5 80t94.5 29q60 0 93 -34.5z" />
    <glyph glyph-name="uni0268" unicode="&#x268;" horiz-adv-x="322" 
d="M165 661.5q-20 19.5 -20 49.5q0 37 25 61.5t62 24.5q33 0 52.5 -19.5t19.5 -50.5q0 -36 -25 -60.5t-62 -24.5q-32 0 -52 19.5zM320 328l-14 -92h-87l-33 -236h-126l33 236h-86l14 92h85l28 201h126l-28 -201h88z" />
    <glyph glyph-name="uni0269" unicode="&#x269;" horiz-adv-x="288" 
d="M108 529h126l-57 -404q-1 -5 -1 -12q0 -25 24 -25q16 0 31 6l18 -90q-41 -19 -87 -19q-54 0 -83 28.5t-29 83.5q0 21 2 33z" />
    <glyph glyph-name="uni026A" unicode="&#x26a;" horiz-adv-x="325" 
d="M333 437h-84l-48 -345h83l-13 -92h-292l13 92h82l49 345h-82l12 92h292z" />
    <glyph glyph-name="uni026B" unicode="&#x26b;" horiz-adv-x="426" 
d="M247 125l-1 -11q0 -14 6 -20t18 -6q10 0 30 6l19 -90q-41 -19 -88 -19q-53 0 -82 28.5t-29 83.5q0 21 2 33l30 215q-10 2 -16 2q-26 0 -44 -15t-36 -41l-68 42q70 111 162 111q11 0 16 -1l42 298l128 14l-52 -369q10 -2 15 -2q25 0 44 14t35 38l67 -42q-30 -48 -68.5 -78
t-90.5 -30q-11 0 -16 1z" />
    <glyph glyph-name="uni026C" unicode="&#x26c;" horiz-adv-x="401" 
d="M312 94l19 -90q-41 -19 -88 -19q-53 0 -82 28.5t-29 83.5q0 21 2 33l16 117q-67 3 -101.5 32t-34.5 77q0 52 37 84t94 32q22 0 37 -3l38 272l128 14l-61 -432h1q23 1 76 11l2 -70q-43 -11 -89 -14l-18 -125l-1 -11q0 -14 6 -20t18 -6q10 0 30 6zM172 401q-11 3 -24 3
q-19 0 -31.5 -12t-12.5 -32q0 -38 57 -38z" />
    <glyph glyph-name="uni026D" unicode="&#x26d;" horiz-adv-x="278" 
d="M318 -179q-59 -39 -133 -39q-73 0 -114 37t-41 107q0 9 2 33l6 41h1l104 741l128 14l-106 -755h-1l-7 -57q-1 -6 -1 -17q0 -25 12 -36t36 -11q22 0 38 4.5t38 15.5z" />
    <glyph glyph-name="uni026E" unicode="&#x26e;" horiz-adv-x="679" 
d="M653 438l-225 -228q95 -4 144.5 -48.5t49.5 -123.5q0 -76 -36.5 -134t-100.5 -90t-145 -32q-65 0 -113 21t-84 61l71 72q29 -29 58 -41.5t69 -12.5q70 0 110.5 43t40.5 113q0 50 -29 70t-94 20h-88l1 1l11 80l214 221h-287l-43 -305l-1 -11q0 -14 6 -20t18 -6q10 0 30 6
l19 -90q-41 -19 -88 -19q-53 0 -82 28.5t-29 83.5q0 21 2 33l86 611l128 14l-32 -226h431z" />
    <glyph glyph-name="uni026F" unicode="&#x26f;" horiz-adv-x="839" 
d="M800 529l-74 -529h-109l5 93q-74 -108 -169 -108q-46 0 -77.5 27t-38.5 76q-34 -49 -77 -76t-90 -27q-54 0 -86 34.5t-32 94.5q0 22 2 34l54 381h126l-51 -359q-2 -20 -2 -27q0 -30 11.5 -41.5t32.5 -11.5q58 0 123 131l44 308h126l-51 -359q-2 -20 -2 -27
q0 -30 11.5 -41.5t32.5 -11.5q57 0 123 135l42 304h126z" />
    <glyph glyph-name="uni0270" unicode="&#x270;" horiz-adv-x="835" 
d="M800 529l-103 -735l-128 -14l42 298q-33 -44 -72.5 -68.5t-84.5 -24.5q-42 0 -75.5 26t-41.5 76q-36 -49 -78.5 -75.5t-88.5 -26.5q-54 0 -86 35t-32 95q0 21 2 33l54 381h126l-52 -358q-2 -11 -2 -29q0 -29 11.5 -40t32.5 -11q31 0 63 34.5t61 92.5l44 311h126l-52 -358
q-2 -11 -2 -29q0 -29 11.5 -40t32.5 -11q31 0 63 34.5t61 93.5l42 310h126z" />
    <glyph glyph-name="uni0271" unicode="&#x271;" horiz-adv-x="839" 
d="M755 509.5q32 -34.5 32 -94.5q0 -22 -2 -34l-54 -381l-6 -46q-13 -85 -64.5 -128.5t-130.5 -43.5q-72 0 -124 42l53 76q18 -11 31.5 -16t33.5 -5q30 0 49.5 17t23.5 52l8 52l51 359q2 20 2 27q0 30 -11.5 41.5t-32.5 11.5q-57 0 -123 -131l-44 -308h-126l51 359
q2 20 2 27q0 30 -11.5 41.5t-32.5 11.5q-57 0 -123 -135l-42 -304h-126l74 529h109l-5 -93q74 108 169 108q46 0 77.5 -27t38.5 -76q34 49 77 76t90 27q54 0 86 -34.5z" />
    <glyph glyph-name="uni0272" unicode="&#x272;" horiz-adv-x="573" 
d="M488.5 509.5q32.5 -34.5 32.5 -95.5q0 -16 -3 -36l-53 -378h-126l51 359q2 18 2 25q0 30 -12 42.5t-33 12.5q-68 0 -139 -136l-43 -303l-6 -46q-13 -85 -64.5 -128.5t-130.5 -43.5q-72 0 -124 42l53 76q18 -11 31.5 -16t33.5 -5q30 0 49.5 17t23.5 52l8 52l74 529h109
l-5 -98q78 113 182 113q57 0 89.5 -34.5z" />
    <glyph glyph-name="uni0273" unicode="&#x273;" horiz-adv-x="573" 
d="M619 -179q-59 -39 -133 -39q-73 0 -114 37t-41 107q0 9 2 33l6 41l51 359q2 18 2 25q0 30 -12 42.5t-33 12.5q-68 0 -139 -136l-43 -303h-126l74 529h109l-5 -98q78 113 182 113q57 0 89.5 -34.5t32.5 -95.5q0 -16 -3 -36l-53 -378l-7 -57q-1 -6 -1 -17q0 -25 12 -36
t36 -11q22 0 38 4.5t38 15.5z" />
    <glyph glyph-name="uni0274" unicode="&#x274;" horiz-adv-x="583" 
d="M470 0h-154l-124 411q0 -123 -15 -236l-25 -175h-113l74 529h153l125 -412q-1 17 -1 53q0 62 10 136l31 223h113z" />
    <glyph glyph-name="uni0275" unicode="&#x275;" horiz-adv-x="576" 
d="M481.5 484.5q55.5 -59.5 55.5 -162.5q0 -78 -28 -155t-92 -129.5t-165 -52.5q-102 0 -157.5 59t-55.5 164q0 78 28.5 155t92.5 129t164 52q102 0 157.5 -59.5zM226.5 409.5q-34.5 -39.5 -49.5 -100.5h234q1 8 1 22q0 118 -94 118q-57 0 -91.5 -39.5zM351 122.5
q34 41.5 49 106.5h-235q-1 -11 -1 -30q0 -61 23 -89.5t71 -28.5q59 0 93 41.5z" />
    <glyph glyph-name="uni0276" unicode="&#x276;" horiz-adv-x="751" 
d="M495 438q35 -52 38 -124h157l-13 -91h-153q-19 -77 -75 -131h251l-13 -92h-352q-42 -15 -85 -15q-100 0 -155.5 59.5t-55.5 163.5q0 78 28.5 155t92 129t163.5 52q44 0 89 -15h349l-27 -91h-239zM259 82q55 0 88 41.5t46 99.5t13 113q0 111 -89 111q-55 0 -88 -40.5
t-46.5 -97.5t-13.5 -111q0 -116 90 -116z" />
    <glyph glyph-name="uni0277" unicode="&#x277;" horiz-adv-x="755" 
d="M636 478q76 -66 76 -186q0 -80 -26.5 -150.5t-78 -113.5t-123.5 -43q-121 0 -128 118q-24 -63 -62 -90.5t-98 -27.5q-73 0 -117 48t-44 143q0 115 46 198t131.5 126.5t203.5 43.5q144 0 220 -66zM560 141q28 59 28 148q0 80 -43 121t-139 41q-125 0 -186 -71.5
t-61 -203.5q0 -49 15 -71.5t46 -22.5q73 0 87 104l16 116l121 16l-19 -140q-3 -16 -3 -32q0 -64 55 -64t83 59z" />
    <glyph glyph-name="uni0278" unicode="&#x278;" horiz-adv-x="639" 
d="M576.5 161q-31.5 -69 -91 -110.5t-141.5 -46.5l-30 -208l-126 -14l32 222q-86 9 -137.5 63t-51.5 146q0 87 31.5 156t91 110t140.5 46l29 215l126 13l-31 -228q87 -9 138.5 -63t51.5 -146q0 -86 -31.5 -155zM240 92l50 346q-67 -9 -100 -72t-33 -156q0 -109 83 -118z
M449 163.5q33 62.5 33 156.5q0 56 -21 84.5t-63 32.5l-50 -345q68 9 101 71.5z" />
    <glyph glyph-name="uni0279" unicode="&#x279;" horiz-adv-x="387" 
d="M-36 -6l37 123q24 -6 44 -6q47 0 80 40t60 117l37 261h126l-74 -529h-109l4 103q-29 -58 -68 -87.5t-84 -29.5q-26 0 -53 8z" />
    <glyph glyph-name="uni027A" unicode="&#x27a;" horiz-adv-x="387" 
d="M378 740l-30 -211l-74 -529h-109l4 103q-29 -58 -68 -87.5t-84 -29.5q-26 0 -53 8l37 123q24 -6 44 -6q47 0 80 40t60 117l37 261l31 224z" />
    <glyph glyph-name="uni027B" unicode="&#x27b;" horiz-adv-x="387" 
d="M428 -179q-59 -39 -133 -39q-73 0 -114 37t-41 107q0 9 2 33l6 41l13 85q-27 -47 -64 -73t-79 -26q-27 0 -53 8l36 124q19 -6 44 -6q48 0 80.5 40t59.5 117l37 260h126l-74 -529l-7 -57q-1 -6 -1 -17q0 -25 12 -36t36 -11q22 0 38 4.5t38 15.5z" />
    <glyph glyph-name="uni027C" unicode="&#x27c;" horiz-adv-x="388" 
d="M423 535l-36 -123q-24 6 -44 6q-47 0 -80.5 -40.5t-60.5 -116.5l-68 -466l-126 -15l106 749h109l-4 -103q28 57 67.5 87t83.5 30q27 0 53 -8z" />
    <glyph glyph-name="uni027D" unicode="&#x27d;" horiz-adv-x="387" 
d="M423 535l-37 -123q-24 6 -44 6q-47 0 -80 -40t-60 -117l-37 -261l-7 -57q-1 -6 -1 -17q0 -25 12 -36t36 -11q22 0 38 4.5t38 15.5l38 -78q-59 -39 -133 -39q-73 0 -114 37t-41 107q0 9 2 33l6 41l74 529h109l-4 -103q29 58 68 87.5t84 29.5q26 0 53 -8z" />
    <glyph glyph-name="uni027E" unicode="&#x27e;" horiz-adv-x="376" 
d="M405 504l-53 -76q-18 11 -31.5 16t-33.5 5q-30 0 -49.5 -17t-23.5 -52l-8 -52l-46 -328h-126l46 328l6 46q13 85 64.5 128.5t130.5 43.5q72 0 124 -42z" />
    <glyph glyph-name="uni027F" unicode="&#x27f;" horiz-adv-x="380" 
d="M284 509q41 -37 41 -107q0 -9 -2 -33l-6 -41l-45 -328h-126l45 328l7 57q1 6 1 17q0 25 -12 36t-36 11q-22 0 -38 -4.5t-38 -15.5l-38 78q59 39 133 39q73 0 114 -37z" />
    <glyph glyph-name="uni0280" unicode="&#x280;" horiz-adv-x="526" 
d="M359 213l107 -213h-132l-86 192h-59l-27 -192h-123l74 529h165q100 0 152 -37.5t52 -111.5q0 -119 -123 -167zM201 281h48q51 0 78.5 25t27.5 69q0 35 -21 49t-67 14h-44z" />
    <glyph glyph-name="uni0281" unicode="&#x281;" horiz-adv-x="527" 
d="M455 190q0 -94 -66.5 -142t-180.5 -48h-169l74 529h123l-27 -191h62l138 191h132l-166 -213q80 -37 80 -126zM299 114.5q30 23.5 30 71.5q0 63 -83 63h-50l-22 -158h40q55 0 85 23.5z" />
    <glyph glyph-name="uni0282" unicode="&#x282;" horiz-adv-x="468" 
d="M393 262q35 -38 35 -101q0 -52 -28 -92t-80 -62t-121 -22q-53 0 -105 20l-8 -63q-1 -6 -1 -16q0 -26 13.5 -37.5t40.5 -11.5q24 0 41.5 5.5t40.5 17.5l37 -81q-58 -38 -133 -38q-73 0 -113 36t-40 104q0 17 3 37l15 109l58 65q75 -51 152 -51q51 0 75.5 20.5t24.5 47.5
q0 21 -9.5 34t-31 23.5t-67.5 26.5q-70 23 -104 59.5t-34 90.5q0 42 24.5 79t73.5 59.5t118 22.5q52 0 100 -18t82 -49l-58 -74q-25 22 -58.5 34t-65.5 12q-43 0 -66 -15t-23 -41q0 -24 21.5 -38t82.5 -33q73 -22 108 -60z" />
    <glyph glyph-name="uni0283" unicode="&#x283;" horiz-adv-x="278" 
d="M432 715l-50 -77q-17 10 -31.5 15t-33.5 5q-60 0 -70 -70l-8 -59l-74 -529l-6 -46q-13 -85 -64.5 -128.5t-130.5 -43.5q-72 0 -124 42l53 76q18 -11 31.5 -16t33.5 -5q30 0 49.5 17t23.5 52l8 52l74 529l8 57q11 81 60.5 125t128.5 44q70 0 122 -40z" />
    <glyph glyph-name="uni0284" unicode="&#x284;" horiz-adv-x="325" 
d="M459 715l-50 -77q-17 10 -31.5 15t-33.5 5q-60 0 -70 -70l-8 -59l-61 -437h83l-13 -92h-85q-15 -61 -44 -101.5t-70.5 -66.5t-102.5 -50l-31 90q56 25 83.5 51t39.5 77h-89l13 92h89l62 437l8 57q11 81 60.5 125t128.5 44q70 0 122 -40z" />
    <glyph glyph-name="uni0285" unicode="&#x285;" horiz-adv-x="473" 
d="M444 24q-59 -39 -133 -39q-73 0 -114 37t-41 107q0 9 2 33l6 41h1l17 123h1l7 57q1 6 1 17q0 25 -12 36t-36 11q-22 0 -38 -4.5t-38 -15.5l-38 78q59 39 133 39q73 0 114 -37t41 -107q0 -9 -2 -33l-6 -41h-1l-17 -123h-1l-7 -57q-1 -6 -1 -17q0 -25 12 -36t36 -11
q22 0 38 4.5t38 15.5z" />
    <glyph glyph-name="uni0286" unicode="&#x286;" horiz-adv-x="321" 
d="M475 715l-50 -77q-17 10 -31.5 15t-33.5 5q-60 0 -70 -70l-8 -59l-75 -530l-1 -7q51 -13 99 -39l-31 -57q-43 19 -83 30q-23 -72 -72.5 -107.5t-126.5 -35.5q-59 0 -93 29t-34 79q0 59 44.5 93.5t112.5 34.5q41 0 62 -3l80 570q11 81 60.5 125t128.5 44q70 0 122 -40z
M44.5 -121.5q19.5 22.5 29.5 70.5q-19 3 -51 3q-35 0 -54.5 -16t-19.5 -41q0 -18 11 -28.5t32 -10.5q33 0 52.5 22.5z" />
    <glyph glyph-name="uni0287" unicode="&#x287;" horiz-adv-x="367" 
d="M326 0h-87l-33 -120l-106 -12l18 132h-122l27 92h108l39 278q2 20 2 25q0 24 -10 34.5t-32 10.5q-28 0 -68 -19l-36 85q61 38 133 38q67 0 103.5 -35.5t36.5 -100.5q0 -18 -3 -39l-39 -277h82z" />
    <glyph glyph-name="uni0288" unicode="&#x288;" horiz-adv-x="366" 
d="M167 -57q-1 -6 -1 -17q0 -25 12 -36t36 -11q22 0 38 4.5t38 15.5l38 -78q-59 -39 -133 -39q-73 0 -114 37t-41 107q0 9 2 33l6 41h1l61 437h-82l13 92h87l33 120l106 12l-18 -132h121l-26 -92h-108l-61 -437h-1z" />
    <glyph glyph-name="uni0289" unicode="&#x289;" horiz-adv-x="605" 
d="M597 306h-80l-43 -306h-109l5 87q-37 -49 -79 -75.5t-92 -26.5q-62 0 -95.5 34.5t-33.5 95.5q0 18 3 37l22 154h-79l12 85h79l19 138h126l-19 -138h170l19 138h126l-19 -138h80zM391 306h-171l-19 -138q-2 -20 -2 -28q0 -29 11.5 -41t34.5 -12q35 0 66.5 28t62.5 74z" />
    <glyph glyph-name="uni028A" unicode="&#x28a;" horiz-adv-x="579" 
d="M136 12q-49 27 -75 74t-26 107q0 77 33.5 139.5t96.5 106.5h-84l13 90h182l-12 -89q-49 -50 -73.5 -112t-24.5 -131q0 -117 93 -117q73 0 109.5 61.5t36.5 147.5q0 53 -11 90t-31 65l10 85h183l-14 -90h-85q36 -35 56 -75t20 -93q0 -80 -36.5 -145.5t-100.5 -103
t-144 -37.5q-67 0 -116 27z" />
    <glyph glyph-name="uni028B" unicode="&#x28b;" horiz-adv-x="566" 
d="M104 25.5q-48 40.5 -48 113.5q0 20 2 31l50 359h126l-50 -355q-2 -20 -2 -26q0 -66 59 -66q51 0 88.5 41t50.5 133l21 154q1 4 1 11q0 24 -25 24q-12 0 -25 -5l-17 88q38 16 78 16q54 0 84.5 -29.5t30.5 -84.5q0 -8 -2 -30l-20 -144q-19 -138 -95.5 -204.5t-182.5 -66.5
q-76 0 -124 40.5z" />
    <glyph glyph-name="uni028C" unicode="&#x28c;" horiz-adv-x="496" 
d="M-36 0l243 529h151l99 -529h-136l-52 426l-171 -426h-134z" />
    <glyph glyph-name="uni028D" unicode="&#x28d;" horiz-adv-x="726" 
d="M-25 0l186 529h157l21 -415l139 415h156l42 -529h-126l-12 435l-152 -435h-129l-23 435l-138 -435h-121z" />
    <glyph glyph-name="uni028E" unicode="&#x28e;" horiz-adv-x="498" 
d="M202 533q46 103 120 158.5t188 64.5l4 -93q-77 -11 -118.5 -41t-74.5 -94l46 1l92 -529h-132l-53 442l-179 -442h-132z" />
    <glyph glyph-name="uni028F" unicode="&#x28f;" horiz-adv-x="488" 
d="M524 529l-226 -334l-28 -195h-127l29 194l-133 335h132l75 -244l142 244h136z" />
    <glyph glyph-name="uni0290" unicode="&#x290;" horiz-adv-x="441" 
d="M530 -179q-59 -39 -133 -39q-73 0 -114 37t-41 107q0 9 2 33l6 41h-270l12 92l290 337h-220l14 100h376l-12 -92l-290 -337h240l-14 -100l-7 -57q-1 -6 -1 -17q0 -25 12 -36t36 -11q22 0 38 4.5t38 15.5z" />
    <glyph glyph-name="uni0291" unicode="&#x291;" horiz-adv-x="491" 
d="M443 35.5q-58 -35.5 -157 -35.5q-10 -34 -19 -102l-4 -26l-79 5q10 70 22 123h-226l12 92l298 337h-228l14 100h375l-11 -89l-301 -340h96q51 142 161 142q47 0 76 -25t29 -69q0 -77 -58 -112.5zM386 111.5q23 10.5 23 35.5q0 22 -26 22q-21 0 -37 -15.5t-30 -53.5
q47 1 70 11.5z" />
    <glyph glyph-name="uni0292" unicode="&#x292;" horiz-adv-x="489" 
d="M463 438l-225 -228q95 -4 144.5 -48.5t49.5 -123.5q0 -76 -36.5 -134t-101 -90t-145.5 -32q-72 0 -123 25.5t-87 73.5l76 64q33 -34 63.5 -48.5t72.5 -14.5q70 0 110 43t40 113q0 50 -29 70t-93 20h-88l1 1l11 80l213 221h-265l14 99h410z" />
    <glyph glyph-name="uni0293" unicode="&#x293;" horiz-adv-x="493" 
d="M467 438l-227 -225q96 -3 146 -48t50 -125q0 -90 -52.5 -153.5t-146.5 -89.5l17 -54l-74 -28l-20 69q-30 -2 -45 -2q-91 0 -140.5 34.5t-49.5 97.5q0 57 39 93.5t94 36.5q58 0 90.5 -34t55.5 -116q51 17 76 54.5t25 90.5q0 52 -29 72.5t-93 20.5h-88l1 1l11 79l215 218
h-267l14 99h410zM42.5 -106.5q22.5 -11.5 73.5 -11.5h15q-15 49 -30 67t-40 18q-18 0 -29.5 -11t-11.5 -28q0 -23 22.5 -34.5z" />
    <glyph glyph-name="uni0294" unicode="&#x294;" horiz-adv-x="461" 
d="M144 351l51 16q76 24 112 70.5t36 117.5q0 103 -98 103q-37 0 -70 -14.5t-73 -44.5l-57 69q53 45 104.5 66t116.5 21q100 0 155.5 -53t55.5 -144q0 -98 -48.5 -158t-145.5 -92l-20 -6l-42 -302h-126z" />
    <glyph glyph-name="uni0295" unicode="&#x295;" horiz-adv-x="457" 
d="M162 0l44 302l-17 7q-62 26 -97.5 65.5t-35.5 112.5q0 76 34 137t95.5 96t140.5 35q63 0 110 -23t88 -68l-71 -64q-28 30 -57 44t-66 14q-67 0 -105.5 -48t-38.5 -123q0 -50 25.5 -78t76.5 -43l50 -15l-50 -351h-126z" />
    <glyph glyph-name="uni0296" unicode="&#x296;" horiz-adv-x="504" 
d="M339 753l-44 -314l26 -8q59 -16 97 -59.5t38 -120.5q0 -76 -34 -136.5t-95 -94.5t-138 -34q-63 0 -112 23t-89 67l71 64q30 -30 59 -43.5t66 -13.5q67 0 104.5 46.5t37.5 120.5q0 54 -24.5 83.5t-76.5 43.5l-61 13l49 350z" />
    <glyph glyph-name="uni0297" unicode="&#x297;" horiz-adv-x="485" 
d="M499 481l-62 -73q-22 19 -43.5 27t-49.5 8q-60 0 -100.5 -61t-59.5 -151.5t-19 -178.5t22.5 -126.5t67.5 -38.5q28 0 52 9.5t56 29.5l48 -83q-79 -59 -168 -59q-101 0 -155 70t-54 200q0 125 35.5 237.5t106 182.5t169.5 70q91 0 154 -63z" />
    <glyph glyph-name="uni0298" unicode="&#x298;" horiz-adv-x="786" 
d="M614 670.5q69 -35.5 107 -102.5t38 -159q0 -119 -50 -216t-141.5 -152.5t-209.5 -55.5q-93 0 -162.5 35.5t-107.5 103t-38 159.5q0 119 51 215.5t142.5 152t208.5 55.5q93 0 162 -35.5zM296.5 567.5q-61.5 -44.5 -92.5 -120t-32 -168.5q0 -101 51 -150.5t141 -49.5
q88 0 149.5 44.5t92.5 119.5t31 167q0 102 -50.5 152t-140.5 50q-88 0 -149.5 -44.5zM352.5 292.5q-18.5 18.5 -18.5 46.5q0 34 23.5 57t57.5 23q30 0 48.5 -18.5t18.5 -46.5q0 -34 -23.5 -57t-57.5 -23q-30 0 -48.5 18.5z" />
    <glyph glyph-name="uni0299" unicode="&#x299;" horiz-adv-x="536" 
d="M496 182q0 -93 -68 -137.5t-181 -44.5h-207l72 524q110 20 191 20q95 0 149 -33.5t54 -95.5q-1 -100 -126 -127q116 -12 116 -106zM351.5 340.5q26.5 22.5 26.5 62.5q0 28 -20 41t-61 13q-29 0 -66 -5l-20 -134h69q45 0 71.5 22.5zM332 111q35 22 35 75q0 32 -22 44
t-65 12h-80l-22 -153h66q53 0 88 22z" />
    <glyph glyph-name="uni029A" unicode="&#x29a;" horiz-adv-x="565" 
d="M82.5 27q-56.5 42 -56.5 113q0 57 39.5 95.5t120.5 47.5q-97 26 -97 105q0 41 25 77t73.5 57.5t116.5 21.5q106 0 163.5 -60.5t57.5 -165.5q0 -97 -34 -172.5t-100.5 -118t-158.5 -42.5q-93 0 -149.5 42zM361 148.5q37 68.5 37 168.5q0 72 -24.5 103.5t-74.5 31.5
q-42 0 -65 -20t-23 -51q0 -30 19 -46.5t56 -16.5h38l-26 -88h-27q-113 0 -113 -85q0 -31 21.5 -48t65.5 -17q79 0 116 68.5z" />
    </font>
</defs>
</svg>
