<?xml version="1.0" standalone="no"?>
<!DOCTYPE svg PUBLIC "-//W3C//DTD SVG 1.1//EN" "http://www.w3.org/Graphics/SVG/1.1/DTD/svg11.dtd" >
<svg xmlns="http://www.w3.org/2000/svg" xmlns:xlink="http://www.w3.org/1999/xlink" version="1.1">
<metadata>
Created by FontForge 20170731 at Fri Dec  2 11:32:35 2016
 By Aleksey,,,
Digitized data copyright 2012-2016, The Mozilla Foundation and Telefonica S.A.
</metadata>
<defs>
<font id="FiraSans-ExtraLight" horiz-adv-x="560" >
  <font-face 
    font-family="Fira Sans ExtraLight"
    font-weight="275"
    font-stretch="normal"
    units-per-em="1000"
    panose-1="2 11 4 3 5 0 0 2 0 4"
    ascent="800"
    descent="-200"
    x-height="522"
    cap-height="684"
    bbox="-726 -350 1360 1050"
    underline-thickness="50"
    underline-position="-150"
    unicode-range="U+000D-FEFF"
  />
<missing-glyph horiz-adv-x="666" 
d="M543 1050v-1400h-420v1400h420zM489 998h-311v-1296h311v1296zM409.5 419q25.5 -32 25.5 -83q0 -53 -22.5 -82t-72.5 -36v-45q0 -11 -7.5 -17.5t-17.5 -6.5t-17.5 6.5t-7.5 17.5v84q53 3 72 19.5t19 57.5q0 33 -13 51t-48 18q-29 0 -52 -11q-8 -3 -13 -3q-11 0 -17.5 6.5
t-6.5 16.5q0 19 29.5 29t63.5 10q60 0 85.5 -32zM340 110q10 -10 10 -25q0 -16 -10 -26.5t-25 -10.5t-25 10.5t-10 26.5q0 15 10 25t25 10t25 -10z" />
    <glyph glyph-name="fi" unicode="fi" horiz-adv-x="559" 
d="M402 704l-17 -35q-32 15 -63 23.5t-66 8.5q-50 0 -74 -21t-24 -73v-85h291v-522h-46v483h-245v-483h-46v483h-87v39h87v90q0 63 37 96t105 33q76 0 148 -37z" />
    <glyph glyph-name="fl" unicode="fl" horiz-adv-x="580" 
d="M545 2q-30 -13 -56 -13q-41 0 -63 24t-22 72v593q-39 12 -71 17.5t-69 5.5q-54 0 -80 -21.5t-26 -69.5v-88h141l-6 -39h-135v-483h-46v483h-87v39h87v90q0 61 38.5 95t110.5 34q39 0 71 -6t72 -19v1l46 6v-639q0 -28 11 -41t35 -13q17 0 36 7z" />
    <glyph glyph-name=".notdef" horiz-adv-x="666" 
d="M543 1050v-1400h-420v1400h420zM489 998h-311v-1296h311v1296zM409.5 419q25.5 -32 25.5 -83q0 -53 -22.5 -82t-72.5 -36v-45q0 -11 -7.5 -17.5t-17.5 -6.5t-17.5 6.5t-7.5 17.5v84q53 3 72 19.5t19 57.5q0 33 -13 51t-48 18q-29 0 -52 -11q-8 -3 -13 -3q-11 0 -17.5 6.5
t-6.5 16.5q0 19 29.5 29t63.5 10q60 0 85.5 -32zM340 110q10 -10 10 -25q0 -16 -10 -26.5t-25 -10.5t-25 10.5t-10 26.5q0 15 10 25t25 10t25 -10z" />
    <glyph glyph-name=".null" horiz-adv-x="0" 
 />
    <glyph glyph-name="nonmarkingreturn" unicode="&#xd;" horiz-adv-x="284" 
 />
    <glyph glyph-name="space" unicode=" " horiz-adv-x="284" 
 />
    <glyph glyph-name="exclam" unicode="!" horiz-adv-x="240" 
d="M143 684l-2 -470h-43l-3 470h48zM149 57.5q11 -11.5 11 -28.5t-11 -28.5t-29 -11.5q-17 0 -28.5 11.5t-11.5 28.5t11.5 28.5t28.5 11.5q18 0 29 -11.5z" />
    <glyph glyph-name="quotedbl" unicode="&#x22;" horiz-adv-x="349" 
d="M82 436l-7 248h49l-7 -248h-35zM232 436l-7 248h49l-7 -248h-35z" />
    <glyph glyph-name="numbersign" unicode="#" horiz-adv-x="498" 
d="M483 454h-79l-30 -230h72v-38h-77l-25 -186h-43l25 186h-193l-25 -186h-43l25 186h-75v38h80l30 230h-73v39h78l23 171h43l-23 -171h193l23 171h43l-23 -171h74v-39zM331 224l30 230h-193l-30 -230h193z" />
    <glyph glyph-name="dollar" unicode="$" horiz-adv-x="524" 
d="M415 50.5q-50 -51.5 -133 -59.5v-140h-41v138q-113 3 -197 82l28 30q37 -34 79.5 -52.5t98.5 -18.5q75 0 121.5 40t46.5 109q0 43 -15.5 70.5t-50 47t-96.5 38.5q-102 32 -144 71.5t-42 106.5q0 66 47 110.5t124 48.5v145h41v-145q50 -3 88 -20.5t75 -50.5l-29 -30
q-35 33 -72 47.5t-85 14.5q-64 0 -103 -32.5t-39 -86.5q0 -36 14.5 -60t48 -42t94.5 -37q67 -21 108 -44.5t62 -59.5t21 -91q0 -78 -50 -129.5z" />
    <glyph glyph-name="percent" unicode="%" horiz-adv-x="781" 
d="M609 701l35 -23l-463 -699l-35 22zM306 631.5q40 -43.5 40 -115.5q0 -74 -39 -118t-106 -44q-65 0 -105 43.5t-40 116.5t39.5 117t105.5 44q65 0 105 -43.5zM124.5 605q-24.5 -35 -24.5 -91q0 -54 25 -89t76 -35q52 0 76.5 35t24.5 91q0 54 -25 89t-76 35
q-52 0 -76.5 -35zM685 266.5q40 -43.5 40 -115.5q0 -74 -39 -118t-106 -44q-64 0 -104.5 44t-40.5 116q0 73 39.5 117t105.5 44q65 0 105 -43.5zM504 239.5q-25 -35.5 -25 -90.5q0 -54 25 -89t76 -35q52 0 76.5 35t24.5 91q0 54 -24.5 89t-76.5 35q-51 0 -76 -35.5z" />
    <glyph glyph-name="ampersand" unicode="&#x26;" horiz-adv-x="719" 
d="M416.5 653q44.5 -41 44.5 -105q0 -57 -37.5 -98.5t-119.5 -86.5l215 -201q45 92 68 198l43 -13q-29 -121 -83 -213l129 -118l-36 -27l-117 109q-42 -52 -95.5 -80.5t-129.5 -28.5q-57 0 -103.5 22.5t-73.5 64t-27 94.5q0 65 36 111t109 88q-56 52 -79 88.5t-23 85.5
q0 65 45.5 108t118.5 43q71 0 115.5 -41zM215.5 624.5q-32.5 -32.5 -32.5 -80.5q0 -27 7 -47.5t26.5 -45t59.5 -61.5q73 39 106 75t33 81q0 52 -32 81.5t-82 29.5q-53 0 -85.5 -32.5zM172.5 264.5q-31.5 -40.5 -31.5 -93.5q0 -63 45.5 -102.5t114.5 -39.5q64 0 109.5 24.5
t83.5 72.5l-227 217q-63 -38 -94.5 -78.5z" />
    <glyph glyph-name="quotesingle" unicode="'" horiz-adv-x="199" 
d="M82 436l-7 248h49l-7 -248h-35z" />
    <glyph glyph-name="parenleft" unicode="(" horiz-adv-x="324" 
d="M265 815q-54 -80 -86.5 -141t-52.5 -140.5t-20 -183.5q0 -103 20 -182.5t52.5 -141.5t86.5 -141l-29 -20q-61 85 -96.5 147.5t-58 145.5t-22.5 192t22.5 192t58 145.5t96.5 147.5z" />
    <glyph glyph-name="parenright" unicode=")" horiz-adv-x="324" 
d="M184.5 687.5q35.5 -62.5 58 -145.5t22.5 -192t-22.5 -192t-58 -145.5t-96.5 -147.5l-29 20q54 79 86.5 141t52.5 141.5t20 182.5q0 104 -20 183.5t-52.5 140.5t-86.5 141l29 20q61 -85 96.5 -147.5z" />
    <glyph glyph-name="asterisk" unicode="*" horiz-adv-x="435" 
d="M396 589l-152 -42l98 -125l-37 -27l-87 131l-88 -131l-37 27l98 124l-152 43l13 41l148 -55l-5 160h45l-5 -158l147 54z" />
    <glyph glyph-name="plus" unicode="+" horiz-adv-x="491" 
d="M268 504v-153h151v-41h-151v-153h-45v153h-151v41h151v153h45z" />
    <glyph glyph-name="comma" unicode="," horiz-adv-x="195" 
d="M126.5 57.5q11.5 -11.5 11.5 -28.5q0 -15 -14 -49l-52 -126h-34l40 141q-10 4 -15.5 13.5t-5.5 20.5q0 17 11.5 28.5t28.5 11.5q18 0 29.5 -11.5z" />
    <glyph glyph-name="hyphen" unicode="-" horiz-adv-x="400" 
d="M71 293v40h258v-40h-258z" />
    <glyph glyph-name="period" unicode="." horiz-adv-x="195" 
d="M126.5 57.5q11.5 -11.5 11.5 -28.5t-11.5 -28.5t-29.5 -11.5q-17 0 -28.5 11.5t-11.5 28.5t11.5 28.5t28.5 11.5q18 0 29.5 -11.5z" />
    <glyph glyph-name="slash" unicode="/" horiz-adv-x="520" 
d="M356 801l40 -11l-232 -888l-40 11z" />
    <glyph glyph-name="zero" unicode="0" horiz-adv-x="547" 
d="M425 588q52 -87 52 -257q0 -169 -52 -255.5t-151 -86.5t-151.5 87.5t-52.5 256.5t52 255.5t152 86.5q99 0 151 -87zM158 561q-40 -75 -40 -228q0 -304 156 -304q155 0 155 302q0 305 -155 305q-76 0 -116 -75z" />
    <glyph glyph-name="one" unicode="1" horiz-adv-x="406" 
d="M281 664v-664h-46v612l-167 -105l-22 35l196 122h39z" />
    <glyph glyph-name="two" unicode="2" horiz-adv-x="473" 
d="M353 626.5q48 -48.5 48 -123.5q0 -67 -27 -124.5t-84.5 -126t-190.5 -210.5h320l-7 -42h-368v40q139 149 199.5 221.5t85 125t24.5 113.5q0 62 -35.5 98.5t-95.5 36.5q-48 0 -85 -19.5t-68 -57.5l-33 24q39 48 84 70.5t104 22.5q81 0 129 -48.5z" />
    <glyph glyph-name="three" unicode="3" horiz-adv-x="482" 
d="M349.5 628.5q48.5 -46.5 48.5 -118.5q0 -66 -37 -106.5t-95 -49.5q65 -2 107.5 -46.5t42.5 -121.5q0 -57 -25.5 -102t-72.5 -70t-109 -25q-111 0 -187 85l30 26q35 -38 72 -54t84 -16q75 0 117.5 42.5t42.5 112.5q0 75 -41 111t-114 36h-42l6 38h32q59 0 100.5 35.5
t41.5 102.5q0 59 -36.5 93t-97.5 34q-43 0 -79 -15t-72 -48l-25 29q38 37 81 55.5t97 18.5q82 0 130.5 -46.5z" />
    <glyph glyph-name="four" unicode="4" horiz-adv-x="513" 
d="M476 218v-40h-91v-178h-45v178h-293v36l204 461l39 -16l-194 -441h244l5 200h40v-200h91z" />
    <glyph glyph-name="five" unicode="5" horiz-adv-x="482" 
d="M400 624h-273v-238q52 33 116 33q86 0 136 -54.5t50 -150.5q0 -65 -25.5 -116.5t-72.5 -80t-110 -28.5q-58 0 -102.5 20t-82.5 59l31 28q32 -34 68.5 -50t86.5 -16q73 0 116 50t43 135q0 82 -39.5 123.5t-106.5 41.5q-35 0 -60.5 -8t-55.5 -26h-37v318h326z" />
    <glyph glyph-name="six" unicode="6" horiz-adv-x="520" 
d="M417 378q49 -53 49 -155q0 -71 -24.5 -124t-67.5 -81.5t-98 -28.5q-107 0 -156.5 84t-49.5 222q0 117 28.5 203t81.5 131.5t125 45.5q36 0 64 -9.5t55 -28.5l-21 -33q-24 16 -47.5 24t-51.5 8q-85 0 -134 -85t-53 -223q69 103 175 103q76 0 125 -53zM382 82q37 53 37 140
q0 85 -36 127t-96 42q-53 0 -96.5 -30.5t-73.5 -84.5q3 -119 40.5 -183t118.5 -64q69 0 106 53z" />
    <glyph glyph-name="seven" unicode="7" horiz-adv-x="434" 
d="M397 664v-37l-266 -634l-44 15l261 616h-316v40h365z" />
    <glyph glyph-name="eight" unicode="8" horiz-adv-x="533" 
d="M441.5 277.5q35.5 -40.5 35.5 -106.5q0 -55 -27 -96t-75 -63.5t-110 -22.5q-63 0 -110.5 23t-73 64t-25.5 94q0 67 38 114t110 74q-62 27 -90 62t-28 91q0 51 25 88t66.5 56.5t89.5 19.5t89.5 -19t67 -56t25.5 -89q0 -53 -29 -90.5t-93 -70.5q79 -32 114.5 -72.5z
M158.5 433q26.5 -29 95.5 -55l37 -14q59 31 85 64.5t26 80.5q0 61 -37.5 94.5t-97.5 33.5q-59 0 -97 -33.5t-38 -93.5q0 -48 26.5 -77zM384 67q45 37 45 104q0 42 -15 69.5t-46.5 47.5t-87.5 41l-36 14q-74 -28 -107 -69t-33 -104q0 -67 44 -103.5t118 -36.5q73 0 118 37z
" />
    <glyph glyph-name="nine" unicode="9" horiz-adv-x="515" 
d="M402 604.5q49 -70.5 49 -200.5q0 -126 -37 -207t-107.5 -130.5t-182.5 -84.5l-12 36q140 44 212 119.5t80 210.5q-31 -47 -74 -72.5t-95 -25.5q-51 0 -92 25.5t-64 72.5t-23 110q0 66 25.5 115t70.5 75.5t102 26.5q99 0 148 -70.5zM331 316.5q39 26.5 73 78.5
q0 122 -35.5 181.5t-113.5 59.5q-70 0 -110.5 -47t-40.5 -132q0 -79 37.5 -123t100.5 -44q50 0 89 26.5z" />
    <glyph glyph-name="colon" unicode=":" horiz-adv-x="195" 
d="M126.5 57.5q11.5 -11.5 11.5 -28.5t-11.5 -28.5t-29.5 -11.5q-17 0 -28.5 11.5t-11.5 28.5t11.5 28.5t28.5 11.5q18 0 29.5 -11.5zM126.5 455.5q11.5 -11.5 11.5 -28.5t-11.5 -28.5t-29.5 -11.5q-17 0 -28.5 11.5t-11.5 28.5t11.5 28.5t28.5 11.5q18 0 29.5 -11.5z" />
    <glyph glyph-name="semicolon" unicode=";" horiz-adv-x="195" 
d="M126.5 57.5q11.5 -11.5 11.5 -28.5q0 -15 -14 -49l-52 -126h-34l40 141q-10 4 -15.5 13.5t-5.5 20.5q0 17 11.5 28.5t28.5 11.5q18 0 29.5 -11.5zM126.5 455.5q11.5 -11.5 11.5 -28.5t-11.5 -28.5t-29.5 -11.5q-17 0 -28.5 11.5t-11.5 28.5t11.5 28.5t28.5 11.5
q18 0 29.5 -11.5z" />
    <glyph glyph-name="less" unicode="&#x3c;" horiz-adv-x="496" 
d="M410 521l17 -39l-314 -149l314 -152l-17 -39l-341 171v40z" />
    <glyph glyph-name="equal" unicode="=" horiz-adv-x="491" 
d="M72 394v42h347v-42h-347zM72 225v42h347v-42h-347z" />
    <glyph glyph-name="greater" unicode="&#x3e;" horiz-adv-x="496" 
d="M86 521l341 -168v-40l-341 -171l-17 39l314 152l-314 149z" />
    <glyph glyph-name="question" unicode="?" horiz-adv-x="443" 
d="M321.5 675q37.5 -19 57.5 -51.5t20 -71.5q0 -35 -12.5 -60.5t-30.5 -42t-49 -38.5q-30 -21 -48.5 -37.5t-31 -41.5t-12.5 -60v-58h-45v62q0 42 14 71t33.5 47t51.5 41q41 28 61 52t20 63q0 47 -32 75.5t-87 28.5q-47 0 -82.5 -18t-71.5 -57l-32 25q40 46 85 68t103 22
q51 0 88.5 -19zM224.5 57.5q11.5 -11.5 11.5 -28.5t-11.5 -28.5t-29.5 -11.5q-17 0 -28.5 11.5t-11.5 28.5t11.5 28.5t28.5 11.5q18 0 29.5 -11.5z" />
    <glyph glyph-name="at" unicode="@" horiz-adv-x="1020" 
d="M746 641.5q91 -52.5 137.5 -140.5t46.5 -193q0 -101 -24 -167t-63.5 -97t-88.5 -31q-48 0 -79 31t-40 80q-49 -109 -150 -109q-47 0 -84.5 25.5t-59.5 74.5t-22 117q0 123 57.5 186.5t148.5 63.5q69 0 141 -36v-257q0 -69 23 -103.5t65 -34.5q57 0 93 59.5t36 195.5
q0 98 -41.5 177t-122.5 125t-193 46q-115 0 -203.5 -54.5t-137 -149t-48.5 -211.5q0 -121 48.5 -212t136 -140t203.5 -49q54 0 98.5 8.5t89.5 24.5l12 -38q-52 -18 -96 -27t-105 -9q-126 0 -224.5 53.5t-154 153.5t-55.5 235q0 127 55 231t154 164t227 60q129 0 220 -52.5z
M572.5 86.5q34.5 32.5 49.5 79.5v255q-46 23 -96 23q-75 0 -118 -55.5t-43 -156.5q0 -87 34 -132.5t91 -45.5q48 0 82.5 32.5z" />
    <glyph glyph-name="A" unicode="A" horiz-adv-x="562" 
d="M491 0l-63 192h-297l-63 -192h-48l231 684h60l231 -684h-51zM145 234h270l-134 411z" />
    <glyph glyph-name="B" unicode="B" horiz-adv-x="594" 
d="M493.5 313.5q44.5 -42.5 44.5 -125.5q0 -92 -62.5 -140t-175.5 -48h-185v684h149q116 0 178.5 -43t62.5 -127q0 -65 -33.5 -103t-91.5 -48q69 -7 113.5 -49.5zM162 643v-263h150q65 0 104.5 35t39.5 96q0 69 -47.5 100.5t-139.5 31.5h-107zM439 77q49 36 49 111
q0 76 -46.5 114t-123.5 38h-156v-299h139q89 0 138 36z" />
    <glyph glyph-name="C" unicode="C" horiz-adv-x="547" 
d="M438 679q39 -15 77 -46l-26 -32q-36 28 -68 40t-74 12q-101 0 -164 -76.5t-63 -234.5q0 -102 29.5 -171.5t80 -104t114.5 -34.5q49 0 83 14.5t70 43.5l26 -32q-76 -69 -181 -69q-79 0 -140.5 41t-96.5 120.5t-35 191.5q0 114 36 193t98.5 119t139.5 40q55 0 94 -15z" />
    <glyph glyph-name="D" unicode="D" horiz-adv-x="628" 
d="M472 612q86 -72 86 -264q0 -193 -88 -270.5t-215 -77.5h-140v684h133q138 0 224 -72zM162 643v-602h96q250 0 250 307q0 120 -36 185.5t-92 87.5t-129 22h-89z" />
    <glyph glyph-name="E" unicode="E" horiz-adv-x="504" 
d="M454 684l-6 -41h-286v-266h247v-41h-247v-295h298v-41h-345v684h339z" />
    <glyph glyph-name="F" unicode="F" horiz-adv-x="477" 
d="M115 0v684h333l-6 -41h-280v-279h242v-40h-242v-324h-47z" />
    <glyph glyph-name="G" unicode="G" horiz-adv-x="614" 
d="M448.5 678.5q41.5 -15.5 84.5 -49.5l-29 -31q-37 29 -72.5 42t-80.5 13q-60 0 -112.5 -32t-85.5 -101t-33 -175q0 -156 61.5 -235t169.5 -79q43 0 78.5 9t69.5 28v256h-138l-6 41h191v-321q-93 -55 -195 -55q-85 0 -148 40t-98 120t-35 196q0 113 39.5 192t103.5 118
t138 39q56 0 97.5 -15.5z" />
    <glyph glyph-name="H" unicode="H" horiz-adv-x="667" 
d="M504 0v339h-342v-339h-47v684h47v-303h342v303h48v-684h-48z" />
    <glyph glyph-name="I" unicode="I" horiz-adv-x="277" 
d="M162 684v-684h-47v684h47z" />
    <glyph glyph-name="J" unicode="J" horiz-adv-x="286" 
d="M177 90q0 -58 -13.5 -93.5t-45 -60.5t-89.5 -49l-13 35q46 21 70 42.5t33.5 51t9.5 77.5v591h48v-594z" />
    <glyph glyph-name="K" unicode="K" horiz-adv-x="533" 
d="M162 684v-684h-47v684h47zM516 684l-292 -315l309 -369h-59l-308 367l295 317h55z" />
    <glyph glyph-name="L" unicode="L" horiz-adv-x="470" 
d="M162 684v-640h288l-7 -44h-328v684h47z" />
    <glyph glyph-name="M" unicode="M" horiz-adv-x="768" 
d="M696 0h-46l-34 334q-19 175 -29 304l-180 -556h-46l-186 556q-2 -44 -21 -242q-1 -19 -5 -57l-32 -339h-45l67 684h67l179 -545l174 545h68z" />
    <glyph glyph-name="N" unicode="N" horiz-adv-x="669" 
d="M554 0h-61l-339 631q6 -88 6 -224v-407h-45v684h61l339 -631q-6 99 -6 200v431h45v-684z" />
    <glyph glyph-name="O" unicode="O" horiz-adv-x="691" 
d="M490 653.5q62 -40.5 96.5 -120t34.5 -192.5q0 -111 -34 -190t-96 -120.5t-146 -41.5q-82 0 -144 41t-96.5 120t-34.5 190t34.5 191t97 121.5t143.5 41.5q83 0 145 -40.5zM180.5 573.5q-60.5 -79.5 -60.5 -233.5q0 -151 61 -230t164 -79q107 0 166.5 78.5t59.5 231.5
q0 154 -60 233t-166 79q-104 0 -164.5 -79.5z" />
    <glyph glyph-name="P" unicode="P" horiz-adv-x="566" 
d="M453 634q64 -50 64 -153q0 -109 -67.5 -159t-184.5 -50h-103v-272h-47v684h153q121 0 185 -50zM414.5 350.5q52.5 38.5 52.5 129.5q0 88 -50 125.5t-149 37.5h-106v-331h104q96 0 148.5 38.5z" />
    <glyph glyph-name="Q" unicode="Q" horiz-adv-x="690" 
d="M643 -49l-32 -40q-53 46 -112 63t-154 17q-82 0 -144 40.5t-96.5 119t-34.5 189.5t34.5 191t97 121.5t143.5 41.5q83 0 145 -40.5t96.5 -120t34.5 -192.5q0 -139 -48 -217.5t-131 -105.5q126 -2 201 -67zM181 110q61 -79 164 -79q107 0 166.5 78.5t59.5 231.5
q0 154 -60 233t-166 79q-104 0 -164.5 -79.5t-60.5 -233.5q0 -151 61 -230z" />
    <glyph glyph-name="R" unicode="R" horiz-adv-x="584" 
d="M310 313h-148v-313h-47v684h161q237 0 237 -183q0 -75 -39.5 -118.5t-114.5 -61.5l189 -321h-57zM283 353q180 0 180 148q0 72 -44.5 107t-145.5 35h-111v-290h121z" />
    <glyph glyph-name="S" unicode="S" horiz-adv-x="537" 
d="M371.5 675.5q43.5 -18.5 85.5 -55.5l-28 -31q-39 34 -76.5 49t-85.5 15q-67 0 -107.5 -33.5t-40.5 -88.5q0 -38 15.5 -63t50 -44t97.5 -38q69 -21 111 -45t63.5 -61.5t21.5 -94.5t-27.5 -102t-77.5 -69.5t-115 -24.5q-66 0 -118 22t-96 63l28 31q41 -37 84 -55.5
t101 -18.5q77 0 125 41t48 112q0 44 -16 72.5t-51.5 49t-99.5 40.5q-105 32 -148.5 73t-43.5 111q0 47 24.5 84t69 58.5t101.5 21.5q62 0 105.5 -18.5z" />
    <glyph glyph-name="T" unicode="T" horiz-adv-x="487" 
d="M477 684l-6 -43h-204v-641h-47v641h-205v43h462z" />
    <glyph glyph-name="U" unicode="U" horiz-adv-x="648" 
d="M543 211q0 -101 -55.5 -161.5t-163.5 -60.5t-163.5 60.5t-55.5 161.5v473h47v-469q0 -87 42.5 -135t129.5 -48t129 48.5t42 134.5v469h48v-473z" />
    <glyph glyph-name="V" unicode="V" horiz-adv-x="543" 
d="M523 684l-224 -684h-55l-224 684h51l201 -636l201 636h50z" />
    <glyph glyph-name="W" unicode="W" horiz-adv-x="804" 
d="M771 684l-154 -684h-58l-157 632l-158 -632h-57l-155 684h49l137 -638l157 638h54l159 -638l137 638h46z" />
    <glyph glyph-name="X" unicode="X" horiz-adv-x="505" 
d="M278 371l215 -371h-54l-190 338l-185 -338h-52l210 368l-189 316h54l163 -284l161 284h52z" />
    <glyph glyph-name="Y" unicode="Y" horiz-adv-x="513" 
d="M497 684l-216 -415v-269h-47v268l-218 416h53l190 -372l186 372h52z" />
    <glyph glyph-name="Z" unicode="Z" horiz-adv-x="514" 
d="M465 684v-40l-373 -601h364l-6 -43h-413v40l375 602h-337v42h390z" />
    <glyph glyph-name="bracketleft" unicode="[" horiz-adv-x="315" 
d="M243 803v-38h-109v-838h109v-38h-152v914h152z" />
    <glyph glyph-name="backslash" unicode="\" horiz-adv-x="520" 
d="M164 801l232 -888l-41 -11l-231 889z" />
    <glyph glyph-name="bracketright" unicode="]" horiz-adv-x="315" 
d="M224 803v-914h-152v38h109v838h-109v38h152z" />
    <glyph glyph-name="asciicircum" unicode="^" horiz-adv-x="527" 
d="M282 830l183 -303h-53l-148 254l-148 -254h-54l183 303h37z" />
    <glyph glyph-name="underscore" unicode="_" horiz-adv-x="520" 
d="M33 -115v42h455v-42h-455z" />
    <glyph glyph-name="grave" unicode="`" horiz-adv-x="265" 
d="M51 776l184 -100l-15 -28l-190 84z" />
    <glyph glyph-name="a" unicode="a" horiz-adv-x="534" 
d="M435.5 50q10.5 -19 33.5 -28l-11 -33q-34 9 -51.5 30t-21.5 62q-57 -92 -165 -92q-74 0 -117 42.5t-43 113.5q0 80 57 123.5t155 43.5h107v55q0 65 -29 95t-96 30q-63 0 -142 -31l-13 37q87 34 159 34q86 0 126.5 -41t40.5 -121v-257q0 -44 10.5 -63zM379 127v149h-100
q-82 0 -126 -32.5t-44 -97.5q0 -56 31 -87t86 -31q101 0 153 99z" />
    <glyph glyph-name="b" unicode="b" horiz-adv-x="576" 
d="M455.5 462.5q49.5 -69.5 49.5 -198.5q0 -128 -51.5 -201.5t-144.5 -73.5q-49 0 -88 22t-66 58l-5 -69h-40v735l46 6v-294q65 85 160 85q90 0 139.5 -69.5zM416 89q40 60 40 175t-37.5 172t-109.5 57q-49 0 -84.5 -23.5t-68.5 -68.5v-286q27 -40 64 -63t82 -23
q74 0 114 60z" />
    <glyph glyph-name="c" unicode="c" horiz-adv-x="466" 
d="M362 520q34 -12 66 -39l-24 -31q-26 21 -53.5 31.5t-63.5 10.5q-78 0 -124.5 -60t-46.5 -174q0 -112 46 -170t124 -58q36 0 65 11.5t57 34.5l24 -31q-62 -56 -146 -56q-66 0 -115.5 32t-76.5 92.5t-27 144.5q0 83 27 145t76 95.5t115 33.5q43 0 77 -12z" />
    <glyph glyph-name="d" unicode="d" horiz-adv-x="581" 
d="M471 735v-735h-40l-5 82q-24 -42 -63.5 -67.5t-96.5 -25.5q-89 0 -141.5 72.5t-52.5 197.5q0 81 24.5 142.5t70.5 96t109 34.5q92 0 149 -73v282zM360.5 55q35.5 26 64.5 78v277q-56 83 -143 83q-73 0 -117.5 -61t-44.5 -170q0 -111 40.5 -172t111.5 -61q53 0 88.5 26z
" />
    <glyph glyph-name="e" unicode="e" horiz-adv-x="533" 
d="M469 241h-354q5 -107 51 -159t120 -52q42 0 74 12.5t68 40.5l23 -30q-38 -32 -78 -48t-89 -16q-101 0 -159 71t-58 197q0 83 25 145.5t71.5 96t108.5 33.5q97 0 148 -67t51 -183q0 -21 -2 -41zM426 297q0 91 -38 143.5t-114 52.5q-68 0 -111.5 -53.5t-47.5 -161.5h311v19
z" />
    <glyph glyph-name="f" unicode="f" horiz-adv-x="316" 
d="M160 610v-88h142l-7 -39h-135v-483h-46v483h-89v39h89v90q0 60 37.5 94.5t101.5 34.5q62 0 120 -28l-17 -35q-52 23 -101 23q-95 0 -95 -91z" />
    <glyph glyph-name="g" unicode="g" horiz-adv-x="497" 
d="M486 516q-45 -14 -142 -15q88 -42 88 -146q0 -77 -50 -123.5t-135 -46.5q-38 0 -69 11q-21 -11 -32.5 -28t-11.5 -36q0 -58 88 -58h86q75 0 119 -35.5t44 -93.5q0 -71 -55 -109.5t-165 -38.5q-114 0 -164.5 34.5t-50.5 112.5h44q1 -40 17 -63t52.5 -33.5t101.5 -10.5
q173 0 173 105q0 43 -32.5 67t-90.5 24h-85q-61 0 -94 25.5t-33 64.5q0 51 57 87q-45 23 -66 59t-21 89q0 78 51 126t136 48q98 -1 140.5 6t84.5 24zM141.5 458q-35.5 -37 -35.5 -100q0 -65 38 -101t102 -36q67 0 103 35t36 100t-35 102t-103 37q-70 0 -105.5 -37z" />
    <glyph glyph-name="h" unicode="h" horiz-adv-x="583" 
d="M441.5 490q36.5 -42 36.5 -118v-372h-46v366q0 128 -104 128q-53 0 -94 -29.5t-78 -83.5v-381h-46v735l46 6v-311q74 102 179 102q70 0 106.5 -42z" />
    <glyph glyph-name="i" unicode="i" horiz-adv-x="266" 
d="M156 522v-522h-46v522h46zM159 734q10 -10 10 -25t-10 -25t-26 -10t-26 10t-10 25t10 25t26 10t26 -10z" />
    <glyph glyph-name="j" unicode="j" horiz-adv-x="266" 
d="M156 14q0 -66 -14 -105t-41 -62.5t-76 -46.5l-13 33q38 19 58 38.5t30 52t10 89.5v509h46v-508zM159 734q10 -10 10 -25t-10 -25t-26 -10t-26 10t-10 25t10 25t26 10t26 -10z" />
    <glyph glyph-name="k" unicode="k" horiz-adv-x="480" 
d="M156 741v-741h-46v735zM445 522l-228 -235l252 -287h-56l-251 285l229 237h54z" />
    <glyph glyph-name="l" unicode="l" horiz-adv-x="281" 
d="M128 12.5q-23 23.5 -23 69.5v653l46 6v-657q0 -54 45 -54q18 0 37 7l13 -35q-28 -13 -55 -13q-40 0 -63 23.5z" />
    <glyph glyph-name="m" unicode="m" horiz-adv-x="851" 
d="M711 489.5q35 -42.5 35 -117.5v-372h-46v366q0 65 -24.5 96.5t-69.5 31.5q-46 0 -84 -29.5t-71 -83.5v-381h-46v366q0 65 -24.5 96.5t-69.5 31.5q-46 0 -84 -29.5t-71 -83.5v-381h-46v522h40l4 -92q31 48 73 75t91 27q50 0 83.5 -28t44.5 -79q32 50 74.5 78.5t92.5 28.5
q63 0 98 -42.5z" />
    <glyph glyph-name="n" unicode="n" horiz-adv-x="583" 
d="M442 490.5q36 -41.5 36 -118.5v-372h-46v366q0 66 -26 97t-78 31q-53 0 -94 -29t-78 -84v-381h-46v522h40l4 -93q74 103 181 103q71 0 107 -41.5z" />
    <glyph glyph-name="o" unicode="o" horiz-adv-x="567" 
d="M443 461.5q57 -70.5 57 -198.5t-58 -201t-159 -73t-158.5 72.5t-57.5 198.5q0 127 58.5 199.5t158.5 72.5q102 0 159 -70.5zM160 432.5q-45 -59.5 -45 -172.5q0 -111 44 -171t124 -60q79 0 124 60t45 174q0 112 -44 170.5t-124 58.5q-79 0 -124 -59.5z" />
    <glyph glyph-name="p" unicode="p" horiz-adv-x="576" 
d="M457 462.5q48 -69.5 48 -198.5q0 -128 -51 -201.5t-145 -73.5q-48 0 -87.5 21t-65.5 55v-260l-46 -8v725h40l3 -79q30 42 71 65.5t92 23.5q93 0 141 -69.5zM416.5 89.5q39.5 59.5 39.5 174.5q0 229 -146 229q-49 0 -85 -24t-69 -68v-287q27 -40 63.5 -62t82.5 -22
q75 0 114.5 59.5z" />
    <glyph glyph-name="q" unicode="q" horiz-adv-x="581" 
d="M471 522v-725l-46 8v274q-25 -41 -64 -65.5t-94 -24.5q-90 0 -142.5 72.5t-52.5 197.5q0 81 24.5 142.5t71 96t109.5 34.5q52 0 88 -21t62 -54l4 65h40zM361.5 54.5q35.5 25.5 63.5 76.5v280q-56 82 -142 82q-74 0 -118.5 -61t-44.5 -170q0 -112 40.5 -172.5t112.5 -60.5
q53 0 88.5 25.5z" />
    <glyph glyph-name="r" unicode="r" horiz-adv-x="369" 
d="M355 526l-9 -43q-20 6 -46 6q-55 0 -88.5 -39.5t-55.5 -123.5v-326h-46v522h40l3 -121q21 67 57.5 99t92.5 32q34 0 52 -6z" />
    <glyph glyph-name="s" unicode="s" horiz-adv-x="463" 
d="M318.5 518q38.5 -14 76.5 -43l-23 -31q-35 26 -66.5 37.5t-71.5 11.5q-55 0 -89 -25.5t-34 -69.5q0 -40 29 -62t103 -42q90 -24 128 -57.5t38 -98.5q0 -68 -51.5 -108.5t-130.5 -40.5q-59 0 -102 17.5t-81 49.5l26 30q36 -29 72 -43t84 -14q60 0 97.5 28.5t37.5 79.5
q0 34 -12 55t-42 35.5t-87 30.5q-84 22 -120 54t-36 86q0 59 48 96.5t121 37.5q47 0 85.5 -14z" />
    <glyph glyph-name="t" unicode="t" horiz-adv-x="334" 
d="M338 21q-50 -32 -108 -32q-57 0 -89.5 34t-32.5 100v360h-87v39h87v127l46 5v-132h138l-6 -39h-132v-357q0 -96 81 -96q42 0 84 24z" />
    <glyph glyph-name="u" unicode="u" horiz-adv-x="578" 
d="M468 0h-39l-3 97q-61 -108 -173 -108q-71 0 -109.5 41.5t-38.5 118.5v373h46v-369q0 -64 28 -94t83 -30q96 0 160 112v381h46v-522z" />
    <glyph glyph-name="v" unicode="v" horiz-adv-x="462" 
d="M445 522l-181 -522h-58l-189 522h51l167 -482l160 482h50z" />
    <glyph glyph-name="w" unicode="w" horiz-adv-x="692" 
d="M664 522l-130 -522h-62l-125 478l-125 -478h-61l-134 522h49l117 -484l128 484h54l128 -485l116 485h45z" />
    <glyph glyph-name="x" unicode="x" horiz-adv-x="449" 
d="M252 280l185 -280h-55l-159 250l-158 -250h-53l184 278l-160 244h54l135 -215l135 215h53z" />
    <glyph glyph-name="y" unicode="y" horiz-adv-x="459" 
d="M261 -2q-21 -61 -44.5 -98.5t-60.5 -62t-97 -38.5l-6 36q51 14 80.5 33.5t46.5 49t37 82.5h-16l-184 522h50l165 -487l160 487h50z" />
    <glyph glyph-name="z" unicode="z" horiz-adv-x="417" 
d="M382 522v-37l-298 -444h295l-5 -41h-345v36l299 445h-275v41h329z" />
    <glyph glyph-name="braceleft" unicode="{" horiz-adv-x="327" 
d="M256 789q-45 0 -64.5 -19.5t-19.5 -62.5v-258q0 -48 -17.5 -69t-57.5 -31q40 -10 57.5 -30.5t17.5 -69.5v-258q0 -42 19.5 -61.5t64.5 -19.5v-37q-64 0 -95.5 28t-31.5 89v267q0 38 -19.5 54.5t-58.5 16.5v42q39 0 58.5 16.5t19.5 55.5v267q0 61 31.5 89t95.5 28v-37z
" />
    <glyph glyph-name="bar" unicode="|" horiz-adv-x="408" 
d="M226 803v-903h-44v903h44z" />
    <glyph glyph-name="braceright" unicode="}" horiz-adv-x="327" 
d="M166.5 798q31.5 -28 31.5 -89v-267q0 -39 20 -55.5t58 -16.5v-42q-38 0 -58 -16.5t-20 -54.5v-267q0 -61 -31.5 -89t-95.5 -28v37q45 0 64.5 19.5t19.5 61.5v258q0 49 17.5 69.5t58.5 30.5q-41 10 -58.5 30.5t-17.5 69.5v258q0 43 -19.5 62.5t-64.5 19.5v37
q64 0 95.5 -28z" />
    <glyph glyph-name="asciitilde" unicode="~" horiz-adv-x="466" 
d="M269 277q-20 8 -46 23q-24 13 -38.5 19t-28.5 6q-23 0 -37.5 -11t-31.5 -33l-30 16q21 33 44 51t58 18q22 0 41.5 -8t45.5 -23q23 -13 37 -19t29 -6q22 0 36 10t31 32l29 -16q-20 -32 -42 -49.5t-56 -17.5q-21 0 -41 8z" />
    <glyph glyph-name="uni00A0" unicode="&#xa0;" horiz-adv-x="285" 
 />
    <glyph glyph-name="exclamdown" unicode="&#xa1;" horiz-adv-x="240" 
d="M149 456.5q11 -11.5 11 -28.5t-11 -28.5t-29 -11.5t-29 11.5t-11 28.5t11 28.5t29 11.5t29 -11.5zM142 250l3 -445h-48l3 445h42z" />
    <glyph glyph-name="cent" unicode="&#xa2;" horiz-adv-x="466" 
d="M305 -10v-139h-41v139q-91 8 -144 78.5t-53 189.5t53.5 192t144.5 81v148h40v-148q36 -2 65.5 -14t57.5 -36l-24 -31q-26 21 -53.5 31.5t-63.5 10.5q-78 0 -124.5 -60t-46.5 -174q0 -112 46 -170t124 -58q36 0 65 11.5t57 34.5l24 -31q-56 -49 -127 -55z" />
    <glyph glyph-name="sterling" unicode="&#xa3;" horiz-adv-x="505" 
d="M168.5 85.5q-15.5 -25.5 -52.5 -44.5h331l-6 -41h-386v40q47 22 65 46t18 72v177h-65v36h65v131q0 76 43 124.5t123 48.5q50 0 87 -17.5t69 -54.5l-31 -26q-26 30 -54.5 44t-69.5 14q-58 0 -89.5 -36.5t-31.5 -97.5v-130h216v-36h-216v-176q0 -48 -15.5 -73.5z" />
    <glyph glyph-name="currency" unicode="&#xa4;" 
d="M424 215l80 -79l-29 -29l-81 79q-48 -35 -114 -35q-67 0 -114 36l-81 -80l-29 29l81 80q-41 52 -41 125q0 71 41 123l-81 80l29 29l81 -80q48 37 114 37q68 0 115 -36l80 79l29 -29l-80 -78q42 -51 42 -125q0 -75 -42 -126zM385 230.5q36 41.5 36 110.5t-36 110t-104 41
q-67 0 -103.5 -41t-36.5 -110t36.5 -110.5t103.5 -41.5q68 0 104 41.5z" />
    <glyph glyph-name="yen" unicode="&#xa5;" horiz-adv-x="503" 
d="M487 664l-194 -328h118v-37h-135v-107h135v-37h-135v-155h-47v155h-134v37h134v107h-134v37h117l-196 328h53l185 -319l182 319h51z" />
    <glyph glyph-name="brokenbar" unicode="&#xa6;" horiz-adv-x="408" 
d="M226 803v-360h-44v360h44zM226 262v-362h-44v362h44z" />
    <glyph glyph-name="section" unicode="&#xa7;" horiz-adv-x="532" 
d="M407 123q13 -23 13 -57q0 -61 -46.5 -97t-120.5 -36q-48 0 -86.5 11.5t-74.5 34.5l21 34q62 -41 141 -41q55 0 87 25t32 65q0 27 -9.5 44.5t-35.5 32.5t-79 33q-61 21 -94.5 39.5t-49.5 43.5t-16 64q0 72 80 126q-29 19 -41.5 41.5t-12.5 55.5q0 60 45 96t114 36
q47 0 82.5 -12t71.5 -35l-21 -32q-32 21 -63 30.5t-70 9.5q-51 0 -82 -26t-31 -65q0 -27 10.5 -44.5t38.5 -32.5t83 -34q82 -27 116.5 -59.5t34.5 -86.5q0 -73 -78 -123q28 -18 41 -41zM145.5 275.5q10.5 -18.5 37 -33.5t79.5 -33q47 -16 74 -29q33 24 47.5 48t14.5 55
q0 28 -9 46.5t-35 35t-77 33.5q-51 18 -78 31q-64 -46 -64 -106q0 -29 10.5 -47.5z" />
    <glyph glyph-name="dieresis" unicode="&#xa8;" horiz-adv-x="309" 
d="M88.5 722.5q9.5 -9.5 9.5 -23.5t-9.5 -23.5t-24.5 -9.5t-24.5 9.5t-9.5 23.5t9.5 23.5t24.5 9.5t24.5 -9.5zM269.5 722.5q9.5 -9.5 9.5 -23.5t-9.5 -23.5t-23.5 -9.5q-15 0 -24.5 9.5t-9.5 23.5t9.5 23.5t24.5 9.5q14 0 23.5 -9.5z" />
    <glyph glyph-name="copyright" unicode="&#xa9;" horiz-adv-x="810" 
d="M553.5 694q66.5 -38 104.5 -105.5t38 -153.5q0 -85 -38 -153t-104.5 -106t-148.5 -38t-148.5 38t-104.5 105.5t-38 153.5q0 85 38 153t104.5 106t148.5 38t148.5 -38zM276 664q-58 -33 -90.5 -93t-32.5 -136q0 -77 32.5 -136.5t90 -92.5t130.5 -33q72 0 129 33t89.5 93
t32.5 136q0 77 -32.5 136.5t-89.5 92.5t-129 33t-130 -33zM458.5 604q22.5 -8 44.5 -24l-20 -28q-17 13 -34.5 18.5t-42.5 5.5q-40 0 -70 -33t-30 -107q0 -71 28 -106t74 -35q26 0 45.5 7t38.5 21l18 -28q-44 -37 -103 -37q-64 0 -103.5 47t-39.5 131q0 58 20 98t52.5 59
t68.5 19q31 0 53.5 -8z" />
    <glyph glyph-name="ordfeminine" unicode="&#xaa;" horiz-adv-x="500" 
d="M337 520v37q0 47 -21.5 67.5t-75.5 20.5q-49 0 -112 -22l-12 35q72 26 128 26q72 0 105.5 -30.5t33.5 -92.5v-190q0 -31 7.5 -44t25.5 -21l-10 -31q-27 6 -42.5 21t-19.5 43q-46 -64 -130 -64q-61 0 -95.5 31.5t-34.5 85.5q0 61 46 94.5t125 33.5h82zM337 382v103h-75
q-130 0 -130 -91q0 -40 23.5 -60.5t64.5 -20.5q77 0 117 69zM84 42h347v-42h-347v42z" />
    <glyph glyph-name="guillemotleft" unicode="&#xab;" horiz-adv-x="548" 
d="M237 514l29 -19l-138 -207l138 -207l-29 -19l-160 210v31zM442 514l29 -19l-138 -207l138 -207l-29 -19l-160 210v31z" />
    <glyph glyph-name="logicalnot" unicode="&#xac;" horiz-adv-x="499" 
d="M427 342v-164h-45v122h-310v42h355z" />
    <glyph glyph-name="uni00AD" unicode="&#xad;" horiz-adv-x="400" 
d="M71 293v40h258v-40h-258z" />
    <glyph glyph-name="registered" unicode="&#xae;" horiz-adv-x="639" 
d="M438 701.5q54 -30.5 85.5 -84t31.5 -118.5q0 -64 -31.5 -118t-85.5 -86t-119 -32t-118.5 30.5t-85 84t-31.5 118.5q0 64 31.5 118t85.5 86t118 32q65 0 119 -30.5zM420 322q46 27 73 73.5t27 103.5t-26.5 103t-72.5 72t-102 26q-55 0 -100.5 -27t-72.5 -74t-27 -103
q0 -57 26.5 -103t72.5 -72t101 -26t101 27zM353 484l74 -118h-45l-66 113h-40v-113h-37v270h66q56 0 83 -19.5t27 -60.5q0 -56 -62 -72zM276 510h42q60 0 60 46q0 27 -16.5 38t-50.5 11h-35v-95z" />
    <glyph glyph-name="macron" unicode="&#xaf;" horiz-adv-x="289" 
d="M259 679h-229v39h229v-39z" />
    <glyph glyph-name="degree" unicode="&#xb0;" horiz-adv-x="520" 
d="M148 418q-33 18 -53.5 51.5t-20.5 78.5q0 43 20.5 76.5t53.5 51.5t71 18q62 0 104 -40t42 -107q0 -66 -42 -106.5t-104 -40.5q-38 0 -71 18zM294 467q28 30 28 80q0 51 -28 80.5t-75 29.5q-44 0 -73.5 -29.5t-29.5 -79.5t29.5 -80.5t73.5 -30.5q47 0 75 30z" />
    <glyph glyph-name="plusminus" unicode="&#xb1;" horiz-adv-x="491" 
d="M72 0v42h347v-42h-347zM268 510v-153h151v-41h-151v-153h-45v153h-151v41h151v153h45z" />
    <glyph glyph-name="uni00B2" unicode="&#xb2;" horiz-adv-x="400" 
d="M285.5 710q32.5 -31 32.5 -79q0 -40 -17 -74.5t-54 -75.5t-119 -121h202l-7 -37h-245v35q87 87 126 131t54.5 74.5t15.5 64.5q0 37 -21 57t-58 20q-56 0 -95 -45l-30 21q27 31 57.5 45.5t69.5 14.5q56 0 88.5 -31z" />
    <glyph glyph-name="uni00B3" unicode="&#xb3;" horiz-adv-x="400" 
d="M288 714.5q33 -28.5 33 -74.5q0 -40 -23.5 -65.5t-61.5 -31.5q42 -2 69 -29t27 -75q0 -55 -38 -89.5t-102 -34.5q-75 0 -125 55l26 23q42 -42 97 -42q48 0 73.5 24t25.5 64q0 84 -95 84h-28l5 34h20q36 0 62 20t26 59q0 34 -22 53t-59 19q-28 0 -50 -8.5t-47 -29.5
l-23 26q28 24 56.5 35.5t65.5 11.5q55 0 88 -28.5z" />
    <glyph glyph-name="acute" unicode="&#xb4;" horiz-adv-x="265" 
d="M214 776l21 -44l-190 -84l-15 28z" />
    <glyph glyph-name="uni00B5" unicode="&#xb5;" horiz-adv-x="584" 
d="M452 -8q-12 30 -17.5 54t-8.5 61q-31 -54 -70.5 -86t-94.5 -32q-82 0 -114 68q9 -57 9 -131v-121l-46 -5v722h46v-374q0 -61 29.5 -89t75.5 -28q98 0 159 124v367h46v-346q0 -55 7 -97t21 -82z" />
    <glyph glyph-name="paragraph" unicode="&#xb6;" horiz-adv-x="699" 
d="M544 684v-879l-43 -8v848h-134v-840l-43 -8v501q-115 4 -167 56.5t-52 136.5q0 93 59.5 143t167.5 50h212z" />
    <glyph glyph-name="periodcentered" unicode="&#xb7;" horiz-adv-x="195" 
d="M126.5 349.5q11.5 -11.5 11.5 -28.5t-11.5 -28.5t-29.5 -11.5q-17 0 -28.5 11.5t-11.5 28.5t11.5 28.5t28.5 11.5q18 0 29.5 -11.5z" />
    <glyph glyph-name="cedilla" unicode="&#xb8;" horiz-adv-x="235" 
d="M113 -67q92 -7 92 -73q0 -38 -28.5 -60t-70.5 -22q-43 0 -76 20l16 30q28 -15 59 -15q25 0 41 12t16 35t-21 34t-68 11l9 111h31v-83z" />
    <glyph glyph-name="uni00B9" unicode="&#xb9;" horiz-adv-x="400" 
d="M252 736v-413h-41v366l-105 -61l-19 30l131 78h34z" />
    <glyph glyph-name="ordmasculine" unicode="&#xba;" horiz-adv-x="500" 
d="M378.5 631q46.5 -53 46.5 -150q0 -96 -47.5 -151t-129.5 -55t-129 54.5t-47 149.5t48 150t129 55q83 0 129.5 -53zM154.5 603q-34.5 -42 -34.5 -124q0 -80 34 -123t95 -43t95 42.5t34 125.5q0 81 -33 122.5t-95 41.5q-61 0 -95.5 -42zM75 0v42h347v-42h-347z" />
    <glyph glyph-name="guillemotright" unicode="&#xbb;" horiz-adv-x="539" 
d="M106 514l160 -211v-31l-160 -210l-29 19l138 207l-138 207zM302 514l160 -211v-31l-160 -210l-29 19l138 207l-138 207z" />
    <glyph glyph-name="onequarter" unicode="&#xbc;" horiz-adv-x="908" 
d="M252 684v-413h-41v366l-105 -61l-19 30l131 78h34zM641 746l34 -16l-408 -798l-34 16zM851 141v-35h-57v-106h-41v106h-189v31l130 283l36 -14l-122 -265h145l5 119h36v-119h57z" />
    <glyph glyph-name="onehalf" unicode="&#xbd;" horiz-adv-x="908" 
d="M252 684v-413h-41v366l-105 -61l-19 30l131 78h34zM641 746l34 -16l-408 -798l-34 16zM793.5 387q32.5 -31 32.5 -79q0 -40 -17 -74.5t-54 -75.5t-119 -121h202l-7 -37h-245v35q87 87 126 131t54.5 74.5t15.5 64.5q0 37 -21 57t-58 20q-56 0 -95 -45l-30 21
q27 31 57.5 45.5t69.5 14.5q56 0 88.5 -31z" />
    <glyph glyph-name="threequarters" unicode="&#xbe;" horiz-adv-x="908" 
d="M288 662.5q33 -28.5 33 -74.5q0 -40 -23.5 -65.5t-61.5 -31.5q42 -2 69 -29t27 -75q0 -55 -38 -89.5t-102 -34.5q-75 0 -125 55l26 23q42 -42 97 -42q48 0 73.5 24t25.5 64q0 84 -95 84h-28l5 34h20q36 0 62 20t26 59q0 34 -22 53t-59 19q-28 0 -50 -8.5t-47 -29.5
l-23 26q28 24 56.5 35.5t65.5 11.5q55 0 88 -28.5zM641 746l34 -16l-408 -798l-34 16zM851 141v-35h-57v-106h-41v106h-189v31l130 283l36 -14l-122 -265h145l5 119h36v-119h57z" />
    <glyph glyph-name="questiondown" unicode="&#xbf;" horiz-adv-x="443" 
d="M219 399.5q-11 11.5 -11 28.5t11 28.5t29 11.5q17 0 28.5 -11.5t11.5 -28.5t-11.5 -28.5t-28.5 -11.5q-18 0 -29 11.5zM122.5 -184q-37.5 19 -57.5 50.5t-20 67.5t13 62.5t32 43.5t50 38q44 31 65.5 56.5t21.5 68.5v47h45v-50q0 -38 -13 -64.5t-32 -44t-51 -39.5
q-42 -28 -62.5 -52.5t-20.5 -64.5q0 -43 33 -70.5t86 -27.5q47 0 83 18t71 57l33 -25q-41 -46 -86 -68t-102 -22q-51 0 -88.5 19z" />
    <glyph glyph-name="Agrave" unicode="&#xc0;" horiz-adv-x="562" 
d="M491 0l-63 192h-297l-63 -192h-48l231 684h60l231 -684h-51zM145 234h270l-134 411zM197 880l183 -92l-13 -29l-192 77z" />
    <glyph glyph-name="Aacute" unicode="&#xc1;" horiz-adv-x="562" 
d="M491 0l-63 192h-297l-63 -192h-48l231 684h60l231 -684h-51zM145 234h270l-134 411zM362 880l21 -44l-192 -77l-13 29z" />
    <glyph glyph-name="Acircumflex" unicode="&#xc2;" horiz-adv-x="562" 
d="M491 0l-63 192h-297l-63 -192h-48l231 684h60l231 -684h-51zM145 234h270l-134 411zM160 763l-21 25l128 99h27l127 -99l-21 -25l-119 80z" />
    <glyph glyph-name="Atilde" unicode="&#xc3;" horiz-adv-x="562" 
d="M491 0l-63 192h-297l-63 -192h-48l231 684h60l231 -684h-51zM145 234h270l-134 411zM305 802.5q-16 6.5 -36 18.5q-30 19 -47 19t-29.5 -8.5t-27.5 -28.5l-29 15q37 60 86 60q15 0 28 -5.5t33 -17.5q18 -10 30.5 -15.5t25.5 -5.5q16 0 28.5 9.5t28.5 33.5l29 -15
q-32 -66 -86 -66q-18 0 -34 6.5z" />
    <glyph glyph-name="Adieresis" unicode="&#xc4;" horiz-adv-x="562" 
d="M491 0l-63 192h-297l-63 -192h-48l231 684h60l231 -684h-51zM145 234h270l-134 411zM214.5 848.5q9.5 -9.5 9.5 -23.5t-9.5 -23.5t-24.5 -9.5t-24.5 9.5t-9.5 23.5t9.5 23.5t24.5 9.5t24.5 -9.5zM395.5 848.5q9.5 -9.5 9.5 -23.5t-9.5 -23.5t-23.5 -9.5q-15 0 -24.5 9.5
t-9.5 23.5t9.5 23.5t24.5 9.5q14 0 23.5 -9.5z" />
    <glyph glyph-name="Aring" unicode="&#xc5;" horiz-adv-x="562" 
d="M491 0l-63 192h-297l-63 -192h-48l231 684h60l231 -684h-51zM145 234h270l-134 411zM348 916.5q26 -24.5 26 -64.5t-26 -65t-67 -25t-67 25t-26 65t26 64.5t67 24.5t67 -24.5zM239.5 895.5q-14.5 -15.5 -14.5 -43.5t14.5 -43.5t41.5 -15.5t41.5 15.5t14.5 43.5
t-14.5 43.5t-41.5 15.5t-41.5 -15.5z" />
    <glyph glyph-name="AE" unicode="&#xc6;" horiz-adv-x="772" 
d="M499 41h230v-41h-267l-48 188h-291l-71 -188h-48l265 684h410l-6 -41h-330l69 -266h259v-41h-248zM139 229h265l-107 417z" />
    <glyph glyph-name="Ccedilla" unicode="&#xc7;" horiz-adv-x="547" 
d="M444 -140q0 -38 -28.5 -60t-70.5 -22q-43 0 -76 20l16 30q28 -15 59 -15q25 0 41 12t16 35t-21 34t-68 11l7 85q-73 6 -129.5 48.5t-88 120t-31.5 183.5q0 114 36 193t98.5 119t139.5 40q55 0 94 -15t77 -46l-26 -32q-36 28 -68 40t-74 12q-101 0 -164 -76.5t-63 -234.5
q0 -102 29.5 -171.5t80 -104t114.5 -34.5q49 0 83 14.5t70 43.5l26 -32q-74 -66 -171 -69v-56q92 -7 92 -73z" />
    <glyph glyph-name="Egrave" unicode="&#xc8;" horiz-adv-x="504" 
d="M454 684l-6 -41h-286v-266h247v-41h-247v-295h298v-41h-345v684h339zM205 880l183 -92l-13 -29l-192 77z" />
    <glyph glyph-name="Eacute" unicode="&#xc9;" horiz-adv-x="504" 
d="M454 684l-6 -41h-286v-266h247v-41h-247v-295h298v-41h-345v684h339zM370 880l21 -44l-192 -77l-13 29z" />
    <glyph glyph-name="Ecircumflex" unicode="&#xca;" horiz-adv-x="504" 
d="M454 684l-6 -41h-286v-266h247v-41h-247v-295h298v-41h-345v684h339zM168 763l-21 25l128 99h27l127 -99l-21 -25l-119 80z" />
    <glyph glyph-name="Edieresis" unicode="&#xcb;" horiz-adv-x="504" 
d="M454 684l-6 -41h-286v-266h247v-41h-247v-295h298v-41h-345v684h339zM222.5 848.5q9.5 -9.5 9.5 -23.5t-9.5 -23.5t-24.5 -9.5t-24.5 9.5t-9.5 23.5t9.5 23.5t24.5 9.5t24.5 -9.5zM403.5 848.5q9.5 -9.5 9.5 -23.5t-9.5 -23.5t-23.5 -9.5q-15 0 -24.5 9.5t-9.5 23.5
t9.5 23.5t24.5 9.5q14 0 23.5 -9.5z" />
    <glyph glyph-name="Igrave" unicode="&#xcc;" horiz-adv-x="277" 
d="M162 684v-684h-47v684h47zM54 880l183 -92l-13 -29l-192 77z" />
    <glyph glyph-name="Iacute" unicode="&#xcd;" horiz-adv-x="277" 
d="M162 684v-684h-47v684h47zM219 880l21 -44l-192 -77l-13 29z" />
    <glyph glyph-name="Icircumflex" unicode="&#xce;" horiz-adv-x="277" 
d="M162 684v-684h-47v684h47zM17 763l-21 25l128 99h27l127 -99l-21 -25l-119 80z" />
    <glyph glyph-name="Idieresis" unicode="&#xcf;" horiz-adv-x="277" 
d="M162 684v-684h-47v684h47zM71.5 848.5q9.5 -9.5 9.5 -23.5t-9.5 -23.5t-24.5 -9.5t-24.5 9.5t-9.5 23.5t9.5 23.5t24.5 9.5t24.5 -9.5zM252.5 848.5q9.5 -9.5 9.5 -23.5t-9.5 -23.5t-23.5 -9.5q-15 0 -24.5 9.5t-9.5 23.5t9.5 23.5t24.5 9.5q14 0 23.5 -9.5z" />
    <glyph glyph-name="Eth" unicode="&#xd0;" horiz-adv-x="630" 
d="M474 612q86 -72 86 -264q0 -193 -88 -270.5t-215 -77.5h-140v332h-93v40h93v312h133q138 0 224 -72zM510 348q0 120 -36 185.5t-92 87.5t-129 22h-89v-271h182v-40h-182v-291h96q250 0 250 307z" />
    <glyph glyph-name="Ntilde" unicode="&#xd1;" horiz-adv-x="669" 
d="M554 0h-61l-339 631q6 -88 6 -224v-407h-45v684h61l339 -631q-6 99 -6 200v431h45v-684zM367 802.5q-16 6.5 -36 18.5q-30 19 -47 19t-29.5 -8.5t-27.5 -28.5l-29 15q37 60 86 60q15 0 28 -5.5t33 -17.5q18 -10 30.5 -15.5t25.5 -5.5q16 0 28.5 9.5t28.5 33.5l29 -15
q-32 -66 -86 -66q-18 0 -34 6.5z" />
    <glyph glyph-name="Ograve" unicode="&#xd2;" horiz-adv-x="691" 
d="M490 653.5q62 -40.5 96.5 -120t34.5 -192.5q0 -111 -34 -190t-96 -120.5t-146 -41.5q-82 0 -144 41t-96.5 120t-34.5 190t34.5 191t97 121.5t143.5 41.5q83 0 145 -40.5zM180.5 573.5q-60.5 -79.5 -60.5 -233.5q0 -151 61 -230t164 -79q107 0 166.5 78.5t59.5 231.5
q0 154 -60 233t-166 79q-104 0 -164.5 -79.5zM261 880l183 -92l-13 -29l-192 77z" />
    <glyph glyph-name="Oacute" unicode="&#xd3;" horiz-adv-x="691" 
d="M490 653.5q62 -40.5 96.5 -120t34.5 -192.5q0 -111 -34 -190t-96 -120.5t-146 -41.5q-82 0 -144 41t-96.5 120t-34.5 190t34.5 191t97 121.5t143.5 41.5q83 0 145 -40.5zM180.5 573.5q-60.5 -79.5 -60.5 -233.5q0 -151 61 -230t164 -79q107 0 166.5 78.5t59.5 231.5
q0 154 -60 233t-166 79q-104 0 -164.5 -79.5zM426 880l21 -44l-192 -77l-13 29z" />
    <glyph glyph-name="Ocircumflex" unicode="&#xd4;" horiz-adv-x="691" 
d="M490 653.5q62 -40.5 96.5 -120t34.5 -192.5q0 -111 -34 -190t-96 -120.5t-146 -41.5q-82 0 -144 41t-96.5 120t-34.5 190t34.5 191t97 121.5t143.5 41.5q83 0 145 -40.5zM180.5 573.5q-60.5 -79.5 -60.5 -233.5q0 -151 61 -230t164 -79q107 0 166.5 78.5t59.5 231.5
q0 154 -60 233t-166 79q-104 0 -164.5 -79.5zM224 763l-21 25l128 99h27l127 -99l-21 -25l-119 80z" />
    <glyph glyph-name="Otilde" unicode="&#xd5;" horiz-adv-x="691" 
d="M490 653.5q62 -40.5 96.5 -120t34.5 -192.5q0 -111 -34 -190t-96 -120.5t-146 -41.5q-82 0 -144 41t-96.5 120t-34.5 190t34.5 191t97 121.5t143.5 41.5q83 0 145 -40.5zM180.5 573.5q-60.5 -79.5 -60.5 -233.5q0 -151 61 -230t164 -79q107 0 166.5 78.5t59.5 231.5
q0 154 -60 233t-166 79q-104 0 -164.5 -79.5zM369 802.5q-16 6.5 -36 18.5q-30 19 -47 19t-29.5 -8.5t-27.5 -28.5l-29 15q37 60 86 60q15 0 28 -5.5t33 -17.5q18 -10 30.5 -15.5t25.5 -5.5q16 0 28.5 9.5t28.5 33.5l29 -15q-32 -66 -86 -66q-18 0 -34 6.5z" />
    <glyph glyph-name="Odieresis" unicode="&#xd6;" horiz-adv-x="691" 
d="M490 653.5q62 -40.5 96.5 -120t34.5 -192.5q0 -111 -34 -190t-96 -120.5t-146 -41.5q-82 0 -144 41t-96.5 120t-34.5 190t34.5 191t97 121.5t143.5 41.5q83 0 145 -40.5zM180.5 573.5q-60.5 -79.5 -60.5 -233.5q0 -151 61 -230t164 -79q107 0 166.5 78.5t59.5 231.5
q0 154 -60 233t-166 79q-104 0 -164.5 -79.5zM278.5 848.5q9.5 -9.5 9.5 -23.5t-9.5 -23.5t-24.5 -9.5t-24.5 9.5t-9.5 23.5t9.5 23.5t24.5 9.5t24.5 -9.5zM459.5 848.5q9.5 -9.5 9.5 -23.5t-9.5 -23.5t-23.5 -9.5q-15 0 -24.5 9.5t-9.5 23.5t9.5 23.5t24.5 9.5
q14 0 23.5 -9.5z" />
    <glyph glyph-name="multiply" unicode="&#xd7;" horiz-adv-x="491" 
d="M371 466l31 -30l-127 -128l127 -130l-31 -29l-125 130l-126 -130l-31 29l125 128l-125 130l31 30l124 -131z" />
    <glyph glyph-name="Oslash" unicode="&#xd8;" horiz-adv-x="691" 
d="M579 550.5q42 -83.5 42 -209.5q0 -111 -34 -190t-96 -120.5t-146 -41.5q-43 0 -81 12l-33 -118l-43 12l38 120q-74 37 -115 120t-41 205q0 111 34.5 191t97 121.5t143.5 41.5q41 0 79 -11l35 124l43 -12l-40 -126q75 -35 117 -118.5zM152 159q32 -71 90 -103l173 587
q-30 10 -70 10q-104 0 -164.5 -79.5t-60.5 -233.5q0 -110 32 -181zM511.5 109.5q59.5 78.5 59.5 231.5q0 113 -32.5 185.5t-91.5 103.5l-174 -588q35 -11 72 -11q107 0 166.5 78.5z" />
    <glyph glyph-name="Ugrave" unicode="&#xd9;" horiz-adv-x="648" 
d="M543 211q0 -101 -55.5 -161.5t-163.5 -60.5t-163.5 60.5t-55.5 161.5v473h47v-469q0 -87 42.5 -135t129.5 -48t129 48.5t42 134.5v469h48v-473zM240 880l183 -92l-13 -29l-192 77z" />
    <glyph glyph-name="Uacute" unicode="&#xda;" horiz-adv-x="648" 
d="M543 211q0 -101 -55.5 -161.5t-163.5 -60.5t-163.5 60.5t-55.5 161.5v473h47v-469q0 -87 42.5 -135t129.5 -48t129 48.5t42 134.5v469h48v-473zM405 880l21 -44l-192 -77l-13 29z" />
    <glyph glyph-name="Ucircumflex" unicode="&#xdb;" horiz-adv-x="648" 
d="M543 211q0 -101 -55.5 -161.5t-163.5 -60.5t-163.5 60.5t-55.5 161.5v473h47v-469q0 -87 42.5 -135t129.5 -48t129 48.5t42 134.5v469h48v-473zM203 763l-21 25l128 99h27l127 -99l-21 -25l-119 80z" />
    <glyph glyph-name="Udieresis" unicode="&#xdc;" horiz-adv-x="648" 
d="M543 211q0 -101 -55.5 -161.5t-163.5 -60.5t-163.5 60.5t-55.5 161.5v473h47v-469q0 -87 42.5 -135t129.5 -48t129 48.5t42 134.5v469h48v-473zM257.5 848.5q9.5 -9.5 9.5 -23.5t-9.5 -23.5t-24.5 -9.5t-24.5 9.5t-9.5 23.5t9.5 23.5t24.5 9.5t24.5 -9.5zM438.5 848.5
q9.5 -9.5 9.5 -23.5t-9.5 -23.5t-23.5 -9.5q-15 0 -24.5 9.5t-9.5 23.5t9.5 23.5t24.5 9.5q14 0 23.5 -9.5z" />
    <glyph glyph-name="Yacute" unicode="&#xdd;" horiz-adv-x="513" 
d="M497 684l-216 -415v-269h-47v268l-218 416h53l190 -372l186 372h52zM337 880l21 -44l-192 -77l-13 29z" />
    <glyph glyph-name="Thorn" unicode="&#xde;" horiz-adv-x="566" 
d="M517 356q0 -113 -67 -164.5t-185 -51.5h-103v-140h-47v684h47v-124h106q249 0 249 -204zM414.5 219.5q52.5 39.5 52.5 135.5q0 88 -50 126t-149 38h-106v-339h104q96 0 148.5 39.5z" />
    <glyph glyph-name="germandbls" unicode="&#xdf;" horiz-adv-x="578" 
d="M407.5 704q44.5 -37 44.5 -95q0 -40 -18 -64.5t-52 -52.5q-26 -21 -37.5 -35t-11.5 -34q0 -24 17.5 -41.5t54.5 -42.5q39 -27 63 -48.5t41.5 -55.5t17.5 -82q0 -74 -43.5 -119t-113.5 -45q-53 0 -95 23l16 33q17 -8 34 -12t42 -4q51 0 82 32.5t31 91.5q0 40 -15 68.5
t-37 48t-56 41.5q-43 30 -63.5 52.5t-20.5 57.5q0 27 13.5 44.5t42.5 42.5q30 23 46 45t16 55q0 43 -31.5 68.5t-81.5 25.5q-63 0 -100 -41t-37 -123v-538h-46v540q0 96 50 148.5t133 52.5q70 0 114.5 -37z" />
    <glyph glyph-name="agrave" unicode="&#xe0;" horiz-adv-x="534" 
d="M435.5 50q10.5 -19 33.5 -28l-11 -33q-34 9 -51.5 30t-21.5 62q-57 -92 -165 -92q-74 0 -117 42.5t-43 113.5q0 80 57 123.5t155 43.5h107v55q0 65 -29 95t-96 30q-63 0 -142 -31l-13 37q87 34 159 34q86 0 126.5 -41t40.5 -121v-257q0 -44 10.5 -63zM379 127v149h-100
q-82 0 -126 -32.5t-44 -97.5q0 -56 31 -87t86 -31q101 0 153 99zM178 776l184 -100l-15 -28l-190 84z" />
    <glyph glyph-name="aacute" unicode="&#xe1;" horiz-adv-x="534" 
d="M435.5 50q10.5 -19 33.5 -28l-11 -33q-34 9 -51.5 30t-21.5 62q-57 -92 -165 -92q-74 0 -117 42.5t-43 113.5q0 80 57 123.5t155 43.5h107v55q0 65 -29 95t-96 30q-63 0 -142 -31l-13 37q87 34 159 34q86 0 126.5 -41t40.5 -121v-257q0 -44 10.5 -63zM379 127v149h-100
q-82 0 -126 -32.5t-44 -97.5q0 -56 31 -87t86 -31q101 0 153 99zM331 776l21 -44l-190 -84l-15 28z" />
    <glyph glyph-name="acircumflex" unicode="&#xe2;" horiz-adv-x="534" 
d="M435.5 50q10.5 -19 33.5 -28l-11 -33q-34 9 -51.5 30t-21.5 62q-57 -92 -165 -92q-74 0 -117 42.5t-43 113.5q0 80 57 123.5t155 43.5h107v55q0 65 -29 95t-96 30q-63 0 -142 -31l-13 37q87 34 159 34q86 0 126.5 -41t40.5 -121v-257q0 -44 10.5 -63zM379 127v149h-100
q-82 0 -126 -32.5t-44 -97.5q0 -56 31 -87t86 -31q101 0 153 99zM136 647l-21 25l127 103h27l128 -103l-21 -25l-120 84z" />
    <glyph glyph-name="atilde" unicode="&#xe3;" horiz-adv-x="534" 
d="M435.5 50q10.5 -19 33.5 -28l-11 -33q-34 9 -51.5 30t-21.5 62q-57 -92 -165 -92q-74 0 -117 42.5t-43 113.5q0 80 57 123.5t155 43.5h107v55q0 65 -29 95t-96 30q-63 0 -142 -31l-13 37q87 34 159 34q86 0 126.5 -41t40.5 -121v-257q0 -44 10.5 -63zM379 127v149h-100
q-82 0 -126 -32.5t-44 -97.5q0 -56 31 -87t86 -31q101 0 153 99zM281 676.5q-16 6.5 -36 18.5q-30 19 -47 19t-29.5 -8.5t-27.5 -28.5l-29 15q37 60 86 60q15 0 28 -5.5t33 -17.5q18 -10 30.5 -15.5t25.5 -5.5q16 0 28.5 9.5t28.5 33.5l29 -15q-32 -66 -86 -66
q-18 0 -34 6.5z" />
    <glyph glyph-name="adieresis" unicode="&#xe4;" horiz-adv-x="534" 
d="M435.5 50q10.5 -19 33.5 -28l-11 -33q-34 9 -51.5 30t-21.5 62q-57 -92 -165 -92q-74 0 -117 42.5t-43 113.5q0 80 57 123.5t155 43.5h107v55q0 65 -29 95t-96 30q-63 0 -142 -31l-13 37q87 34 159 34q86 0 126.5 -41t40.5 -121v-257q0 -44 10.5 -63zM379 127v149h-100
q-82 0 -126 -32.5t-44 -97.5q0 -56 31 -87t86 -31q101 0 153 99zM190.5 722.5q9.5 -9.5 9.5 -23.5t-9.5 -23.5t-24.5 -9.5t-24.5 9.5t-9.5 23.5t9.5 23.5t24.5 9.5t24.5 -9.5zM371.5 722.5q9.5 -9.5 9.5 -23.5t-9.5 -23.5t-23.5 -9.5q-15 0 -24.5 9.5t-9.5 23.5t9.5 23.5
t24.5 9.5q14 0 23.5 -9.5z" />
    <glyph glyph-name="aring" unicode="&#xe5;" horiz-adv-x="534" 
d="M435.5 50q10.5 -19 33.5 -28l-11 -33q-34 9 -51.5 30t-21.5 62q-57 -92 -165 -92q-74 0 -117 42.5t-43 113.5q0 80 57 123.5t155 43.5h107v55q0 65 -29 95t-96 30q-63 0 -142 -31l-13 37q87 34 159 34q86 0 126.5 -41t40.5 -121v-257q0 -44 10.5 -63zM379 127v149h-100
q-82 0 -126 -32.5t-44 -97.5q0 -56 31 -87t86 -31q101 0 153 99zM324 790.5q26 -24.5 26 -64.5t-26 -65t-67 -25t-67 25t-26 65t26 64.5t67 24.5t67 -24.5zM215.5 769.5q-14.5 -15.5 -14.5 -43.5t14.5 -43.5t41.5 -15.5t41.5 15.5t14.5 43.5t-14.5 43.5t-41.5 15.5
t-41.5 -15.5z" />
    <glyph glyph-name="ae" unicode="&#xe6;" horiz-adv-x="846" 
d="M782 241h-354q5 -107 51 -159t120 -52q42 0 74 12.5t68 40.5l23 -30q-38 -32 -78 -48t-89 -16q-63 0 -110.5 29t-74.5 83q-42 -60 -87 -86t-104 -26q-75 0 -118 42.5t-43 113.5q0 80 57 124t156 44h107v54q0 65 -29 95t-96 30q-63 0 -142 -31l-13 37q85 34 159 34
q69 0 107.5 -27.5t52.5 -81.5q54 109 170 109q95 0 145 -67t50 -183q0 -21 -2 -41zM739 297q0 91 -38 143.5t-112 52.5q-69 0 -113 -53.5t-48 -161.5h311v19zM318 54.5q40 26.5 79 84.5q-17 53 -17 117v20h-100q-82 0 -126 -32.5t-44 -97.5q0 -56 31 -87t86 -31
q51 0 91 26.5z" />
    <glyph glyph-name="ccedilla" unicode="&#xe7;" horiz-adv-x="466" 
d="M387 -140q0 -38 -28.5 -60t-70.5 -22q-43 0 -76 20l16 30q28 -15 59 -15q25 0 41 12t16 35t-21 34t-68 11l7 85q-90 9 -142.5 79.5t-52.5 188.5q0 83 27 145t76 95.5t115 33.5q43 0 77 -12t66 -39l-24 -31q-26 21 -53.5 31.5t-63.5 10.5q-78 0 -124.5 -60t-46.5 -174
q0 -112 46 -170t124 -58q36 0 65 11.5t57 34.5l24 -31q-60 -53 -137 -56v-56q92 -7 92 -73z" />
    <glyph glyph-name="egrave" unicode="&#xe8;" horiz-adv-x="533" 
d="M469 241h-354q5 -107 51 -159t120 -52q42 0 74 12.5t68 40.5l23 -30q-38 -32 -78 -48t-89 -16q-101 0 -159 71t-58 197q0 83 25 145.5t71.5 96t108.5 33.5q97 0 148 -67t51 -183q0 -21 -2 -41zM426 297q0 91 -38 143.5t-114 52.5q-68 0 -111.5 -53.5t-47.5 -161.5h311v19
zM196 776l184 -100l-15 -28l-190 84z" />
    <glyph glyph-name="eacute" unicode="&#xe9;" horiz-adv-x="533" 
d="M469 241h-354q5 -107 51 -159t120 -52q42 0 74 12.5t68 40.5l23 -30q-38 -32 -78 -48t-89 -16q-101 0 -159 71t-58 197q0 83 25 145.5t71.5 96t108.5 33.5q97 0 148 -67t51 -183q0 -21 -2 -41zM426 297q0 91 -38 143.5t-114 52.5q-68 0 -111.5 -53.5t-47.5 -161.5h311v19
zM349 776l21 -44l-190 -84l-15 28z" />
    <glyph glyph-name="ecircumflex" unicode="&#xea;" horiz-adv-x="533" 
d="M469 241h-354q5 -107 51 -159t120 -52q42 0 74 12.5t68 40.5l23 -30q-38 -32 -78 -48t-89 -16q-101 0 -159 71t-58 197q0 83 25 145.5t71.5 96t108.5 33.5q97 0 148 -67t51 -183q0 -21 -2 -41zM426 297q0 91 -38 143.5t-114 52.5q-68 0 -111.5 -53.5t-47.5 -161.5h311v19
zM154 647l-21 25l127 103h27l128 -103l-21 -25l-120 84z" />
    <glyph glyph-name="edieresis" unicode="&#xeb;" horiz-adv-x="533" 
d="M469 241h-354q5 -107 51 -159t120 -52q42 0 74 12.5t68 40.5l23 -30q-38 -32 -78 -48t-89 -16q-101 0 -159 71t-58 197q0 83 25 145.5t71.5 96t108.5 33.5q97 0 148 -67t51 -183q0 -21 -2 -41zM426 297q0 91 -38 143.5t-114 52.5q-68 0 -111.5 -53.5t-47.5 -161.5h311v19
zM208.5 722.5q9.5 -9.5 9.5 -23.5t-9.5 -23.5t-24.5 -9.5t-24.5 9.5t-9.5 23.5t9.5 23.5t24.5 9.5t24.5 -9.5zM389.5 722.5q9.5 -9.5 9.5 -23.5t-9.5 -23.5t-23.5 -9.5q-15 0 -24.5 9.5t-9.5 23.5t9.5 23.5t24.5 9.5q14 0 23.5 -9.5z" />
    <glyph glyph-name="igrave" unicode="&#xec;" horiz-adv-x="266" 
d="M156 522v-522h-46v522h46zM54 776l184 -100l-15 -28l-190 84z" />
    <glyph glyph-name="iacute" unicode="&#xed;" horiz-adv-x="266" 
d="M156 522v-522h-46v522h46zM207 776l21 -44l-190 -84l-15 28z" />
    <glyph glyph-name="icircumflex" unicode="&#xee;" horiz-adv-x="266" 
d="M156 522v-522h-46v522h46zM12 647l-21 25l127 103h27l128 -103l-21 -25l-120 84z" />
    <glyph glyph-name="idieresis" unicode="&#xef;" horiz-adv-x="266" 
d="M156 522v-522h-46v522h46zM66.5 722.5q9.5 -9.5 9.5 -23.5t-9.5 -23.5t-24.5 -9.5t-24.5 9.5t-9.5 23.5t9.5 23.5t24.5 9.5t24.5 -9.5zM247.5 722.5q9.5 -9.5 9.5 -23.5t-9.5 -23.5t-23.5 -9.5q-15 0 -24.5 9.5t-9.5 23.5t9.5 23.5t24.5 9.5q14 0 23.5 -9.5z" />
    <glyph glyph-name="eth" unicode="&#xf0;" horiz-adv-x="551" 
d="M439.5 512q39.5 -90 39.5 -227q0 -145 -56 -220.5t-152 -75.5q-95 0 -149.5 65.5t-54.5 177.5q0 62 22.5 115.5t66 86t103.5 32.5q97 0 168 -85q-9 80 -43 142.5t-95 111.5l-78 -79l-35 14l83 85q-58 35 -125 49l10 38q76 -15 144 -57l68 72l29 -25l-67 -68
q82 -62 121.5 -152zM389.5 95.5q42.5 66.5 42.5 192.5q0 32 -1 44q-72 95 -166 95q-72 0 -111 -55t-39 -140q0 -97 41 -150t115 -53q76 0 118.5 66.5z" />
    <glyph glyph-name="ntilde" unicode="&#xf1;" horiz-adv-x="583" 
d="M442 490.5q36 -41.5 36 -118.5v-372h-46v366q0 66 -26 97t-78 31q-53 0 -94 -29t-78 -84v-381h-46v522h40l4 -93q74 103 181 103q71 0 107 -41.5zM321 676.5q-16 6.5 -36 18.5q-30 19 -47 19t-29.5 -8.5t-27.5 -28.5l-29 15q37 60 86 60q15 0 28 -5.5t33 -17.5
q18 -10 30.5 -15.5t25.5 -5.5q16 0 28.5 9.5t28.5 33.5l29 -15q-32 -66 -86 -66q-18 0 -34 6.5z" />
    <glyph glyph-name="ograve" unicode="&#xf2;" horiz-adv-x="567" 
d="M443 461.5q57 -70.5 57 -198.5t-58 -201t-159 -73t-158.5 72.5t-57.5 198.5q0 127 58.5 199.5t158.5 72.5q102 0 159 -70.5zM160 432.5q-45 -59.5 -45 -172.5q0 -111 44 -171t124 -60q79 0 124 60t45 174q0 112 -44 170.5t-124 58.5q-79 0 -124 -59.5zM205 776l184 -100
l-15 -28l-190 84z" />
    <glyph glyph-name="oacute" unicode="&#xf3;" horiz-adv-x="567" 
d="M443 461.5q57 -70.5 57 -198.5t-58 -201t-159 -73t-158.5 72.5t-57.5 198.5q0 127 58.5 199.5t158.5 72.5q102 0 159 -70.5zM160 432.5q-45 -59.5 -45 -172.5q0 -111 44 -171t124 -60q79 0 124 60t45 174q0 112 -44 170.5t-124 58.5q-79 0 -124 -59.5zM358 776l21 -44
l-190 -84l-15 28z" />
    <glyph glyph-name="ocircumflex" unicode="&#xf4;" horiz-adv-x="567" 
d="M443 461.5q57 -70.5 57 -198.5t-58 -201t-159 -73t-158.5 72.5t-57.5 198.5q0 127 58.5 199.5t158.5 72.5q102 0 159 -70.5zM160 432.5q-45 -59.5 -45 -172.5q0 -111 44 -171t124 -60q79 0 124 60t45 174q0 112 -44 170.5t-124 58.5q-79 0 -124 -59.5zM163 647l-21 25
l127 103h27l128 -103l-21 -25l-120 84z" />
    <glyph glyph-name="otilde" unicode="&#xf5;" horiz-adv-x="567" 
d="M443 461.5q57 -70.5 57 -198.5t-58 -201t-159 -73t-158.5 72.5t-57.5 198.5q0 127 58.5 199.5t158.5 72.5q102 0 159 -70.5zM160 432.5q-45 -59.5 -45 -172.5q0 -111 44 -171t124 -60q79 0 124 60t45 174q0 112 -44 170.5t-124 58.5q-79 0 -124 -59.5zM308 676.5
q-16 6.5 -36 18.5q-30 19 -47 19t-29.5 -8.5t-27.5 -28.5l-29 15q37 60 86 60q15 0 28 -5.5t33 -17.5q18 -10 30.5 -15.5t25.5 -5.5q16 0 28.5 9.5t28.5 33.5l29 -15q-32 -66 -86 -66q-18 0 -34 6.5z" />
    <glyph glyph-name="odieresis" unicode="&#xf6;" horiz-adv-x="567" 
d="M443 461.5q57 -70.5 57 -198.5t-58 -201t-159 -73t-158.5 72.5t-57.5 198.5q0 127 58.5 199.5t158.5 72.5q102 0 159 -70.5zM160 432.5q-45 -59.5 -45 -172.5q0 -111 44 -171t124 -60q79 0 124 60t45 174q0 112 -44 170.5t-124 58.5q-79 0 -124 -59.5zM217.5 722.5
q9.5 -9.5 9.5 -23.5t-9.5 -23.5t-24.5 -9.5t-24.5 9.5t-9.5 23.5t9.5 23.5t24.5 9.5t24.5 -9.5zM398.5 722.5q9.5 -9.5 9.5 -23.5t-9.5 -23.5t-23.5 -9.5q-15 0 -24.5 9.5t-9.5 23.5t9.5 23.5t24.5 9.5q14 0 23.5 -9.5z" />
    <glyph glyph-name="divide" unicode="&#xf7;" horiz-adv-x="491" 
d="M274.5 143.5q11.5 -11.5 11.5 -28.5t-11.5 -28.5t-29.5 -11.5q-17 0 -28.5 11.5t-11.5 28.5t11.5 28.5t28.5 11.5q18 0 29.5 -11.5zM274.5 574.5q11.5 -11.5 11.5 -28.5t-11.5 -28.5t-29.5 -11.5q-17 0 -28.5 11.5t-11.5 28.5t11.5 28.5t28.5 11.5q18 0 29.5 -11.5z
M72 310v42h347v-42h-347z" />
    <glyph glyph-name="oslash" unicode="&#xf8;" horiz-adv-x="567" 
d="M471.5 415.5q28.5 -62.5 28.5 -152.5q0 -128 -58 -201t-159 -73q-36 0 -66 9l-41 -121l-39 11l43 126q-54 30 -83.5 93.5t-29.5 152.5q0 127 58.5 199.5t158.5 72.5q37 0 67 -9l39 123l40 -12l-41 -127q54 -29 82.5 -91.5zM197 52l143 432q-27 8 -56 8q-79 0 -124 -59.5
t-45 -172.5q0 -157 82 -208zM407 89q45 60 45 174q0 156 -80 206l-143 -432q26 -8 54 -8q79 0 124 60z" />
    <glyph glyph-name="ugrave" unicode="&#xf9;" horiz-adv-x="578" 
d="M468 0h-39l-3 97q-61 -108 -173 -108q-71 0 -109.5 41.5t-38.5 118.5v373h46v-369q0 -64 28 -94t83 -30q96 0 160 112v381h46v-522zM208 776l184 -100l-15 -28l-190 84z" />
    <glyph glyph-name="uacute" unicode="&#xfa;" horiz-adv-x="578" 
d="M468 0h-39l-3 97q-61 -108 -173 -108q-71 0 -109.5 41.5t-38.5 118.5v373h46v-369q0 -64 28 -94t83 -30q96 0 160 112v381h46v-522zM361 776l21 -44l-190 -84l-15 28z" />
    <glyph glyph-name="ucircumflex" unicode="&#xfb;" horiz-adv-x="578" 
d="M468 0h-39l-3 97q-61 -108 -173 -108q-71 0 -109.5 41.5t-38.5 118.5v373h46v-369q0 -64 28 -94t83 -30q96 0 160 112v381h46v-522zM166 647l-21 25l127 103h27l128 -103l-21 -25l-120 84z" />
    <glyph glyph-name="udieresis" unicode="&#xfc;" horiz-adv-x="578" 
d="M468 0h-39l-3 97q-61 -108 -173 -108q-71 0 -109.5 41.5t-38.5 118.5v373h46v-369q0 -64 28 -94t83 -30q96 0 160 112v381h46v-522zM220.5 722.5q9.5 -9.5 9.5 -23.5t-9.5 -23.5t-24.5 -9.5t-24.5 9.5t-9.5 23.5t9.5 23.5t24.5 9.5t24.5 -9.5zM401.5 722.5
q9.5 -9.5 9.5 -23.5t-9.5 -23.5t-23.5 -9.5q-15 0 -24.5 9.5t-9.5 23.5t9.5 23.5t24.5 9.5q14 0 23.5 -9.5z" />
    <glyph glyph-name="yacute" unicode="&#xfd;" horiz-adv-x="459" 
d="M261 -2q-21 -61 -44.5 -98.5t-60.5 -62t-97 -38.5l-6 36q51 14 80.5 33.5t46.5 49t37 82.5h-16l-184 522h50l165 -487l160 487h50zM304 776l21 -44l-190 -84l-15 28z" />
    <glyph glyph-name="thorn" unicode="&#xfe;" horiz-adv-x="576" 
d="M457 462.5q48 -69.5 48 -198.5q0 -128 -51 -201.5t-145 -73.5q-48 0 -87.5 21t-65.5 55v-259l-46 -9v938l46 6v-295q30 41 70.5 63.5t89.5 22.5q93 0 141 -69.5zM416.5 89.5q39.5 59.5 39.5 174.5q0 229 -146 229q-49 0 -85 -24t-69 -68v-287q27 -40 63.5 -62t82.5 -22
q75 0 114.5 59.5z" />
    <glyph glyph-name="ydieresis" unicode="&#xff;" horiz-adv-x="459" 
d="M261 -2q-21 -61 -44.5 -98.5t-60.5 -62t-97 -38.5l-6 36q51 14 80.5 33.5t46.5 49t37 82.5h-16l-184 522h50l165 -487l160 487h50zM163.5 722.5q9.5 -9.5 9.5 -23.5t-9.5 -23.5t-24.5 -9.5t-24.5 9.5t-9.5 23.5t9.5 23.5t24.5 9.5t24.5 -9.5zM344.5 722.5
q9.5 -9.5 9.5 -23.5t-9.5 -23.5t-23.5 -9.5q-15 0 -24.5 9.5t-9.5 23.5t9.5 23.5t24.5 9.5q14 0 23.5 -9.5z" />
    <glyph glyph-name="Amacron" unicode="&#x100;" horiz-adv-x="562" 
d="M491 0l-63 192h-297l-63 -192h-48l231 684h60l231 -684h-51zM145 234h270l-134 411zM395 805h-229v39h229v-39z" />
    <glyph glyph-name="amacron" unicode="&#x101;" horiz-adv-x="534" 
d="M435.5 50q10.5 -19 33.5 -28l-11 -33q-34 9 -51.5 30t-21.5 62q-57 -92 -165 -92q-74 0 -117 42.5t-43 113.5q0 80 57 123.5t155 43.5h107v55q0 65 -29 95t-96 30q-63 0 -142 -31l-13 37q87 34 159 34q86 0 126.5 -41t40.5 -121v-257q0 -44 10.5 -63zM379 127v149h-100
q-82 0 -126 -32.5t-44 -97.5q0 -56 31 -87t86 -31q101 0 153 99zM371 679h-229v39h229v-39z" />
    <glyph glyph-name="Abreve" unicode="&#x102;" horiz-adv-x="562" 
d="M491 0l-63 192h-297l-63 -192h-48l231 684h60l231 -684h-51zM145 234h270l-134 411zM199 793.5q-34 26.5 -41 65.5l32 8q10 -28 33.5 -44.5t57.5 -16.5t57.5 16.5t33.5 44.5l32 -8q-7 -39 -41 -65.5t-82 -26.5t-82 26.5z" />
    <glyph glyph-name="abreve" unicode="&#x103;" horiz-adv-x="534" 
d="M435.5 50q10.5 -19 33.5 -28l-11 -33q-34 9 -51.5 30t-21.5 62q-57 -92 -165 -92q-74 0 -117 42.5t-43 113.5q0 80 57 123.5t155 43.5h107v55q0 65 -29 95t-96 30q-63 0 -142 -31l-13 37q87 34 159 34q86 0 126.5 -41t40.5 -121v-257q0 -44 10.5 -63zM379 127v149h-100
q-82 0 -126 -32.5t-44 -97.5q0 -56 31 -87t86 -31q101 0 153 99zM174.5 684q-33.5 28 -40.5 75l32 7q20 -70 91 -70t91 70l32 -7q-7 -46 -40.5 -74.5t-82.5 -28.5t-82.5 28z" />
    <glyph glyph-name="Aogonek" unicode="&#x104;" horiz-adv-x="562" 
d="M437 -56q-28 -26 -28 -63q0 -25 16 -39t49 -14q25 0 57 6l-4 -40q-35 -7 -57 -7q-51 0 -78.5 25t-27.5 64q0 42 30.5 74t93.5 59l-60 183h-297l-63 -192h-48l231 684h60l231 -684h-11q-66 -30 -94 -56zM145 234h270l-134 411z" />
    <glyph glyph-name="aogonek" unicode="&#x105;" horiz-adv-x="534" 
d="M364 -67q-28 -26 -28 -63q0 -25 16 -39t49 -14q26 0 57 6l-4 -40q-35 -7 -57 -7q-51 0 -78.5 25t-27.5 64q0 43 33 76.5t101 61.5q-36 22 -40 78q-57 -92 -165 -92q-74 0 -117 42.5t-43 113.5q0 80 57 123.5t155 43.5h107v55q0 65 -29 95t-96 30q-63 0 -142 -31l-13 37
q87 34 159 34q86 0 126.5 -41t40.5 -121v-257q0 -44 10.5 -63t33.5 -28l-11 -33q-66 -30 -94 -56zM379 127v149h-100q-82 0 -126 -32.5t-44 -97.5q0 -56 31 -87t86 -31q101 0 153 99z" />
    <glyph glyph-name="Cacute" unicode="&#x106;" horiz-adv-x="547" 
d="M438 679q39 -15 77 -46l-26 -32q-36 28 -68 40t-74 12q-101 0 -164 -76.5t-63 -234.5q0 -102 29.5 -171.5t80 -104t114.5 -34.5q49 0 83 14.5t70 43.5l26 -32q-76 -69 -181 -69q-79 0 -140.5 41t-96.5 120.5t-35 191.5q0 114 36 193t98.5 119t139.5 40q55 0 94 -15z
M424 880l21 -44l-192 -77l-13 29z" />
    <glyph glyph-name="cacute" unicode="&#x107;" horiz-adv-x="466" 
d="M362 520q34 -12 66 -39l-24 -31q-26 21 -53.5 31.5t-63.5 10.5q-78 0 -124.5 -60t-46.5 -174q0 -112 46 -170t124 -58q36 0 65 11.5t57 34.5l24 -31q-62 -56 -146 -56q-66 0 -115.5 32t-76.5 92.5t-27 144.5q0 83 27 145t76 95.5t115 33.5q43 0 77 -12zM359 776l21 -44
l-190 -84l-15 28z" />
    <glyph glyph-name="Ccircumflex" unicode="&#x108;" horiz-adv-x="547" 
d="M438 679q39 -15 77 -46l-26 -32q-36 28 -68 40t-74 12q-101 0 -164 -76.5t-63 -234.5q0 -102 29.5 -171.5t80 -104t114.5 -34.5q49 0 83 14.5t70 43.5l26 -32q-76 -69 -181 -69q-79 0 -140.5 41t-96.5 120.5t-35 191.5q0 114 36 193t98.5 119t139.5 40q55 0 94 -15z
M222 763l-21 25l128 99h27l127 -99l-21 -25l-119 80z" />
    <glyph glyph-name="ccircumflex" unicode="&#x109;" horiz-adv-x="466" 
d="M362 520q34 -12 66 -39l-24 -31q-26 21 -53.5 31.5t-63.5 10.5q-78 0 -124.5 -60t-46.5 -174q0 -112 46 -170t124 -58q36 0 65 11.5t57 34.5l24 -31q-62 -56 -146 -56q-66 0 -115.5 32t-76.5 92.5t-27 144.5q0 83 27 145t76 95.5t115 33.5q43 0 77 -12zM164 647l-21 25
l127 103h27l128 -103l-21 -25l-120 84z" />
    <glyph glyph-name="Cdotaccent" unicode="&#x10a;" horiz-adv-x="547" 
d="M438 679q39 -15 77 -46l-26 -32q-36 28 -68 40t-74 12q-101 0 -164 -76.5t-63 -234.5q0 -102 29.5 -171.5t80 -104t114.5 -34.5q49 0 83 14.5t70 43.5l26 -32q-76 -69 -181 -69q-79 0 -140.5 41t-96.5 120.5t-35 191.5q0 114 36 193t98.5 119t139.5 40q55 0 94 -15z
M369 860q10 -10 10 -25t-10 -25t-26 -10t-26 10t-10 25t10 25t26 10t26 -10z" />
    <glyph glyph-name="cdotaccent" unicode="&#x10b;" horiz-adv-x="466" 
d="M362 520q34 -12 66 -39l-24 -31q-26 21 -53.5 31.5t-63.5 10.5q-78 0 -124.5 -60t-46.5 -174q0 -112 46 -170t124 -58q36 0 65 11.5t57 34.5l24 -31q-62 -56 -146 -56q-66 0 -115.5 32t-76.5 92.5t-27 144.5q0 83 27 145t76 95.5t115 33.5q43 0 77 -12zM311 734
q10 -10 10 -25t-10 -25t-26 -10t-26 10t-10 25t10 25t26 10t26 -10z" />
    <glyph glyph-name="Ccaron" unicode="&#x10c;" horiz-adv-x="547" 
d="M438 679q39 -15 77 -46l-26 -32q-36 28 -68 40t-74 12q-101 0 -164 -76.5t-63 -234.5q0 -102 29.5 -171.5t80 -104t114.5 -34.5q49 0 83 14.5t70 43.5l26 -32q-76 -69 -181 -69q-79 0 -140.5 41t-96.5 120.5t-35 191.5q0 114 36 193t98.5 119t139.5 40q55 0 94 -15z
M462 880l21 -25l-127 -98h-27l-128 98l21 25l121 -79z" />
    <glyph glyph-name="ccaron" unicode="&#x10d;" horiz-adv-x="466" 
d="M362 520q34 -12 66 -39l-24 -31q-26 21 -53.5 31.5t-63.5 10.5q-78 0 -124.5 -60t-46.5 -174q0 -112 46 -170t124 -58q36 0 65 11.5t57 34.5l24 -31q-62 -56 -146 -56q-66 0 -115.5 32t-76.5 92.5t-27 144.5q0 83 27 145t76 95.5t115 33.5q43 0 77 -12zM404 763l21 -24
l-127 -104h-27l-128 104l21 24l121 -84z" />
    <glyph glyph-name="Dcaron" unicode="&#x10e;" horiz-adv-x="628" 
d="M472 612q86 -72 86 -264q0 -193 -88 -270.5t-215 -77.5h-140v684h133q138 0 224 -72zM162 643v-602h96q250 0 250 307q0 120 -36 185.5t-92 87.5t-129 22h-89zM418 880l21 -25l-127 -98h-27l-128 98l21 25l121 -79z" />
    <glyph glyph-name="dcaron" unicode="&#x10f;" horiz-adv-x="581" 
d="M471 735v-735h-40l-5 82q-24 -42 -63.5 -67.5t-96.5 -25.5q-89 0 -141.5 72.5t-52.5 197.5q0 81 24.5 142.5t70.5 96t109 34.5q92 0 149 -73v282zM360.5 55q35.5 26 64.5 78v277q-56 83 -143 83q-73 0 -117.5 -61t-44.5 -170q0 -111 40.5 -172t111.5 -61q53 0 88.5 26z
M565 578l35 156l-46 6l-19 -158z" />
    <glyph glyph-name="Dcroat" unicode="&#x110;" horiz-adv-x="630" 
d="M474 612q86 -72 86 -264q0 -193 -88 -270.5t-215 -77.5h-140v332h-93v40h93v312h133q138 0 224 -72zM510 348q0 120 -36 185.5t-92 87.5t-129 22h-89v-271h182v-40h-182v-291h96q250 0 250 307z" />
    <glyph glyph-name="dcroat" unicode="&#x111;" horiz-adv-x="586" 
d="M547 658v-38h-76v-620h-40l-5 82q-24 -42 -63.5 -67.5t-96.5 -25.5q-89 0 -141.5 72.5t-52.5 197.5q0 81 24.5 142.5t70.5 96t109 34.5q92 0 149 -73v161h-167v38h167v83l46 -6v-77h76zM360.5 55q35.5 26 64.5 78v277q-56 83 -143 83q-73 0 -117.5 -61t-44.5 -170
q0 -111 40.5 -172t111.5 -61q53 0 88.5 26z" />
    <glyph glyph-name="Emacron" unicode="&#x112;" horiz-adv-x="504" 
d="M454 684l-6 -41h-286v-266h247v-41h-247v-295h298v-41h-345v684h339zM403 805h-229v39h229v-39z" />
    <glyph glyph-name="emacron" unicode="&#x113;" horiz-adv-x="533" 
d="M469 241h-354q5 -107 51 -159t120 -52q42 0 74 12.5t68 40.5l23 -30q-38 -32 -78 -48t-89 -16q-101 0 -159 71t-58 197q0 83 25 145.5t71.5 96t108.5 33.5q97 0 148 -67t51 -183q0 -21 -2 -41zM426 297q0 91 -38 143.5t-114 52.5q-68 0 -111.5 -53.5t-47.5 -161.5h311v19
zM389 679h-229v39h229v-39z" />
    <glyph glyph-name="Ebreve" unicode="&#x114;" horiz-adv-x="504" 
d="M454 684l-6 -41h-286v-266h247v-41h-247v-295h298v-41h-345v684h339zM207 793.5q-34 26.5 -41 65.5l32 8q10 -28 33.5 -44.5t57.5 -16.5t57.5 16.5t33.5 44.5l32 -8q-7 -39 -41 -65.5t-82 -26.5t-82 26.5z" />
    <glyph glyph-name="ebreve" unicode="&#x115;" horiz-adv-x="533" 
d="M469 241h-354q5 -107 51 -159t120 -52q42 0 74 12.5t68 40.5l23 -30q-38 -32 -78 -48t-89 -16q-101 0 -159 71t-58 197q0 83 25 145.5t71.5 96t108.5 33.5q97 0 148 -67t51 -183q0 -21 -2 -41zM426 297q0 91 -38 143.5t-114 52.5q-68 0 -111.5 -53.5t-47.5 -161.5h311v19
zM192.5 684q-33.5 28 -40.5 75l32 7q20 -70 91 -70t91 70l32 -7q-7 -46 -40.5 -74.5t-82.5 -28.5t-82.5 28z" />
    <glyph glyph-name="Edotaccent" unicode="&#x116;" horiz-adv-x="504" 
d="M454 684l-6 -41h-286v-266h247v-41h-247v-295h298v-41h-345v684h339zM315 860q10 -10 10 -25t-10 -25t-26 -10t-26 10t-10 25t10 25t26 10t26 -10z" />
    <glyph glyph-name="edotaccent" unicode="&#x117;" horiz-adv-x="533" 
d="M469 241h-354q5 -107 51 -159t120 -52q42 0 74 12.5t68 40.5l23 -30q-38 -32 -78 -48t-89 -16q-101 0 -159 71t-58 197q0 83 25 145.5t71.5 96t108.5 33.5q97 0 148 -67t51 -183q0 -21 -2 -41zM426 297q0 91 -38 143.5t-114 52.5q-68 0 -111.5 -53.5t-47.5 -161.5h311v19
zM301 734q10 -10 10 -25t-10 -25t-26 -10t-26 10t-10 25t10 25t26 10t26 -10z" />
    <glyph glyph-name="Eogonek" unicode="&#x118;" horiz-adv-x="504" 
d="M460 41v-41h-29q-66 -30 -94 -56t-28 -63q0 -25 16 -39t49 -14q25 0 57 6l-4 -40q-35 -7 -57 -7q-51 0 -78.5 25t-27.5 64q0 38 25.5 68t78.5 56h-253v684h339l-6 -41h-286v-266h247v-41h-247v-295h298z" />
    <glyph glyph-name="eogonek" unicode="&#x119;" horiz-adv-x="533" 
d="M469 241h-354q5 -107 51 -159t120 -52q42 0 74 12.5t68 40.5l23 -30q-44 -37 -88 -51q-61 -29 -87.5 -55t-26.5 -61q0 -25 17 -39t50 -14q23 0 56 6l-5 -40q-35 -7 -56 -7q-52 0 -79.5 25t-27.5 64q0 66 81 108h-1q-101 0 -159 71t-58 197q0 83 25 145.5t71.5 96
t108.5 33.5q97 0 148 -67t51 -183q0 -21 -2 -41zM426 297q0 91 -38 143.5t-114 52.5q-68 0 -111.5 -53.5t-47.5 -161.5h311v19z" />
    <glyph glyph-name="Ecaron" unicode="&#x11a;" horiz-adv-x="504" 
d="M454 684l-6 -41h-286v-266h247v-41h-247v-295h298v-41h-345v684h339zM408 880l21 -25l-127 -98h-27l-128 98l21 25l121 -79z" />
    <glyph glyph-name="ecaron" unicode="&#x11b;" horiz-adv-x="533" 
d="M469 241h-354q5 -107 51 -159t120 -52q42 0 74 12.5t68 40.5l23 -30q-38 -32 -78 -48t-89 -16q-101 0 -159 71t-58 197q0 83 25 145.5t71.5 96t108.5 33.5q97 0 148 -67t51 -183q0 -21 -2 -41zM426 297q0 91 -38 143.5t-114 52.5q-68 0 -111.5 -53.5t-47.5 -161.5h311v19
zM394 763l21 -24l-127 -104h-27l-128 104l21 24l121 -84z" />
    <glyph glyph-name="Gcircumflex" unicode="&#x11c;" horiz-adv-x="614" 
d="M448.5 678.5q41.5 -15.5 84.5 -49.5l-29 -31q-37 29 -72.5 42t-80.5 13q-60 0 -112.5 -32t-85.5 -101t-33 -175q0 -156 61.5 -235t169.5 -79q43 0 78.5 9t69.5 28v256h-138l-6 41h191v-321q-93 -55 -195 -55q-85 0 -148 40t-98 120t-35 196q0 113 39.5 192t103.5 118
t138 39q56 0 97.5 -15.5zM230 763l-21 25l128 99h27l127 -99l-21 -25l-119 80z" />
    <glyph glyph-name="gcircumflex" unicode="&#x11d;" horiz-adv-x="497" 
d="M486 516q-45 -14 -142 -15q88 -42 88 -146q0 -77 -50 -123.5t-135 -46.5q-38 0 -69 11q-21 -11 -32.5 -28t-11.5 -36q0 -58 88 -58h86q75 0 119 -35.5t44 -93.5q0 -71 -55 -109.5t-165 -38.5q-114 0 -164.5 34.5t-50.5 112.5h44q1 -40 17 -63t52.5 -33.5t101.5 -10.5
q173 0 173 105q0 43 -32.5 67t-90.5 24h-85q-61 0 -94 25.5t-33 64.5q0 51 57 87q-45 23 -66 59t-21 89q0 78 51 126t136 48q98 -1 140.5 6t84.5 24zM141.5 458q-35.5 -37 -35.5 -100q0 -65 38 -101t102 -36q67 0 103 35t36 100t-35 102t-103 37q-70 0 -105.5 -37zM128 647
l-21 25l127 103h27l128 -103l-21 -25l-120 84z" />
    <glyph glyph-name="Gbreve" unicode="&#x11e;" horiz-adv-x="614" 
d="M448.5 678.5q41.5 -15.5 84.5 -49.5l-29 -31q-37 29 -72.5 42t-80.5 13q-60 0 -112.5 -32t-85.5 -101t-33 -175q0 -156 61.5 -235t169.5 -79q43 0 78.5 9t69.5 28v256h-138l-6 41h191v-321q-93 -55 -195 -55q-85 0 -148 40t-98 120t-35 196q0 113 39.5 192t103.5 118
t138 39q56 0 97.5 -15.5zM269 793.5q-34 26.5 -41 65.5l32 8q10 -28 33.5 -44.5t57.5 -16.5t57.5 16.5t33.5 44.5l32 -8q-7 -39 -41 -65.5t-82 -26.5t-82 26.5z" />
    <glyph glyph-name="gbreve" unicode="&#x11f;" horiz-adv-x="497" 
d="M486 516q-45 -14 -142 -15q88 -42 88 -146q0 -77 -50 -123.5t-135 -46.5q-38 0 -69 11q-21 -11 -32.5 -28t-11.5 -36q0 -58 88 -58h86q75 0 119 -35.5t44 -93.5q0 -71 -55 -109.5t-165 -38.5q-114 0 -164.5 34.5t-50.5 112.5h44q1 -40 17 -63t52.5 -33.5t101.5 -10.5
q173 0 173 105q0 43 -32.5 67t-90.5 24h-85q-61 0 -94 25.5t-33 64.5q0 51 57 87q-45 23 -66 59t-21 89q0 78 51 126t136 48q98 -1 140.5 6t84.5 24zM141.5 458q-35.5 -37 -35.5 -100q0 -65 38 -101t102 -36q67 0 103 35t36 100t-35 102t-103 37q-70 0 -105.5 -37z
M166.5 684q-33.5 28 -40.5 75l32 7q20 -70 91 -70t91 70l32 -7q-7 -46 -40.5 -74.5t-82.5 -28.5t-82.5 28z" />
    <glyph glyph-name="Gdotaccent" unicode="&#x120;" horiz-adv-x="614" 
d="M448.5 678.5q41.5 -15.5 84.5 -49.5l-29 -31q-37 29 -72.5 42t-80.5 13q-60 0 -112.5 -32t-85.5 -101t-33 -175q0 -156 61.5 -235t169.5 -79q43 0 78.5 9t69.5 28v256h-138l-6 41h191v-321q-93 -55 -195 -55q-85 0 -148 40t-98 120t-35 196q0 113 39.5 192t103.5 118
t138 39q56 0 97.5 -15.5zM377 860q10 -10 10 -25t-10 -25t-26 -10t-26 10t-10 25t10 25t26 10t26 -10z" />
    <glyph glyph-name="gdotaccent" unicode="&#x121;" horiz-adv-x="497" 
d="M486 516q-45 -14 -142 -15q88 -42 88 -146q0 -77 -50 -123.5t-135 -46.5q-38 0 -69 11q-21 -11 -32.5 -28t-11.5 -36q0 -58 88 -58h86q75 0 119 -35.5t44 -93.5q0 -71 -55 -109.5t-165 -38.5q-114 0 -164.5 34.5t-50.5 112.5h44q1 -40 17 -63t52.5 -33.5t101.5 -10.5
q173 0 173 105q0 43 -32.5 67t-90.5 24h-85q-61 0 -94 25.5t-33 64.5q0 51 57 87q-45 23 -66 59t-21 89q0 78 51 126t136 48q98 -1 140.5 6t84.5 24zM141.5 458q-35.5 -37 -35.5 -100q0 -65 38 -101t102 -36q67 0 103 35t36 100t-35 102t-103 37q-70 0 -105.5 -37zM275 734
q10 -10 10 -25t-10 -25t-26 -10t-26 10t-10 25t10 25t26 10t26 -10z" />
    <glyph glyph-name="Gcommaaccent" unicode="&#x122;" horiz-adv-x="614" 
d="M448.5 678.5q41.5 -15.5 84.5 -49.5l-29 -31q-37 29 -72.5 42t-80.5 13q-60 0 -112.5 -32t-85.5 -101t-33 -175q0 -156 61.5 -235t169.5 -79q43 0 78.5 9t69.5 28v256h-138l-6 41h191v-321q-93 -55 -195 -55q-85 0 -148 40t-98 120t-35 196q0 113 39.5 192t103.5 118
t138 39q56 0 97.5 -15.5zM366 -98q11 -11 11 -27q0 -11 -4 -23t-17 -39l-40 -86h-29l33 114q-21 10 -21 34q0 16 11 27t27 11q18 0 29 -11z" />
    <glyph glyph-name="gcommaaccent" unicode="&#x123;" horiz-adv-x="497" 
d="M486 516q-45 -14 -142 -15q88 -42 88 -146q0 -77 -50 -123.5t-135 -46.5q-38 0 -69 11q-21 -11 -32.5 -28t-11.5 -36q0 -58 88 -58h86q75 0 119 -35.5t44 -93.5q0 -71 -55 -109.5t-165 -38.5q-114 0 -164.5 34.5t-50.5 112.5h44q1 -40 17 -63t52.5 -33.5t101.5 -10.5
q173 0 173 105q0 43 -32.5 67t-90.5 24h-85q-61 0 -94 25.5t-33 64.5q0 51 57 87q-45 23 -66 59t-21 89q0 78 51 126t136 48q98 -1 140.5 6t84.5 24zM141.5 458q-35.5 -37 -35.5 -100q0 -65 38 -101t102 -36q67 0 103 35t36 100t-35 102t-103 37q-70 0 -105.5 -37zM217 601
q-11 11 -11 27q0 11 4 23t17 39l40 86h29l-33 -114q21 -10 21 -34q0 -16 -11 -27t-27 -11q-18 0 -29 11z" />
    <glyph glyph-name="Hcircumflex" unicode="&#x124;" horiz-adv-x="667" 
d="M504 0v339h-342v-339h-47v684h47v-303h342v303h48v-684h-48zM211 763l-21 25l128 99h27l127 -99l-21 -25l-119 80z" />
    <glyph glyph-name="hcircumflex" unicode="&#x125;" horiz-adv-x="583" 
d="M441.5 490q36.5 -42 36.5 -118v-372h-46v366q0 128 -104 128q-53 0 -94 -29.5t-78 -83.5v-381h-46v735l46 6v-311q74 102 179 102q70 0 106.5 -42zM174 814l-21 25l128 99h27l127 -99l-21 -25l-119 80z" />
    <glyph glyph-name="Hbar" unicode="&#x126;" horiz-adv-x="669" 
d="M617 551v-36h-64v-515h-48v339h-342v-339h-47v515h-65v36h65v133h47v-133h342v133h48v-133h64zM505 381v134h-342v-134h342z" />
    <glyph glyph-name="hbar" unicode="&#x127;" horiz-adv-x="588" 
d="M446.5 490q36.5 -42 36.5 -118v-372h-46v366q0 128 -104 128q-53 0 -94 -29.5t-78 -83.5v-381h-46v620h-76v38h76v77l46 6v-83h171v-38h-171v-190q74 102 179 102q70 0 106.5 -42z" />
    <glyph glyph-name="Itilde" unicode="&#x128;" horiz-adv-x="277" 
d="M162 684v-684h-47v684h47zM162 802.5q-16 6.5 -36 18.5q-30 19 -47 19t-29.5 -8.5t-27.5 -28.5l-29 15q37 60 86 60q15 0 28 -5.5t33 -17.5q18 -10 30.5 -15.5t25.5 -5.5q16 0 28.5 9.5t28.5 33.5l29 -15q-32 -66 -86 -66q-18 0 -34 6.5z" />
    <glyph glyph-name="itilde" unicode="&#x129;" horiz-adv-x="266" 
d="M156 522v-522h-46v522h46zM157 676.5q-16 6.5 -36 18.5q-30 19 -47 19t-29.5 -8.5t-27.5 -28.5l-29 15q37 60 86 60q15 0 28 -5.5t33 -17.5q18 -10 30.5 -15.5t25.5 -5.5q16 0 28.5 9.5t28.5 33.5l29 -15q-32 -66 -86 -66q-18 0 -34 6.5z" />
    <glyph glyph-name="Imacron" unicode="&#x12a;" horiz-adv-x="277" 
d="M162 684v-684h-47v684h47zM252 805h-229v39h229v-39z" />
    <glyph glyph-name="imacron" unicode="&#x12b;" horiz-adv-x="266" 
d="M156 522v-522h-46v522h46zM247 679h-229v39h229v-39z" />
    <glyph glyph-name="Ibreve" unicode="&#x12c;" horiz-adv-x="277" 
d="M162 684v-684h-47v684h47zM56 793.5q-34 26.5 -41 65.5l32 8q10 -28 33.5 -44.5t57.5 -16.5t57.5 16.5t33.5 44.5l32 -8q-7 -39 -41 -65.5t-82 -26.5t-82 26.5z" />
    <glyph glyph-name="ibreve" unicode="&#x12d;" horiz-adv-x="266" 
d="M156 522v-522h-46v522h46zM50.5 684q-33.5 28 -40.5 75l32 7q20 -70 91 -70t91 70l32 -7q-7 -46 -40.5 -74.5t-82.5 -28.5t-82.5 28z" />
    <glyph glyph-name="Iogonek" unicode="&#x12e;" horiz-adv-x="277" 
d="M68 -56q-28 -26 -28 -63q0 -25 16 -39t49 -14q26 0 57 6l-4 -40q-35 -7 -57 -7q-51 0 -78.5 25t-27.5 64q0 41 29.5 72.5t90.5 59.5v676h47v-684q-66 -30 -94 -56z" />
    <glyph glyph-name="iogonek" unicode="&#x12f;" horiz-adv-x="266" 
d="M159 734q10 -10 10 -25t-10 -25t-26 -10t-26 10t-10 25t10 25t26 10t26 -10zM110 522h46v-522q-66 -30 -94 -56t-28 -63q0 -25 16 -39t49 -14q26 0 57 6l-4 -40q-35 -7 -57 -7q-51 0 -78.5 25t-27.5 64q0 41 30 73t91 59v514z" />
    <glyph glyph-name="Idotaccent" unicode="&#x130;" horiz-adv-x="277" 
d="M162 684v-684h-47v684h47zM164 860q10 -10 10 -25t-10 -25t-26 -10t-26 10t-10 25t10 25t26 10t26 -10z" />
    <glyph glyph-name="dotlessi" unicode="&#x131;" horiz-adv-x="266" 
d="M156 522v-522h-46v522h46z" />
    <glyph glyph-name="IJ" unicode="&#x132;" horiz-adv-x="563" 
d="M162 684v-684h-47v684h47zM454 90q0 -58 -13.5 -93.5t-45 -60.5t-89.5 -49l-13 35q46 21 70 42.5t33.5 51t9.5 77.5v591h48v-594z" />
    <glyph glyph-name="ij" unicode="&#x133;" horiz-adv-x="532" 
d="M156 522v-522h-46v522h46zM159 734q10 -10 10 -25t-10 -25t-26 -10t-26 10t-10 25t10 25t26 10t26 -10zM422 14q0 -66 -14 -105t-41 -62.5t-76 -46.5l-13 33q38 19 58 38.5t30 52t10 89.5v509h46v-508zM425 734q10 -10 10 -25t-10 -25t-26 -10t-26 10t-10 25t10 25t26 10
t26 -10z" />
    <glyph glyph-name="Jcircumflex" unicode="&#x134;" horiz-adv-x="286" 
d="M177 90q0 -58 -13.5 -93.5t-45 -60.5t-89.5 -49l-13 35q46 21 70 42.5t33.5 51t9.5 77.5v591h48v-594zM30 763l-21 25l128 99h27l127 -99l-21 -25l-119 80z" />
    <glyph glyph-name="jcircumflex" unicode="&#x135;" horiz-adv-x="266" 
d="M156 14q0 -66 -14 -105t-41 -62.5t-76 -46.5l-13 33q38 19 58 38.5t30 52t10 89.5v509h46v-508zM12 647l-21 25l127 103h27l128 -103l-21 -25l-120 84z" />
    <glyph glyph-name="Kcommaaccent" unicode="&#x136;" horiz-adv-x="533" 
d="M162 684v-684h-47v684h47zM516 684l-292 -315l309 -369h-59l-308 367l295 317h55zM331 -98q11 -11 11 -27q0 -11 -4 -23t-17 -39l-40 -86h-29l33 114q-21 10 -21 34q0 16 11 27t27 11q18 0 29 -11z" />
    <glyph glyph-name="kcommaaccent" unicode="&#x137;" horiz-adv-x="480" 
d="M156 741v-741h-46v735zM445 522l-228 -235l252 -287h-56l-251 285l229 237h54zM294 -98q11 -11 11 -27q0 -11 -4 -23t-17 -39l-40 -86h-29l33 114q-21 10 -21 34q0 16 11 27t27 11q18 0 29 -11z" />
    <glyph glyph-name="kgreenlandic" unicode="&#x138;" horiz-adv-x="479" 
d="M156 522v-522h-46v522h46zM445 522l-229 -245l252 -277h-56l-251 275l229 247h55z" />
    <glyph glyph-name="Lacute" unicode="&#x139;" horiz-adv-x="470" 
d="M162 684v-640h288l-7 -44h-328v684h47zM220 880l21 -44l-192 -77l-13 29z" />
    <glyph glyph-name="lacute" unicode="&#x13a;" horiz-adv-x="281" 
d="M128 12.5q-23 23.5 -23 69.5v653l46 6v-657q0 -54 45 -54q18 0 37 7l13 -35q-28 -13 -55 -13q-40 0 -63 23.5zM209 931l21 -44l-192 -77l-13 29z" />
    <glyph glyph-name="Lcommaaccent" unicode="&#x13b;" horiz-adv-x="470" 
d="M162 684v-640h288l-7 -44h-328v684h47zM309 -98q11 -11 11 -27q0 -11 -4 -23t-17 -39l-40 -86h-29l33 114q-21 10 -21 34q0 16 11 27t27 11q18 0 29 -11z" />
    <glyph glyph-name="lcommaaccent" unicode="&#x13c;" horiz-adv-x="281" 
d="M128 12.5q-23 23.5 -23 69.5v653l46 6v-657q0 -54 45 -54q18 0 37 7l13 -35q-28 -13 -55 -13q-40 0 -63 23.5zM208 -98q11 -11 11 -27q0 -11 -4 -23t-17 -39l-40 -86h-29l33 114q-21 10 -21 34q0 16 11 27t27 11q18 0 29 -11z" />
    <glyph glyph-name="Lcaron" unicode="&#x13d;" horiz-adv-x="470" 
d="M162 684v-640h288l-7 -44h-328v684h47zM259 527l35 156l-46 6l-19 -158z" />
    <glyph glyph-name="lcaron" unicode="&#x13e;" horiz-adv-x="281" 
d="M128 12.5q-23 23.5 -23 69.5v653l46 6v-657q0 -54 45 -54q18 0 37 7l13 -35q-28 -13 -55 -13q-40 0 -63 23.5zM245 578l35 156l-46 6l-19 -158z" />
    <glyph glyph-name="Ldot" unicode="&#x13f;" horiz-adv-x="470" 
d="M162 684v-640h288l-7 -44h-328v684h47zM388 387q10 -10 10 -25t-10 -25t-26 -10t-26 10t-10 25t10 25t26 10t26 -10z" />
    <glyph glyph-name="ldot" unicode="&#x140;" horiz-adv-x="290" 
d="M128 12.5q-23 23.5 -23 69.5v653l46 6v-657q0 -54 45 -54q18 0 37 7l13 -35q-28 -13 -55 -13q-40 0 -63 23.5zM297 400q10 -10 10 -25t-10 -25t-26 -10t-26 10t-10 25t10 25t26 10t26 -10z" />
    <glyph glyph-name="Lslash" unicode="&#x141;" horiz-adv-x="478" 
d="M171 44h288l-7 -44h-328v290l-68 -42l-19 32l86 53l1 1v350h47v-321l188 118l20 -32l-208 -129v-276z" />
    <glyph glyph-name="lslash" unicode="&#x142;" horiz-adv-x="295" 
d="M240 37l13 -35q-28 -13 -55 -13q-40 0 -63 23.5t-23 69.5v248l-60 -37l-19 31l79 49v362l46 6v-340l100 61l18 -31l-118 -73v-274q0 -54 45 -54q18 0 37 7z" />
    <glyph glyph-name="Nacute" unicode="&#x143;" horiz-adv-x="669" 
d="M554 0h-61l-339 631q6 -88 6 -224v-407h-45v684h61l339 -631q-6 99 -6 200v431h45v-684zM424 880l21 -44l-192 -77l-13 29z" />
    <glyph glyph-name="nacute" unicode="&#x144;" horiz-adv-x="583" 
d="M442 490.5q36 -41.5 36 -118.5v-372h-46v366q0 66 -26 97t-78 31q-53 0 -94 -29t-78 -84v-381h-46v522h40l4 -93q74 103 181 103q71 0 107 -41.5zM371 776l21 -44l-190 -84l-15 28z" />
    <glyph glyph-name="Ncommaaccent" unicode="&#x145;" horiz-adv-x="669" 
d="M554 0h-61l-339 631q6 -88 6 -224v-407h-45v684h61l339 -631q-6 99 -6 200v431h45v-684zM362 -98q11 -11 11 -27q0 -11 -4 -23t-17 -39l-40 -86h-29l33 114q-21 10 -21 34q0 16 11 27t27 11q18 0 29 -11z" />
    <glyph glyph-name="ncommaaccent" unicode="&#x146;" horiz-adv-x="583" 
d="M442 490.5q36 -41.5 36 -118.5v-372h-46v366q0 66 -26 97t-78 31q-53 0 -94 -29t-78 -84v-381h-46v522h40l4 -93q74 103 181 103q71 0 107 -41.5zM319 -98q11 -11 11 -27q0 -11 -4 -23t-17 -39l-40 -86h-29l33 114q-21 10 -21 34q0 16 11 27t27 11q18 0 29 -11z" />
    <glyph glyph-name="Ncaron" unicode="&#x147;" horiz-adv-x="669" 
d="M554 0h-61l-339 631q6 -88 6 -224v-407h-45v684h61l339 -631q-6 99 -6 200v431h45v-684zM462 880l21 -25l-127 -98h-27l-128 98l21 25l121 -79z" />
    <glyph glyph-name="ncaron" unicode="&#x148;" horiz-adv-x="583" 
d="M442 490.5q36 -41.5 36 -118.5v-372h-46v366q0 66 -26 97t-78 31q-53 0 -94 -29t-78 -84v-381h-46v522h40l4 -93q74 103 181 103q71 0 107 -41.5zM416 763l21 -24l-127 -104h-27l-128 104l21 24l121 -84z" />
    <glyph glyph-name="napostrophe" unicode="&#x149;" horiz-adv-x="657" 
d="M125 731q11 -11 11 -27q0 -13 -10 -36q-10 -24 -11 -26l-35 -90h-29l28 118q-21 9 -21 34q0 16 10.5 27t27.5 11q18 0 29 -11zM516 490.5q36 -41.5 36 -118.5v-372h-46v366q0 66 -26 97t-78 31q-53 0 -94 -29t-78 -84v-381h-46v522h40l4 -93q74 103 181 103
q71 0 107 -41.5z" />
    <glyph glyph-name="Eng" unicode="&#x14a;" horiz-adv-x="669" 
d="M554 684v-760q0 -62 -31.5 -94.5t-84.5 -32.5q-54 0 -97 33l20 31q17 -11 34.5 -17t41.5 -6q69 0 69 86v76h-13l-339 631q6 -88 6 -224v-407h-45v684h61l339 -631q-6 99 -6 200v431h45z" />
    <glyph glyph-name="eng" unicode="&#x14b;" horiz-adv-x="583" 
d="M442 490.5q36 -41.5 36 -118.5v-448q0 -62 -31.5 -94.5t-84.5 -32.5q-54 0 -97 33l20 30q17 -11 34.5 -17t41.5 -6q32 0 51.5 20t19.5 66v443q0 66 -26 97t-78 31q-53 0 -94 -29t-78 -84v-381h-46v522h40l4 -93q74 103 181 103q71 0 107 -41.5z" />
    <glyph glyph-name="Omacron" unicode="&#x14c;" horiz-adv-x="691" 
d="M490 653.5q62 -40.5 96.5 -120t34.5 -192.5q0 -111 -34 -190t-96 -120.5t-146 -41.5q-82 0 -144 41t-96.5 120t-34.5 190t34.5 191t97 121.5t143.5 41.5q83 0 145 -40.5zM180.5 573.5q-60.5 -79.5 -60.5 -233.5q0 -151 61 -230t164 -79q107 0 166.5 78.5t59.5 231.5
q0 154 -60 233t-166 79q-104 0 -164.5 -79.5zM459 805h-229v39h229v-39z" />
    <glyph glyph-name="omacron" unicode="&#x14d;" horiz-adv-x="567" 
d="M443 461.5q57 -70.5 57 -198.5t-58 -201t-159 -73t-158.5 72.5t-57.5 198.5q0 127 58.5 199.5t158.5 72.5q102 0 159 -70.5zM160 432.5q-45 -59.5 -45 -172.5q0 -111 44 -171t124 -60q79 0 124 60t45 174q0 112 -44 170.5t-124 58.5q-79 0 -124 -59.5zM398 679h-229v39
h229v-39z" />
    <glyph glyph-name="Obreve" unicode="&#x14e;" horiz-adv-x="691" 
d="M490 653.5q62 -40.5 96.5 -120t34.5 -192.5q0 -111 -34 -190t-96 -120.5t-146 -41.5q-82 0 -144 41t-96.5 120t-34.5 190t34.5 191t97 121.5t143.5 41.5q83 0 145 -40.5zM180.5 573.5q-60.5 -79.5 -60.5 -233.5q0 -151 61 -230t164 -79q107 0 166.5 78.5t59.5 231.5
q0 154 -60 233t-166 79q-104 0 -164.5 -79.5zM263 793.5q-34 26.5 -41 65.5l32 8q10 -28 33.5 -44.5t57.5 -16.5t57.5 16.5t33.5 44.5l32 -8q-7 -39 -41 -65.5t-82 -26.5t-82 26.5z" />
    <glyph glyph-name="obreve" unicode="&#x14f;" horiz-adv-x="567" 
d="M443 461.5q57 -70.5 57 -198.5t-58 -201t-159 -73t-158.5 72.5t-57.5 198.5q0 127 58.5 199.5t158.5 72.5q102 0 159 -70.5zM160 432.5q-45 -59.5 -45 -172.5q0 -111 44 -171t124 -60q79 0 124 60t45 174q0 112 -44 170.5t-124 58.5q-79 0 -124 -59.5zM201.5 684
q-33.5 28 -40.5 75l32 7q20 -70 91 -70t91 70l32 -7q-7 -46 -40.5 -74.5t-82.5 -28.5t-82.5 28z" />
    <glyph glyph-name="Ohungarumlaut" unicode="&#x150;" horiz-adv-x="691" 
d="M490 653.5q62 -40.5 96.5 -120t34.5 -192.5q0 -111 -34 -190t-96 -120.5t-146 -41.5q-82 0 -144 41t-96.5 120t-34.5 190t34.5 191t97 121.5t143.5 41.5q83 0 145 -40.5zM180.5 573.5q-60.5 -79.5 -60.5 -233.5q0 -151 61 -230t164 -79q107 0 166.5 78.5t59.5 231.5
q0 154 -60 233t-166 79q-104 0 -164.5 -79.5zM451 930l43 -23l-88 -136l-31 15zM330 929l43 -22l-81 -132l-31 15z" />
    <glyph glyph-name="ohungarumlaut" unicode="&#x151;" horiz-adv-x="567" 
d="M443 461.5q57 -70.5 57 -198.5t-58 -201t-159 -73t-158.5 72.5t-57.5 198.5q0 127 58.5 199.5t158.5 72.5q102 0 159 -70.5zM160 432.5q-45 -59.5 -45 -172.5q0 -111 44 -171t124 -60q79 0 124 60t45 174q0 112 -44 170.5t-124 58.5q-79 0 -124 -59.5zM396 804l43 -23
l-88 -136l-31 15zM275 803l43 -22l-81 -132l-31 15z" />
    <glyph glyph-name="OE" unicode="&#x152;" horiz-adv-x="861" 
d="M817 0h-414q-35 -11 -69 -11q-77 0 -136.5 41t-93.5 120t-34 190q0 110 34 190t94 122t136 42q39 0 70 -10h407l-6 -41h-325q55 -38 85.5 -105.5t34.5 -160.5h166v-41h-165q-1 -106 -33 -180.5t-90 -114.5h339v-41zM147.5 169.5q27.5 -69.5 76 -104t111.5 -34.5
q101 0 158.5 80t57.5 237q0 149 -58.5 227t-157.5 78q-63 0 -111.5 -35t-76 -105t-27.5 -173q0 -101 27.5 -170.5z" />
    <glyph glyph-name="oe" unicode="&#x153;" horiz-adv-x="918" 
d="M855 241h-355q5 -107 51 -159t120 -52q42 0 74 12.5t68 40.5l23 -30q-37 -32 -77 -48t-90 -16q-69 0 -119 37t-75 104q-25 -67 -74.5 -104t-117.5 -37q-101 0 -158.5 72.5t-57.5 198.5q0 127 58.5 199.5t158.5 72.5q70 0 119 -36t74 -103q25 65 71.5 102t110.5 37
q96 0 147 -67t51 -183q0 -21 -2 -41zM811 297q0 91 -38 143.5t-112 52.5q-69 0 -113 -53.5t-48 -161.5h311v19zM407 89q45 60 45 174q0 112 -44 170.5t-124 58.5q-79 0 -124 -59.5t-45 -172.5q0 -111 44 -171t124 -60q79 0 124 60z" />
    <glyph glyph-name="Racute" unicode="&#x154;" horiz-adv-x="584" 
d="M310 313h-148v-313h-47v684h161q237 0 237 -183q0 -75 -39.5 -118.5t-114.5 -61.5l189 -321h-57zM283 353q180 0 180 148q0 72 -44.5 107t-145.5 35h-111v-290h121zM370 880l21 -44l-192 -77l-13 29z" />
    <glyph glyph-name="racute" unicode="&#x155;" horiz-adv-x="369" 
d="M355 526l-9 -43q-20 6 -46 6q-55 0 -88.5 -39.5t-55.5 -123.5v-326h-46v522h40l3 -121q21 67 57.5 99t92.5 32q34 0 52 -6zM305 776l21 -44l-190 -84l-15 28z" />
    <glyph glyph-name="Rcommaaccent" unicode="&#x156;" horiz-adv-x="584" 
d="M310 313h-148v-313h-47v684h161q237 0 237 -183q0 -75 -39.5 -118.5t-114.5 -61.5l189 -321h-57zM283 353q180 0 180 148q0 72 -44.5 107t-145.5 35h-111v-290h121zM333 -98q11 -11 11 -27q0 -11 -4 -23t-17 -39l-40 -86h-29l33 114q-21 10 -21 34q0 16 11 27t27 11
q18 0 29 -11z" />
    <glyph glyph-name="rcommaaccent" unicode="&#x157;" horiz-adv-x="369" 
d="M355 526l-9 -43q-20 6 -46 6q-55 0 -88.5 -39.5t-55.5 -123.5v-326h-46v522h40l3 -121q21 67 57.5 99t92.5 32q34 0 52 -6zM161 -98q11 -11 11 -27q0 -11 -4 -23t-17 -39l-40 -86h-29l33 114q-21 10 -21 34q0 16 11 27t27 11q18 0 29 -11z" />
    <glyph glyph-name="Rcaron" unicode="&#x158;" horiz-adv-x="584" 
d="M310 313h-148v-313h-47v684h161q237 0 237 -183q0 -75 -39.5 -118.5t-114.5 -61.5l189 -321h-57zM283 353q180 0 180 148q0 72 -44.5 107t-145.5 35h-111v-290h121zM408 880l21 -25l-127 -98h-27l-128 98l21 25l121 -79z" />
    <glyph glyph-name="rcaron" unicode="&#x159;" horiz-adv-x="369" 
d="M355 526l-9 -43q-20 6 -46 6q-55 0 -88.5 -39.5t-55.5 -123.5v-326h-46v522h40l3 -121q21 67 57.5 99t92.5 32q34 0 52 -6zM350 763l21 -24l-127 -104h-27l-128 104l21 24l121 -84z" />
    <glyph glyph-name="Sacute" unicode="&#x15a;" horiz-adv-x="537" 
d="M371.5 675.5q43.5 -18.5 85.5 -55.5l-28 -31q-39 34 -76.5 49t-85.5 15q-67 0 -107.5 -33.5t-40.5 -88.5q0 -38 15.5 -63t50 -44t97.5 -38q69 -21 111 -45t63.5 -61.5t21.5 -94.5t-27.5 -102t-77.5 -69.5t-115 -24.5q-66 0 -118 22t-96 63l28 31q41 -37 84 -55.5
t101 -18.5q77 0 125 41t48 112q0 44 -16 72.5t-51.5 49t-99.5 40.5q-105 32 -148.5 73t-43.5 111q0 47 24.5 84t69 58.5t101.5 21.5q62 0 105.5 -18.5zM351 880l21 -44l-192 -77l-13 29z" />
    <glyph glyph-name="sacute" unicode="&#x15b;" horiz-adv-x="463" 
d="M318.5 518q38.5 -14 76.5 -43l-23 -31q-35 26 -66.5 37.5t-71.5 11.5q-55 0 -89 -25.5t-34 -69.5q0 -40 29 -62t103 -42q90 -24 128 -57.5t38 -98.5q0 -68 -51.5 -108.5t-130.5 -40.5q-59 0 -102 17.5t-81 49.5l26 30q36 -29 72 -43t84 -14q60 0 97.5 28.5t37.5 79.5
q0 34 -12 55t-42 35.5t-87 30.5q-84 22 -120 54t-36 86q0 59 48 96.5t121 37.5q47 0 85.5 -14zM312 776l21 -44l-190 -84l-15 28z" />
    <glyph glyph-name="Scircumflex" unicode="&#x15c;" horiz-adv-x="537" 
d="M371.5 675.5q43.5 -18.5 85.5 -55.5l-28 -31q-39 34 -76.5 49t-85.5 15q-67 0 -107.5 -33.5t-40.5 -88.5q0 -38 15.5 -63t50 -44t97.5 -38q69 -21 111 -45t63.5 -61.5t21.5 -94.5t-27.5 -102t-77.5 -69.5t-115 -24.5q-66 0 -118 22t-96 63l28 31q41 -37 84 -55.5
t101 -18.5q77 0 125 41t48 112q0 44 -16 72.5t-51.5 49t-99.5 40.5q-105 32 -148.5 73t-43.5 111q0 47 24.5 84t69 58.5t101.5 21.5q62 0 105.5 -18.5zM149 763l-21 25l128 99h27l127 -99l-21 -25l-119 80z" />
    <glyph glyph-name="scircumflex" unicode="&#x15d;" horiz-adv-x="463" 
d="M318.5 518q38.5 -14 76.5 -43l-23 -31q-35 26 -66.5 37.5t-71.5 11.5q-55 0 -89 -25.5t-34 -69.5q0 -40 29 -62t103 -42q90 -24 128 -57.5t38 -98.5q0 -68 -51.5 -108.5t-130.5 -40.5q-59 0 -102 17.5t-81 49.5l26 30q36 -29 72 -43t84 -14q60 0 97.5 28.5t37.5 79.5
q0 34 -12 55t-42 35.5t-87 30.5q-84 22 -120 54t-36 86q0 59 48 96.5t121 37.5q47 0 85.5 -14zM117 647l-21 25l127 103h27l128 -103l-21 -25l-120 84z" />
    <glyph glyph-name="Scedilla" unicode="&#x15e;" horiz-adv-x="537" 
d="M422 47q-56 -54 -149 -58v-56q92 -7 92 -73q0 -38 -28.5 -60t-70.5 -22q-43 0 -76 20l16 30q28 -15 59 -15q25 0 41 12t16 35t-21 34t-68 11l7 84q-115 7 -196 85l28 31q41 -37 84 -55.5t101 -18.5q77 0 125 41t48 112q0 44 -16 72.5t-51.5 49t-99.5 40.5
q-105 32 -148.5 73t-43.5 111q0 47 24.5 84t69 58.5t101.5 21.5q62 0 105.5 -18.5t85.5 -55.5l-28 -31q-39 34 -76.5 49t-85.5 15q-67 0 -107.5 -33.5t-40.5 -88.5q0 -38 15.5 -63t50 -44t97.5 -38q69 -21 111 -45t63.5 -61.5t21.5 -94.5q0 -84 -56 -138z" />
    <glyph glyph-name="scedilla" unicode="&#x15f;" horiz-adv-x="463" 
d="M362.5 34q-46.5 -40 -119.5 -45v-56q92 -7 92 -73q0 -38 -28.5 -60t-70.5 -22q-43 0 -76 20l16 30q28 -15 59 -15q25 0 41 12t16 35t-21 34t-68 11l7 84q-52 3 -91.5 20.5t-74.5 46.5l26 30q36 -29 72 -43t84 -14q60 0 97.5 28.5t37.5 79.5q0 34 -12 55t-42 35.5
t-87 30.5q-84 22 -120 54t-36 86q0 59 48 96.5t121 37.5q47 0 85.5 -14t76.5 -43l-23 -31q-35 26 -66.5 37.5t-71.5 11.5q-55 0 -89 -25.5t-34 -69.5q0 -40 29 -62t103 -42q90 -24 128 -57.5t38 -98.5q0 -64 -46.5 -104z" />
    <glyph glyph-name="Scaron" unicode="&#x160;" horiz-adv-x="537" 
d="M371.5 675.5q43.5 -18.5 85.5 -55.5l-28 -31q-39 34 -76.5 49t-85.5 15q-67 0 -107.5 -33.5t-40.5 -88.5q0 -38 15.5 -63t50 -44t97.5 -38q69 -21 111 -45t63.5 -61.5t21.5 -94.5t-27.5 -102t-77.5 -69.5t-115 -24.5q-66 0 -118 22t-96 63l28 31q41 -37 84 -55.5
t101 -18.5q77 0 125 41t48 112q0 44 -16 72.5t-51.5 49t-99.5 40.5q-105 32 -148.5 73t-43.5 111q0 47 24.5 84t69 58.5t101.5 21.5q62 0 105.5 -18.5zM389 880l21 -25l-127 -98h-27l-128 98l21 25l121 -79z" />
    <glyph glyph-name="scaron" unicode="&#x161;" horiz-adv-x="463" 
d="M318.5 518q38.5 -14 76.5 -43l-23 -31q-35 26 -66.5 37.5t-71.5 11.5q-55 0 -89 -25.5t-34 -69.5q0 -40 29 -62t103 -42q90 -24 128 -57.5t38 -98.5q0 -68 -51.5 -108.5t-130.5 -40.5q-59 0 -102 17.5t-81 49.5l26 30q36 -29 72 -43t84 -14q60 0 97.5 28.5t37.5 79.5
q0 34 -12 55t-42 35.5t-87 30.5q-84 22 -120 54t-36 86q0 59 48 96.5t121 37.5q47 0 85.5 -14zM357 763l21 -24l-127 -104h-27l-128 104l21 24l121 -84z" />
    <glyph glyph-name="uni0162" unicode="&#x162;" horiz-adv-x="487" 
d="M336 -89.5q23 -18.5 23 -50.5q0 -38 -29 -60t-71 -22t-75 20l16 30q28 -15 58 -15q25 0 41.5 12t16.5 35t-21 34t-68 11l8 95h-15v641h-205v43h462l-6 -43h-204v-708q46 -4 69 -22.5z" />
    <glyph glyph-name="uni0163" unicode="&#x163;" horiz-adv-x="334" 
d="M329 -140q0 -38 -28.5 -60t-70.5 -22q-43 0 -76 20l16 30q28 -15 59 -15q25 0 41 12t16 35t-21 34t-68 11l7 86q-46 8 -71 41.5t-25 90.5v360h-87v39h87v127l46 5v-132h138l-6 -39h-132v-357q0 -96 81 -96q42 0 84 24l19 -33q-47 -31 -101 -32v-56q92 -7 92 -73z" />
    <glyph glyph-name="Tcaron" unicode="&#x164;" horiz-adv-x="487" 
d="M477 684l-6 -43h-204v-641h-47v641h-205v43h462zM363 880l21 -25l-127 -98h-27l-128 98l21 25l121 -79z" />
    <glyph glyph-name="tcaron" unicode="&#x165;" horiz-adv-x="334" 
d="M269 737l-35 -156l-30 4l19 158zM338 21q-50 -32 -108 -32q-57 0 -89.5 34t-32.5 100v360h-87v39h87v127l46 5v-132h138l-6 -39h-132v-357q0 -96 81 -96q42 0 84 24z" />
    <glyph glyph-name="Tbar" unicode="&#x166;" horiz-adv-x="487" 
d="M471 640h-204v-257h125v-39h-125v-345h-47v345h-124v39h124v257h-205v43h462z" />
    <glyph glyph-name="tbar" unicode="&#x167;" horiz-adv-x="334" 
d="M338 21q-50 -32 -108 -32q-57 0 -89.5 34t-32.5 100v186h-84v38h84v136h-87v39h87v127l46 5v-132h138l-6 -39h-132v-136h128v-38h-128v-183q0 -96 81 -96q42 0 84 24z" />
    <glyph glyph-name="Utilde" unicode="&#x168;" horiz-adv-x="648" 
d="M543 211q0 -101 -55.5 -161.5t-163.5 -60.5t-163.5 60.5t-55.5 161.5v473h47v-469q0 -87 42.5 -135t129.5 -48t129 48.5t42 134.5v469h48v-473zM348 802.5q-16 6.5 -36 18.5q-30 19 -47 19t-29.5 -8.5t-27.5 -28.5l-29 15q37 60 86 60q15 0 28 -5.5t33 -17.5
q18 -10 30.5 -15.5t25.5 -5.5q16 0 28.5 9.5t28.5 33.5l29 -15q-32 -66 -86 -66q-18 0 -34 6.5z" />
    <glyph glyph-name="utilde" unicode="&#x169;" horiz-adv-x="578" 
d="M468 0h-39l-3 97q-61 -108 -173 -108q-71 0 -109.5 41.5t-38.5 118.5v373h46v-369q0 -64 28 -94t83 -30q96 0 160 112v381h46v-522zM311 676.5q-16 6.5 -36 18.5q-30 19 -47 19t-29.5 -8.5t-27.5 -28.5l-29 15q37 60 86 60q15 0 28 -5.5t33 -17.5q18 -10 30.5 -15.5
t25.5 -5.5q16 0 28.5 9.5t28.5 33.5l29 -15q-32 -66 -86 -66q-18 0 -34 6.5z" />
    <glyph glyph-name="Umacron" unicode="&#x16a;" horiz-adv-x="648" 
d="M543 211q0 -101 -55.5 -161.5t-163.5 -60.5t-163.5 60.5t-55.5 161.5v473h47v-469q0 -87 42.5 -135t129.5 -48t129 48.5t42 134.5v469h48v-473zM438 805h-229v39h229v-39z" />
    <glyph glyph-name="umacron" unicode="&#x16b;" horiz-adv-x="578" 
d="M468 0h-39l-3 97q-61 -108 -173 -108q-71 0 -109.5 41.5t-38.5 118.5v373h46v-369q0 -64 28 -94t83 -30q96 0 160 112v381h46v-522zM401 679h-229v39h229v-39z" />
    <glyph glyph-name="Ubreve" unicode="&#x16c;" horiz-adv-x="648" 
d="M543 211q0 -101 -55.5 -161.5t-163.5 -60.5t-163.5 60.5t-55.5 161.5v473h47v-469q0 -87 42.5 -135t129.5 -48t129 48.5t42 134.5v469h48v-473zM242 793.5q-34 26.5 -41 65.5l32 8q10 -28 33.5 -44.5t57.5 -16.5t57.5 16.5t33.5 44.5l32 -8q-7 -39 -41 -65.5t-82 -26.5
t-82 26.5z" />
    <glyph glyph-name="ubreve" unicode="&#x16d;" horiz-adv-x="578" 
d="M468 0h-39l-3 97q-61 -108 -173 -108q-71 0 -109.5 41.5t-38.5 118.5v373h46v-369q0 -64 28 -94t83 -30q96 0 160 112v381h46v-522zM204.5 684q-33.5 28 -40.5 75l32 7q20 -70 91 -70t91 70l32 -7q-7 -46 -40.5 -74.5t-82.5 -28.5t-82.5 28z" />
    <glyph glyph-name="Uring" unicode="&#x16e;" horiz-adv-x="648" 
d="M543 211q0 -101 -55.5 -161.5t-163.5 -60.5t-163.5 60.5t-55.5 161.5v473h47v-469q0 -87 42.5 -135t129.5 -48t129 48.5t42 134.5v469h48v-473zM391 916.5q26 -24.5 26 -64.5t-26 -65t-67 -25t-67 25t-26 65t26 64.5t67 24.5t67 -24.5zM282.5 895.5
q-14.5 -15.5 -14.5 -43.5t14.5 -43.5t41.5 -15.5t41.5 15.5t14.5 43.5t-14.5 43.5t-41.5 15.5t-41.5 -15.5z" />
    <glyph glyph-name="uring" unicode="&#x16f;" horiz-adv-x="578" 
d="M468 0h-39l-3 97q-61 -108 -173 -108q-71 0 -109.5 41.5t-38.5 118.5v373h46v-369q0 -64 28 -94t83 -30q96 0 160 112v381h46v-522zM354 790.5q26 -24.5 26 -64.5t-26 -65t-67 -25t-67 25t-26 65t26 64.5t67 24.5t67 -24.5zM245.5 769.5q-14.5 -15.5 -14.5 -43.5
t14.5 -43.5t41.5 -15.5t41.5 15.5t14.5 43.5t-14.5 43.5t-41.5 15.5t-41.5 -15.5z" />
    <glyph glyph-name="Uhungarumlaut" unicode="&#x170;" horiz-adv-x="648" 
d="M543 211q0 -101 -55.5 -161.5t-163.5 -60.5t-163.5 60.5t-55.5 161.5v473h47v-469q0 -87 42.5 -135t129.5 -48t129 48.5t42 134.5v469h48v-473zM430 930l43 -23l-88 -136l-31 15zM309 929l43 -22l-81 -132l-31 15z" />
    <glyph glyph-name="uhungarumlaut" unicode="&#x171;" horiz-adv-x="578" 
d="M468 0h-39l-3 97q-61 -108 -173 -108q-71 0 -109.5 41.5t-38.5 118.5v373h46v-369q0 -64 28 -94t83 -30q96 0 160 112v381h46v-522zM399 804l43 -23l-88 -136l-31 15zM278 803l43 -22l-81 -132l-31 15z" />
    <glyph glyph-name="Uogonek" unicode="&#x172;" horiz-adv-x="648" 
d="M543 684v-473q0 -82 -37 -138t-109 -75q-63 -29 -90 -55t-27 -62q0 -25 17 -39t50 -14q23 0 56 6l-5 -40q-35 -7 -56 -7q-52 0 -79.5 25t-27.5 64q0 36 22.5 63.5t68.5 49.5h-2q-108 0 -163.5 60.5t-55.5 161.5v473h47v-469q0 -87 42.5 -135t129.5 -48t129 48.5t42 134.5
v469h48z" />
    <glyph glyph-name="uogonek" unicode="&#x173;" horiz-adv-x="578" 
d="M374 -56q-28 -26 -28 -63q0 -25 16 -39t49 -14q26 0 57 6l-4 -40q-35 -7 -57 -7q-51 0 -78.5 25t-27.5 64q0 42 31.5 74.5t96.5 60.5l-3 86q-61 -108 -173 -108q-71 0 -109.5 41.5t-38.5 118.5v373h46v-369q0 -64 28 -94t83 -30q96 0 160 112v381h46v-522
q-66 -30 -94 -56z" />
    <glyph glyph-name="Wcircumflex" unicode="&#x174;" horiz-adv-x="804" 
d="M771 684l-154 -684h-58l-157 632l-158 -632h-57l-155 684h49l137 -638l157 638h54l159 -638l137 638h46zM281 763l-21 25l128 99h27l127 -99l-21 -25l-119 80z" />
    <glyph glyph-name="wcircumflex" unicode="&#x175;" horiz-adv-x="692" 
d="M664 522l-130 -522h-62l-125 478l-125 -478h-61l-134 522h49l117 -484l128 484h54l128 -485l116 485h45zM225 647l-21 25l127 103h27l128 -103l-21 -25l-120 84z" />
    <glyph glyph-name="Ycircumflex" unicode="&#x176;" horiz-adv-x="513" 
d="M497 684l-216 -415v-269h-47v268l-218 416h53l190 -372l186 372h52zM135 763l-21 25l128 99h27l127 -99l-21 -25l-119 80z" />
    <glyph glyph-name="ycircumflex" unicode="&#x177;" horiz-adv-x="459" 
d="M261 -2q-21 -61 -44.5 -98.5t-60.5 -62t-97 -38.5l-6 36q51 14 80.5 33.5t46.5 49t37 82.5h-16l-184 522h50l165 -487l160 487h50zM109 647l-21 25l127 103h27l128 -103l-21 -25l-120 84z" />
    <glyph glyph-name="Ydieresis" unicode="&#x178;" horiz-adv-x="513" 
d="M497 684l-216 -415v-269h-47v268l-218 416h53l190 -372l186 372h52zM189.5 848.5q9.5 -9.5 9.5 -23.5t-9.5 -23.5t-24.5 -9.5t-24.5 9.5t-9.5 23.5t9.5 23.5t24.5 9.5t24.5 -9.5zM370.5 848.5q9.5 -9.5 9.5 -23.5t-9.5 -23.5t-23.5 -9.5q-15 0 -24.5 9.5t-9.5 23.5
t9.5 23.5t24.5 9.5q14 0 23.5 -9.5z" />
    <glyph glyph-name="Zacute" unicode="&#x179;" horiz-adv-x="514" 
d="M465 684v-40l-373 -601h364l-6 -43h-413v40l375 602h-337v42h390zM341 880l21 -44l-192 -77l-13 29z" />
    <glyph glyph-name="zacute" unicode="&#x17a;" horiz-adv-x="417" 
d="M382 522v-37l-298 -444h295l-5 -41h-345v36l299 445h-275v41h329zM289 776l21 -44l-190 -84l-15 28z" />
    <glyph glyph-name="Zdotaccent" unicode="&#x17b;" horiz-adv-x="514" 
d="M465 684v-40l-373 -601h364l-6 -43h-413v40l375 602h-337v42h390zM286 860q10 -10 10 -25t-10 -25t-26 -10t-26 10t-10 25t10 25t26 10t26 -10z" />
    <glyph glyph-name="zdotaccent" unicode="&#x17c;" horiz-adv-x="417" 
d="M382 522v-37l-298 -444h295l-5 -41h-345v36l299 445h-275v41h329zM241 734q10 -10 10 -25t-10 -25t-26 -10t-26 10t-10 25t10 25t26 10t26 -10z" />
    <glyph glyph-name="Zcaron" unicode="&#x17d;" horiz-adv-x="514" 
d="M465 684v-40l-373 -601h364l-6 -43h-413v40l375 602h-337v42h390zM379 880l21 -25l-127 -98h-27l-128 98l21 25l121 -79z" />
    <glyph glyph-name="zcaron" unicode="&#x17e;" horiz-adv-x="417" 
d="M382 522v-37l-298 -444h295l-5 -41h-345v36l299 445h-275v41h329zM334 763l21 -24l-127 -104h-27l-128 104l21 24l121 -84z" />
    <glyph glyph-name="longs" unicode="&#x17f;" horiz-adv-x="316" 
d="M373 713l-17 -35q-52 23 -101 23q-95 0 -95 -91v-610h-46v483h-89v39h89v90q0 60 37.5 94.5t101.5 34.5q62 0 120 -28z" />
    <glyph glyph-name="uni0180" unicode="&#x180;" horiz-adv-x="581" 
d="M460.5 462.5q49.5 -69.5 49.5 -198.5q0 -128 -51.5 -201.5t-144.5 -73.5q-49 0 -88 22t-66 58l-5 -69h-40v620h-76v38h76v77l46 6v-83h171v-38h-171v-173q65 85 160 85q90 0 139.5 -69.5zM421 89q40 60 40 175t-37.5 172t-109.5 57q-49 0 -84.5 -23.5t-68.5 -68.5v-286
q27 -40 64 -63t82 -23q74 0 114 60z" />
    <glyph glyph-name="uni0181" unicode="&#x181;" horiz-adv-x="646" 
d="M545.5 313.5q44.5 -42.5 44.5 -125.5q0 -92 -62.5 -140t-175.5 -48h-185v644h-29q-39 0 -57.5 -18.5t-18.5 -49.5q0 -21 6 -37.5t17 -37.5l-34 -19q-17 26 -25.5 46.5t-8.5 48.5q0 48 33 77.5t93 29.5h173q116 0 178.5 -43t62.5 -127q0 -65 -33.5 -103t-91.5 -48
q69 -7 113.5 -49.5zM214 643v-263h150q65 0 104.5 35t39.5 96q0 69 -47.5 100.5t-139.5 31.5h-107zM491 77q49 36 49 111q0 76 -46.5 114t-123.5 38h-156v-299h139q89 0 138 36z" />
    <glyph glyph-name="uni0182" unicode="&#x182;" horiz-adv-x="566" 
d="M454.5 363q62.5 -51 62.5 -150q0 -108 -64.5 -160.5t-174.5 -52.5h-163v684h336l-7 -42h-282v-228h117q113 0 175.5 -51zM467 214q0 159 -186 159h-119v-332h124q181 0 181 173z" />
    <glyph glyph-name="uni0183" unicode="&#x183;" horiz-adv-x="576" 
d="M455.5 462.5q49.5 -69.5 49.5 -198.5q0 -128 -51.5 -201.5t-144.5 -73.5q-49 0 -88 22t-66 58l-5 -69h-40v735h286l-7 -39h-233v-249q65 85 160 85q90 0 139.5 -69.5zM416 89q40 60 40 175t-37.5 172t-109.5 57q-49 0 -84.5 -23.5t-68.5 -68.5v-286q27 -40 64 -63t82 -23
q74 0 114 60z" />
    <glyph glyph-name="uni0184" unicode="&#x184;" horiz-adv-x="557" 
d="M454.5 367.5q62.5 -50.5 62.5 -151.5q0 -110 -64.5 -163t-175.5 -53h-162v558l-47 32q39 43 53 94h41v-266h116q114 0 176.5 -50.5zM467 216q0 162 -186 162h-119v-337h123q182 0 182 175z" />
    <glyph glyph-name="uni0185" unicode="&#x185;" horiz-adv-x="498" 
d="M460 176q0 -88 -53.5 -132t-140.5 -44h-155v406l-47 32q18 19 30.5 38t22.5 46h40v-179h100q203 0 203 -167zM372.5 71.5q38.5 32.5 38.5 104.5q0 64 -35.5 96t-117.5 32h-101v-265h105q72 0 110.5 32.5z" />
    <glyph glyph-name="uni0186" unicode="&#x186;" horiz-adv-x="547" 
d="M355.5 654.5q57.5 -39.5 89.5 -118.5t32 -194q0 -112 -35 -191.5t-96 -120.5t-139 -41q-105 0 -183 69l26 31q39 -28 73.5 -42.5t82.5 -14.5q63 0 113 34.5t79 104t29 171.5q0 159 -57 235t-152 76q-46 0 -84.5 -13t-76.5 -39l-25 32q82 61 189 61q77 0 134.5 -39.5z" />
    <glyph glyph-name="uni0187" unicode="&#x187;" horiz-adv-x="547" 
d="M682 789l-20 -30q-18 11 -35.5 17t-40.5 6q-71 0 -71 -86v-63l-23 -28q-38 25 -70.5 36.5t-74.5 11.5q-101 0 -164 -76.5t-63 -234.5q0 -102 29.5 -171.5t80 -104t114.5 -34.5q49 0 82.5 14.5t69.5 43.5l27 -32q-74 -69 -181 -69q-79 0 -140.5 41t-96.5 120.5t-35 191.5
q0 114 36 193t98.5 119t139.5 40q72 0 125 -33v34q0 62 30.5 94.5t84.5 32.5q55 0 98 -33z" />
    <glyph glyph-name="uni0188" unicode="&#x188;" horiz-adv-x="466" 
d="M595 708l-20 -30q-19 12 -36 18t-40 6q-71 0 -71 -87v-134l-21 -27q-28 18 -56 28t-64 10q-78 0 -124.5 -60t-46.5 -174q0 -112 46 -170t124 -58q36 0 65.5 11.5t57.5 34.5l23 -31q-62 -56 -146 -56q-66 0 -115.5 32t-76.5 92.5t-27 144.5q0 83 27 145t76 95.5t115 33.5
q57 0 97 -23v105q0 62 31 94.5t84 32.5q55 0 98 -33z" />
    <glyph glyph-name="uni0189" unicode="&#x189;" horiz-adv-x="630" 
d="M474 612q86 -72 86 -264q0 -193 -88 -270.5t-215 -77.5h-140v332h-93v40h93v312h133q138 0 224 -72zM510 348q0 120 -36 185.5t-92 87.5t-129 22h-89v-271h182v-40h-182v-291h96q250 0 250 307z" />
    <glyph glyph-name="uni018A" unicode="&#x18a;" horiz-adv-x="680" 
d="M524 612q86 -72 86 -264q0 -193 -88 -270.5t-215 -77.5h-140v644h-29q-39 0 -57.5 -18.5t-18.5 -49.5q0 -21 6 -37.5t17 -37.5l-34 -19q-17 26 -25.5 46.5t-8.5 48.5q0 48 33 77.5t93 29.5h157q138 0 224 -72zM560 348q0 120 -36 185.5t-92 87.5t-129 22h-89v-602h96
q250 0 250 307z" />
    <glyph glyph-name="uni018B" unicode="&#x18b;" horiz-adv-x="566" 
d="M451 0h-173q-104 0 -166.5 50.5t-62.5 153.5q0 100 64 155t177 55h114v228h-286v42h333v-684zM404 41v332h-115q-92 0 -141 -42.5t-49 -126.5q0 -163 181 -163h124z" />
    <glyph glyph-name="uni018C" unicode="&#x18c;" horiz-adv-x="581" 
d="M471 0h-40l-5 82q-24 -42 -63.5 -67.5t-96.5 -25.5q-89 0 -141.5 72.5t-52.5 197.5q0 81 24.5 142.5t70.5 96t109 34.5q92 0 149 -73v237h-236v39h282v-735zM360.5 55q35.5 26 64.5 78v277q-56 83 -143 83q-73 0 -117.5 -61t-44.5 -170q0 -111 40.5 -172t111.5 -61
q53 0 88.5 26z" />
    <glyph glyph-name="uni018D" unicode="&#x18d;" horiz-adv-x="563" 
d="M417 -3.5q25 -31.5 26 -77.5q0 -35 -20 -64t-56.5 -46t-85.5 -17q-48 0 -86 11.5t-74 35.5l26 31q32 -21 61 -29.5t68 -8.5q56 0 87.5 24.5t31.5 63.5q0 28 -11.5 46.5t-40.5 36t-85 39.5q-100 39 -145.5 95.5t-45.5 153.5q0 109 57.5 175t159.5 66q99 0 156 -63.5
t57 -175.5q0 -86 -43 -146.5t-119 -93.5q57 -25 82 -56.5zM132 192.5q17 -39.5 56 -68.5t109 -56q69 29 110 85t41 140q0 95 -43 147t-121 52q-81 0 -125 -53t-44 -148q0 -59 17 -98.5z" />
    <glyph glyph-name="uni018E" unicode="&#x18e;" horiz-adv-x="504" 
d="M50 684h339v-684h-345v41h297v295h-246v41h246v266h-291v41z" />
    <glyph glyph-name="uni018F" unicode="&#x18f;" horiz-adv-x="648" 
d="M510 608q68 -86 68 -265q0 -175 -70.5 -264.5t-190.5 -89.5q-121 0 -189 87.5t-68 254.5q0 24 1 38h467q-6 148 -60 216t-151 68q-52 0 -97 -17t-92 -54l-25 31q49 42 100 61.5t115 19.5q124 0 192 -86zM468.5 103.5q56.5 72.5 59.5 225.5h-419q0 -150 55 -224t154 -74
q94 0 150.5 72.5z" />
    <glyph glyph-name="uni0190" unicode="&#x190;" horiz-adv-x="520" 
d="M381 673.5q49 -20.5 94 -62.5l-28 -30q-79 72 -171 72q-70 0 -109.5 -35t-39.5 -94q0 -65 43.5 -100.5t116.5 -35.5h58l-7 -41h-55q-85 1 -131 -39t-46 -113q0 -76 49 -119.5t129 -43.5q103 0 181 78l30 -28q-90 -93 -212 -93q-65 0 -117 25t-81 72t-29 110
q0 78 43 122.5t110 51.5q-60 13 -95.5 52t-35.5 103q0 75 52.5 122t142.5 47q59 0 108 -20.5z" />
    <glyph glyph-name="uni0191" unicode="&#x191;" horiz-adv-x="477" 
d="M162 643v-279h242v-40h-242v-400q0 -62 -31.5 -94.5t-84.5 -32.5q-54 0 -97 33l20 31q17 -11 34.5 -17t41.5 -6q69 0 69 86v77h1v683h333l-6 -41h-280z" />
    <glyph glyph-name="florin" unicode="&#x192;" horiz-adv-x="317" 
d="M161 610v-88h142l-7 -39h-135v-469q0 -66 -13.5 -105t-40.5 -62.5t-76 -46.5l-14 33q38 19 58 38.5t30 52t10 89.5v470h-87v39h87v90q0 60 37.5 94.5t100.5 34.5t121 -28l-17 -35q-52 23 -101 23q-95 0 -95 -91z" />
    <glyph glyph-name="uni0193" unicode="&#x193;" horiz-adv-x="565" 
d="M700 789l-20 -30q-18 11 -35.5 17t-41.5 6q-70 0 -70 -86v-67l-25 -26q-38 26 -75 38t-83 12q-59 0 -111.5 -32t-85.5 -101.5t-33 -174.5q0 -156 61.5 -235t169.5 -79q44 0 79 9t69 28v256h-138l-6 41h191v-321q-93 -55 -197 -55q-84 0 -147 40t-97.5 120t-34.5 196
q0 112 39.5 191t102.5 118.5t134 39.5q43 0 76.5 -8.5t64.5 -27.5v37q0 62 30.5 94.5t84.5 32.5q55 0 98 -33z" />
    <glyph glyph-name="uni0194" unicode="&#x194;" horiz-adv-x="542" 
d="M300 56q33 -70 45.5 -105t12.5 -69q0 -38 -23 -61.5t-64 -23.5q-40 0 -63 23t-23 61q0 32 12.5 68t45.5 107l-223 628h51l201 -593l201 593h49zM303 -60q-9 29 -32 83q-24 -59 -32.5 -85.5t-8.5 -53.5q0 -23 10.5 -35t30.5 -12t30.5 12t10.5 35q0 27 -9 56z" />
    <glyph glyph-name="uni0195" unicode="&#x195;" horiz-adv-x="889" 
d="M804 262q0 -92 -28 -153t-74.5 -90.5t-103.5 -29.5q-73 0 -119.5 44t-46.5 125v208q0 128 -104 128q-53 0 -94 -29.5t-78 -83.5v-381h-46v735l46 6v-311q74 102 179 102q70 0 106.5 -42t36.5 -118v-211q0 -67 33 -99.5t88 -32.5q66 0 112 55.5t46 179.5q0 106 -26 258h47
q26 -147 26 -260z" />
    <glyph glyph-name="uni0196" unicode="&#x196;" horiz-adv-x="336" 
d="M318 22q-43 -33 -97 -33q-53 0 -84.5 32.5t-31.5 94.5v568h47v-491h1v-77q0 -86 69 -86q24 0 41.5 6t34.5 17z" />
    <glyph glyph-name="uni0197" unicode="&#x197;" horiz-adv-x="317" 
d="M288 380v-40h-106v-340h-47v340h-105v40h105v304h47v-304h106z" />
    <glyph glyph-name="uni0198" unicode="&#x198;" horiz-adv-x="564" 
d="M166 367l184 250q32 44 59 60.5t66 16.5q50 0 89 -37l-22 -29q-32 26 -65 26q-26 0 -45.5 -11.5t-48.5 -51.5l-160 -222l310 -369h-59zM162 684v-684h-47v684h47z" />
    <glyph glyph-name="uni0199" unicode="&#x199;" horiz-adv-x="480" 
d="M156 610v-610h-46v612q0 60 37 94.5t101 34.5q62 0 120 -28l-16 -35q-52 23 -101 23q-95 0 -95 -91zM217 287l252 -287h-56l-251 285l229 237h54z" />
    <glyph glyph-name="uni019A" unicode="&#x19a;" horiz-adv-x="295" 
d="M171 353v-269q0 -54 45 -54q18 0 37 7l13 -35q-28 -13 -55 -13q-40 0 -63 23.5t-23 69.5v271h-106v39h106v343l46 6v-349h106v-39h-106z" />
    <glyph glyph-name="uni019B" unicode="&#x19b;" horiz-adv-x="463" 
d="M343.5 256q30.5 -92 57.5 -140t70 -107l-43 -17q-43 61 -70 110t-56.5 139t-58.5 234l-164 -483l-44 11l178 511h22q-16 76 -38 113l-70 -71l-35 14l84 86q-31 35 -97 50l7 36q77 -16 118 -57l68 72l29 -25l-74 -75q18 -26 30.5 -63.5t24.5 -93.5q31 -152 61.5 -244z" />
    <glyph glyph-name="uni019C" unicode="&#x19c;" horiz-adv-x="927" 
d="M812 684v-684h-41l-4 98q-31 -50 -75.5 -79.5t-99.5 -29.5q-57 0 -94.5 29.5t-52.5 84.5q-76 -114 -183 -114q-75 0 -116 51t-41 142v502h47v-505q0 -72 29.5 -110t85.5 -38q53 0 94 31.5t75 88.5q-1 10 -1 31v502h47v-505q0 -72 29.5 -110t85.5 -38q54 0 95 32t73 89
v532h47z" />
    <glyph glyph-name="uni019D" unicode="&#x19d;" horiz-adv-x="669" 
d="M554 684v-684h-61l-339 631q6 -88 6 -224v-483q0 -62 -31.5 -94.5t-83.5 -32.5q-54 0 -97 33l20 30q17 -11 34.5 -17t40.5 -6q72 0 72 86v761h61l339 -631q-6 99 -6 200v431h45z" />
    <glyph glyph-name="uni019E" unicode="&#x19e;" horiz-adv-x="583" 
d="M442 490.5q36 -41.5 36 -118.5v-575l-46 8v561q0 66 -26 97t-78 31q-53 0 -94 -29t-78 -84v-381h-46v522h40l4 -93q74 103 181 103q71 0 107 -41.5z" />
    <glyph glyph-name="uni019F" unicode="&#x19f;" horiz-adv-x="691" 
d="M490 653.5q62 -40.5 96.5 -120t34.5 -193.5q0 -110 -34 -189t-96 -120.5t-146 -41.5q-82 0 -144 41t-96.5 119.5t-34.5 189.5t34.5 191t97 122t143.5 42q83 0 145 -40.5zM186 581q-60 -72 -66 -212h451q-6 141 -65.5 212.5t-160.5 71.5q-99 0 -159 -72zM510.5 107
q59.5 76 61.5 223h-453q2 -146 63.5 -222.5t162.5 -76.5q106 0 165.5 76z" />
    <glyph glyph-name="Ohorn" unicode="&#x1a0;" horiz-adv-x="691" 
d="M548 599q73 -94 73 -258q0 -111 -34 -190t-96 -120.5t-146 -41.5q-82 0 -144 41t-96.5 120t-34.5 190t34.5 191t97 121.5t143.5 41.5q107 0 179 -67q31 4 45 18t14 41q0 37 -14 72l36 11q18 -34 18 -82q0 -74 -75 -88zM511.5 109.5q59.5 78.5 59.5 231.5q0 154 -60 233
t-166 79q-104 0 -164.5 -79.5t-60.5 -233.5q0 -151 61 -230t164 -79q107 0 166.5 78.5z" />
    <glyph glyph-name="ohorn" unicode="&#x1a1;" horiz-adv-x="574" 
d="M462 434q38 -65 38 -171q0 -128 -58 -201t-159 -73t-158.5 72.5t-57.5 198.5q0 127 58.5 199.5t158.5 72.5t158 -69q33 4 47 18t14 41q0 37 -14 72l36 11q18 -32 18 -81q0 -78 -81 -90zM407 89q45 60 45 174q0 112 -44 170.5t-124 58.5q-79 0 -124 -59.5t-45 -172.5
q0 -111 44 -171t124 -60q79 0 124 60z" />
    <glyph glyph-name="uni01A2" unicode="&#x1a2;" horiz-adv-x="895" 
d="M745 660.5q35 -34.5 35 -104.5v-751h-48v751q0 55 -22.5 77.5t-66.5 22.5q-31 0 -58.5 -9t-56.5 -25q45 -45 69 -116t24 -165q0 -111 -34 -190t-96 -120.5t-146 -41.5q-82 0 -144 41t-96.5 120t-34.5 190t34.5 191t97 121.5t143.5 41.5q89 0 153 -47q36 23 71.5 35.5
t75.5 12.5q65 0 100 -34.5zM511.5 109.5q59.5 78.5 59.5 231.5q0 154 -60 233t-166 79q-104 0 -164.5 -79.5t-60.5 -233.5q0 -151 61 -230t164 -79q107 0 166.5 78.5z" />
    <glyph glyph-name="uni01A3" unicode="&#x1a3;" horiz-adv-x="757" 
d="M612.5 496.5q34.5 -35.5 34.5 -104.5v-595l-46 8v587q0 101 -90 101q-44 0 -84 -16q36 -34 54.5 -88.5t18.5 -125.5q0 -128 -58 -201t-159 -73t-158.5 72.5t-57.5 198.5q0 127 58.5 199.5t158.5 72.5q65 0 111 -30q58 30 120 30q63 0 97.5 -35.5zM408 433.5
q-44 58.5 -124 58.5q-79 0 -124 -59.5t-45 -172.5q0 -111 44 -171t124 -60q79 0 124 60t45 174q0 112 -44 170.5z" />
    <glyph glyph-name="uni01A4" unicode="&#x1a4;" horiz-adv-x="618" 
d="M505 634q64 -50 64 -153q0 -109 -67.5 -159t-184.5 -50h-103v-272h-47v644h-29q-39 0 -57.5 -18.5t-18.5 -49.5q0 -21 6 -37.5t17 -37.5l-34 -19q-17 26 -25.5 46.5t-8.5 48.5q0 48 33 77.5t93 29.5h177q121 0 185 -50zM466.5 350.5q52.5 38.5 52.5 129.5q0 88 -50 125.5
t-149 37.5h-106v-331h104q96 0 148.5 38.5z" />
    <glyph glyph-name="uni01A5" unicode="&#x1a5;" horiz-adv-x="576" 
d="M457 462.5q48 -69.5 48 -198.5q0 -128 -51 -201.5t-145 -73.5q-48 0 -87.5 21t-65.5 55v-260l-46 -8v815q0 60 37 94.5t101 34.5q62 0 120 -28l-16 -35q-52 23 -101 23q-95 0 -95 -91v-165q30 41 70.5 64t89.5 23q93 0 141 -69.5zM416.5 89.5q39.5 59.5 39.5 174.5
q0 229 -146 229q-49 0 -85 -24t-69 -68v-287q27 -40 63.5 -62t82.5 -22q75 0 114.5 59.5z" />
    <glyph glyph-name="uni01A6" unicode="&#x1a6;" horiz-adv-x="584" 
d="M311 185h-149v-185h-47v684h47v-128h114q237 0 237 -183q0 -75 -39.5 -118t-114.5 -62l189 -321h-57zM283 225q180 0 180 148q0 72 -44.5 107t-145.5 35h-111v-290h121z" />
    <glyph glyph-name="uni01A7" unicode="&#x1a7;" horiz-adv-x="528" 
d="M416 650q50 -44 50 -115q0 -48 -19.5 -81.5t-60.5 -58t-112 -47.5q-64 -21 -99.5 -43t-51 -52t-15.5 -75q0 -69 45.5 -108t116.5 -39q58 0 102 18.5t84 54.5l29 -30q-44 -41 -96.5 -63t-119.5 -22q-60 0 -108 24t-75 67t-27 99q0 81 47 127t149 79q63 20 97.5 39.5
t49.5 45t15 65.5q0 55 -36 86.5t-101 31.5q-52 0 -91 -14.5t-82 -48.5l-27 30q46 38 92 56t109 18q85 0 135 -44z" />
    <glyph glyph-name="uni01A8" unicode="&#x1a8;" horiz-adv-x="453" 
d="M354 495.5q45 -36.5 45 -94.5q0 -53 -36.5 -85.5t-119.5 -55.5q-57 -16 -87 -32.5t-42 -38t-12 -56.5q0 -49 35 -76.5t88 -27.5q47 0 84 14t75 42l25 -29q-37 -32 -81.5 -49.5t-102.5 -17.5q-73 0 -122 39.5t-49 105.5q0 64 38 99t128 60q74 21 102.5 44.5t28.5 64.5
q0 42 -31.5 66.5t-83.5 24.5q-43 0 -76.5 -11.5t-69.5 -36.5l-23 30q77 57 171 57q71 0 116 -36.5z" />
    <glyph glyph-name="uni01A9" unicode="&#x1a9;" horiz-adv-x="490" 
d="M443 684v-42h-334l219 -290v-25l-219 -285h334v-42h-396v32l234 307l-234 313v32h396z" />
    <glyph glyph-name="uni01AA" unicode="&#x1aa;" horiz-adv-x="276" 
d="M333 -170q-43 -33 -97 -33q-53 0 -84.5 32.5t-31.5 94.5v598q-26 -14 -62 -14q-47 0 -77.5 31t-30.5 83q0 53 30.5 86t78.5 33q50 0 78.5 -31.5t28.5 -83.5v-703q0 -46 19.5 -66t51.5 -20q24 0 41.5 6t34.5 17zM120 559v68q0 36 -15.5 55.5t-44.5 19.5q-30 0 -47 -21
t-17 -57q0 -39 18 -58t49 -19q30 0 57 12z" />
    <glyph glyph-name="uni01AB" unicode="&#x1ab;" horiz-adv-x="334" 
d="M338 21v-97q0 -62 -31 -94.5t-86 -32.5q-53 0 -96 33l20 30q18 -11 35 -17t40 -6q73 0 73 86v79q-31 -13 -65 -13q-56 0 -88 34.5t-32 99.5v360h-87v39h87v127l46 5v-132h138l-6 -39h-132v-358q0 -96 81 -96q43 0 88 18z" />
    <glyph glyph-name="uni01AC" unicode="&#x1ac;" horiz-adv-x="512" 
d="M496 641h-204v-641h-47v641h-106q-39 0 -57.5 -18t-18.5 -48q0 -21 5.5 -37t17.5 -37l-36 -19q-16 25 -24.5 45.5t-8.5 48.5q0 49 33.5 78.5t95.5 29.5h356z" />
    <glyph glyph-name="uni01AD" unicode="&#x1ad;" horiz-adv-x="334" 
d="M319 54l19 -33q-50 -32 -108 -32q-57 0 -89.5 34t-32.5 100v360h-87v39h87v84q0 66 33.5 100.5t91.5 34.5q55 0 105 -32l-20 -32q-42 25 -83 25q-81 0 -81 -95v-85h138l-6 -39h-132v-357q0 -96 81 -96q42 0 84 24z" />
    <glyph glyph-name="uni01AE" unicode="&#x1ae;" horiz-adv-x="487" 
d="M267 641v-640h1v-77q0 -86 69 -86q24 0 41.5 6t34.5 17l20 -31q-43 -33 -97 -33q-53 0 -84.5 32.5t-31.5 94.5v717h-205v43h462l-6 -43h-204z" />
    <glyph glyph-name="Uhorn" unicode="&#x1af;" horiz-adv-x="648" 
d="M543 597v-386q0 -101 -55.5 -161.5t-163.5 -60.5t-163.5 60.5t-55.5 161.5v473h47v-469q0 -87 42.5 -135t129.5 -48t129 48.5t42 134.5v469h48v-57q29 5 41.5 19.5t12.5 39.5q0 37 -14 72l36 11q18 -34 18 -82q0 -84 -94 -90z" />
    <glyph glyph-name="uhorn" unicode="&#x1b0;" horiz-adv-x="594" 
d="M468 433v-433h-39l-3 97q-61 -108 -173 -108q-71 0 -109.5 41.5t-38.5 118.5v373h46v-369q0 -64 28 -94t83 -30q96 0 160 112v381h46v-58q29 5 41.5 19t12.5 39q0 37 -14 72l36 11q18 -32 18 -81q0 -85 -94 -91z" />
    <glyph glyph-name="uni01B1" unicode="&#x1b1;" horiz-adv-x="691" 
d="M200 29q-62 40 -96 114.5t-34 176.5q0 120 38 195t101 127h-117v42h178v-41q-70 -47 -110 -124.5t-40 -198.5q0 -139 60.5 -214t164.5 -75q103 0 164.5 75.5t61.5 213.5q0 121 -40 198.5t-110 124.5v41h178v-42h-117q64 -50 101.5 -124.5t37.5 -197.5
q0 -101 -34.5 -175.5t-97 -115t-144.5 -40.5q-83 0 -145 40z" />
    <glyph glyph-name="uni01B2" unicode="&#x1b2;" horiz-adv-x="648" 
d="M519 669q24 -25 24 -76v-302q0 -96 -31 -164t-86.5 -103t-126.5 -35q-89 0 -141.5 54t-52.5 144v497h47v-494q0 -76 39.5 -117t107.5 -41q89 0 142.5 67.5t53.5 195.5v297q0 32 -11 47t-36 15q-24 0 -43 -10l-15 34q28 16 62 16q43 0 67 -25z" />
    <glyph glyph-name="uni01B3" unicode="&#x1b3;" horiz-adv-x="535" 
d="M234 268l-218 416h53l190 -374l136 297q21 46 46.5 66.5t63.5 20.5q27 0 47.5 -9.5t41.5 -27.5l-22 -28q-16 14 -30.5 20.5t-34.5 6.5q-24 0 -39.5 -13.5t-33.5 -51.5l-153 -322v-269h-47v268z" />
    <glyph glyph-name="uni01B4" unicode="&#x1b4;" horiz-adv-x="468" 
d="M53 -165q52 14 82 34t47.5 50t34.5 81h-17l-183 522h50l165 -488l133 444q15 51 36.5 71.5t57.5 20.5q27 0 55 -13l-13 -34q-15 7 -38 7q-20 0 -32 -12t-22 -43l-147 -475q-19 -61 -43 -99.5t-62 -63t-98 -38.5z" />
    <glyph glyph-name="uni01B5" unicode="&#x1b5;" horiz-adv-x="514" 
d="M465 684v-40l-174 -280h111v-40h-136l-175 -281h365l-6 -43h-413v40l177 284h-102v40h127l174 278h-338v42h390z" />
    <glyph glyph-name="uni01B6" unicode="&#x1b6;" horiz-adv-x="417" 
d="M382 522v-37l-133 -198h93v-39h-120l-139 -207h296l-5 -41h-345v36l143 212h-94v39h120l131 194h-276v41h329z" />
    <glyph glyph-name="uni01B7" unicode="&#x1b7;" horiz-adv-x="486" 
d="M381 331.5q56 -50.5 56 -144.5q0 -57 -26 -102t-75.5 -70.5t-116.5 -25.5q-66 0 -114.5 21t-87.5 64l29 28q36 -38 76 -54.5t95 -16.5q83 0 127 42.5t44 113.5q0 156 -177 156h-83v39l226 261h-316v41h374v-39l-232 -263h36q109 0 165 -50.5z" />
    <glyph glyph-name="uni01B8" unicode="&#x1b8;" horiz-adv-x="486" 
d="M468 74q-41 -43 -90 -64t-120 -21q-95 0 -152 52.5t-57 139.5q0 94 57.5 147.5t164.5 53.5h35l-233 263v39h375v-41h-315l225 -261v-39h-83q-86 0 -132 -40t-46 -122q0 -70 42.5 -110t119.5 -40q60 0 101 16.5t79 54.5z" />
    <glyph glyph-name="uni01B9" unicode="&#x1b9;" horiz-adv-x="454" 
d="M439 -118q-38 -42 -85.5 -63.5t-110.5 -21.5t-110.5 25.5t-73 70.5t-25.5 102q0 94 58.5 148.5t175.5 54.5h11l-221 287v37h361v-41h-305l215 -283v-38h-58q-189 0 -189 -165q0 -71 42 -114t118 -43q53 0 93 16.5t76 52.5z" />
    <glyph glyph-name="uni01BA" unicode="&#x1ba;" horiz-adv-x="450" 
d="M60.5 -150.5q-27.5 28.5 -27.5 67.5q0 46 42.5 72.5t130.5 37.5q60 7 95 19t51.5 35t16.5 62q0 88 -108 88h-146v39l212 211h-295v41h356v-37l-221 -215h97q72 0 113 -33.5t41 -93.5q0 -72 -48.5 -106.5t-146.5 -47.5q-77 -10 -109.5 -26t-32.5 -48q0 -27 18 -46t60 -40
l-16 -32q-55 24 -82.5 52.5z" />
    <glyph glyph-name="uni01BB" unicode="&#x1bb;" horiz-adv-x="473" 
d="M299 265q-48 -59 -170 -190l-30 -33h320l-7 -42h-368v40q148 160 202 225h-162v40h193q43 57 59.5 101t16.5 94q0 62 -35.5 98.5t-95.5 36.5q-48 0 -85 -19.5t-68 -57.5l-33 24q39 48 84 70.5t104 22.5q81 0 129 -48.5t48 -123.5q0 -53 -16.5 -98.5t-54.5 -99.5h90v-40
h-121z" />
    <glyph glyph-name="uni01BC" unicode="&#x1bc;" horiz-adv-x="490" 
d="M409 644h-283v-249q54 34 122 34q89 0 139.5 -55.5t50.5 -154.5q0 -103 -57.5 -166.5t-155.5 -63.5q-59 0 -105 21t-83 62l30 27q32 -36 69.5 -52.5t88.5 -16.5q77 0 121 50.5t44 139.5q0 85 -40 127.5t-109 42.5q-38 0 -65 -8t-58 -26h-37v328h336z" />
    <glyph glyph-name="uni01BD" unicode="&#x1bd;" horiz-adv-x="428" 
d="M349 481h-223v-174q44 26 97 26q71 0 112.5 -44.5t41.5 -120.5q0 -79 -48.5 -129t-129.5 -50q-49 0 -87 16.5t-71 47.5l27 28q31 -26 60.5 -38t71.5 -12q58 0 93.5 37t35.5 101q0 61 -31 92.5t-82 31.5q-31 0 -52.5 -6t-49.5 -21h-34v256h277z" />
    <glyph glyph-name="uni01BE" unicode="&#x1be;" horiz-adv-x="497" 
d="M431 207q0 -62 -25.5 -110t-72.5 -75.5t-111 -27.5q-57 0 -101 20t-87 60l27 28q37 -33 74.5 -50t85.5 -17q77 0 119 46.5t42 125.5q0 81 -40.5 120t-108.5 55l-67 16v164h-69v38h69v135l46 6v-141h118v-38h-118v-136l34 -7q185 -40 185 -212z" />
    <glyph glyph-name="uni01BF" unicode="&#x1bf;" horiz-adv-x="571" 
d="M458 485.5q47 -46.5 47 -126.5q0 -75 -32.5 -133t-93.5 -105.5t-158 -97.5l-65 -34v-184l-46 -8v725h40l3 -81q38 44 81.5 67.5t100.5 23.5q76 0 123 -46.5zM398 196q58 67 58 162q0 65 -34 99.5t-93 34.5q-52 0 -93.5 -23.5t-79.5 -67.5v-370l54 28q130 70 188 137z" />
    <glyph glyph-name="uni01C0" unicode="&#x1c0;" horiz-adv-x="273" 
d="M159 741v-741h-44v735z" />
    <glyph glyph-name="uni01C1" unicode="&#x1c1;" horiz-adv-x="423" 
d="M159 741v-741h-44v735zM309 741v-741h-44v735z" />
    <glyph glyph-name="uni01C2" unicode="&#x1c2;" horiz-adv-x="317" 
d="M288 423h-107v-114h107v-35h-107v-274h-44v274h-107v35h107v114h-107v35h107v277l44 6v-283h107v-35z" />
    <glyph glyph-name="uni01C3" unicode="&#x1c3;" horiz-adv-x="310" 
d="M176 741v-544h-43v538zM184 57.5q11 -11.5 11 -28.5t-11 -28.5t-29 -11.5t-29 11.5t-11 28.5t11 28.5t29 11.5t29 -11.5z" />
    <glyph glyph-name="uni01C4" unicode="&#x1c4;" horiz-adv-x="1117" 
d="M472 612q86 -72 86 -264q0 -193 -88 -270.5t-215 -77.5h-140v684h133q138 0 224 -72zM162 643v-602h96q250 0 250 307q0 120 -36 185.5t-92 87.5t-129 22h-89zM1068 684v-40l-373 -601h364l-6 -43h-413v40l375 602h-337v42h390zM982 880l21 -25l-127 -98h-27l-128 98
l21 25l121 -79z" />
    <glyph glyph-name="uni01C5" unicode="&#x1c5;" horiz-adv-x="1035" 
d="M472 612q86 -72 86 -264q0 -193 -88 -270.5t-215 -77.5h-140v684h133q138 0 224 -72zM162 643v-602h96q250 0 250 307q0 120 -36 185.5t-92 87.5t-129 22h-89zM1000 522v-37l-298 -444h295l-5 -41h-345v36l299 445h-275v41h329zM953 763l21 -24l-127 -104h-27l-128 104
l21 24l121 -84z" />
    <glyph glyph-name="uni01C6" unicode="&#x1c6;" horiz-adv-x="998" 
d="M471 735v-735h-40l-5 82q-24 -42 -63.5 -67.5t-96.5 -25.5q-89 0 -141.5 72.5t-52.5 197.5q0 81 24.5 142.5t70.5 96t109 34.5q92 0 149 -73v282zM360.5 55q35.5 26 64.5 78v277q-56 83 -143 83q-73 0 -117.5 -61t-44.5 -170q0 -111 40.5 -172t111.5 -61q53 0 88.5 26z
M963 522v-37l-298 -444h295l-5 -41h-345v36l299 445h-275v41h329zM916 763l21 -24l-127 -104h-27l-128 104l21 24l121 -84z" />
    <glyph glyph-name="uni01C7" unicode="&#x1c7;" horiz-adv-x="740" 
d="M162 684v-640h288l-7 -44h-328v684h47zM631 90q0 -58 -13.5 -93.5t-45 -60.5t-89.5 -49l-13 35q46 21 70 42.5t33.5 51t9.5 77.5v591h48v-594z" />
    <glyph glyph-name="uni01C8" unicode="&#x1c8;" horiz-adv-x="721" 
d="M162 684v-640h288l-7 -44h-328v684h47zM611 14q0 -66 -14 -105t-41 -62.5t-76 -46.5l-13 33q38 19 58 38.5t30 52t10 89.5v509h46v-508zM614 734q10 -10 10 -25t-10 -25t-26 -10t-26 10t-10 25t10 25t26 10t26 -10z" />
    <glyph glyph-name="uni01C9" unicode="&#x1c9;" horiz-adv-x="547" 
d="M128 12.5q-23 23.5 -23 69.5v653l46 6v-657q0 -54 45 -54q18 0 37 7l13 -35q-28 -13 -55 -13q-40 0 -63 23.5zM437 14q0 -66 -14 -105t-41 -62.5t-76 -46.5l-13 33q38 19 58 38.5t30 52t10 89.5v509h46v-508zM440 734q10 -10 10 -25t-10 -25t-26 -10t-26 10t-10 25t10 25
t26 10t26 -10z" />
    <glyph glyph-name="uni01CA" unicode="&#x1ca;" horiz-adv-x="955" 
d="M554 0h-61l-339 631q6 -88 6 -224v-407h-45v684h61l339 -631q-6 99 -6 200v431h45v-684zM846 90q0 -58 -13.5 -93.5t-45 -60.5t-89.5 -49l-13 35q46 21 70 42.5t33.5 51t9.5 77.5v591h48v-594z" />
    <glyph glyph-name="uni01CB" unicode="&#x1cb;" horiz-adv-x="935" 
d="M554 0h-61l-339 631q6 -88 6 -224v-407h-45v684h61l339 -631q-6 99 -6 200v431h45v-684zM825 14q0 -66 -14 -105t-41 -62.5t-76 -46.5l-13 33q38 19 58 38.5t30 52t10 89.5v509h46v-508zM828 734q10 -10 10 -25t-10 -25t-26 -10t-26 10t-10 25t10 25t26 10t26 -10z" />
    <glyph glyph-name="uni01CC" unicode="&#x1cc;" horiz-adv-x="849" 
d="M442 490.5q36 -41.5 36 -118.5v-372h-46v366q0 66 -26 97t-78 31q-53 0 -94 -29t-78 -84v-381h-46v522h40l4 -93q74 103 181 103q71 0 107 -41.5zM739 14q0 -66 -14 -105t-41 -62.5t-76 -46.5l-13 33q38 19 58 38.5t30 52t10 89.5v509h46v-508zM742 734q10 -10 10 -25
t-10 -25t-26 -10t-26 10t-10 25t10 25t26 10t26 -10z" />
    <glyph glyph-name="uni01CD" unicode="&#x1cd;" horiz-adv-x="562" 
d="M491 0l-63 192h-297l-63 -192h-48l231 684h60l231 -684h-51zM145 234h270l-134 411zM400 880l21 -25l-127 -98h-27l-128 98l21 25l121 -79z" />
    <glyph glyph-name="uni01CE" unicode="&#x1ce;" horiz-adv-x="534" 
d="M435.5 50q10.5 -19 33.5 -28l-11 -33q-34 9 -51.5 30t-21.5 62q-57 -92 -165 -92q-74 0 -117 42.5t-43 113.5q0 80 57 123.5t155 43.5h107v55q0 65 -29 95t-96 30q-63 0 -142 -31l-13 37q87 34 159 34q86 0 126.5 -41t40.5 -121v-257q0 -44 10.5 -63zM379 127v149h-100
q-82 0 -126 -32.5t-44 -97.5q0 -56 31 -87t86 -31q101 0 153 99zM376 763l21 -24l-127 -104h-27l-128 104l21 24l121 -84z" />
    <glyph glyph-name="uni01CF" unicode="&#x1cf;" horiz-adv-x="277" 
d="M162 684v-684h-47v684h47zM257 880l21 -25l-127 -98h-27l-128 98l21 25l121 -79z" />
    <glyph glyph-name="uni01D0" unicode="&#x1d0;" horiz-adv-x="266" 
d="M156 522v-522h-46v522h46zM252 763l21 -24l-127 -104h-27l-128 104l21 24l121 -84z" />
    <glyph glyph-name="uni01D1" unicode="&#x1d1;" horiz-adv-x="691" 
d="M490 653.5q62 -40.5 96.5 -120t34.5 -192.5q0 -111 -34 -190t-96 -120.5t-146 -41.5q-82 0 -144 41t-96.5 120t-34.5 190t34.5 191t97 121.5t143.5 41.5q83 0 145 -40.5zM180.5 573.5q-60.5 -79.5 -60.5 -233.5q0 -151 61 -230t164 -79q107 0 166.5 78.5t59.5 231.5
q0 154 -60 233t-166 79q-104 0 -164.5 -79.5zM464 880l21 -25l-127 -98h-27l-128 98l21 25l121 -79z" />
    <glyph glyph-name="uni01D2" unicode="&#x1d2;" horiz-adv-x="567" 
d="M443 461.5q57 -70.5 57 -198.5t-58 -201t-159 -73t-158.5 72.5t-57.5 198.5q0 127 58.5 199.5t158.5 72.5q102 0 159 -70.5zM160 432.5q-45 -59.5 -45 -172.5q0 -111 44 -171t124 -60q79 0 124 60t45 174q0 112 -44 170.5t-124 58.5q-79 0 -124 -59.5zM403 763l21 -24
l-127 -104h-27l-128 104l21 24l121 -84z" />
    <glyph glyph-name="uni01D3" unicode="&#x1d3;" horiz-adv-x="648" 
d="M543 211q0 -101 -55.5 -161.5t-163.5 -60.5t-163.5 60.5t-55.5 161.5v473h47v-469q0 -87 42.5 -135t129.5 -48t129 48.5t42 134.5v469h48v-473zM443 880l21 -25l-127 -98h-27l-128 98l21 25l121 -79z" />
    <glyph glyph-name="uni01D4" unicode="&#x1d4;" horiz-adv-x="578" 
d="M468 0h-39l-3 97q-61 -108 -173 -108q-71 0 -109.5 41.5t-38.5 118.5v373h46v-369q0 -64 28 -94t83 -30q96 0 160 112v381h46v-522zM406 763l21 -24l-127 -104h-27l-128 104l21 24l121 -84z" />
    <glyph glyph-name="uni01D5" unicode="&#x1d5;" horiz-adv-x="648" 
d="M543 211q0 -101 -55.5 -161.5t-163.5 -60.5t-163.5 60.5t-55.5 161.5v473h47v-469q0 -87 42.5 -135t129.5 -48t129 48.5t42 134.5v469h48v-473zM257.5 799.5q9.5 -9.5 9.5 -23.5t-9.5 -23.5t-24.5 -9.5t-24.5 9.5t-9.5 23.5t9.5 23.5t24.5 9.5t24.5 -9.5zM438.5 799.5
q9.5 -9.5 9.5 -23.5t-9.5 -23.5t-23.5 -9.5q-15 0 -24.5 9.5t-9.5 23.5t9.5 23.5t24.5 9.5q14 0 23.5 -9.5zM440 869h-229v39h229v-39z" />
    <glyph glyph-name="uni01D6" unicode="&#x1d6;" horiz-adv-x="578" 
d="M468 0h-39l-3 97q-61 -108 -173 -108q-71 0 -109.5 41.5t-38.5 118.5v373h46v-369q0 -64 28 -94t83 -30q96 0 160 112v381h46v-522zM221.5 692.5q9.5 -9.5 9.5 -23.5t-9.5 -23.5t-24.5 -9.5t-24.5 9.5t-9.5 23.5t9.5 23.5t24.5 9.5t24.5 -9.5zM402.5 692.5
q9.5 -9.5 9.5 -23.5t-9.5 -23.5t-23.5 -9.5q-15 0 -24.5 9.5t-9.5 23.5t9.5 23.5t24.5 9.5q14 0 23.5 -9.5zM402 766h-229v39h229v-39z" />
    <glyph glyph-name="uni01D7" unicode="&#x1d7;" horiz-adv-x="648" 
d="M543 211q0 -101 -55.5 -161.5t-163.5 -60.5t-163.5 60.5t-55.5 161.5v473h47v-469q0 -87 42.5 -135t129.5 -48t129 48.5t42 134.5v469h48v-473zM401 955l32 -30l-115 -118l-22 20zM257.5 800q9.5 -10 9.5 -24t-9.5 -23.5t-24.5 -9.5t-24.5 9.5t-9.5 23.5t9.5 24t24.5 10
t24.5 -10zM438.5 800q9.5 -10 9.5 -24t-9.5 -23.5t-23.5 -9.5q-15 0 -24.5 9.5t-9.5 23.5t9.5 24t24.5 10q14 0 23.5 -10z" />
    <glyph glyph-name="uni01D8" unicode="&#x1d8;" horiz-adv-x="578" 
d="M468 0h-39l-3 97q-61 -108 -173 -108q-71 0 -109.5 41.5t-38.5 118.5v373h46v-369q0 -64 28 -94t83 -30q96 0 160 112v381h46v-522zM364 848l32 -30l-115 -118l-22 20zM220.5 692.5q9.5 -9.5 9.5 -23.5t-9.5 -23.5t-24.5 -9.5t-24.5 9.5t-9.5 23.5t9.5 23.5t24.5 9.5
t24.5 -9.5zM401.5 692.5q9.5 -9.5 9.5 -23.5t-9.5 -23.5t-23.5 -9.5q-15 0 -24.5 9.5t-9.5 23.5t9.5 23.5t24.5 9.5q14 0 23.5 -9.5z" />
    <glyph glyph-name="uni01D9" unicode="&#x1d9;" horiz-adv-x="648" 
d="M543 211q0 -101 -55.5 -161.5t-163.5 -60.5t-163.5 60.5t-55.5 161.5v473h47v-469q0 -87 42.5 -135t129.5 -48t129 48.5t42 134.5v469h48v-473zM441 940l21 -25l-127 -98h-27l-128 98l21 25l121 -79zM256.5 800q9.5 -10 9.5 -24t-9.5 -23.5t-24.5 -9.5t-24 9.5t-9 23.5
q0 15 9 24.5t24 9.5t24.5 -10zM438.5 800q9.5 -10 9.5 -24t-9.5 -23.5t-24.5 -9.5t-24.5 9.5t-9.5 23.5t9.5 24t24.5 10t24.5 -10z" />
    <glyph glyph-name="uni01DA" unicode="&#x1da;" horiz-adv-x="578" 
d="M468 0h-39l-3 97q-61 -108 -173 -108q-71 0 -109.5 41.5t-38.5 118.5v373h46v-369q0 -64 28 -94t83 -30q96 0 160 112v381h46v-522zM404 833l21 -25l-127 -98h-27l-128 98l21 25l121 -79zM219.5 692.5q9.5 -9.5 9.5 -23.5t-9.5 -23.5t-24.5 -9.5q-14 0 -23.5 9.5
t-9.5 23.5t9.5 23.5t23.5 9.5q15 0 24.5 -9.5zM401.5 692.5q9.5 -9.5 9.5 -23.5t-9.5 -23.5t-23.5 -9.5q-15 0 -24.5 9.5t-9.5 23.5t9.5 23.5t24.5 9.5q14 0 23.5 -9.5z" />
    <glyph glyph-name="uni01DB" unicode="&#x1db;" horiz-adv-x="648" 
d="M543 211q0 -101 -55.5 -161.5t-163.5 -60.5t-163.5 60.5t-55.5 161.5v473h47v-469q0 -87 42.5 -135t129.5 -48t129 48.5t42 134.5v469h48v-473zM253 955l104 -128l-22 -20l-114 118zM257.5 800q9.5 -10 9.5 -24t-9.5 -23.5t-24.5 -9.5t-24.5 9.5t-9.5 23.5t9.5 24
t24.5 10t24.5 -10zM438.5 800q9.5 -10 9.5 -24t-9.5 -23.5t-23.5 -9.5q-15 0 -24.5 9.5t-9.5 23.5t9.5 24t24.5 10q14 0 23.5 -10z" />
    <glyph glyph-name="uni01DC" unicode="&#x1dc;" horiz-adv-x="578" 
d="M468 0h-39l-3 97q-61 -108 -173 -108q-71 0 -109.5 41.5t-38.5 118.5v373h46v-369q0 -64 28 -94t83 -30q96 0 160 112v381h46v-522zM216 848l104 -128l-22 -20l-114 118zM220.5 692.5q9.5 -9.5 9.5 -23.5t-9.5 -23.5t-24.5 -9.5t-24.5 9.5t-9.5 23.5t9.5 23.5t24.5 9.5
t24.5 -9.5zM401.5 692.5q9.5 -9.5 9.5 -23.5t-9.5 -23.5t-23.5 -9.5q-15 0 -24.5 9.5t-9.5 23.5t9.5 23.5t24.5 9.5q14 0 23.5 -9.5z" />
    <glyph glyph-name="uni01DD" unicode="&#x1dd;" horiz-adv-x="538" 
d="M419 463.5q53 -68.5 53 -199.5q0 -134 -56 -204.5t-152 -70.5q-94 0 -148 68.5t-54 187.5q0 26 2 36h360q-4 107 -45 159t-113 52q-42 0 -76 -12t-71 -38l-22 32q75 58 170 58q99 0 152 -68.5zM424 243h-316v-5q0 -100 41 -154.5t115 -54.5q154 0 160 214z" />
    <glyph glyph-name="uni01DE" unicode="&#x1de;" horiz-adv-x="562" 
d="M491 0l-63 192h-297l-63 -192h-48l231 684h60l231 -684h-51zM145 234h270l-134 411zM214.5 799.5q9.5 -9.5 9.5 -23.5t-9.5 -23.5t-24.5 -9.5t-24.5 9.5t-9.5 23.5t9.5 23.5t24.5 9.5t24.5 -9.5zM395.5 799.5q9.5 -9.5 9.5 -23.5t-9.5 -23.5t-23.5 -9.5q-15 0 -24.5 9.5
t-9.5 23.5t9.5 23.5t24.5 9.5q14 0 23.5 -9.5zM397 869h-229v39h229v-39z" />
    <glyph glyph-name="uni01DF" unicode="&#x1df;" horiz-adv-x="534" 
d="M435.5 50q10.5 -19 33.5 -28l-11 -33q-34 9 -51.5 30t-21.5 62q-57 -92 -165 -92q-74 0 -117 42.5t-43 113.5q0 80 57 123.5t155 43.5h107v55q0 65 -29 95t-96 30q-63 0 -142 -31l-13 37q87 34 159 34q86 0 126.5 -41t40.5 -121v-257q0 -44 10.5 -63zM379 127v149h-100
q-82 0 -126 -32.5t-44 -97.5q0 -56 31 -87t86 -31q101 0 153 99zM191.5 692.5q9.5 -9.5 9.5 -23.5t-9.5 -23.5t-24.5 -9.5t-24.5 9.5t-9.5 23.5t9.5 23.5t24.5 9.5t24.5 -9.5zM372.5 692.5q9.5 -9.5 9.5 -23.5t-9.5 -23.5t-23.5 -9.5q-15 0 -24.5 9.5t-9.5 23.5t9.5 23.5
t24.5 9.5q14 0 23.5 -9.5zM372 766h-229v39h229v-39z" />
    <glyph glyph-name="uni01E0" unicode="&#x1e0;" horiz-adv-x="562" 
d="M491 0l-63 192h-297l-63 -192h-48l231 684h60l231 -684h-51zM145 234h270l-134 411zM308 803q10 -10 10 -25t-10 -25t-26 -10t-26 10t-10 25t10 25t26 10t26 -10zM397 869h-229v39h229v-39z" />
    <glyph glyph-name="uni01E1" unicode="&#x1e1;" horiz-adv-x="534" 
d="M435.5 50q10.5 -19 33.5 -28l-11 -33q-34 9 -51.5 30t-21.5 62q-57 -92 -165 -92q-74 0 -117 42.5t-43 113.5q0 80 57 123.5t155 43.5h107v55q0 65 -29 95t-96 30q-63 0 -142 -31l-13 37q87 34 159 34q86 0 126.5 -41t40.5 -121v-257q0 -44 10.5 -63zM379 127v149h-100
q-82 0 -126 -32.5t-44 -97.5q0 -56 31 -87t86 -31q101 0 153 99zM283 684q10 -10 10 -25t-10 -25t-26 -10t-26 10t-10 25t10 25t26 10t26 -10zM372 753h-229v39h229v-39z" />
    <glyph glyph-name="uni01E2" unicode="&#x1e2;" horiz-adv-x="772" 
d="M499 41h230v-41h-267l-48 188h-291l-71 -188h-48l265 684h410l-6 -41h-330l69 -266h259v-41h-248zM139 229h265l-107 417zM564 805h-229v39h229v-39z" />
    <glyph glyph-name="uni01E3" unicode="&#x1e3;" horiz-adv-x="846" 
d="M782 241h-354q5 -107 51 -159t120 -52q42 0 74 12.5t68 40.5l23 -30q-38 -32 -78 -48t-89 -16q-63 0 -110.5 29t-74.5 83q-42 -60 -87 -86t-104 -26q-75 0 -118 42.5t-43 113.5q0 80 57 124t156 44h107v54q0 65 -29 95t-96 30q-63 0 -142 -31l-13 37q85 34 159 34
q69 0 107.5 -27.5t52.5 -81.5q54 109 170 109q95 0 145 -67t50 -183q0 -21 -2 -41zM739 297q0 91 -38 143.5t-112 52.5q-69 0 -113 -53.5t-48 -161.5h311v19zM318 54.5q40 26.5 79 84.5q-17 53 -17 117v20h-100q-82 0 -126 -32.5t-44 -97.5q0 -56 31 -87t86 -31
q51 0 91 26.5zM538 679h-229v39h229v-39z" />
    <glyph glyph-name="uni01E4" unicode="&#x1e4;" horiz-adv-x="628" 
d="M619 199h-73v-155q-93 -55 -196 -55q-85 0 -148 40t-97.5 120t-34.5 196q0 113 39.5 191.5t103.5 118t136 39.5q57 0 99 -15.5t85 -49.5l-29 -30q-37 28 -72.5 41t-81.5 13q-59 0 -111.5 -32t-85.5 -101.5t-33 -174.5q0 -156 61.5 -235t169.5 -79q43 0 78.5 9t69.5 28
v131h-138v41h138v84h-138l-6 41h191v-125h73v-41z" />
    <glyph glyph-name="uni01E5" unicode="&#x1e5;" horiz-adv-x="497" 
d="M527 -76h-57q-8 -61 -63 -94t-156 -33q-114 0 -164.5 34.5t-50.5 112.5h44q1 -40 17 -63t52.5 -33.5t101.5 -10.5q160 0 174 87h-156v38h155q-7 35 -39 53.5t-84 18.5h-85q-61 0 -94 25t-33 64q0 51 57 87q-45 23 -66 59t-21 89q0 78 51 126t136 48q98 -1 140.5 6
t84.5 24l15 -46q-45 -14 -142 -15q88 -42 88 -146q0 -77 -50 -123.5t-135 -46.5q-38 0 -69 11q-21 -11 -32.5 -28t-11.5 -36q0 -58 88 -58h86q69 0 112 -30.5t50 -81.5h57v-38zM144 257q38 -36 102 -36q67 0 103 35t36 100t-35 102t-103 37q-70 0 -105.5 -37t-35.5 -100
q0 -65 38 -101z" />
    <glyph glyph-name="Gcaron" unicode="&#x1e6;" horiz-adv-x="614" 
d="M448.5 678.5q41.5 -15.5 84.5 -49.5l-29 -31q-37 29 -72.5 42t-80.5 13q-60 0 -112.5 -32t-85.5 -101t-33 -175q0 -156 61.5 -235t169.5 -79q43 0 78.5 9t69.5 28v256h-138l-6 41h191v-321q-93 -55 -195 -55q-85 0 -148 40t-98 120t-35 196q0 113 39.5 192t103.5 118
t138 39q56 0 97.5 -15.5zM470 880l21 -25l-127 -98h-27l-128 98l21 25l121 -79z" />
    <glyph glyph-name="gcaron" unicode="&#x1e7;" horiz-adv-x="497" 
d="M486 516q-45 -14 -142 -15q88 -42 88 -146q0 -77 -50 -123.5t-135 -46.5q-38 0 -69 11q-21 -11 -32.5 -28t-11.5 -36q0 -58 88 -58h86q75 0 119 -35.5t44 -93.5q0 -71 -55 -109.5t-165 -38.5q-114 0 -164.5 34.5t-50.5 112.5h44q1 -40 17 -63t52.5 -33.5t101.5 -10.5
q173 0 173 105q0 43 -32.5 67t-90.5 24h-85q-61 0 -94 25.5t-33 64.5q0 51 57 87q-45 23 -66 59t-21 89q0 78 51 126t136 48q98 -1 140.5 6t84.5 24zM141.5 458q-35.5 -37 -35.5 -100q0 -65 38 -101t102 -36q67 0 103 35t36 100t-35 102t-103 37q-70 0 -105.5 -37zM368 763
l21 -24l-127 -104h-27l-128 104l21 24l121 -84z" />
    <glyph glyph-name="uni01E8" unicode="&#x1e8;" horiz-adv-x="533" 
d="M162 684v-684h-47v684h47zM516 684l-292 -315l309 -369h-59l-308 367l295 317h55zM419 880l21 -25l-127 -98h-27l-128 98l21 25l121 -79z" />
    <glyph glyph-name="uni01E9" unicode="&#x1e9;" horiz-adv-x="480" 
d="M156 741v-741h-46v735zM445 522l-228 -235l252 -287h-56l-251 285l229 237h54zM384 931l21 -25l-127 -98h-27l-128 98l21 25l121 -79z" />
    <glyph glyph-name="uni01EA" unicode="&#x1ea;" horiz-adv-x="691" 
d="M329.5 -56.5q-27.5 -25.5 -27.5 -62.5q0 -25 16 -39t49 -14q26 0 57 6l-4 -40q-35 -7 -57 -7q-51 0 -78.5 25t-27.5 64q0 35 20.5 62t62.5 51q-81 2 -141.5 43t-94.5 119.5t-34 188.5q0 111 34.5 191t97 121.5t143.5 41.5q83 0 145 -40.5t96.5 -120t34.5 -192.5
q0 -139 -52.5 -227.5t-146.5 -114.5q-65 -30 -92.5 -55.5zM181 110q61 -79 164 -79q107 0 166.5 78.5t59.5 231.5q0 154 -60 233t-166 79q-104 0 -164.5 -79.5t-60.5 -233.5q0 -151 61 -230z" />
    <glyph glyph-name="uni01EB" unicode="&#x1eb;" horiz-adv-x="567" 
d="M256 -57q-27 -26 -27 -62q0 -25 16 -39t49 -14q25 0 57 6l-4 -40q-35 -7 -57 -7q-51 0 -78.5 25t-27.5 64q0 35 20.5 62t63.5 51q-95 6 -148 78t-53 193q0 127 58.5 199.5t158.5 72.5q102 0 159 -70.5t57 -198.5q0 -106 -41 -175.5t-114 -90.5q-62 -28 -89 -54zM159 89
q44 -60 124 -60q79 0 124 60t45 174q0 112 -44 170.5t-124 58.5q-79 0 -124 -59.5t-45 -172.5q0 -111 44 -171z" />
    <glyph glyph-name="uni01EC" unicode="&#x1ec;" horiz-adv-x="691" 
d="M459 844v-39h-229v39h229zM329.5 -56.5q-27.5 -25.5 -27.5 -62.5q0 -25 16 -39t49 -14q26 0 57 6l-4 -40q-35 -7 -57 -7q-51 0 -78.5 25t-27.5 64q0 35 20.5 62t62.5 51q-81 2 -141.5 43t-94.5 119.5t-34 188.5q0 111 34.5 191t97 121.5t143.5 41.5q83 0 145 -40.5
t96.5 -120t34.5 -192.5q0 -139 -52.5 -227.5t-146.5 -114.5q-65 -30 -92.5 -55.5zM181 110q61 -79 164 -79q107 0 166.5 78.5t59.5 231.5q0 154 -60 233t-166 79q-104 0 -164.5 -79.5t-60.5 -233.5q0 -151 61 -230z" />
    <glyph glyph-name="uni01ED" unicode="&#x1ed;" horiz-adv-x="567" 
d="M398 718v-39h-229v39h229zM256 -57q-27 -26 -27 -62q0 -25 16 -39t49 -14q25 0 57 6l-4 -40q-35 -7 -57 -7q-51 0 -78.5 25t-27.5 64q0 35 20.5 62t63.5 51q-95 6 -148 78t-53 193q0 127 58.5 199.5t158.5 72.5q102 0 159 -70.5t57 -198.5q0 -106 -41 -175.5t-114 -90.5
q-62 -28 -89 -54zM159 89q44 -60 124 -60q79 0 124 60t45 174q0 112 -44 170.5t-124 58.5q-79 0 -124 -59.5t-45 -172.5q0 -111 44 -171z" />
    <glyph glyph-name="uni01EE" unicode="&#x1ee;" horiz-adv-x="486" 
d="M381 331.5q56 -50.5 56 -144.5q0 -57 -26 -102t-75.5 -70.5t-116.5 -25.5q-66 0 -114.5 21t-87.5 64l29 28q36 -38 76 -54.5t95 -16.5q83 0 127 42.5t44 113.5q0 156 -177 156h-83v39l226 261h-316v41h374v-39l-232 -263h36q109 0 165 -50.5zM344 880l21 -25l-127 -98
h-27l-128 98l21 25l121 -79z" />
    <glyph glyph-name="uni01EF" unicode="&#x1ef;" horiz-adv-x="454" 
d="M421 3q0 -60 -26 -107t-74.5 -73t-113.5 -26q-61 0 -107.5 21.5t-84.5 63.5l29 26q36 -37 74.5 -53.5t87.5 -16.5q81 0 123.5 44.5t42.5 121.5q0 83 -45.5 119.5t-143.5 36.5h-58v38l216 283h-306v41h361v-37l-221 -287h14q232 0 232 -195zM335 763l21 -24l-127 -104h-27
l-128 104l21 24l121 -84z" />
    <glyph glyph-name="uni01F0" unicode="&#x1f0;" horiz-adv-x="266" 
d="M156 14q0 -66 -14 -105t-41 -62.5t-76 -46.5l-13 33q38 19 58 38.5t30 52t10 89.5v509h46v-508zM252 763l21 -24l-127 -104h-27l-128 104l21 24l121 -84z" />
    <glyph glyph-name="uni01F1" unicode="&#x1f1;" horiz-adv-x="1117" 
d="M472 612q86 -72 86 -264q0 -193 -88 -270.5t-215 -77.5h-140v684h133q138 0 224 -72zM162 643v-602h96q250 0 250 307q0 120 -36 185.5t-92 87.5t-129 22h-89zM1068 684v-40l-373 -601h364l-6 -43h-413v40l375 602h-337v42h390z" />
    <glyph glyph-name="uni01F2" unicode="&#x1f2;" horiz-adv-x="1035" 
d="M472 612q86 -72 86 -264q0 -193 -88 -270.5t-215 -77.5h-140v684h133q138 0 224 -72zM162 643v-602h96q250 0 250 307q0 120 -36 185.5t-92 87.5t-129 22h-89zM1000 522v-37l-298 -444h295l-5 -41h-345v36l299 445h-275v41h329z" />
    <glyph glyph-name="uni01F3" unicode="&#x1f3;" horiz-adv-x="998" 
d="M471 735v-735h-40l-5 82q-24 -42 -63.5 -67.5t-96.5 -25.5q-89 0 -141.5 72.5t-52.5 197.5q0 81 24.5 142.5t70.5 96t109 34.5q92 0 149 -73v282zM360.5 55q35.5 26 64.5 78v277q-56 83 -143 83q-73 0 -117.5 -61t-44.5 -170q0 -111 40.5 -172t111.5 -61q53 0 88.5 26z
M963 522v-37l-298 -444h295l-5 -41h-345v36l299 445h-275v41h329z" />
    <glyph glyph-name="uni01F4" unicode="&#x1f4;" horiz-adv-x="614" 
d="M448.5 678.5q41.5 -15.5 84.5 -49.5l-29 -31q-37 29 -72.5 42t-80.5 13q-60 0 -112.5 -32t-85.5 -101t-33 -175q0 -156 61.5 -235t169.5 -79q43 0 78.5 9t69.5 28v256h-138l-6 41h191v-321q-93 -55 -195 -55q-85 0 -148 40t-98 120t-35 196q0 113 39.5 192t103.5 118
t138 39q56 0 97.5 -15.5zM432 880l21 -44l-192 -77l-13 29z" />
    <glyph glyph-name="uni01F5" unicode="&#x1f5;" horiz-adv-x="497" 
d="M486 516q-45 -14 -142 -15q88 -42 88 -146q0 -77 -50 -123.5t-135 -46.5q-38 0 -69 11q-21 -11 -32.5 -28t-11.5 -36q0 -58 88 -58h86q75 0 119 -35.5t44 -93.5q0 -71 -55 -109.5t-165 -38.5q-114 0 -164.5 34.5t-50.5 112.5h44q1 -40 17 -63t52.5 -33.5t101.5 -10.5
q173 0 173 105q0 43 -32.5 67t-90.5 24h-85q-61 0 -94 25.5t-33 64.5q0 51 57 87q-45 23 -66 59t-21 89q0 78 51 126t136 48q98 -1 140.5 6t84.5 24zM141.5 458q-35.5 -37 -35.5 -100q0 -65 38 -101t102 -36q67 0 103 35t36 100t-35 102t-103 37q-70 0 -105.5 -37zM323 776
l21 -44l-190 -84l-15 28z" />
    <glyph glyph-name="uni01F6" unicode="&#x1f6;" horiz-adv-x="962" 
d="M877 262q0 -92 -28 -153t-74.5 -90.5t-103.5 -29.5q-72 0 -119.5 44t-47.5 125v181h-342v-339h-47v684h47v-303h342v303h48v-523q0 -67 32.5 -99.5t87.5 -32.5q67 0 112.5 55.5t45.5 179.5q0 116 -26 258h47q26 -147 26 -260z" />
    <glyph glyph-name="uni01F7" unicode="&#x1f7;" horiz-adv-x="566" 
d="M466.5 646q50.5 -48 50.5 -131q0 -102 -65.5 -160.5t-186.5 -102.5l-103 -37v-215h-47v684h47v-58q73 68 174 68q80 0 130.5 -48zM414.5 379q52.5 50 52.5 136q0 66 -36.5 102t-98.5 36q-97 0 -170 -68v-328l104 37q96 35 148.5 85z" />
    <glyph glyph-name="uni01F8" unicode="&#x1f8;" horiz-adv-x="669" 
d="M554 0h-61l-339 631q6 -88 6 -224v-407h-45v684h61l339 -631q-6 99 -6 200v431h45v-684zM259 880l183 -92l-13 -29l-192 77z" />
    <glyph glyph-name="uni01F9" unicode="&#x1f9;" horiz-adv-x="583" 
d="M442 490.5q36 -41.5 36 -118.5v-372h-46v366q0 66 -26 97t-78 31q-53 0 -94 -29t-78 -84v-381h-46v522h40l4 -93q74 103 181 103q71 0 107 -41.5zM218 776l184 -100l-15 -28l-190 84z" />
    <glyph glyph-name="Aringacute" unicode="&#x1fa;" horiz-adv-x="562" 
d="M491 0l-63 192h-297l-63 -192h-48l231 684h60l231 -684h-51zM145 234h270l-134 411zM348 881.5q26 -24.5 26 -64.5t-26 -65t-67 -25t-67 25t-26 65t26 64.5t67 24.5t67 -24.5zM239.5 860.5q-14.5 -15.5 -14.5 -43.5t14.5 -43.5t41.5 -15.5t41.5 15.5t14.5 43.5
t-14.5 43.5t-41.5 15.5t-41.5 -15.5zM364 1040l21 -44l-192 -77l-13 29z" />
    <glyph glyph-name="aringacute" unicode="&#x1fb;" horiz-adv-x="534" 
d="M360 853l-192 -77l-13 29l184 92zM191 743.5q26 24.5 67 24.5t67 -24.5t26 -64.5t-26 -65t-67 -25t-67 25t-26 65t26 64.5zM299.5 722.5q-14.5 15.5 -41.5 15.5t-41.5 -15.5t-14.5 -43.5t14.5 -43.5t41.5 -15.5t41.5 15.5t14.5 43.5t-14.5 43.5zM435.5 50
q10.5 -19 33.5 -28l-11 -33q-34 9 -51.5 30t-21.5 62q-57 -92 -165 -92q-74 0 -117 42.5t-43 113.5q0 80 57 123.5t155 43.5h107v55q0 65 -29 95t-96 30q-63 0 -142 -31l-13 37q87 34 159 34q86 0 126.5 -41t40.5 -121v-257q0 -44 10.5 -63zM379 127v149h-100
q-82 0 -126 -32.5t-44 -97.5q0 -56 31 -87t86 -31q101 0 153 99z" />
    <glyph glyph-name="AEacute" unicode="&#x1fc;" horiz-adv-x="772" 
d="M499 41h230v-41h-267l-48 188h-291l-71 -188h-48l265 684h410l-6 -41h-330l69 -266h259v-41h-248zM139 229h265l-107 417zM531 880l21 -44l-192 -77l-13 29z" />
    <glyph glyph-name="aeacute" unicode="&#x1fd;" horiz-adv-x="846" 
d="M782 241h-354q5 -107 51 -159t120 -52q42 0 74 12.5t68 40.5l23 -30q-38 -32 -78 -48t-89 -16q-63 0 -110.5 29t-74.5 83q-42 -60 -87 -86t-104 -26q-75 0 -118 42.5t-43 113.5q0 80 57 124t156 44h107v54q0 65 -29 95t-96 30q-63 0 -142 -31l-13 37q85 34 159 34
q69 0 107.5 -27.5t52.5 -81.5q54 109 170 109q95 0 145 -67t50 -183q0 -21 -2 -41zM739 297q0 91 -38 143.5t-112 52.5q-69 0 -113 -53.5t-48 -161.5h311v19zM318 54.5q40 26.5 79 84.5q-17 53 -17 117v20h-100q-82 0 -126 -32.5t-44 -97.5q0 -56 31 -87t86 -31
q51 0 91 26.5zM498 776l21 -44l-190 -84l-15 28z" />
    <glyph glyph-name="Oslashacute" unicode="&#x1fe;" horiz-adv-x="691" 
d="M579 550.5q42 -83.5 42 -209.5q0 -111 -34 -190t-96 -120.5t-146 -41.5q-43 0 -81 12l-33 -118l-43 12l38 120q-74 37 -115 120t-41 205q0 111 34.5 191t97 121.5t143.5 41.5q41 0 79 -11l35 124l43 -12l-40 -126q75 -35 117 -118.5zM152 159q32 -71 90 -103l173 587
q-30 10 -70 10q-104 0 -164.5 -79.5t-60.5 -233.5q0 -110 32 -181zM511.5 109.5q59.5 78.5 59.5 231.5q0 113 -32.5 185.5t-91.5 103.5l-174 -588q35 -11 72 -11q107 0 166.5 78.5zM419 891l21 -44l-192 -77l-13 29z" />
    <glyph glyph-name="oslashacute" unicode="&#x1ff;" horiz-adv-x="567" 
d="M471.5 415.5q28.5 -62.5 28.5 -152.5q0 -128 -58 -201t-159 -73q-36 0 -66 9l-41 -121l-39 11l43 126q-54 30 -83.5 93.5t-29.5 152.5q0 127 58.5 199.5t158.5 72.5q37 0 67 -9l39 123l40 -12l-41 -127q54 -29 82.5 -91.5zM197 52l143 432q-27 8 -56 8q-79 0 -124 -59.5
t-45 -172.5q0 -157 82 -208zM407 89q45 60 45 174q0 156 -80 206l-143 -432q26 -8 54 -8q79 0 124 60zM358 776l21 -44l-190 -84l-15 28z" />
    <glyph glyph-name="uni0200" unicode="&#x200;" horiz-adv-x="562" 
d="M491 0l-63 192h-297l-63 -192h-48l231 684h60l231 -684h-51zM145 234h270l-134 411zM164 930l76 -144l-31 -15l-88 136zM286 929l68 -139l-31 -15l-80 132z" />
    <glyph glyph-name="uni0201" unicode="&#x201;" horiz-adv-x="534" 
d="M435.5 50q10.5 -19 33.5 -28l-11 -33q-34 9 -51.5 30t-21.5 62q-57 -92 -165 -92q-74 0 -117 42.5t-43 113.5q0 80 57 123.5t155 43.5h107v55q0 65 -29 95t-96 30q-63 0 -142 -31l-13 37q87 34 159 34q86 0 126.5 -41t40.5 -121v-257q0 -44 10.5 -63zM379 127v149h-100
q-82 0 -126 -32.5t-44 -97.5q0 -56 31 -87t86 -31q101 0 153 99zM151 804l76 -144l-31 -15l-88 136zM273 803l68 -139l-31 -15l-80 132z" />
    <glyph glyph-name="uni0202" unicode="&#x202;" horiz-adv-x="562" 
d="M491 0l-63 192h-297l-63 -192h-48l231 684h60l231 -684h-51zM145 234h270l-134 411zM363.5 870.5q33.5 -28.5 40.5 -74.5l-32 -7q-20 70 -91 70t-91 -70l-32 7q7 47 40.5 75t82.5 28t82.5 -28.5z" />
    <glyph glyph-name="uni0203" unicode="&#x203;" horiz-adv-x="534" 
d="M435.5 50q10.5 -19 33.5 -28l-11 -33q-34 9 -51.5 30t-21.5 62q-57 -92 -165 -92q-74 0 -117 42.5t-43 113.5q0 80 57 123.5t155 43.5h107v55q0 65 -29 95t-96 30q-63 0 -142 -31l-13 37q87 34 159 34q86 0 126.5 -41t40.5 -121v-257q0 -44 10.5 -63zM379 127v149h-100
q-82 0 -126 -32.5t-44 -97.5q0 -56 31 -87t86 -31q101 0 153 99zM339.5 708.5q33.5 -28.5 40.5 -74.5l-32 -7q-20 70 -91 70t-91 -70l-32 7q7 47 40.5 75t82.5 28t82.5 -28.5z" />
    <glyph glyph-name="uni0204" unicode="&#x204;" horiz-adv-x="504" 
d="M454 684l-6 -41h-286v-266h247v-41h-247v-295h298v-41h-345v684h339zM172 930l76 -144l-31 -15l-88 136zM294 929l68 -139l-31 -15l-80 132z" />
    <glyph glyph-name="uni0205" unicode="&#x205;" horiz-adv-x="533" 
d="M469 241h-354q5 -107 51 -159t120 -52q42 0 74 12.5t68 40.5l23 -30q-38 -32 -78 -48t-89 -16q-101 0 -159 71t-58 197q0 83 25 145.5t71.5 96t108.5 33.5q97 0 148 -67t51 -183q0 -21 -2 -41zM426 297q0 91 -38 143.5t-114 52.5q-68 0 -111.5 -53.5t-47.5 -161.5h311v19
zM169 804l76 -144l-31 -15l-88 136zM291 803l68 -139l-31 -15l-80 132z" />
    <glyph glyph-name="uni0206" unicode="&#x206;" horiz-adv-x="504" 
d="M454 684l-6 -41h-286v-266h247v-41h-247v-295h298v-41h-345v684h339zM371.5 870.5q33.5 -28.5 40.5 -74.5l-32 -7q-20 70 -91 70t-91 -70l-32 7q7 47 40.5 75t82.5 28t82.5 -28.5z" />
    <glyph glyph-name="uni0207" unicode="&#x207;" horiz-adv-x="533" 
d="M469 241h-354q5 -107 51 -159t120 -52q42 0 74 12.5t68 40.5l23 -30q-38 -32 -78 -48t-89 -16q-101 0 -159 71t-58 197q0 83 25 145.5t71.5 96t108.5 33.5q97 0 148 -67t51 -183q0 -21 -2 -41zM426 297q0 91 -38 143.5t-114 52.5q-68 0 -111.5 -53.5t-47.5 -161.5h311v19
zM357.5 708.5q33.5 -28.5 40.5 -74.5l-32 -7q-20 70 -91 70t-91 -70l-32 7q7 47 40.5 75t82.5 28t82.5 -28.5z" />
    <glyph glyph-name="uni0208" unicode="&#x208;" horiz-adv-x="277" 
d="M162 684v-684h-47v684h47zM21 930l76 -144l-31 -15l-88 136zM143 929l68 -139l-31 -15l-80 132z" />
    <glyph glyph-name="uni0209" unicode="&#x209;" horiz-adv-x="266" 
d="M156 522v-522h-46v522h46zM27 804l76 -144l-31 -15l-88 136zM149 803l68 -139l-31 -15l-80 132z" />
    <glyph glyph-name="uni020A" unicode="&#x20a;" horiz-adv-x="277" 
d="M162 684v-684h-47v684h47zM220.5 870.5q33.5 -28.5 40.5 -74.5l-32 -7q-20 70 -91 70t-91 -70l-32 7q7 47 40.5 75t82.5 28t82.5 -28.5z" />
    <glyph glyph-name="uni020B" unicode="&#x20b;" horiz-adv-x="266" 
d="M156 522v-522h-46v522h46zM215.5 708.5q33.5 -28.5 40.5 -74.5l-32 -7q-20 70 -91 70t-91 -70l-32 7q7 47 40.5 75t82.5 28t82.5 -28.5z" />
    <glyph glyph-name="uni020C" unicode="&#x20c;" horiz-adv-x="691" 
d="M490 653.5q62 -40.5 96.5 -120t34.5 -192.5q0 -111 -34 -190t-96 -120.5t-146 -41.5q-82 0 -144 41t-96.5 120t-34.5 190t34.5 191t97 121.5t143.5 41.5q83 0 145 -40.5zM180.5 573.5q-60.5 -79.5 -60.5 -233.5q0 -151 61 -230t164 -79q107 0 166.5 78.5t59.5 231.5
q0 154 -60 233t-166 79q-104 0 -164.5 -79.5zM228 930l76 -144l-31 -15l-88 136zM350 929l68 -139l-31 -15l-80 132z" />
    <glyph glyph-name="uni020D" unicode="&#x20d;" horiz-adv-x="567" 
d="M443 461.5q57 -70.5 57 -198.5t-58 -201t-159 -73t-158.5 72.5t-57.5 198.5q0 127 58.5 199.5t158.5 72.5q102 0 159 -70.5zM160 432.5q-45 -59.5 -45 -172.5q0 -111 44 -171t124 -60q79 0 124 60t45 174q0 112 -44 170.5t-124 58.5q-79 0 -124 -59.5zM178 804l76 -144
l-31 -15l-88 136zM300 803l68 -139l-31 -15l-80 132z" />
    <glyph glyph-name="uni020E" unicode="&#x20e;" horiz-adv-x="691" 
d="M490 653.5q62 -40.5 96.5 -120t34.5 -192.5q0 -111 -34 -190t-96 -120.5t-146 -41.5q-82 0 -144 41t-96.5 120t-34.5 190t34.5 191t97 121.5t143.5 41.5q83 0 145 -40.5zM180.5 573.5q-60.5 -79.5 -60.5 -233.5q0 -151 61 -230t164 -79q107 0 166.5 78.5t59.5 231.5
q0 154 -60 233t-166 79q-104 0 -164.5 -79.5zM427.5 870.5q33.5 -28.5 40.5 -74.5l-32 -7q-20 70 -91 70t-91 -70l-32 7q7 47 40.5 75t82.5 28t82.5 -28.5z" />
    <glyph glyph-name="uni020F" unicode="&#x20f;" horiz-adv-x="567" 
d="M443 461.5q57 -70.5 57 -198.5t-58 -201t-159 -73t-158.5 72.5t-57.5 198.5q0 127 58.5 199.5t158.5 72.5q102 0 159 -70.5zM160 432.5q-45 -59.5 -45 -172.5q0 -111 44 -171t124 -60q79 0 124 60t45 174q0 112 -44 170.5t-124 58.5q-79 0 -124 -59.5zM366.5 708.5
q33.5 -28.5 40.5 -74.5l-32 -7q-20 70 -91 70t-91 -70l-32 7q7 47 40.5 75t82.5 28t82.5 -28.5z" />
    <glyph glyph-name="uni0210" unicode="&#x210;" horiz-adv-x="584" 
d="M310 313h-148v-313h-47v684h161q237 0 237 -183q0 -75 -39.5 -118.5t-114.5 -61.5l189 -321h-57zM283 353q180 0 180 148q0 72 -44.5 107t-145.5 35h-111v-290h121zM172 930l76 -144l-31 -15l-88 136zM294 929l68 -139l-31 -15l-80 132z" />
    <glyph glyph-name="uni0211" unicode="&#x211;" horiz-adv-x="369" 
d="M355 526l-9 -43q-20 6 -46 6q-55 0 -88.5 -39.5t-55.5 -123.5v-326h-46v522h40l3 -121q21 67 57.5 99t92.5 32q34 0 52 -6zM125 804l76 -144l-31 -15l-88 136zM247 803l68 -139l-31 -15l-80 132z" />
    <glyph glyph-name="uni0212" unicode="&#x212;" horiz-adv-x="584" 
d="M310 313h-148v-313h-47v684h161q237 0 237 -183q0 -75 -39.5 -118.5t-114.5 -61.5l189 -321h-57zM283 353q180 0 180 148q0 72 -44.5 107t-145.5 35h-111v-290h121zM371.5 870.5q33.5 -28.5 40.5 -74.5l-32 -7q-20 70 -91 70t-91 -70l-32 7q7 47 40.5 75t82.5 28
t82.5 -28.5z" />
    <glyph glyph-name="uni0213" unicode="&#x213;" horiz-adv-x="369" 
d="M355 526l-9 -43q-20 6 -46 6q-55 0 -88.5 -39.5t-55.5 -123.5v-326h-46v522h40l3 -121q21 67 57.5 99t92.5 32q34 0 52 -6zM313.5 708.5q33.5 -28.5 40.5 -74.5l-32 -7q-20 70 -91 70t-91 -70l-32 7q7 47 40.5 75t82.5 28t82.5 -28.5z" />
    <glyph glyph-name="uni0214" unicode="&#x214;" horiz-adv-x="648" 
d="M543 211q0 -101 -55.5 -161.5t-163.5 -60.5t-163.5 60.5t-55.5 161.5v473h47v-469q0 -87 42.5 -135t129.5 -48t129 48.5t42 134.5v469h48v-473zM207 930l76 -144l-31 -15l-88 136zM329 929l68 -139l-31 -15l-80 132z" />
    <glyph glyph-name="uni0215" unicode="&#x215;" horiz-adv-x="578" 
d="M468 0h-39l-3 97q-61 -108 -173 -108q-71 0 -109.5 41.5t-38.5 118.5v373h46v-369q0 -64 28 -94t83 -30q96 0 160 112v381h46v-522zM181 804l76 -144l-31 -15l-88 136zM303 803l68 -139l-31 -15l-80 132z" />
    <glyph glyph-name="uni0216" unicode="&#x216;" horiz-adv-x="648" 
d="M543 211q0 -101 -55.5 -161.5t-163.5 -60.5t-163.5 60.5t-55.5 161.5v473h47v-469q0 -87 42.5 -135t129.5 -48t129 48.5t42 134.5v469h48v-473zM406.5 870.5q33.5 -28.5 40.5 -74.5l-32 -7q-20 70 -91 70t-91 -70l-32 7q7 47 40.5 75t82.5 28t82.5 -28.5z" />
    <glyph glyph-name="uni0217" unicode="&#x217;" horiz-adv-x="578" 
d="M468 0h-39l-3 97q-61 -108 -173 -108q-71 0 -109.5 41.5t-38.5 118.5v373h46v-369q0 -64 28 -94t83 -30q96 0 160 112v381h46v-522zM369.5 708.5q33.5 -28.5 40.5 -74.5l-32 -7q-20 70 -91 70t-91 -70l-32 7q7 47 40.5 75t82.5 28t82.5 -28.5z" />
    <glyph glyph-name="Scommaaccent" unicode="&#x218;" horiz-adv-x="537" 
d="M371.5 675.5q43.5 -18.5 85.5 -55.5l-28 -31q-39 34 -76.5 49t-85.5 15q-67 0 -107.5 -33.5t-40.5 -88.5q0 -38 15.5 -63t50 -44t97.5 -38q69 -21 111 -45t63.5 -61.5t21.5 -94.5t-27.5 -102t-77.5 -69.5t-115 -24.5q-66 0 -118 22t-96 63l28 31q41 -37 84 -55.5
t101 -18.5q77 0 125 41t48 112q0 44 -16 72.5t-51.5 49t-99.5 40.5q-105 32 -148.5 73t-43.5 111q0 47 24.5 84t69 58.5t101.5 21.5q62 0 105.5 -18.5zM290 -98q11 -11 11 -27q0 -11 -4 -23t-17 -39l-40 -86h-29l33 114q-21 10 -21 34q0 16 11 27t27 11q18 0 29 -11z" />
    <glyph glyph-name="scommaaccent" unicode="&#x219;" horiz-adv-x="463" 
d="M318.5 518q38.5 -14 76.5 -43l-23 -31q-35 26 -66.5 37.5t-71.5 11.5q-55 0 -89 -25.5t-34 -69.5q0 -40 29 -62t103 -42q90 -24 128 -57.5t38 -98.5q0 -68 -51.5 -108.5t-130.5 -40.5q-59 0 -102 17.5t-81 49.5l26 30q36 -29 72 -43t84 -14q60 0 97.5 28.5t37.5 79.5
q0 34 -12 55t-42 35.5t-87 30.5q-84 22 -120 54t-36 86q0 59 48 96.5t121 37.5q47 0 85.5 -14zM260 -98q11 -11 11 -27q0 -11 -4 -23t-17 -39l-40 -86h-29l33 114q-21 10 -21 34q0 16 11 27t27 11q18 0 29 -11z" />
    <glyph glyph-name="uni021A" unicode="&#x21a;" horiz-adv-x="487" 
d="M477 684l-6 -43h-204v-641h-47v641h-205v43h462zM271 -98q11 -11 11 -27q0 -11 -4 -23t-17 -39l-40 -86h-29l33 114q-21 10 -21 34q0 16 11 27t27 11q18 0 29 -11z" />
    <glyph glyph-name="uni021B" unicode="&#x21b;" horiz-adv-x="334" 
d="M338 21q-50 -32 -108 -32q-57 0 -89.5 34t-32.5 100v360h-87v39h87v127l46 5v-132h138l-6 -39h-132v-357q0 -96 81 -96q42 0 84 24zM254 -98q11 -11 11 -27q0 -11 -4 -23t-17 -39l-40 -86h-29l33 114q-21 10 -21 34q0 16 11 27t27 11q18 0 29 -11z" />
    <glyph glyph-name="uni021C" unicode="&#x21c;" horiz-adv-x="500" 
d="M371 646q51 -48 51 -128q0 -66 -35.5 -105t-95.5 -53q68 -8 110 -47.5t42 -110.5q0 -106 -86.5 -176t-289.5 -112l-5 42q123 26 196 61t104 80t31 104q0 66 -45.5 101.5t-131.5 34.5h-61l6 41h52q73 0 116.5 36t43.5 103q0 63 -38 99.5t-108 36.5q-49 0 -91.5 -18.5
t-84.5 -53.5l-26 30q46 42 95.5 62.5t108.5 20.5q91 0 142 -48z" />
    <glyph glyph-name="uni021D" unicode="&#x21d;" horiz-adv-x="459" 
d="M319.5 494.5q46.5 -37.5 46.5 -103.5q0 -99 -101 -123q57 -2 92.5 -32t35.5 -85q0 -82 -80.5 -143.5t-242.5 -100.5l-7 36q147 41 214 90t67 117q0 49 -34.5 72t-91.5 23h-86l4 38h53q61 0 95.5 27.5t34.5 79.5q0 50 -32 76.5t-89 26.5q-46 0 -77.5 -10.5t-71.5 -34.5
l-23 30q40 27 81.5 40.5t92.5 13.5q73 0 119.5 -37.5z" />
    <glyph glyph-name="uni021E" unicode="&#x21e;" horiz-adv-x="667" 
d="M504 0v339h-342v-339h-47v684h47v-303h342v303h48v-684h-48zM451 880l21 -25l-127 -98h-27l-128 98l21 25l121 -79z" />
    <glyph glyph-name="uni021F" unicode="&#x21f;" horiz-adv-x="583" 
d="M441.5 490q36.5 -42 36.5 -118v-372h-46v366q0 128 -104 128q-53 0 -94 -29.5t-78 -83.5v-381h-46v735l46 6v-311q74 102 179 102q70 0 106.5 -42zM414 931l21 -25l-127 -98h-27l-128 98l21 25l121 -79z" />
    <glyph glyph-name="uni0220" unicode="&#x220;" horiz-adv-x="659" 
d="M506.5 642.5q45.5 -51.5 45.5 -146.5v-691h-47v682q0 166 -135 166q-66 0 -115.5 -32t-92.5 -89v-532h-47v684h41l4 -103q40 52 94 82.5t122 30.5q85 0 130.5 -51.5z" />
    <glyph glyph-name="uni0221" unicode="&#x221;" horiz-adv-x="678" 
d="M679 169q26 -25 26 -64q0 -52 -39.5 -84t-100.5 -32q-53 0 -91 27l-38 -78l-35 15l47 91q-13 17 -19 44q-23 -44 -63.5 -71.5t-99.5 -27.5q-89 0 -141.5 72.5t-52.5 197.5q0 81 24.5 142.5t70.5 96t109 34.5q92 0 149 -73v282l46 -6v-612q0 -16 3 -30q25 50 56.5 75.5
t78.5 25.5q44 0 70 -25zM360.5 55q35.5 26 64.5 78v277q-56 83 -143 83q-73 0 -117.5 -61t-44.5 -170q0 -111 40.5 -172t111.5 -61q53 0 88.5 26zM635.5 50q26.5 20 26.5 55q0 24 -15 38t-40 14q-37 0 -61.5 -24t-52.5 -79q23 -24 72 -24q44 0 70.5 20z" />
    <glyph glyph-name="uni0222" unicode="&#x222;" horiz-adv-x="636" 
d="M529 316q37 -49 37 -120q0 -58 -27.5 -105t-83.5 -74.5t-137 -27.5q-79 0 -135 27t-84.5 73.5t-28.5 105.5q0 68 37 118.5t107 71.5q-97 40 -97 162v137h48v-135q0 -68 34.5 -107.5t118.5 -39.5q157 0 157 147v135h47v-137q0 -56 -24.5 -98t-75.5 -63q70 -21 107 -70z
M468 74q48 43 48 122t-48.5 122t-149.5 43q-98 0 -148 -44t-50 -122q0 -77 49.5 -120.5t148.5 -43.5q102 0 150 43z" />
    <glyph glyph-name="uni0223" unicode="&#x223;" horiz-adv-x="563" 
d="M463.5 337q33.5 -52 33.5 -129q0 -64 -25.5 -113.5t-74 -77.5t-115.5 -28q-99 0 -157 60t-58 158q0 74 34 127.5t98 74.5q-48 19 -71 59t-23 92v175h46v-175q0 -60 30.5 -97t100.5 -37q69 0 101.5 38t32.5 96v175h46v-175q0 -51 -24 -91t-73 -60q65 -20 98.5 -72z
M406 75.5q42 46.5 42 132.5q0 85 -41 132.5t-125 47.5q-82 0 -124.5 -48.5t-42.5 -132.5q0 -85 43.5 -131.5t123.5 -46.5q82 0 124 46.5z" />
    <glyph glyph-name="uni0224" unicode="&#x224;" horiz-adv-x="514" 
d="M465 644l-373 -601h361v-119q0 -62 -31.5 -94.5t-84.5 -32.5q-54 0 -97 33l20 32q17 -12 34.5 -18t41.5 -6q70 0 70 86v76h-369v40l375 602h-337v42h390v-40z" />
    <glyph glyph-name="uni0225" unicode="&#x225;" horiz-adv-x="416" 
d="M382 485l-298 -444h292v-117q0 -62 -31.5 -94.5t-84.5 -32.5q-54 0 -97 33l20 30q17 -11 34.5 -17t41.5 -6q72 0 72 86v77h-302v36l299 445h-275v41h329v-37z" />
    <glyph glyph-name="uni0226" unicode="&#x226;" horiz-adv-x="562" 
d="M491 0l-63 192h-297l-63 -192h-48l231 684h60l231 -684h-51zM145 234h270l-134 411zM307 860q10 -10 10 -25t-10 -25t-26 -10t-26 10t-10 25t10 25t26 10t26 -10z" />
    <glyph glyph-name="uni0227" unicode="&#x227;" horiz-adv-x="534" 
d="M435.5 50q10.5 -19 33.5 -28l-11 -33q-34 9 -51.5 30t-21.5 62q-57 -92 -165 -92q-74 0 -117 42.5t-43 113.5q0 80 57 123.5t155 43.5h107v55q0 65 -29 95t-96 30q-63 0 -142 -31l-13 37q87 34 159 34q86 0 126.5 -41t40.5 -121v-257q0 -44 10.5 -63zM379 127v149h-100
q-82 0 -126 -32.5t-44 -97.5q0 -56 31 -87t86 -31q101 0 153 99zM283 734q10 -10 10 -25t-10 -25t-26 -10t-26 10t-10 25t10 25t26 10t26 -10z" />
    <glyph glyph-name="uni0228" unicode="&#x228;" horiz-adv-x="504" 
d="M295 0v-67q92 -7 92 -73q0 -38 -28.5 -60t-70.5 -22q-43 0 -76 20l16 30q28 -15 59 -15q25 0 41 12t16 35t-21 34t-68 11l8 95h-148v684h339l-6 -41h-286v-266h247v-41h-247v-295h298v-41h-165z" />
    <glyph glyph-name="uni0229" unicode="&#x229;" horiz-adv-x="533" 
d="M469 241h-354q5 -107 51 -159t120 -52q42 0 74 12.5t68 40.5l23 -30q-35 -29 -71 -45t-80 -19v-56q92 -7 92 -73q0 -38 -28.5 -60t-70.5 -22q-43 0 -76 20l16 30q28 -15 59 -15q25 0 41 12t16 35t-21 34t-68 11l7 85q-93 6 -146.5 76.5t-53.5 190.5q0 83 25 145.5
t71.5 96t108.5 33.5q97 0 148 -67t51 -183q0 -21 -2 -41zM426 297q0 91 -38 143.5t-114 52.5q-68 0 -111.5 -53.5t-47.5 -161.5h311v19z" />
    <glyph glyph-name="uni022A" unicode="&#x22a;" horiz-adv-x="691" 
d="M490 653.5q62 -40.5 96.5 -120t34.5 -192.5q0 -111 -34 -190t-96 -120.5t-146 -41.5q-82 0 -144 41t-96.5 120t-34.5 190t34.5 191t97 121.5t143.5 41.5q83 0 145 -40.5zM180.5 573.5q-60.5 -79.5 -60.5 -233.5q0 -151 61 -230t164 -79q107 0 166.5 78.5t59.5 231.5
q0 154 -60 233t-166 79q-104 0 -164.5 -79.5zM278.5 799.5q9.5 -9.5 9.5 -23.5t-9.5 -23.5t-24.5 -9.5t-24.5 9.5t-9.5 23.5t9.5 23.5t24.5 9.5t24.5 -9.5zM459.5 799.5q9.5 -9.5 9.5 -23.5t-9.5 -23.5t-23.5 -9.5q-15 0 -24.5 9.5t-9.5 23.5t9.5 23.5t24.5 9.5
q14 0 23.5 -9.5zM461 869h-229v39h229v-39z" />
    <glyph glyph-name="uni022B" unicode="&#x22b;" horiz-adv-x="567" 
d="M443 461.5q57 -70.5 57 -198.5t-58 -201t-159 -73t-158.5 72.5t-57.5 198.5q0 127 58.5 199.5t158.5 72.5q102 0 159 -70.5zM160 432.5q-45 -59.5 -45 -172.5q0 -111 44 -171t124 -60q79 0 124 60t45 174q0 112 -44 170.5t-124 58.5q-79 0 -124 -59.5zM218.5 692.5
q9.5 -9.5 9.5 -23.5t-9.5 -23.5t-24.5 -9.5t-24.5 9.5t-9.5 23.5t9.5 23.5t24.5 9.5t24.5 -9.5zM399.5 692.5q9.5 -9.5 9.5 -23.5t-9.5 -23.5t-23.5 -9.5q-15 0 -24.5 9.5t-9.5 23.5t9.5 23.5t24.5 9.5q14 0 23.5 -9.5zM399 766h-229v39h229v-39z" />
    <glyph glyph-name="uni022C" unicode="&#x22c;" horiz-adv-x="691" 
d="M490 653.5q62 -40.5 96.5 -120t34.5 -192.5q0 -111 -34 -190t-96 -120.5t-146 -41.5q-82 0 -144 41t-96.5 120t-34.5 190t34.5 191t97 121.5t143.5 41.5q83 0 145 -40.5zM180.5 573.5q-60.5 -79.5 -60.5 -233.5q0 -151 61 -230t164 -79q107 0 166.5 78.5t59.5 231.5
q0 154 -60 233t-166 79q-104 0 -164.5 -79.5zM369 763.5q-16 6.5 -36 18.5q-30 19 -47 19t-29.5 -8.5t-27.5 -28.5l-29 15q37 60 86 60q15 0 28 -5.5t33 -17.5q18 -10 30.5 -15.5t25.5 -5.5q16 0 28.5 9.5t28.5 33.5l29 -15q-32 -66 -86 -66q-18 0 -34 6.5zM455 887h-229v39
h229v-39z" />
    <glyph glyph-name="uni022D" unicode="&#x22d;" horiz-adv-x="567" 
d="M443 461.5q57 -70.5 57 -198.5t-58 -201t-159 -73t-158.5 72.5t-57.5 198.5q0 127 58.5 199.5t158.5 72.5q102 0 159 -70.5zM160 432.5q-45 -59.5 -45 -172.5q0 -111 44 -171t124 -60q79 0 124 60t45 174q0 112 -44 170.5t-124 58.5q-79 0 -124 -59.5zM308 609.5
q-16 6.5 -36 18.5q-30 19 -47 19t-29.5 -8.5t-27.5 -28.5l-29 15q37 60 86 60q15 0 28 -5.5t33 -17.5q18 -10 30.5 -15.5t25.5 -5.5q16 0 28.5 9.5t28.5 33.5l29 -15q-32 -66 -86 -66q-18 0 -34 6.5zM398 734h-229v39h229v-39z" />
    <glyph glyph-name="uni022E" unicode="&#x22e;" horiz-adv-x="691" 
d="M490 653.5q62 -40.5 96.5 -120t34.5 -192.5q0 -111 -34 -190t-96 -120.5t-146 -41.5q-82 0 -144 41t-96.5 120t-34.5 190t34.5 191t97 121.5t143.5 41.5q83 0 145 -40.5zM180.5 573.5q-60.5 -79.5 -60.5 -233.5q0 -151 61 -230t164 -79q107 0 166.5 78.5t59.5 231.5
q0 154 -60 233t-166 79q-104 0 -164.5 -79.5zM371 860q10 -10 10 -25t-10 -25t-26 -10t-26 10t-10 25t10 25t26 10t26 -10z" />
    <glyph glyph-name="uni022F" unicode="&#x22f;" horiz-adv-x="567" 
d="M443 461.5q57 -70.5 57 -198.5t-58 -201t-159 -73t-158.5 72.5t-57.5 198.5q0 127 58.5 199.5t158.5 72.5q102 0 159 -70.5zM160 432.5q-45 -59.5 -45 -172.5q0 -111 44 -171t124 -60q79 0 124 60t45 174q0 112 -44 170.5t-124 58.5q-79 0 -124 -59.5zM310 734
q10 -10 10 -25t-10 -25t-26 -10t-26 10t-10 25t10 25t26 10t26 -10z" />
    <glyph glyph-name="uni0230" unicode="&#x230;" horiz-adv-x="691" 
d="M490 653.5q62 -40.5 96.5 -120t34.5 -192.5q0 -111 -34 -190t-96 -120.5t-146 -41.5q-82 0 -144 41t-96.5 120t-34.5 190t34.5 191t97 121.5t143.5 41.5q83 0 145 -40.5zM180.5 573.5q-60.5 -79.5 -60.5 -233.5q0 -151 61 -230t164 -79q107 0 166.5 78.5t59.5 231.5
q0 154 -60 233t-166 79q-104 0 -164.5 -79.5zM372 803q10 -10 10 -25t-10 -25t-26 -10t-26 10t-10 25t10 25t26 10t26 -10zM461 869h-229v39h229v-39z" />
    <glyph glyph-name="uni0231" unicode="&#x231;" horiz-adv-x="567" 
d="M443 461.5q57 -70.5 57 -198.5t-58 -201t-159 -73t-158.5 72.5t-57.5 198.5q0 127 58.5 199.5t158.5 72.5q102 0 159 -70.5zM160 432.5q-45 -59.5 -45 -172.5q0 -111 44 -171t124 -60q79 0 124 60t45 174q0 112 -44 170.5t-124 58.5q-79 0 -124 -59.5zM310 684
q10 -10 10 -25t-10 -25t-26 -10t-26 10t-10 25t10 25t26 10t26 -10zM399 753h-229v39h229v-39z" />
    <glyph glyph-name="uni0232" unicode="&#x232;" horiz-adv-x="513" 
d="M497 684l-216 -415v-269h-47v268l-218 416h53l190 -372l186 372h52zM370 805h-229v39h229v-39z" />
    <glyph glyph-name="uni0233" unicode="&#x233;" horiz-adv-x="459" 
d="M261 -2q-21 -61 -44.5 -98.5t-60.5 -62t-97 -38.5l-6 36q51 14 80.5 33.5t46.5 49t37 82.5h-16l-184 522h50l165 -487l160 487h50zM344 679h-229v39h229v-39z" />
    <glyph glyph-name="uni0234" unicode="&#x234;" horiz-adv-x="358" 
d="M359 169q26 -25 26 -64q0 -52 -40 -84t-101 -32q-52 0 -90 27l-38 -78l-35 15l47 90q-23 36 -23 83v609l46 6v-618q0 -15 3 -29q25 49 57 74.5t78 25.5q44 0 70 -25zM315.5 50q26.5 20 26.5 55q0 24 -15 38t-40 14q-37 0 -61.5 -23.5t-52.5 -79.5q23 -24 71 -24
q45 0 71.5 20z" />
    <glyph glyph-name="uni0235" unicode="&#x235;" horiz-adv-x="685" 
d="M686 169q26 -25 26 -64q0 -52 -39.5 -84t-100.5 -32q-54 0 -90 27l-39 -78l-35 15l48 90q-24 34 -24 83v240q0 66 -26 97t-78 31q-53 0 -94 -29t-78 -84v-381h-46v522h40l4 -93q74 103 181 103q71 0 107 -41.5t36 -118.5v-249q0 -16 3 -31q26 50 57.5 76t77.5 26
q44 0 70 -25zM642.5 50q26.5 20 26.5 55q0 24 -15 38t-40 14q-37 0 -61.5 -24t-52.5 -79q23 -24 72 -24q44 0 70.5 20z" />
    <glyph glyph-name="uni0236" unicode="&#x236;" horiz-adv-x="360" 
d="M361.5 168.5q26.5 -25.5 26.5 -66.5q0 -51 -39 -82t-99 -31q-55 0 -93 27l-40 -78l-33 15l47 90q-23 32 -23 83v357h-87v39h87v127l46 5v-132h138l-6 -39h-132v-360q0 -11 2 -29q26 49 57.5 74.5t76.5 25.5t71.5 -25.5zM319 48.5q26 18.5 26 53.5q0 26 -15 40.5t-42 14.5
q-36 0 -60 -23.5t-52 -79.5q23 -24 74 -24q43 0 69 18.5z" />
    <glyph glyph-name="uni0237" unicode="&#x237;" horiz-adv-x="266" 
d="M156 14q0 -66 -14 -105t-41 -62.5t-76 -46.5l-13 33q38 19 58 38.5t30 52t10 89.5v509h46v-508z" />
    <glyph glyph-name="uni0238" unicode="&#x238;" horiz-adv-x="851" 
d="M732.5 462q47.5 -70 47.5 -198q0 -127 -49.5 -201t-136.5 -74q-46 0 -84 27t-60 67l-5 -83h-34l-5 83q-24 -42 -62 -68t-88 -26q-54 0 -96 33t-65 94t-23 143q0 80 24 142t68 96.5t102 34.5q84 0 139 -82v285l46 6v-293q29 40 67 62t84 22q83 0 130.5 -70zM342.5 55
q34.5 26 62.5 78v271q-31 45 -62 67t-72 22q-43 0 -77 -27.5t-54 -79.5t-20 -124q0 -110 39 -171.5t103 -61.5q46 0 80.5 26zM693 89.5q38 60.5 38 174.5q0 115 -35 172t-100 57q-45 0 -78.5 -23.5t-66.5 -69.5v-264q54 -107 138 -107q66 0 104 60.5z" />
    <glyph glyph-name="uni0239" unicode="&#x239;" horiz-adv-x="851" 
d="M734 462q46 -70 46 -198q0 -127 -49 -201t-137 -74q-44 0 -80.5 24t-62.5 65v-273l-46 -8v281q-26 -40 -62.5 -64.5t-85.5 -24.5q-55 0 -97 33t-65 94t-23 143q0 80 24 142t68.5 96.5t103.5 34.5q46 0 81 -24t58 -62l4 76h34l4 -78q30 42 69 65t86 23q84 0 130 -70z
M343 54.5q34 25.5 62 76.5v268q-57 94 -133 94q-43 0 -77.5 -27.5t-54.5 -79.5t-20 -124q0 -110 39 -171.5t104 -61.5q46 0 80 25.5zM693.5 90q37.5 60 37.5 174q0 113 -35 171t-98 58q-46 0 -80 -24t-67 -70v-266q54 -103 137 -103q68 0 105.5 60z" />
    <glyph glyph-name="uni023A" unicode="&#x23a;" horiz-adv-x="562" 
d="M492 0l-63 192h-160l-69 -262l-29 7l67 255h-107l-64 -192h-47l231 684h60l32 -94l40 153l28 -8l-51 -195l182 -540h-50zM144 233h105l74 284l-42 130zM279 233h137l-76 232z" />
    <glyph glyph-name="uni023B" unicode="&#x23b;" horiz-adv-x="547" 
d="M342 -11q-50 0 -91 16l-20 -75l-28 7l21 80q-72 37 -113 120t-41 205q0 114 36 193t98.5 119t139.5 40q29 0 57 -5l14 54l27 -8l-14 -53q43 -13 87 -49l-26 -32q-41 31 -71 41l-156 -594q36 -16 82 -16q49 0 83 14.5t70 43.5l26 -32q-76 -69 -181 -69zM150.5 166.5
q30.5 -70.5 85.5 -104.5l154 587q-17 4 -43 4q-101 0 -164 -76.5t-63 -234.5q0 -105 30.5 -175.5z" />
    <glyph glyph-name="uni023C" unicode="&#x23c;" horiz-adv-x="466" 
d="M286 -11q-37 0 -73 11l-19 -70l-29 7l21 75q-56 30 -87.5 93t-31.5 153q0 83 27 145t76 95.5t115 33.5q22 0 43 -3l17 62l28 -8l-17 -61q36 -11 72 -41l-24 -31q-27 23 -58 33l-122 -442q30 -11 62 -11q36 0 65 11.5t57 34.5l24 -31q-62 -56 -146 -56zM137 131.5
q21 -51.5 60 -76.5l120 435q-18 2 -30 2q-78 0 -124.5 -60t-46.5 -174q0 -75 21 -126.5z" />
    <glyph glyph-name="uni023D" unicode="&#x23d;" horiz-adv-x="489" 
d="M181 44h288l-7 -44h-328v343h-104v40h104v301h47v-301h107v-40h-107v-299z" />
    <glyph glyph-name="uni023E" unicode="&#x23e;" horiz-adv-x="487" 
d="M471 641h-114l-90 -286v-355h-47v205l-86 -275l-28 9l114 364v338h-205v43h324l19 60l28 -9l-16 -51h107zM267 453l59 188h-59v-188z" />
    <glyph glyph-name="uni023F" unicode="&#x23f;" horiz-adv-x="463" 
d="M410 -176q-34 -27 -79 -27q-28 0 -48 11t-35 28.5t-38 50.5q-35 52 -71 91.5t-94 77.5l20 29q47 -30 81.5 -43t81.5 -13q60 0 96.5 28t36.5 79q0 35 -12 56t-42 35.5t-87 30.5q-84 22 -120 54.5t-36 86.5q0 38 22 68.5t60.5 47.5t86.5 17q47 0 85.5 -14t76.5 -43l-23 -31
q-35 26 -66.5 37.5t-71.5 11.5q-55 0 -89 -25.5t-34 -69.5q0 -40 29 -62t103 -42q90 -24 128 -57.5t38 -98.5q0 -45 -24 -78.5t-64.5 -52t-88.5 -18.5q-28 0 -61 9q21 -18 36 -37.5t36 -50.5q25 -38 43.5 -55.5t45.5 -17.5q30 0 59 17z" />
    <glyph glyph-name="uni0240" unicode="&#x240;" horiz-adv-x="409" 
d="M301.5 -192q-22.5 11 -38.5 26.5t-39 44.5q-27 35 -49.5 57t-58.5 40t-87 24v36l299 445h-275v41h329v-37l-306 -454q44 -8 76 -26.5t53 -40t48 -54.5q29 -38 50.5 -55.5t51.5 -17.5t57 17l19 -30q-34 -27 -78 -27q-29 0 -51.5 11z" />
    <glyph glyph-name="uni0241" unicode="&#x241;" horiz-adv-x="459" 
d="M160 300l72 18q71 18 107 56.5t36 116.5q0 73 -41.5 117.5t-115.5 44.5q-49 0 -90.5 -18.5t-81.5 -53.5l-29 30q47 42 95.5 62.5t107.5 20.5q62 0 108.5 -26t71 -71.5t24.5 -104.5q0 -97 -47.5 -143.5t-130.5 -67.5l-39 -9v-272h-47v300z" />
    <glyph glyph-name="uni0242" unicode="&#x242;" horiz-adv-x="423" 
d="M130 181l72 19q125 32 125 150q0 63 -39 102t-104 39q-46 0 -80 -15t-69 -42l-26 29q38 34 79.5 51.5t97.5 17.5t99 -23.5t67 -64.5t24 -93q0 -82 -45 -126t-115 -61l-40 -10v-154h-46v181z" />
    <glyph glyph-name="uni0243" unicode="&#x243;" horiz-adv-x="594" 
d="M493.5 313.5q44.5 -42.5 44.5 -125.5q0 -92 -62.5 -140t-175.5 -48h-185v177h-91v39h91v468h149q116 0 178.5 -43t62.5 -127q0 -65 -33.5 -103t-91.5 -48q69 -7 113.5 -49.5zM162 643v-263h150q65 0 104.5 35t39.5 96q0 69 -47.5 100.5t-139.5 31.5h-107zM439 77
q49 36 49 111q0 76 -46.5 114t-123.5 38h-156v-124h182v-39h-182v-136h139q89 0 138 36z" />
    <glyph glyph-name="uni0244" unicode="&#x244;" horiz-adv-x="669" 
d="M618 515h-64v-304q0 -101 -55.5 -161.5t-163.5 -60.5t-163.5 60.5t-55.5 161.5v304h-65v36h65v133h47v-133h343v133h48v-133h64v-36zM506 515h-343v-300q0 -87 42.5 -135t129.5 -48t129 48.5t42 134.5v300z" />
    <glyph glyph-name="uni0245" unicode="&#x245;" horiz-adv-x="562" 
d="M311 684l231 -684h-51l-210 645l-213 -645h-48l231 684h60z" />
    <glyph glyph-name="uni0246" unicode="&#x246;" horiz-adv-x="504" 
d="M460 41v-41h-242l-18 -70l-29 7l17 63h-73v684h252l16 59l28 -8l-13 -51h56l-6 -41h-61l-70 -266h92v-41h-103l-77 -295h231zM162 643v-266h125l70 266h-195zM162 41h36l78 295h-114v-295z" />
    <glyph glyph-name="uni0247" unicode="&#x247;" horiz-adv-x="533" 
d="M275 241l-54 -199q30 -12 65 -12q42 0 74 12.5t68 40.5l23 -30q-38 -32 -78 -48t-89 -16q-40 0 -75 12l-19 -71l-27 7l21 75q-56 30 -86.5 92.5t-30.5 152.5q0 83 25 145.5t71.5 96t108.5 33.5q29 0 53 -6l18 65l26 -8l-18 -65q59 -24 89.5 -85.5t30.5 -150.5
q0 -21 -2 -41h-194zM162.5 439.5q-43.5 -53.5 -47.5 -161.5h142l58 210q-22 5 -41 5q-68 0 -111.5 -53.5zM405 412q-21 47 -64 67l-56 -201h141v19q0 68 -21 115zM247 241h-132q7 -136 81 -186z" />
    <glyph glyph-name="uni0248" unicode="&#x248;" horiz-adv-x="297" 
d="M280 323h-103v-233q0 -58 -13.5 -93.5t-45 -60.5t-89.5 -49l-13 35q46 21 70 42.5t33.5 51t9.5 77.5v230h-107v40h107v321h48v-321h103v-40z" />
    <glyph glyph-name="uni0249" unicode="&#x249;" horiz-adv-x="295" 
d="M276 226h-103v-212q0 -66 -14 -105t-41 -62.5t-76 -46.5l-13 33q38 19 58 38.5t30 52t10 89.5v213h-108v39h108v257h46v-257h103v-39zM176 734q10 -10 10 -25t-10 -25t-26 -10t-26 10t-10 25t10 25t26 10t26 -10z" />
    <glyph glyph-name="uni024A" unicode="&#x24a;" horiz-adv-x="656" 
d="M707 -170q-43 -33 -97 -33q-53 0 -84.5 32.5t-31.5 94.5v137q-66 -72 -169 -72q-72 0 -130 39t-91.5 115.5t-33.5 185.5q0 115 33.5 197.5t91.5 125t131 42.5q104 0 170 -72l4 62h42v-760q0 -86 69 -86q24 0 41.5 6t34.5 17zM494 108v468q-62 77 -165 77
q-61 0 -108 -35.5t-74 -108.5t-27 -180q0 -99 27 -165.5t74 -99.5t106 -33q104 0 167 77z" />
    <glyph glyph-name="uni024B" unicode="&#x24b;" horiz-adv-x="581" 
d="M567 -190q-28 -13 -56 -13q-40 0 -63 24t-23 72v186q-25 -41 -64 -65.5t-94 -24.5q-90 0 -142.5 72.5t-52.5 197.5q0 81 24.5 142.5t71 96t109.5 34.5q52 0 88 -21t62 -54l4 65h40v-630q0 -28 11 -41.5t35 -13.5q18 0 37 8zM361.5 54.5q35.5 25.5 63.5 76.5v280
q-56 82 -142 82q-46 0 -83 -27t-58.5 -79.5t-21.5 -124.5q0 -112 40.5 -172.5t112.5 -60.5q53 0 88.5 25.5z" />
    <glyph glyph-name="uni024C" unicode="&#x24c;" horiz-adv-x="584" 
d="M491 0l-181 313h-148v-313h-47v313h-91v40h91v331h161q237 0 237 -183q0 -75 -39.5 -118.5t-114.5 -61.5l189 -321h-57zM463 501q0 72 -44.5 107t-145.5 35h-111v-290h121q180 0 180 148z" />
    <glyph glyph-name="uni024D" unicode="&#x24d;" horiz-adv-x="383" 
d="M369 526l-9 -43q-20 6 -46 6q-55 0 -88.5 -39.5t-55.5 -123.5v-26h107v-36h-107v-264h-46v264h-105v36h105v222h40l3 -121q21 67 57.5 99t92.5 32q34 0 52 -6z" />
    <glyph glyph-name="uni024E" unicode="&#x24e;" horiz-adv-x="513" 
d="M497 684l-48 -93h48v-35h-67l-149 -287v-269h-47v268l-151 288h-66v35h48l-49 93h53l47 -93h283l46 93h52zM259 310l122 246h-247z" />
    <glyph glyph-name="uni024F" unicode="&#x24f;" horiz-adv-x="462" 
d="M395 383h47v-35h-59l-121 -350q-21 -61 -44.5 -98.5t-60.5 -62t-97 -38.5l-6 36q51 14 80.5 33.5t46.5 49t37 82.5h-16l-123 348h-60v35h48l-49 139h50l47 -139h232l46 139h50zM233 35l103 313h-209z" />
    <glyph glyph-name="uni0250" unicode="&#x250;" horiz-adv-x="534" 
d="M422 61l13 -37q-87 -34 -159 -34q-86 0 -126.5 41t-40.5 121v257q0 44 -10.5 63t-33.5 28l11 33q34 -9 51.5 -30t21.5 -62q57 92 165 92q74 0 117 -42.5t43 -113.5q0 -80 -57 -123.5t-155 -43.5h-107v-55q0 -65 29 -95t96 -30q63 0 142 31zM155 395v-149h100
q82 0 126 32.5t44 97.5q0 56 -31 87t-86 31q-101 0 -153 -99z" />
    <glyph glyph-name="uni0251" unicode="&#x251;" horiz-adv-x="580" 
d="M476.5 58.5q10.5 -17.5 37.5 -28.5l-15 -37q-37 12 -54.5 32.5t-22.5 56.5q-24 -42 -63 -67.5t-92 -25.5q-93 0 -146.5 72.5t-53.5 197.5q0 80 25.5 142t72 96.5t109.5 34.5q93 0 148 -75l4 65h40v-406q0 -40 10.5 -57.5zM356.5 55q35.5 26 63.5 78v277q-56 83 -141 83
q-48 0 -85 -27t-58 -79.5t-21 -124.5q0 -112 41 -172.5t115 -60.5q50 0 85.5 26z" />
    <glyph glyph-name="uni0252" unicode="&#x252;" horiz-adv-x="580" 
d="M459.5 460.5q53.5 -72.5 53.5 -197.5q0 -80 -25.5 -142t-72 -96.5t-109.5 -34.5q-93 0 -148 75l-4 -65h-40v406q0 40 -10.5 57.5t-37.5 28.5l15 37q37 -12 54.5 -32.5t22.5 -56.5q24 42 63 67.5t92 25.5q93 0 146.5 -72.5zM386 56q37 27 58 79.5t21 124.5
q0 112 -41 172.5t-115 60.5q-50 0 -85.5 -26t-63.5 -78v-277q56 -83 141 -83q48 0 85 27z" />
    <glyph glyph-name="uni0253" unicode="&#x253;" horiz-adv-x="576" 
d="M455.5 462.5q49.5 -69.5 49.5 -198.5q0 -128 -51.5 -201.5t-144.5 -73.5q-49 0 -88 22t-66 58l-5 -69h-40v612q0 60 37 94.5t101 34.5q62 0 120 -28l-16 -35q-52 23 -101 23q-95 0 -95 -91v-163q65 85 160 85q90 0 139.5 -69.5zM416 89q40 60 40 175t-37.5 172t-109.5 57
q-49 0 -84.5 -23.5t-68.5 -68.5v-286q27 -40 64 -63t82 -23q74 0 114 60z" />
    <glyph glyph-name="uni0254" unicode="&#x254;" horiz-adv-x="465" 
d="M34 47l24 30q27 -23 58 -35t70 -13q76 0 120 60.5t44 173.5q0 112 -41.5 170.5t-116.5 58.5q-39 0 -68.5 -10.5t-62.5 -33.5l-23 30q34 27 71 40.5t84 13.5q95 0 150 -70.5t55 -198.5q0 -84 -26 -146t-74 -95t-112 -33q-85 0 -152 58z" />
    <glyph glyph-name="uni0255" unicode="&#x255;" horiz-adv-x="477" 
d="M420 184.5q28 -27.5 28 -71.5q0 -57 -43 -90.5t-116 -33.5q-50 0 -95 20l-34 -71l-35 15l36 75q-45 34 -69.5 92t-24.5 138q0 83 27 145t76 95.5t115 33.5q43 0 77 -12t66 -39l-24 -32q-26 22 -53.5 32.5t-63.5 10.5q-78 0 -124.5 -60t-46.5 -174q0 -131 64 -189
q36 78 73 110.5t89 32.5q50 0 78 -27.5zM373 50q32 20 32 63q0 29 -16 45t-48 16q-40 0 -67.5 -26.5t-62.5 -99.5q36 -18 81 -18q49 0 81 20z" />
    <glyph glyph-name="uni0256" unicode="&#x256;" horiz-adv-x="581" 
d="M638 -170q-43 -33 -97 -33q-53 0 -84.5 32.5t-31.5 94.5v157q-24 -41 -63.5 -66.5t-95.5 -25.5q-89 0 -141.5 72.5t-52.5 197.5q0 81 24.5 142.5t70.5 96t109 34.5q92 0 149 -73v282l46 -6v-812q0 -46 19.5 -66t51.5 -20q24 0 41.5 6t34.5 17zM360.5 55q35.5 26 64.5 78
v277q-56 83 -143 83q-73 0 -117.5 -61t-44.5 -170q0 -111 40.5 -172t111.5 -61q53 0 88.5 26z" />
    <glyph glyph-name="uni0257" unicode="&#x257;" horiz-adv-x="581" 
d="M638 708l-20 -30q-19 12 -36 18t-41 6q-32 0 -51 -20.5t-19 -66.5v-615h-40l-5 82q-24 -42 -63.5 -67.5t-96.5 -25.5q-89 0 -141.5 72.5t-52.5 197.5q0 81 24.5 142.5t70.5 96t109 34.5q92 0 149 -73v155q0 62 31 94.5t84 32.5q55 0 98 -33zM360.5 55q35.5 26 64.5 78
v277q-56 83 -143 83q-73 0 -117.5 -61t-44.5 -170q0 -111 40.5 -172t111.5 -61q53 0 88.5 26z" />
    <glyph glyph-name="uni0258" unicode="&#x258;" horiz-adv-x="533" 
d="M414 461q52 -71 52 -204q0 -125 -58.5 -196.5t-158.5 -71.5q-49 0 -89 16t-78 48l23 30q36 -28 68.5 -40.5t76.5 -12.5q74 0 118.5 52t49.5 159h-354q-2 20 -2 41q0 115 52 182.5t149 67.5q99 0 151 -71zM107 278h311q-4 114 -43.5 164.5t-111.5 50.5q-76 0 -116 -53.5
t-40 -142.5v-19z" />
    <glyph glyph-name="uni0259" unicode="&#x259;" horiz-adv-x="538" 
d="M419 463.5q53 -68.5 53 -199.5q0 -134 -56 -204.5t-152 -70.5q-94 0 -148 68.5t-54 187.5q0 26 2 36h360q-4 107 -45 159t-113 52q-42 0 -76 -12t-71 -38l-22 32q75 58 170 58q99 0 152 -68.5zM424 243h-316v-5q0 -100 41 -154.5t115 -54.5q154 0 160 214z" />
    <glyph glyph-name="uni025A" unicode="&#x25a;" horiz-adv-x="706" 
d="M734 359q-45 -33 -99 -33q-53 0 -83 31t-30 90v34l-87 -42q37 -68 37 -175q0 -134 -56 -204.5t-152 -70.5q-94 0 -148 68.5t-54 187.5q0 26 2 36h360q-4 107 -45 159t-113 52q-42 0 -76 -12t-71 -38l-22 32q75 58 170 58t147 -63l108 53h44v-71q0 -45 19 -65.5t52 -20.5
q23 0 40 6t36 18zM424 243h-316v-5q0 -100 41 -154.5t115 -54.5q154 0 160 214z" />
    <glyph glyph-name="uni025B" unicode="&#x25b;" horiz-adv-x="457" 
d="M416 486l-24 -30q-29 18 -59.5 27.5t-70.5 9.5q-60 0 -93.5 -26.5t-33.5 -73.5q0 -44 35.5 -72.5t94.5 -28.5h59l-6 -38h-57q-73 0 -109.5 -28t-36.5 -85q0 -53 38.5 -82.5t103.5 -29.5q49 0 82 13t68 41l24 -31q-36 -30 -78.5 -46.5t-97.5 -16.5q-84 0 -136 40t-52 111
q0 62 35.5 95.5t95.5 40.5q-110 24 -110 119q0 63 47.5 100t123.5 37q90 0 157 -46z" />
    <glyph glyph-name="uni025C" unicode="&#x25c;" horiz-adv-x="476" 
d="M337 495.5q46 -36.5 46 -99.5q0 -96 -110 -118q66 -6 101.5 -36.5t35.5 -91.5q0 -78 -53 -119.5t-139 -41.5q-112 0 -192 69l26 29q35 -29 73 -43.5t91 -14.5q67 0 106 29t39 92q0 57 -41 81t-118 24h-59l3 38h49q67 0 104 26.5t37 75.5q0 46 -32 72t-88 26
q-46 0 -78.5 -10.5t-71.5 -34.5l-23 30q40 27 81.5 40.5t94.5 13.5q72 0 118 -36.5z" />
    <glyph glyph-name="uni025D" unicode="&#x25d;" horiz-adv-x="645" 
d="M673 359q-45 -33 -99 -33q-53 0 -83 31t-30 90v34l-85 -41q7 -20 7 -44q0 -96 -110 -118q66 -6 101.5 -36.5t35.5 -91.5q0 -78 -53 -119.5t-139 -41.5q-112 0 -192 69l26 29q35 -29 73 -43.5t91 -14.5q67 0 106 29t39 92q0 57 -41 81t-118 24h-59l3 38h49q67 0 104 26.5
t37 75.5q0 46 -32 72t-88 26q-46 0 -78.5 -10.5t-71.5 -34.5l-23 30q40 27 81.5 40.5t94.5 13.5q46 0 82.5 -15.5t57.5 -44.5l102 50h44v-71q0 -45 19 -65.5t52 -20.5q23 0 40 6t36 18z" />
    <glyph glyph-name="uni025E" unicode="&#x25e;" horiz-adv-x="553" 
d="M125 61q-58 72 -58 199q0 128 59.5 200t164.5 72q75 0 122 -38t47 -101q0 -93 -110 -115q66 -6 101.5 -36.5t35.5 -91.5q0 -77 -53 -119t-143 -42q-108 0 -166 72zM399.5 58.5q39.5 29.5 39.5 91.5q0 56 -40.5 80.5t-116.5 24.5h-37l4 38h25q66 0 102.5 26.5t36.5 73.5
q0 45 -32 72.5t-90 27.5q-84 0 -130 -59.5t-46 -173.5q0 -113 44.5 -172t131.5 -59q69 0 108.5 29.5z" />
    <glyph glyph-name="uni025F" unicode="&#x25f;" horiz-adv-x="295" 
d="M276 226h-103v-212q0 -66 -14 -105t-41 -62.5t-76 -46.5l-13 33q38 19 58 38.5t30 52t10 89.5v213h-108v39h108v257h46v-257h103v-39z" />
    <glyph glyph-name="uni0260" unicode="&#x260;" horiz-adv-x="581" 
d="M638 708l-20 -30q-19 12 -36 18t-41 6q-32 0 -51 -20.5t-19 -66.5v-619q0 -97 -45.5 -148t-146.5 -51q-83 0 -145 37l17 32q27 -13 56.5 -21t69.5 -8q82 0 115 37.5t33 119.5v107q-24 -41 -63.5 -66.5t-95.5 -25.5q-59 0 -103 32t-67.5 91t-23.5 137q0 76 24.5 135.5
t70.5 93.5t109 34q92 0 149 -73v155q0 62 31 94.5t84 32.5q55 0 98 -33zM360.5 75q35.5 26 64.5 78v257q-56 83 -143 83q-48 0 -84.5 -26.5t-57 -76.5t-20.5 -118q0 -105 40.5 -164t111.5 -59q53 0 88.5 26z" />
    <glyph glyph-name="uni0261" unicode="&#x261;" horiz-adv-x="581" 
d="M471 522v-526q0 -97 -45.5 -148t-146.5 -51q-83 0 -145 37l17 32q27 -13 56.5 -21t69.5 -8q82 0 115 37.5t33 119.5v107q-24 -41 -63.5 -66.5t-95.5 -25.5q-59 0 -103 32t-67.5 91t-23.5 137q0 76 24.5 135.5t70.5 93.5t109 34q93 0 151 -76l4 66h40zM360.5 75
q35.5 26 64.5 78v257q-56 83 -143 83q-48 0 -84.5 -26.5t-57 -76.5t-20.5 -118q0 -105 40.5 -164t111.5 -59q53 0 88.5 26z" />
    <glyph glyph-name="uni0262" unicode="&#x262;" horiz-adv-x="553" 
d="M382.5 520.5q37.5 -13.5 73.5 -41.5l-27 -30q-31 23 -62.5 33.5t-68.5 10.5q-49 0 -90.5 -24t-67 -75.5t-25.5 -128.5q0 -120 48 -177t135 -57q69 0 122 28v184h-116l-5 39h167v-246q-78 -45 -168 -45q-108 0 -169.5 69t-61.5 205q0 84 32 145t84.5 92.5t113.5 31.5
q48 0 85.5 -13.5z" />
    <glyph glyph-name="uni0263" unicode="&#x263;" horiz-adv-x="459" 
d="M256 50q30 -57 44.5 -95.5t14.5 -73.5q0 -38 -22.5 -61t-62.5 -23q-39 0 -61.5 23t-22.5 61q0 32 14.5 70.5t44.5 97.5l-188 473h50l163 -438l162 438h50zM261.5 -61q-9.5 28 -31.5 77q-23 -53 -32 -79t-9 -54q0 -23 10.5 -35.5t30.5 -12.5t30.5 12.5t10.5 35.5
q0 28 -9.5 56z" />
    <glyph glyph-name="uni0264" unicode="&#x264;" horiz-adv-x="516" 
d="M513 507l-18 -29q-13 9 -23.5 12.5t-24.5 3.5q-17 0 -29 -10.5t-25 -37.5l-108 -231q32 -51 46 -83t14 -60q0 -36 -22.5 -59.5t-62.5 -23.5q-39 0 -61.5 23t-22.5 60q0 28 14 61t43 82l-110 231q-12 27 -24.5 37.5t-29.5 10.5q-13 0 -23.5 -3.5t-24.5 -12.5l-17 29
q30 25 67 25q33 0 55 -19.5t42 -62.5l91 -204l90 204q19 44 40.5 63t55.5 19q36 0 68 -25zM293.5 114.5q-8.5 19.5 -34.5 67.5q-23 -42 -31.5 -64t-8.5 -44q0 -47 41 -47q42 0 42 47q0 21 -8.5 40.5z" />
    <glyph glyph-name="uni0265" unicode="&#x265;" horiz-adv-x="583" 
d="M473 522v-725l-46 8v287q-74 -103 -179 -103q-70 0 -106.5 42.5t-36.5 118.5v372h46v-366q0 -128 104 -128q53 0 94 29.5t78 83.5v381h46z" />
    <glyph glyph-name="uni0266" unicode="&#x266;" horiz-adv-x="583" 
d="M441.5 490q36.5 -42 36.5 -118v-372h-46v366q0 128 -104 128q-53 0 -94 -29.5t-78 -83.5v-381h-46v612q0 60 37 94.5t101 34.5q62 0 120 -28l-16 -35q-52 23 -101 23q-95 0 -95 -91v-180q74 102 179 102q70 0 106.5 -42z" />
    <glyph glyph-name="uni0267" unicode="&#x267;" horiz-adv-x="583" 
d="M441.5 490q36.5 -42 36.5 -118v-448q0 -62 -31.5 -94.5t-84.5 -32.5q-54 0 -97 33l20 30q17 -11 34.5 -17t41.5 -6q32 0 51.5 20t19.5 66v443q0 128 -104 128q-53 0 -94 -29.5t-78 -83.5v-381h-46v612q0 60 37 94.5t101 34.5q62 0 120 -28l-16 -35q-52 23 -101 23
q-95 0 -95 -91v-180q74 102 179 102q70 0 106.5 -42z" />
    <glyph glyph-name="uni0268" unicode="&#x268;" horiz-adv-x="295" 
d="M121 684q-10 10 -10 25t10 25t26 10t26 -10t10 -25t-10 -25t-26 -10t-26 10zM277 302v-39h-107v-263h-46v263h-105v39h105v220h46v-220h107z" />
    <glyph glyph-name="uni0269" unicode="&#x269;" horiz-adv-x="281" 
d="M128 12.5q-23 23.5 -23 69.5v440h46v-438q0 -54 45 -54q18 0 37 7l13 -35q-28 -13 -55 -13q-40 0 -63 23.5z" />
    <glyph glyph-name="uni026A" unicode="&#x26a;" horiz-adv-x="315" 
d="M286 483h-106v-444h106v-39h-257v39h105v444h-105v39h257v-39z" />
    <glyph glyph-name="uni026B" unicode="&#x26b;" horiz-adv-x="314" 
d="M177 328v-244q0 -54 45 -54q18 0 37 7l13 -35q-28 -13 -55 -13q-40 0 -63 23.5t-23 69.5v271q-30 16 -50 16q-23 0 -37.5 -11t-31.5 -33l-30 16q21 33 44 51t58 18q22 0 47 -10v335l46 6v-365q19 -11 32.5 -16.5t27.5 -5.5q22 0 36 10t31 32l29 -16q-20 -32 -42 -49.5
t-56 -17.5q-24 0 -58 15z" />
    <glyph glyph-name="uni026C" unicode="&#x26c;" horiz-adv-x="316" 
d="M284 2q-28 -13 -55 -13q-40 0 -63 23.5t-23 69.5v188q-62 1 -94.5 24.5t-32.5 69.5q0 40 28 64.5t70 24.5q10 0 18 -1.5t11 -1.5v285l46 6v-435q34 1 84 10l5 -33q-48 -10 -89 -11v-188q0 -54 45 -54q18 0 37 7zM143 306v109q-16 2 -27 2q-27 0 -43 -13t-16 -39
q0 -59 86 -59z" />
    <glyph glyph-name="uni026D" unicode="&#x26d;" horiz-adv-x="266" 
d="M323 -170q-43 -33 -97 -33q-53 0 -84.5 32.5t-31.5 94.5v811l46 6v-818q0 -46 19.5 -66t51.5 -20q24 0 41.5 6t34.5 17z" />
    <glyph glyph-name="uni026E" unicode="&#x26e;" horiz-adv-x="617" 
d="M584 2q0 -60 -26 -106.5t-74.5 -72.5t-114.5 -26q-56 0 -99.5 18t-81.5 55l27 27q34 -31 70.5 -45t82.5 -14q81 0 124.5 44t43.5 120q0 84 -45.5 121t-144.5 37h-58v38l216 283h-353v-397q0 -54 45 -54q18 0 37 7l13 -35q-28 -13 -55 -13q-40 0 -63 23.5t-23 69.5v653
l46 6v-219h408v-37l-221 -287h11q235 0 235 -196z" />
    <glyph glyph-name="uni026F" unicode="&#x26f;" horiz-adv-x="851" 
d="M741 522v-522h-40l-4 92q-31 -48 -73 -75t-91 -27q-50 0 -83.5 28t-44.5 79q-32 -50 -74.5 -78.5t-92.5 -28.5q-63 0 -98 42.5t-35 117.5v372h46v-366q0 -65 24.5 -96.5t69.5 -31.5q46 0 84 29.5t71 83.5v381h46v-366q0 -65 24.5 -96.5t69.5 -31.5q46 0 84 29.5t71 83.5
v381h46z" />
    <glyph glyph-name="uni0270" unicode="&#x270;" horiz-adv-x="851" 
d="M741 522v-725l-46 8v284q-31 -46 -72.5 -72.5t-89.5 -26.5q-50 0 -83.5 28t-44.5 79q-32 -50 -74.5 -78.5t-92.5 -28.5q-63 0 -98 42.5t-35 117.5v372h46v-366q0 -65 24.5 -96.5t69.5 -31.5q46 0 84 29.5t71 83.5v381h46v-366q0 -65 24.5 -96.5t69.5 -31.5q46 0 84 29.5
t71 83.5v381h46z" />
    <glyph glyph-name="uni0271" unicode="&#x271;" horiz-adv-x="851" 
d="M711 489.5q35 -42.5 35 -117.5v-448q0 -62 -31.5 -94.5t-84.5 -32.5q-54 0 -97 33l20 30q17 -11 34.5 -17t41.5 -6q71 0 71 86v443q0 65 -24.5 96.5t-69.5 31.5q-46 0 -84 -29.5t-71 -83.5v-381h-46v366q0 65 -24.5 96.5t-69.5 31.5q-46 0 -84 -29.5t-71 -83.5v-381h-46
v522h40l4 -92q31 48 73 75t91 27q50 0 83.5 -28t44.5 -79q32 50 74.5 78.5t92.5 28.5q63 0 98 -42.5z" />
    <glyph glyph-name="uni0272" unicode="&#x272;" horiz-adv-x="583" 
d="M442 490.5q36 -41.5 36 -118.5v-372h-46v366q0 66 -26 97t-78 31q-53 0 -94 -29t-78 -84v-457q0 -62 -31.5 -94.5t-84.5 -32.5q-54 0 -97 33l20 30q17 -11 34.5 -17t41.5 -6q32 0 51.5 20t19.5 66v599h40l4 -93q74 103 181 103q71 0 107 -41.5z" />
    <glyph glyph-name="uni0273" unicode="&#x273;" horiz-adv-x="583" 
d="M645 -170q-43 -33 -97 -33q-53 0 -84.5 32.5t-31.5 94.5v442q0 66 -26 97t-78 31q-53 0 -94 -29t-78 -84v-381h-46v522h40l4 -93q74 103 181 103q71 0 107 -41.5t36 -118.5v-449q0 -46 19.5 -66t51.5 -20q24 0 41.5 6t34.5 17z" />
    <glyph glyph-name="uni0274" unicode="&#x274;" horiz-adv-x="588" 
d="M478 0h-60l-270 477q5 -75 5 -202v-275h-43v522h59l270 -477q-5 85 -5 169v308h44v-522z" />
    <glyph glyph-name="uni0275" unicode="&#x275;" horiz-adv-x="567" 
d="M443 461.5q57 -70.5 57 -198.5t-58 -201t-159 -73t-158.5 72.5t-57.5 198.5q0 127 58.5 199.5t158.5 72.5q102 0 159 -70.5zM164.5 439.5q-44.5 -53.5 -48.5 -155.5h336q-4 102 -48 155.5t-120 53.5q-75 0 -119.5 -53.5zM404 84.5q44 55.5 48 161.5h-337q3 -105 47 -161
t121 -56t121 55.5z" />
    <glyph glyph-name="uni0276" unicode="&#x276;" horiz-adv-x="720" 
d="M678 0h-329q-33 -11 -66 -11q-101 0 -158.5 72.5t-57.5 198.5q0 127 58.5 199.5t158.5 72.5q37 0 68 -10h321l-5 -39h-256q37 -25 60.5 -75t27.5 -116h135v-38h-134q-1 -78 -26 -132t-67 -83h270v-39zM159 89q44 -60 124 -60q79 0 124.5 61t45.5 175q0 110 -46 168.5
t-123 58.5q-79 0 -124 -59.5t-45 -172.5q0 -111 44 -171z" />
    <glyph glyph-name="uni0277" unicode="&#x277;" horiz-adv-x="746" 
d="M603.5 453q75.5 -79 75.5 -217q0 -132 -49 -189.5t-123 -57.5q-56 0 -91.5 30t-42.5 92q-22 -122 -137 -122q-78 0 -123.5 61t-45.5 188q0 137 76.5 215.5t230.5 78.5t229.5 -79zM632 235q0 124 -63 191t-195 67t-196 -66.5t-64 -190.5q0 -110 34.5 -158.5t90.5 -48.5
q50 0 80.5 35t30.5 115v130l45 7v-138q0 -80 29.5 -114.5t77.5 -34.5q130 0 130 206z" />
    <glyph glyph-name="uni0278" unicode="&#x278;" horiz-adv-x="622" 
d="M508 77q-61 -67 -174 -71v-201l-46 -8v209q-113 4 -174 71.5t-61 184.5q0 114 61.5 182t173.5 72v219l46 6v-225q113 -4 174 -71t61 -182q0 -119 -61 -186zM150.5 104.5q48.5 -55.5 139.5 -59.5v433q-91 -5 -139.5 -60.5t-48.5 -155.5q0 -102 48.5 -157.5zM472 104
q48 55 48 159q0 100 -48 154.5t-139 59.5v-433q91 5 139 60z" />
    <glyph glyph-name="uni0279" unicode="&#x279;" horiz-adv-x="369" 
d="M259 522v-522h-40l-3 121q-21 -67 -57.5 -99t-92.5 -32q-34 0 -52 6l9 43q20 -6 46 -6q55 0 88.5 39.5t55.5 123.5v326h46z" />
    <glyph glyph-name="uni027A" unicode="&#x27a;" horiz-adv-x="369" 
d="M259 735v-735h-40l-3 121q-21 -67 -57.5 -99t-92.5 -32q-34 0 -52 6l9 43q20 -6 46 -6q55 0 88.5 39.5t55.5 123.5v545z" />
    <glyph glyph-name="uni027B" unicode="&#x27b;" horiz-adv-x="369" 
d="M426 -170q-43 -33 -97 -33q-53 0 -84.5 32.5t-31.5 94.5v187q-22 -62 -58 -92t-89 -30q-28 0 -52 6l9 44q20 -6 46 -6q54 0 88 39.5t56 123.5v326h46v-599q0 -46 19.5 -66t51.5 -20q24 0 41.5 6t34.5 17z" />
    <glyph glyph-name="uni027C" unicode="&#x27c;" horiz-adv-x="369" 
d="M355 526l-9 -43q-20 6 -46 6q-55 0 -88.5 -39.5t-55.5 -123.5v-521l-46 -8v725h40l3 -121q21 67 57.5 99t92.5 32q34 0 52 -6z" />
    <glyph glyph-name="uni027D" unicode="&#x27d;" horiz-adv-x="369" 
d="M175.5 -143q19.5 -20 51.5 -20q24 0 41.5 6t34.5 17l20 -30q-43 -33 -97 -33q-53 0 -84.5 32.5t-31.5 94.5v598h40l3 -121q21 67 57.5 99t92.5 32q34 0 52 -6l-9 -43q-20 6 -46 6q-55 0 -88.5 -39.5t-55.5 -123.5v-403q0 -46 19.5 -66z" />
    <glyph glyph-name="uni027E" unicode="&#x27e;" horiz-adv-x="335" 
d="M318 500l-20 -30q-17 11 -34.5 17t-41.5 6q-32 0 -51.5 -20t-19.5 -66v-407h-46v406q0 62 31.5 94.5t84.5 32.5q54 0 97 -33z" />
    <glyph glyph-name="uni027F" unicode="&#x27f;" horiz-adv-x="335" 
d="M198.5 500.5q31.5 -32.5 31.5 -94.5v-406h-46v407q0 46 -19.5 66t-51.5 20q-24 0 -41.5 -6t-34.5 -17l-20 30q43 33 97 33q53 0 84.5 -32.5z" />
    <glyph glyph-name="uni0280" unicode="&#x280;" horiz-adv-x="523" 
d="M412 0l-144 222q-7 -1 -24 -1h-88v-221h-46v522h127q103 0 154 -38.5t51 -112.5q0 -55 -33 -92.5t-95 -50.5l152 -228h-54zM245 259q72 0 110.5 28.5t38.5 83.5q0 57 -37.5 84.5t-121.5 27.5h-79v-224h89z" />
    <glyph glyph-name="uni0281" unicode="&#x281;" horiz-adv-x="523" 
d="M409.5 244q32.5 -37 32.5 -92q0 -74 -51 -113t-154 -39h-127v522h46v-221h88q17 0 25 -1l143 222h54l-151 -228q62 -13 94.5 -50zM356.5 67q37.5 28 37.5 85q0 54 -38 82t-111 28h-89v-223h79q84 0 121.5 28z" />
    <glyph glyph-name="uni0282" unicode="&#x282;" horiz-adv-x="463" 
d="M89 28v-105q0 -86 73 -86q23 0 40 6t34 17l21 -30q-43 -33 -97 -33t-85 32.5t-31 94.5v132l23 26q38 -27 74 -40t85 -13q60 0 97.5 28.5t37.5 78.5q0 35 -12 56t-42 35.5t-87 30.5q-84 22 -120 54.5t-36 86.5q0 38 22 68.5t60.5 47.5t86.5 17q47 0 85.5 -14t76.5 -43
l-23 -32q-35 26 -66.5 38t-71.5 12q-55 0 -89 -25.5t-34 -69.5q0 -40 29 -62t103 -42q90 -24 128 -57.5t38 -98.5q0 -68 -51.5 -108.5t-129.5 -40.5q-79 0 -139 39z" />
    <glyph glyph-name="uni0283" unicode="&#x283;" horiz-adv-x="266" 
d="M323 708l-20 -30q-19 12 -36 18t-41 6q-32 0 -51 -20.5t-19 -66.5v-691q0 -62 -31.5 -94.5t-84.5 -32.5q-54 0 -97 33l20 30q17 -11 34.5 -17t41.5 -6q32 0 51.5 20t19.5 66v691q0 62 31 94.5t84 32.5q55 0 98 -33z" />
    <glyph glyph-name="uni0284" unicode="&#x284;" horiz-adv-x="295" 
d="M279 37v-37h-106q-1 -61 -15.5 -97t-41 -58t-74.5 -45l-13 33q37 19 57 37t30 48t11 82h-105v37h105v577q0 62 31 94.5t84 32.5q55 0 98 -33l-20 -30q-19 12 -36 18t-41 6q-32 0 -51 -20.5t-19 -66.5v-578h106z" />
    <glyph glyph-name="uni0285" unicode="&#x285;" horiz-adv-x="388" 
d="M384 22q-43 -33 -97 -33q-53 0 -84.5 32.5t-31.5 94.5v290q0 46 -19 66.5t-51 20.5q-24 0 -41 -6t-36 -18l-20 30q43 33 98 33q53 0 84 -32.5t31 -94.5v-290q0 -46 19.5 -66t51.5 -20q24 0 41.5 6t34.5 17z" />
    <glyph glyph-name="uni0286" unicode="&#x286;" horiz-adv-x="280" 
d="M170 521l1 -541q67 -20 103 -38l-14 -29q-47 21 -90 32q-5 -73 -40 -110.5t-100 -37.5q-52 0 -82.5 26t-30.5 68q0 49 35.5 76.5t94.5 27.5q47 0 77 -6v533h1v92q0 62 31 94.5t84 32.5q55 0 98 -33l-20 -30q-19 12 -36 18t-41 6q-32 0 -51 -20.5t-19 -66.5v-94h-1z
M100 -138q23 29 24 93q-42 7 -76 7q-43 0 -66.5 -18t-23.5 -51q0 -29 18.5 -44.5t53.5 -15.5q47 0 70 29z" />
    <glyph glyph-name="uni0287" unicode="&#x287;" horiz-adv-x="334" 
d="M313 0h-87v-127l-46 -5v132h-138l6 39h132v357q0 96 -81 96q-42 0 -84 -24l-19 33q50 32 108 32q57 0 89.5 -34t32.5 -100v-360h87v-39z" />
    <glyph glyph-name="uni0288" unicode="&#x288;" horiz-adv-x="334" 
d="M321 -170q-43 -33 -97 -33q-53 0 -84.5 32.5t-31.5 94.5v559h-87v39h87v127l46 5v-132h138l-6 -39h-132v-560q0 -46 19.5 -66t51.5 -20q24 0 41.5 6t34.5 17z" />
    <glyph glyph-name="uni0289" unicode="&#x289;" horiz-adv-x="601" 
d="M565 347h-88v-347h-39l-3 97q-61 -108 -173 -108q-71 0 -109.5 41.5t-38.5 118.5v198h-88v36h88v139h46v-139h271v139h46v-139h88v-36zM431 347h-271v-194q0 -64 28 -94t83 -30q96 0 160 112v206z" />
    <glyph glyph-name="uni028A" unicode="&#x28a;" horiz-adv-x="566" 
d="M169 19.5q-49 30.5 -75.5 87t-26.5 131.5q0 145 101 244h-91v40h137v-39q-46 -49 -72.5 -106.5t-26.5 -137.5q0 -102 44.5 -156t123.5 -54t123.5 54t44.5 156q0 80 -27 138t-72 106v39h137v-40h-91q101 -95 101 -244q0 -75 -26.5 -131.5t-75.5 -87t-114 -30.5t-114 30.5z
" />
    <glyph glyph-name="uni028B" unicode="&#x28b;" horiz-adv-x="571" 
d="M151 33q-46 44 -46 125v364h46v-361q0 -67 32.5 -99.5t87.5 -32.5q70 0 115 53.5t45 173.5v181q0 29 -10.5 42.5t-34.5 13.5q-20 0 -38 -8l-13 35q26 12 56 12q40 0 63 -23.5t23 -72.5v-178q0 -135 -56.5 -202t-151.5 -67q-72 0 -118 44z" />
    <glyph glyph-name="uni028C" unicode="&#x28c;" horiz-adv-x="462" 
d="M17 0l181 522h58l189 -522h-51l-167 482l-160 -482h-50z" />
    <glyph glyph-name="uni028D" unicode="&#x28d;" horiz-adv-x="692" 
d="M28 0l130 522h62l125 -478l125 478h61l134 -522h-49l-117 484l-128 -484h-54l-128 485l-116 -485h-45z" />
    <glyph glyph-name="uni028E" unicode="&#x28e;" horiz-adv-x="459" 
d="M199 524q24 72 47.5 112.5t59 66t95.5 39.5l5 -36q-50 -14 -78.5 -34.5t-46.5 -53.5t-39 -96h17l183 -522h-50l-165 487l-160 -487h-50z" />
    <glyph glyph-name="uni028F" unicode="&#x28f;" horiz-adv-x="416" 
d="M408 522l-176 -314v-208h-46v207l-179 315h49l154 -277l149 277h49z" />
    <glyph glyph-name="uni0290" unicode="&#x290;" horiz-adv-x="417" 
d="M546 -170q-43 -33 -97 -33q-53 0 -84 32.5t-31 94.5v76h-305v36l299 445h-275v41h329v-37l-298 -444h295v-118q0 -86 71 -86q24 0 41.5 6t34.5 17z" />
    <glyph glyph-name="uni0291" unicode="&#x291;" horiz-adv-x="432" 
d="M407 26.5q-45 -26.5 -142 -26.5q-2 -44 -2 -64l1 -43h-38v31q0 51 1 76h-198v36l299 445h-275v41h329v-37l-298 -444h147q8 76 41 118t87 42q41 0 67 -24.5t26 -66.5q0 -57 -45 -83.5zM299 135q-23 -30 -29 -94q76 -1 108 15t32 54q0 26 -14 40.5t-40 14.5q-34 0 -57 -30
z" />
    <glyph glyph-name="uni0292" unicode="&#x292;" horiz-adv-x="454" 
d="M421 3q0 -60 -26 -107t-74.5 -73t-113.5 -26q-61 0 -107.5 21.5t-84.5 63.5l29 26q36 -37 74.5 -53.5t87.5 -16.5q81 0 123.5 44.5t42.5 121.5q0 83 -45.5 119.5t-143.5 36.5h-58v38l216 283h-306v41h361v-37l-221 -287h14q232 0 232 -195z" />
    <glyph glyph-name="uni0293" unicode="&#x293;" horiz-adv-x="454" 
d="M386 -110q-35 -50 -100 -74l26 -56l-36 -15l-27 61q-39 -9 -85 -9q-87 0 -131.5 31t-44.5 87q0 45 29.5 74.5t78.5 29.5q55 0 94 -36t79 -130q52 18 78 57.5t26 96.5q0 80 -46 116.5t-144 36.5h-58v38l216 283h-306v41h361v-37l-221 -287h15q116 0 173.5 -49t57.5 -142
q0 -67 -35 -117zM66 -144q35 -18 99 -18q33 0 66 5q-34 81 -63.5 110t-69.5 29q-31 0 -49 -17.5t-18 -48.5q0 -42 35 -60z" />
    <glyph glyph-name="uni0294" unicode="&#x294;" horiz-adv-x="431" 
d="M133 337l64 17q68 19 108 56.5t40 117.5q0 79 -41.5 125.5t-118.5 46.5q-48 0 -85.5 -16.5t-74.5 -49.5l-28 27q44 40 88.5 60t101.5 20q96 0 151.5 -59t55.5 -154q0 -97 -51 -143t-133 -68l-31 -8v-309h-46v337z" />
    <glyph glyph-name="uni0295" unicode="&#x295;" horiz-adv-x="431" 
d="M251 0v309l-30 8q-83 22 -134 68t-51 143q0 62 26 110.5t74.5 75.5t112.5 27q55 0 98 -20t86 -60l-27 -27q-38 33 -74 49.5t-81 16.5q-78 0 -122 -46.5t-44 -125.5q0 -80 40.5 -118t108.5 -56l64 -17v-337h-47z" />
    <glyph glyph-name="uni0296" unicode="&#x296;" horiz-adv-x="497" 
d="M212 741v-315l34 -7q185 -40 185 -212q0 -62 -25.5 -110t-72.5 -75.5t-111 -27.5q-57 0 -101 20t-87 60l27 28q37 -33 74.5 -50t85.5 -17q77 0 119 46.5t42 125.5q0 81 -40.5 120t-108.5 55l-67 16v337z" />
    <glyph glyph-name="uni0297" unicode="&#x297;" horiz-adv-x="486" 
d="M383 520q33 -12 65 -39l-24 -31q-51 42 -113 42q-80 0 -127.5 -86t-47.5 -246q0 -158 46.5 -242t124.5 -84q35 0 64.5 11.5t57.5 35.5l23 -33q-63 -55 -144 -55q-67 0 -117 43t-77 125.5t-27 197.5t27 199t77.5 129t118.5 45q40 0 73 -12z" />
    <glyph glyph-name="uni0298" unicode="&#x298;" horiz-adv-x="791" 
d="M565.5 652.5q73.5 -41.5 114.5 -121t41 -190.5q0 -109 -40 -188t-114 -121.5t-172 -42.5q-96 0 -169.5 41.5t-114.5 121t-41 188.5t41 189t114.5 122.5t169.5 42.5q97 0 170.5 -41.5zM248.5 618.5q-62.5 -35.5 -97.5 -106t-35 -172.5q0 -100 35 -170t98 -105.5t146 -35.5
q131 0 205.5 80.5t74.5 231.5q0 152 -75.5 232.5t-204.5 80.5q-84 0 -146.5 -35.5zM421 366q10 -10 10 -25t-10 -25t-26 -10t-26 10t-10 25t10 25t26 10t26 -10z" />
    <glyph glyph-name="uni0299" unicode="&#x299;" horiz-adv-x="545" 
d="M444.5 246q33.5 -32 33.5 -91q0 -75 -56 -115t-153 -40h-159v516q84 16 154 16q89 0 137 -37t48 -100q0 -45 -26.5 -74.5t-72.5 -37.5q61 -5 94.5 -37zM156 485v-187h133q53 0 83 24.5t30 71.5t-33 73.5t-104 26.5q-48 0 -109 -9zM386.5 67.5q43.5 28.5 43.5 87.5
q0 54 -33.5 80t-102.5 26h-138v-222h113q74 0 117.5 28.5z" />
    <glyph glyph-name="uni029A" unicode="&#x29a;" horiz-adv-x="553" 
d="M119 31q-53 42 -53 119q0 61 35.5 91.5t101.5 36.5q-110 22 -110 115q0 63 47 101t122 38q105 0 164.5 -72t59.5 -200q0 -127 -58 -199t-166 -72q-90 0 -143 42zM393.5 88q44.5 59 44.5 172q0 114 -46 173.5t-130 59.5q-58 0 -90 -27.5t-32 -72.5q0 -47 36.5 -73.5
t102.5 -26.5h25l4 -38h-37q-76 0 -116.5 -24.5t-40.5 -80.5q0 -62 39.5 -91.5t108.5 -29.5q87 0 131.5 59z" />
    <glyph glyph-name="uni029B" unicode="&#x29b;" horiz-adv-x="553" 
d="M623 708l-20 -30q-19 12 -36 18t-40 6q-71 0 -71 -87v-136l-24 -26q-32 21 -64 30.5t-70 9.5q-49 0 -90.5 -24t-67 -75.5t-25.5 -128.5q0 -120 48 -177t135 -57q69 0 122 28v184h-116l-5 39h167v-246q-78 -45 -168 -45q-108 0 -169.5 69t-61.5 205q0 84 32 145t84.5 92.5
t113.5 31.5q62 0 113 -28v108q0 62 31 94.5t84 32.5q55 0 98 -33z" />
    <glyph glyph-name="uni029C" unicode="&#x29c;" horiz-adv-x="586" 
d="M430 0v251h-274v-251h-46v522h46v-231h274v231h46v-522h-46z" />
    <glyph glyph-name="uni029D" unicode="&#x29d;" horiz-adv-x="281" 
d="M260 -87q-47 21 -90 32q-4 -73 -39.5 -110.5t-98.5 -37.5q-53 0 -84 26.5t-31 67.5q0 49 35.5 76.5t94.5 27.5q48 0 78 -6v533h46v-542q67 -20 103 -38zM100 -137q23 29 25 92q-35 7 -77 7q-43 0 -66.5 -18t-23.5 -51q0 -28 19 -43.5t54 -15.5q46 0 69 29zM174 734
q10 -10 10 -25t-10 -25t-26 -10t-26 10t-10 25t10 25t26 10t26 -10z" />
    <glyph glyph-name="uni029E" unicode="&#x29e;" horiz-adv-x="480" 
d="M35 0l228 234l-252 288h56l251 -285l-229 -237h-54zM324 -195v717h46v-725z" />
    <glyph glyph-name="uni029F" unicode="&#x29f;" horiz-adv-x="409" 
d="M156 522v-481h242l-7 -41h-281v522h46z" />
    <glyph glyph-name="uni02A0" unicode="&#x2a0;" horiz-adv-x="581" 
d="M638 708l-20 -30q-19 12 -36 18t-41 6q-32 0 -51 -20.5t-19 -66.5v-818l-46 8v274q-25 -41 -64 -65.5t-94 -24.5q-90 0 -142.5 72.5t-52.5 197.5q0 81 24.5 142.5t71 96t109.5 34.5q91 0 148 -73v155q0 62 31 94.5t84 32.5q55 0 98 -33zM361.5 54.5q35.5 25.5 63.5 76.5
v280q-56 82 -142 82q-74 0 -118.5 -61t-44.5 -170q0 -112 40.5 -172.5t112.5 -60.5q53 0 88.5 25.5z" />
    <glyph glyph-name="uni02A1" unicode="&#x2a1;" horiz-adv-x="431" 
d="M179 309v-101h117v-39h-117v-169h-46v169h-68v39h68v129l64 17q68 19 108 56.5t40 117.5q0 79 -41.5 125.5t-118.5 46.5q-48 0 -85.5 -16.5t-74.5 -49.5l-28 27q44 40 88.5 60t101.5 20q96 0 151.5 -59t55.5 -154q0 -97 -51 -143t-133 -68z" />
    <glyph glyph-name="uni02A2" unicode="&#x2a2;" horiz-adv-x="431" 
d="M129 653.5q-44 -46.5 -44 -125.5q0 -80 40.5 -118t108.5 -56l64 -17v-129h72v-39h-72v-169h-47v169h-112v39h112v101l-30 8q-83 22 -134 68t-51 143q0 62 26 110.5t74.5 75.5t112.5 27q55 0 98 -20t86 -60l-27 -27q-38 33 -74 49.5t-81 16.5q-78 0 -122 -46.5z" />
    <glyph glyph-name="uni02A3" unicode="&#x2a3;" horiz-adv-x="866" 
d="M832 485l-308 -444h304l-5 -41h-392l-5 82q-24 -42 -63.5 -67.5t-96.5 -25.5q-89 0 -141.5 72.5t-52.5 197.5q0 81 24.5 142.5t70.5 96t109 34.5q92 0 149 -73v282l46 -6v-213h361v-37zM360.5 55q35.5 26 64.5 78v277q-56 83 -143 83q-73 0 -117.5 -61t-44.5 -170
q0 -111 40.5 -172t111.5 -61q53 0 88.5 26zM471 37l307 444h-307v-444z" />
    <glyph glyph-name="uni02A4" unicode="&#x2a4;" horiz-adv-x="889" 
d="M856 3q0 -60 -26 -107t-74.5 -73t-113.5 -26q-61 0 -107.5 21.5t-84.5 63.5l29 26q36 -37 74.5 -53.5t87.5 -16.5q81 0 123.5 44.5t42.5 121.5q0 83 -45.5 119.5t-143.5 36.5h-58v38l216 283h-305v-481h-40l-5 82q-24 -42 -63.5 -67.5t-96.5 -25.5q-89 0 -141.5 72.5
t-52.5 197.5q0 81 24.5 142.5t70.5 96t109 34.5q92 0 149 -73v282l46 -6v-213h360v-37l-221 -287h14q232 0 232 -195zM360.5 55q35.5 26 64.5 78v277q-56 83 -143 83q-73 0 -117.5 -61t-44.5 -170q0 -111 40.5 -172t111.5 -61q53 0 88.5 26z" />
    <glyph glyph-name="uni02A5" unicode="&#x2a5;" horiz-adv-x="874" 
d="M849 26.5q-45 -26.5 -142 -26.5q-2 -44 -2 -64l1 -43h-38q-1 47 2 107h-239l-5 82q-24 -42 -63.5 -67.5t-96.5 -25.5q-89 0 -141.5 72.5t-52.5 197.5q0 81 24.5 142.5t70.5 96t109 34.5q92 0 149 -73v282l46 -6v-213h361v-37l-306 -444h148q7 76 40 118t87 42
q41 0 67 -24.5t26 -66.5q0 -57 -45 -83.5zM360.5 55q35.5 26 64.5 78v277q-56 83 -143 83q-73 0 -117.5 -61t-44.5 -170q0 -111 40.5 -172t111.5 -61q53 0 88.5 26zM471 481v-445l306 445h-306zM741 135q-23 -30 -29 -94q76 -1 108 15t32 54q0 26 -14 40.5t-40 14.5
q-34 0 -57 -30z" />
    <glyph glyph-name="uni02A6" unicode="&#x2a6;" horiz-adv-x="657" 
d="M568 237q35 -34 35 -93q0 -75 -65.5 -115t-184.5 -40q-126 0 -185.5 47t-59.5 140v307h-87v39h87v127l46 5v-132h118l-6 -39h-112v-305q0 -75 45.5 -111.5t154.5 -36.5q201 0 201 112q0 31 -11 51.5t-38.5 35.5t-78.5 29q-80 22 -113.5 54.5t-33.5 87.5q0 58 46.5 95
t113.5 37q45 0 83.5 -14t76.5 -43l-24 -31q-35 26 -66 37.5t-69 11.5q-49 0 -81 -25.5t-32 -67.5q0 -41 26 -63.5t96 -42.5q83 -23 118 -57z" />
    <glyph glyph-name="uni02A7" unicode="&#x2a7;" horiz-adv-x="551" 
d="M608 708l-20 -30q-19 12 -36 18t-41 6q-32 0 -51 -20.5t-19 -66.5v-691q0 -62 -31.5 -94.5t-84.5 -32.5q-54 0 -97 33l20 30q17 -11 34.5 -17t41.5 -6q32 0 51.5 20t19.5 66v95q-35 -15 -66 -22t-69 -7q-74 0 -113 38t-39 114v342h-87v39h87v127l46 5v-132h241v92
q0 62 31 94.5t84 32.5q55 0 98 -33zM327.5 36q29.5 6 67.5 19v428h-241v-340q0 -58 26 -85.5t81 -27.5q37 0 66.5 6z" />
    <glyph glyph-name="uni02A8" unicode="&#x2a8;" horiz-adv-x="732" 
d="M675 184.5q29 -27.5 29 -71.5q0 -57 -43 -90.5t-116 -33.5q-92 0 -150 56q-40 -28 -76.5 -42t-78.5 -14q-64 0 -98 34t-34 100v360h-87v39h87v127l46 5v-132h138l-6 -39h-132v-357q0 -49 21.5 -72.5t69.5 -23.5q63 0 126 43q-49 71 -49 185q0 83 27 145t76 95.5t115 33.5
q43 0 77 -12t66 -39l-24 -32q-26 22 -53.5 32.5t-63.5 10.5q-77 0 -124 -60.5t-47 -173.5q0 -96 37 -155q59 60 100.5 84.5t87.5 24.5q50 0 79 -27.5zM628 50q32 20 32 63q0 29 -16.5 45t-48.5 16q-37 0 -71.5 -21t-93.5 -78q43 -45 117 -45q49 0 81 20z" />
    <glyph glyph-name="uni02A9" unicode="&#x2a9;" horiz-adv-x="865" 
d="M724 490.5q36 -41.5 36 -118.5v-448q0 -62 -31.5 -94.5t-84.5 -32.5q-54 0 -97 33l20 30q17 -11 34.5 -17t41.5 -6q32 0 51.5 20t19.5 66v443q0 66 -26 97t-78 31q-53 0 -94 -29t-78 -84v-381h-46v483h-232v-483h-46v483h-89v39h89v90q0 60 37.5 94.5t101.5 34.5
q62 0 120 -28l-17 -35q-52 23 -101 23q-95 0 -95 -91v-88h272l4 -93q74 103 181 103q71 0 107 -41.5z" />
    <glyph glyph-name="uni02AA" unicode="&#x2aa;" horiz-adv-x="639" 
d="M166.5 37.5q-61.5 48.5 -61.5 135.5v562l46 6v-568q0 -69 47.5 -106t140.5 -37q198 0 198 112q0 31 -11 51.5t-38.5 35.5t-78.5 29q-81 22 -114 54.5t-33 87.5q0 58 46.5 95t113.5 37q45 0 83.5 -14t75.5 -43l-23 -31q-35 26 -66 37.5t-69 11.5q-49 0 -81 -25.5
t-32 -67.5q0 -41 26 -63.5t95 -42.5q83 -23 118.5 -57t35.5 -93q0 -75 -64.5 -115t-181.5 -40q-111 0 -172.5 48.5z" />
    <glyph glyph-name="uni02AB" unicode="&#x2ab;" horiz-adv-x="621" 
d="M587 485l-302 -444h298l-5 -41h-336q-27 -11 -51 -11q-40 0 -63 23.5t-23 69.5v653l46 6v-657q0 -54 45 -54q18 0 37 7l299 444h-274v41h329v-37z" />
    <glyph glyph-name="uni02AC" unicode="&#x2ac;" horiz-adv-x="460" 
d="M415 662l-70 -262h-51l-63 224l-63 -224h-51l-72 262h42l58 -229l65 229h44l65 -229l57 229h39zM415 262l-70 -262h-51l-63 224l-63 -224h-51l-72 262h42l58 -229l65 229h44l65 -229l57 229h39z" />
    <glyph glyph-name="uni02AD" unicode="&#x2ad;" horiz-adv-x="319" 
d="M30 401v126h259v-126h-38v90h-182v-90h-39zM30 1v126h259v-126h-38v90h-182v-90h-39z" />
    <glyph glyph-name="uni02AE" unicode="&#x2ae;" horiz-adv-x="662" 
d="M552 522v-725l-46 8v287q-74 -103 -179 -103q-70 0 -106.5 42.5t-36.5 118.5v255q0 46 -19.5 66t-51.5 20q-24 0 -41.5 -6t-34.5 -17l-20 30q43 33 97 33q53 0 84.5 -32.5t31.5 -94.5v-248q0 -128 104 -128q53 0 94 29.5t78 83.5v381h46z" />
    <glyph glyph-name="uni02AF" unicode="&#x2af;" horiz-adv-x="662" 
d="M719 -170q-43 -33 -97 -33q-53 0 -84.5 32.5t-31.5 94.5v168q-74 -103 -179 -103q-70 0 -106.5 42.5t-36.5 118.5v255q0 46 -19.5 66t-51.5 20q-24 0 -41.5 -6t-34.5 -17l-20 30q43 33 97 33q53 0 84.5 -32.5t31.5 -94.5v-248q0 -128 104 -128q53 0 94 29.5t78 83.5v381
h46v-599q0 -46 19.5 -66t51.5 -20q24 0 41.5 6t34.5 17z" />
    <glyph glyph-name="uni02B0" unicode="&#x2b0;" horiz-adv-x="308" 
d="M242 647.5q21 -21.5 21 -58.5v-189h-40v180q0 29 -12.5 42t-38.5 13t-46.5 -12.5t-40.5 -36.5v-186h-40v369l40 5v-154q41 49 97 49q39 0 60 -21.5z" />
    <glyph glyph-name="uni02B1" unicode="&#x2b1;" horiz-adv-x="308" 
d="M242 647.5q21 -21.5 21 -58.5v-189h-40v180q0 29 -12.5 42t-38.5 13t-46.5 -12.5t-40.5 -36.5v-186h-40v301q0 33 23 52.5t63 19.5q38 0 71 -14l-13 -28q-27 10 -54 10q-25 0 -37.5 -10t-12.5 -32v-79q41 49 97 49q39 0 60 -21.5z" />
    <glyph glyph-name="uni02B2" unicode="&#x2b2;" horiz-adv-x="193" 
d="M141.5 774.5q7.5 -7.5 7.5 -18.5t-8 -18.5t-20 -7.5t-20 7.5t-8 18.5t7.5 18.5t20.5 7.5t20.5 -7.5zM141 413q0 -51 -19 -74.5t-65 -41.5l-12 28q32 15 44 32t12 55v250h40v-249z" />
    <glyph glyph-name="uni02B4" unicode="&#x2b4;" horiz-adv-x="240" 
d="M195 662v-262h-33l-5 58q-24 -64 -82 -64q-16 0 -30 4l7 36q12 -3 26 -3q29 0 46.5 19.5t29.5 59.5v152h41z" />
    <glyph glyph-name="uni02B7" unicode="&#x2b7;" horiz-adv-x="460" 
d="M415 662l-70 -262h-51l-63 224l-63 -224h-51l-72 262h42l58 -229l65 229h44l65 -229l57 229h39z" />
    <glyph glyph-name="uni02B8" unicode="&#x2b8;" horiz-adv-x="341" 
d="M196 399q-18 -47 -45 -70.5t-80 -32.5l-5 30q42 9 60 24t32 50h-14l-99 262h44l82 -234l83 234h42z" />
    <glyph glyph-name="uni02B9" unicode="&#x2b9;" horiz-adv-x="285" 
d="M75 436l86 248h49l-100 -248h-35z" />
    <glyph glyph-name="uni02BA" unicode="&#x2ba;" horiz-adv-x="420" 
d="M75 436l86 248h49l-100 -248h-35zM210 436l86 248h49l-100 -248h-35z" />
    <glyph glyph-name="uni02BB" unicode="&#x2bb;" horiz-adv-x="157" 
d="M40.5 599q-10.5 11 -10.5 27q0 15 12 41l53 118h32l-37 -128q8 -5 13 -13.5t5 -17.5q0 -16 -10.5 -27t-28.5 -11t-28.5 11z" />
    <glyph glyph-name="uni02BC" unicode="&#x2bc;" horiz-adv-x="215" 
d="M137.5 726q10.5 -11 10.5 -27q0 -15 -12 -41l-53 -118h-32l37 128q-8 5 -13 13.5t-5 17.5q0 16 10.5 27t28.5 11t28.5 -11z" />
    <glyph glyph-name="uni02BF" unicode="&#x2bf;" horiz-adv-x="153" 
d="M123 667q-27 0 -41.5 15.5t-14.5 43.5t14.5 43.5t41.5 15.5v30q-41 0 -67 -24.5t-26 -64.5t26 -65t67 -25v31z" />
    <glyph glyph-name="uni02C0" unicode="&#x2c0;" horiz-adv-x="224" 
d="M81 698q33 2 51 12.5t18 35.5q0 20 -12.5 31t-35.5 11q-30 0 -58 -14l-14 29q36 21 77 21q40 0 63.5 -20.5t23.5 -55.5q0 -65 -73 -74v-56h-40v80z" />
    <glyph glyph-name="circumflex" unicode="&#x2c6;" horiz-adv-x="342" 
d="M51 647l-21 25l127 103h27l128 -103l-21 -25l-120 84z" />
    <glyph glyph-name="caron" unicode="&#x2c7;" horiz-adv-x="342" 
d="M291 763l21 -24l-127 -104h-27l-128 104l21 24l121 -84z" />
    <glyph glyph-name="uni02C8" unicode="&#x2c8;" horiz-adv-x="106" 
d="M30 636v210h46v-210h-46z" />
    <glyph glyph-name="uni02CA" unicode="&#x2ca;" horiz-adv-x="265" 
d="M214 776l21 -44l-190 -84l-15 28z" />
    <glyph glyph-name="uni02CB" unicode="&#x2cb;" horiz-adv-x="265" 
d="M51 776l184 -100l-15 -28l-190 84z" />
    <glyph glyph-name="uni02CC" unicode="&#x2cc;" horiz-adv-x="106" 
d="M30 -287v210h46v-210h-46z" />
    <glyph glyph-name="uni02CE" unicode="&#x2ce;" horiz-adv-x="265" 
d="M52 -58l183 -92l-13 -29l-192 77z" />
    <glyph glyph-name="uni02CF" unicode="&#x2cf;" horiz-adv-x="265" 
d="M214 -58l21 -44l-192 -77l-13 29z" />
    <glyph glyph-name="uni02D0" unicode="&#x2d0;" horiz-adv-x="209" 
d="M95 363l-38 102h94l-38 -102h-18zM95 102h18l38 -102h-94z" />
    <glyph glyph-name="uni02D1" unicode="&#x2d1;" horiz-adv-x="209" 
d="M95 363l-38 102h94l-38 -102h-18z" />
    <glyph glyph-name="uni02D4" unicode="&#x2d4;" horiz-adv-x="419" 
d="M347 233v-36h-275v36h118v146h38v-146h119z" />
    </font>
</defs>
</svg>
