<?xml version="1.0" standalone="no"?>
<!DOCTYPE svg PUBLIC "-//W3C//DTD SVG 1.1//EN" "http://www.w3.org/Graphics/SVG/1.1/DTD/svg11.dtd" >
<svg xmlns="http://www.w3.org/2000/svg" xmlns:xlink="http://www.w3.org/1999/xlink" version="1.1">
<metadata>
Created by FontForge 20170731 at Fri Dec  2 11:32:35 2016
 By Aleksey,,,
Digitized data copyright 2012-2016, The Mozilla Foundation and Telefonica S.A.
</metadata>
<defs>
<font id="FiraSans-BoldItalic" horiz-adv-x="560" >
  <font-face 
    font-family="Fira Sans"
    font-weight="700"
    font-style="italic"
    font-stretch="normal"
    units-per-em="1000"
    panose-1="2 11 8 3 5 0 0 2 0 4"
    ascent="800"
    descent="-200"
    x-height="531"
    cap-height="693"
    bbox="-785 -355 1416 1190"
    underline-thickness="50"
    underline-position="-150"
    slope="-8"
    unicode-range="U+000D-FEFF"
  />
<missing-glyph horiz-adv-x="656" 
d="M645 1050l-197 -1400h-414l198 1400h413zM585 998h-306l-183 -1296h306zM416.5 425.5q23.5 -25.5 23.5 -66.5q0 -9 -2 -27q-7 -52 -32 -79.5t-75 -34.5l-8 -47q-1 -10 -9 -16t-16 -6q-11 0 -18.5 7.5t-5.5 18.5l10 82q52 3 74.5 21t27.5 60q2 14 2 21q0 44 -50 44
q-27 0 -53 -12q-6 -2 -12 -2q-11 0 -17.5 6.5t-6.5 16.5q0 19 29 29t64 10q51 0 74.5 -25.5zM311 110.5q9 -9.5 9 -23.5q0 -17 -10.5 -28t-26.5 -11q-14 0 -22.5 10t-8.5 25q0 16 10.5 26.5t25.5 10.5q14 0 23 -9.5z" />
    <glyph glyph-name="fi" unicode="fi" horiz-adv-x="586" 
d="M488 0h-155l59 421h-135l-51 -363q-11 -83 -44 -136.5t-82 -85.5t-121 -58l-39 114q61 23 91 57t39 103l52 369h-79l15 110h79l7 49q11 79 72 129t160 50q51 0 92.5 -11t82.5 -33l-54 -100q-55 27 -108 27q-43 0 -64.5 -17t-26.5 -55l-5 -39h289z" />
    <glyph glyph-name="fl" unicode="fl" horiz-adv-x="610" 
d="M562 113l19 -110q-45 -20 -100 -20q-59 0 -91.5 30.5t-32.5 89.5q0 17 3 36l70 499q-34 9 -68 9q-41 0 -60 -18.5t-24 -58.5l-5 -39h98l-32 -110h-82l-51 -363q-11 -83 -44 -136.5t-82 -85.5t-121 -58l-39 114q61 23 91 57t39 103l52 369h-79l15 110h79l7 49
q11 80 68.5 129.5t152.5 49.5q66 0 123 -19l133 14l-86 -609q-2 -20 3 -28.5t18 -8.5q11 0 26 5z" />
    <glyph glyph-name=".notdef" horiz-adv-x="656" 
d="M645 1050l-197 -1400h-414l198 1400h413zM585 998h-306l-183 -1296h306zM416.5 425.5q23.5 -25.5 23.5 -66.5q0 -9 -2 -27q-7 -52 -32 -79.5t-75 -34.5l-8 -47q-1 -10 -9 -16t-16 -6q-11 0 -18.5 7.5t-5.5 18.5l10 82q52 3 74.5 21t27.5 60q2 14 2 21q0 44 -50 44
q-27 0 -53 -12q-6 -2 -12 -2q-11 0 -17.5 6.5t-6.5 16.5q0 19 29 29t64 10q51 0 74.5 -25.5zM311 110.5q9 -9.5 9 -23.5q0 -17 -10.5 -28t-26.5 -11q-14 0 -22.5 10t-8.5 25q0 16 10.5 26.5t25.5 10.5q14 0 23 -9.5z" />
    <glyph glyph-name=".null" horiz-adv-x="0" 
 />
    <glyph glyph-name="nonmarkingreturn" unicode="&#xd;" horiz-adv-x="227" 
 />
    <glyph glyph-name="space" unicode=" " horiz-adv-x="227" 
 />
    <glyph glyph-name="exclam" unicode="!" horiz-adv-x="231" 
d="M50 255l42 438h165l-81 -438h-126zM26 6q-22 23 -22 59q0 40 29 69.5t70 29.5q34 0 56.5 -23t22.5 -58q0 -41 -28.5 -70.5t-70.5 -29.5q-35 0 -57 23z" />
    <glyph glyph-name="quotedbl" unicode="&#x22;" horiz-adv-x="430" 
d="M84 414l20 279h141l-58 -279h-103zM285 414l20 279h141l-58 -279h-103z" />
    <glyph glyph-name="numbersign" unicode="#" horiz-adv-x="547" 
d="M558 440h-70l-51 -192h57l-15 -105h-70l-39 -143h-129l39 143h-99l-39 -143h-128l38 143h-55l15 105h68l52 192h-56l14 105h70l35 131h130l-35 -131h98l35 131h129l-35 -131h55zM308 248l51 192h-98l-52 -192h99z" />
    <glyph glyph-name="dollar" unicode="$" horiz-adv-x="539" 
d="M465.5 335q42.5 -47 42.5 -118q0 -80 -54 -143t-163 -79l-22 -156h-113l22 153q-63 7 -112 32.5t-81 63.5l89 84q66 -66 156 -66q52 0 84 24.5t32 66.5q0 32 -21.5 52.5t-77.5 40.5q-90 33 -131.5 78.5t-41.5 109.5q0 80 54.5 136.5t152.5 68.5l21 147h112l-22 -149
q95 -18 161 -82l-81 -82q-66 54 -138 54q-46 0 -72 -18.5t-26 -53.5q0 -29 22 -47.5t84 -41.5q81 -28 123.5 -75z" />
    <glyph glyph-name="percent" unicode="%" horiz-adv-x="849" 
d="M669 720l-553 -698l87 -62l554 698zM106.5 372q-43.5 42 -43.5 111q0 49 22 96.5t67 79t110 31.5q68 0 111.5 -41.5t43.5 -110.5q0 -49 -21.5 -97t-66.5 -79.5t-111 -31.5q-68 0 -111.5 42zM287.5 459.5q18.5 34.5 18.5 76.5q0 59 -51 59q-45 0 -63 -35t-18 -75
q0 -60 52 -60q43 0 61.5 34.5zM496 24.5q-43 41.5 -43 110.5q0 49 22 96.5t67 79t110 31.5q68 0 111 -41.5t43 -109.5q0 -49 -21.5 -97t-66.5 -79.5t-111 -31.5q-68 0 -111 41.5zM676.5 111.5q18.5 34.5 18.5 76.5q0 60 -51 60q-45 0 -63 -35t-18 -75q0 -61 52 -61
q43 0 61.5 34.5z" />
    <glyph glyph-name="ampersand" unicode="&#x26;" horiz-adv-x="755" 
d="M467 690.5q46 -19.5 70 -54t24 -78.5q0 -57 -37.5 -101t-121.5 -96l116 -127q38 62 64 131l125 -42q-49 -96 -113 -173l97 -103l-130 -64l-67 76q-51 -39 -105 -57.5t-118 -18.5q-67 0 -116.5 23t-76 63t-26.5 91q0 68 35 117.5t121 99.5q-39 44 -55.5 78.5t-16.5 75.5
q0 44 23 85t73 67.5t127 26.5q62 0 108 -19.5zM302.5 589q-19.5 -20 -19.5 -55q0 -23 10 -43.5t32 -46.5q47 30 68 55.5t21 55.5q0 25 -16 39.5t-42 14.5q-34 0 -53.5 -20zM230.5 233q-14.5 -28 -14.5 -62q0 -36 22 -56t64 -20q61 0 120 41l-137 153q-40 -28 -54.5 -56z" />
    <glyph glyph-name="quotesingle" unicode="'" horiz-adv-x="229" 
d="M84 414l20 279h141l-58 -279h-103z" />
    <glyph glyph-name="parenleft" unicode="(" horiz-adv-x="315" 
d="M380 789q-106 -127 -156 -267t-50 -300q0 -93 19.5 -168t60.5 -150l-106 -61q-42 72 -68 126t-43 121.5t-17 148.5q0 127 30.5 230t87 193t148.5 198z" />
    <glyph glyph-name="parenright" unicode=")" horiz-adv-x="315" 
d="M259 729.5q26 -53.5 43 -121.5t17 -149q0 -126 -31 -229t-88.5 -193.5t-148.5 -196.5l-93 71q106 127 156.5 266.5t50.5 299.5q0 93 -20 168.5t-62 150.5l108 61q42 -74 68 -127.5z" />
    <glyph glyph-name="asterisk" unicode="*" horiz-adv-x="439" 
d="M471 536l-143 -25l85 -101l-118 -80l-49 126l-81 -127l-98 80l113 102l-137 24l57 124l120 -61l-4 144h141l-42 -143l131 63z" />
    <glyph glyph-name="plus" unicode="+" horiz-adv-x="520" 
d="M364 549l-22 -156h149l-17 -122h-149l-22 -156h-129l22 156h-148l17 122h148l21 156h130z" />
    <glyph glyph-name="comma" unicode="," horiz-adv-x="241" 
d="M160.5 141.5q22.5 -22.5 22.5 -56.5q0 -24 -9.5 -48t-36.5 -71l-83 -143h-88l68 178q-29 21 -29 61q0 42 28.5 72t70.5 30q34 0 56.5 -22.5z" />
    <glyph glyph-name="hyphen" unicode="-" horiz-adv-x="398" 
d="M40 252l17 122h314l-17 -122h-314z" />
    <glyph glyph-name="period" unicode="." horiz-adv-x="240" 
d="M26 6q-22 23 -22 59q0 40 29 69.5t70 29.5q34 0 56.5 -23t22.5 -58q0 -41 -28.5 -70.5t-70.5 -29.5q-35 0 -57 23z" />
    <glyph glyph-name="slash" unicode="/" horiz-adv-x="510" 
d="M379 817l133 -32l-357 -897l-132 33z" />
    <glyph glyph-name="zero" unicode="0" horiz-adv-x="576" 
d="M165.5 620q-68.5 -70 -97.5 -173t-29 -206q0 -125 54.5 -191.5t157.5 -66.5q110 0 178 71t97.5 174t29.5 206q0 124 -54.5 190t-157.5 66q-110 0 -178.5 -70zM385.5 549q16.5 -24 16.5 -82q0 -80 -15 -165t-47 -143.5t-80 -58.5q-33 0 -49.5 25.5t-16.5 83.5q0 80 15 164
t47 142t80 58q33 0 49.5 -24z" />
    <glyph glyph-name="one" unicode="1" horiz-adv-x="454" 
d="M431 676l-94 -676h-152l73 513l-156 -89l-53 114l244 138h138z" />
    <glyph glyph-name="two" unicode="2" horiz-adv-x="507" 
d="M400.5 667q47.5 -23 72 -63.5t24.5 -91.5q0 -52 -22.5 -101.5t-90.5 -119.5t-200 -171l273 1l-34 -121h-432l14 114q150 131 217 196.5t90.5 104.5t23.5 81q0 35 -20.5 54t-54.5 19q-35 0 -65 -17t-66 -53l-86 81q52 54 111 82t131 28q67 0 114.5 -23z" />
    <glyph glyph-name="three" unicode="3" horiz-adv-x="510" 
d="M439.5 644.5q52.5 -45.5 52.5 -116.5q0 -58 -37 -103.5t-117 -68.5q58 -6 94.5 -41t36.5 -97q0 -54 -30 -108.5t-93.5 -90.5t-158.5 -36q-74 0 -128 27t-88 77l95 78q27 -33 56.5 -47.5t67.5 -14.5q53 0 87 33.5t34 90.5q0 38 -23.5 54.5t-72.5 16.5h-57l33 109h37
q57 0 83.5 29.5t26.5 70.5q0 32 -19.5 49t-55.5 17q-37 0 -71 -15t-69 -45l-68 90q54 44 111.5 65.5t123.5 21.5q97 0 149.5 -45.5z" />
    <glyph glyph-name="four" unicode="4" horiz-adv-x="555" 
d="M535 264l-17 -118h-74l-21 -146h-152l20 146h-282l15 105l246 442l129 -50l-205 -379h115l40 160h134l-23 -160h75z" />
    <glyph glyph-name="five" unicode="5" horiz-adv-x="526" 
d="M488 563h-241l-20 -142q47 22 100 22q75 0 119.5 -48.5t44.5 -137.5q0 -62 -30.5 -125t-96 -106t-165.5 -43q-74 0 -125.5 27t-87.5 74l95 81q49 -63 122 -63q62 0 96 43t34 105q0 85 -77 85q-22 0 -42 -5.5t-45 -18.5h-106l50 365h409z" />
    <glyph glyph-name="six" unicode="6" horiz-adv-x="555" 
d="M483.5 406.5q45.5 -48.5 45.5 -134.5q0 -62 -28 -129t-89 -113.5t-153 -46.5q-113 0 -167.5 64t-54.5 180q0 120 42 226.5t120.5 171.5t183.5 65q88 0 147 -47l-68 -91q-37 25 -85 25q-56 0 -98.5 -47t-62.5 -134q68 59 148 59q74 0 119.5 -48.5zM347.5 150.5
q25.5 54.5 25.5 117.5q0 42 -15.5 60t-45.5 18q-28 0 -56.5 -14.5t-53.5 -40.5q-7 -50 -7 -89q0 -57 16.5 -81.5t53.5 -24.5q57 0 82.5 54.5z" />
    <glyph glyph-name="seven" unicode="7" horiz-adv-x="458" 
d="M499 676l-15 -107l-323 -585l-137 48l296 525h-268l17 119h430z" />
    <glyph glyph-name="eight" unicode="8" horiz-adv-x="571" 
d="M533 204q0 -61 -35 -111.5t-100 -80t-151 -29.5q-73 0 -125 23.5t-79.5 65t-27.5 94.5q0 56 36 104t116 80q-79 51 -79 137q0 52 28.5 98.5t85 75.5t137.5 29q95 0 154.5 -43t59.5 -117q0 -51 -30.5 -93.5t-98.5 -75.5q109 -60 109 -157zM259 556q-22 -27 -22 -63
q0 -29 16.5 -48t51.5 -35l19 -7q47 29 63 58t16 59t-18.5 46.5t-53.5 16.5q-50 0 -72 -27zM346 127.5q31 31.5 31 78.5q0 30 -20 49.5t-68 38.5l-30 11q-48 -24 -67.5 -58.5t-19.5 -71.5t23.5 -58t65.5 -21q54 0 85 31.5z" />
    <glyph glyph-name="nine" unicode="9" horiz-adv-x="550" 
d="M488.5 631q58.5 -59 58.5 -158q0 -175 -105 -314t-374 -188l-20 112q133 32 205 80t106 134q-31 -31 -66 -47t-78 -16q-47 0 -84 22.5t-58.5 64.5t-21.5 98q0 65 29 127t90 103t152 41q108 0 166.5 -59zM329.5 361.5q28.5 16.5 52.5 47.5q7 41 7 73q0 51 -18 73t-56 22
q-58 0 -83.5 -47t-25.5 -105q0 -41 17.5 -60.5t47.5 -19.5t58.5 16.5z" />
    <glyph glyph-name="colon" unicode=":" horiz-adv-x="240" 
d="M26 6q-22 23 -22 59q0 40 29 69.5t70 29.5q34 0 56.5 -23t22.5 -58q0 -41 -28.5 -70.5t-70.5 -29.5q-35 0 -57 23zM74 352q-22 23 -22 59q0 40 29 69.5t70 29.5q34 0 56.5 -23t22.5 -58q0 -41 -28.5 -70.5t-70.5 -29.5q-35 0 -57 23z" />
    <glyph glyph-name="semicolon" unicode=";" horiz-adv-x="243" 
d="M161.5 141.5q22.5 -22.5 22.5 -56.5q0 -24 -9.5 -48t-36.5 -71l-83 -143h-88l68 178q-29 21 -29 61q0 42 28.5 72t70.5 30q34 0 56.5 -22.5zM77 352q-22 23 -22 59q0 40 29 69.5t70 29.5q34 0 56.5 -23t22.5 -58q0 -41 -28.5 -70.5t-70.5 -29.5q-35 0 -57 23z" />
    <glyph glyph-name="less" unicode="&#x3c;" horiz-adv-x="511" 
d="M470 576l39 -118l-335 -126l294 -127l-65 -115l-370 173l20 139z" />
    <glyph glyph-name="equal" unicode="=" horiz-adv-x="509" 
d="M63 375l17 122h415l-17 -122h-415zM33 166l17 122h415l-17 -122h-415z" />
    <glyph glyph-name="greater" unicode="&#x3e;" horiz-adv-x="509" 
d="M125 576l370 -174l-20 -139l-417 -173l-37 122l333 124l-292 129z" />
    <glyph glyph-name="question" unicode="?" horiz-adv-x="472" 
d="M448 666.5q50 -43.5 50 -109.5q0 -50 -19 -84t-46.5 -54t-70.5 -43q-48 -25 -70.5 -45.5t-22.5 -54.5q0 -15 2 -22l-137 -21q-8 24 -8 48q0 46 17.5 77t42 49.5t64.5 40.5q44 25 64 43.5t20 49.5q0 22 -15 33.5t-43 11.5q-62 0 -127 -62l-89 81q103 105 243 105
q95 0 145 -43.5zM132 6q-22 23 -22 59q0 40 29 69.5t70 29.5q34 0 56.5 -23t22.5 -58q0 -41 -28.5 -70.5t-70.5 -29.5q-35 0 -57 23z" />
    <glyph glyph-name="at" unicode="@" horiz-adv-x="1010" 
d="M786 663q90 -47 137 -129t47 -184q0 -79 -27 -159t-83 -133.5t-138 -53.5q-55 0 -89 29t-41 70q-55 -95 -151 -95q-74 0 -115.5 47.5t-41.5 126.5q0 73 26.5 146.5t86.5 124t155 50.5q42 0 86.5 -12.5t80.5 -34.5l-39 -292q-1 -7 -1 -20q0 -21 8.5 -31.5t28.5 -10.5
q37 0 63.5 39t39.5 97.5t13 114.5q0 117 -68.5 179.5t-202.5 62.5q-135 0 -220 -63.5t-121.5 -157.5t-36.5 -192q0 -85 34.5 -150t101.5 -101t163 -36q44 0 95.5 10t92.5 25l25 -111q-51 -19 -110.5 -30t-114.5 -11q-130 0 -227 51.5t-149.5 143.5t-52.5 210q0 120 57 241.5
t176.5 203.5t296.5 82q125 0 215 -47zM546 161l34 234q-21 8 -41 8q-62 0 -89 -69.5t-27 -156.5q0 -70 49 -70q43 0 74 54z" />
    <glyph glyph-name="A" unicode="A" horiz-adv-x="581" 
d="M387 0l-14 149h-201l-55 -149h-168l303 693h196l108 -693h-169zM215 268h146l-30 315z" />
    <glyph glyph-name="B" unicode="B" horiz-adv-x="607" 
d="M536 321.5q38 -33.5 38 -100.5q0 -100 -76.5 -160.5t-249.5 -60.5h-221l97 693h203q262 0 262 -158q0 -69 -43 -111t-109 -58q61 -11 99 -44.5zM394.5 444q28.5 28 28.5 74q0 32 -23.5 45.5t-70.5 13.5h-61l-22 -161h60q60 0 88.5 28zM377 149q32 30 32 84q0 74 -105 74
h-74l-26 -188h58q83 0 115 30z" />
    <glyph glyph-name="C" unicode="C" horiz-adv-x="565" 
d="M600 628l-87 -85q-28 23 -55 34.5t-61 11.5q-68 0 -111 -51.5t-61.5 -125t-18.5 -143.5q0 -81 32 -120t90 -39q37 0 69.5 15t70.5 43l63 -97q-44 -39 -101.5 -63.5t-126.5 -24.5q-121 0 -192.5 74.5t-71.5 211.5q0 104 37 205.5t117 168.5t202 67q131 0 205 -82z" />
    <glyph glyph-name="D" unicode="D" horiz-adv-x="642" 
d="M540.5 635.5q85.5 -57.5 85.5 -205.5q0 -189 -92.5 -309.5t-299.5 -120.5h-207l97 693h188q143 0 228.5 -57.5zM269 574l-64 -456h53q110 0 156.5 93.5t46.5 218.5q0 83 -36 113.5t-103 30.5h-53z" />
    <glyph glyph-name="E" unicode="E" horiz-adv-x="517" 
d="M543 693l-34 -117h-240l-24 -166h210l-15 -115h-210l-25 -177h257l-16 -118h-419l97 693h419z" />
    <glyph glyph-name="F" unicode="F" horiz-adv-x="479" 
d="M531 693l-33 -117h-229l-26 -184h200l-16 -117h-200l-39 -275h-161l97 693h407z" />
    <glyph glyph-name="G" unicode="G" horiz-adv-x="634" 
d="M636 622l-90 -81q-34 27 -63 38.5t-68 11.5q-77 0 -124 -52.5t-67 -131t-20 -162.5q0 -76 28 -109t85 -33q49 0 97 23l22 157h-88l1 116h260l-47 -343q-56 -35 -122.5 -54t-132.5 -19q-133 0 -201 70.5t-68 205.5q0 112 39.5 215t125 169.5t214.5 66.5q136 0 219 -88z
" />
    <glyph glyph-name="H" unicode="H" horiz-adv-x="656" 
d="M188 0h-161l97 693h161l-38 -268h205l38 268h161l-97 -693h-161l41 297h-204z" />
    <glyph glyph-name="I" unicode="I" horiz-adv-x="290" 
d="M285 693l-97 -693h-161l97 693h161z" />
    <glyph glyph-name="J" unicode="J" horiz-adv-x="311" 
d="M227 104q-12 -83 -48.5 -137t-88 -84.5t-120.5 -52.5l-29 117q45 17 70.5 39.5t37 52t17.5 74.5l82 580h161z" />
    <glyph glyph-name="K" unicode="K" horiz-adv-x="623" 
d="M27 0l97 693h162l-97 -693h-162zM414 0l-168 370l259 323h173l-265 -321l185 -372h-184z" />
    <glyph glyph-name="L" unicode="L" horiz-adv-x="506" 
d="M285 693l-78 -563h265l-34 -130h-411l97 693h161z" />
    <glyph glyph-name="M" unicode="M" horiz-adv-x="775" 
d="M705 0h-158l25 273q16 169 38 294l-173 -494h-155l-46 492q-3 -81 -11.5 -151t-23.5 -147l-48 -267h-158l149 693h197l37 -481l162 481h210z" />
    <glyph glyph-name="N" unicode="N" horiz-adv-x="654" 
d="M552 0h-204l-128 557q2 -54 2 -83q0 -106 -17 -228l-35 -246h-143l97 693h202l131 -557q-3 56 -3 104q0 88 13 180l39 273h143z" />
    <glyph glyph-name="O" unicode="O" horiz-adv-x="681" 
d="M596 636q69 -74 69 -210q0 -105 -35 -206t-116 -169t-210 -68q-127 0 -196 74.5t-69 209.5q0 104 35.5 205t116.5 169.5t210 68.5q126 0 195 -74zM278.5 534q-41.5 -56 -57.5 -132t-16 -147q0 -80 27.5 -116t82.5 -36q69 0 110.5 56t57.5 132.5t16 148.5
q0 79 -27.5 114.5t-82.5 35.5q-69 0 -110.5 -56z" />
    <glyph glyph-name="P" unicode="P" horiz-adv-x="591" 
d="M534 644q67 -49 67 -144q0 -69 -31 -130t-99.5 -100t-174.5 -39h-76l-32 -231h-161l97 693h220q123 0 190 -49zM403 391.5q31 42.5 31 100.5q0 44 -26.5 64t-79.5 20h-59l-32 -227h59q76 0 107 42.5z" />
    <glyph glyph-name="Q" unicode="Q" horiz-adv-x="680" 
d="M618 199.5q-47 -106.5 -149 -156.5q66 -3 110 -19t80 -46l-113 -126q-47 63 -101 97t-141 34q-127 0 -196 74.5t-69 209.5q0 104 35.5 205t116.5 169.5t210 68.5q126 0 195 -74t69 -210q0 -120 -47 -226.5zM232.5 138q27.5 -35 82.5 -35q70 0 111 56t57 134.5t16 153.5
q0 74 -27.5 108.5t-82.5 34.5q-70 0 -111 -56t-57 -133.5t-16 -151.5q0 -76 27.5 -111z" />
    <glyph glyph-name="R" unicode="R" horiz-adv-x="607" 
d="M566 383q-35 -55 -123 -92l130 -291h-176l-105 264l-67 1l-37 -265h-161l97 693h223q124 0 189 -48t65 -136q0 -71 -35 -126zM241 378h71q64 0 93 36.5t29 86.5q0 40 -25.5 58.5t-78.5 18.5h-61z" />
    <glyph glyph-name="S" unicode="S" horiz-adv-x="562" 
d="M569 619l-86 -86q-60 57 -140 57q-48 0 -76.5 -20.5t-28.5 -56.5q0 -30 24 -48t92 -41q89 -29 133.5 -75t44.5 -122q0 -62 -30.5 -117.5t-97 -91t-168.5 -35.5q-84 0 -146.5 27.5t-105.5 73.5l93 92q66 -68 163 -68q57 0 89.5 25t32.5 69q0 34 -23.5 55t-85.5 43
q-98 33 -141 79t-43 115q0 55 30 104.5t90.5 80.5t148.5 31q142 0 231 -91z" />
    <glyph glyph-name="T" unicode="T" horiz-adv-x="530" 
d="M591 693l-35 -126h-168l-80 -567h-161l80 567h-177l18 126h523z" />
    <glyph glyph-name="U" unicode="U" horiz-adv-x="641" 
d="M582 229q-10 -72 -47.5 -127.5t-101.5 -87t-150 -31.5q-117 0 -177 55t-60 150q0 22 3 44l65 461h161l-64 -458q-3 -22 -3 -40q0 -46 21 -68t66 -22q56 0 86.5 33t39.5 100l65 455h161z" />
    <glyph glyph-name="V" unicode="V" horiz-adv-x="561" 
d="M634 693l-287 -693h-200l-101 693h169l50 -565l202 565h167z" />
    <glyph glyph-name="W" unicode="W" horiz-adv-x="837" 
d="M886 693l-211 -693h-209l-11 529l-165 -529h-204l-15 693h158l-11 -569l175 569h170l9 -569l159 569h155z" />
    <glyph glyph-name="X" unicode="X" horiz-adv-x="571" 
d="M618 693l-225 -320l145 -373h-173l-81 270l-152 -270h-174l243 368l-131 325h173l65 -228l137 228h173z" />
    <glyph glyph-name="Y" unicode="Y" horiz-adv-x="584" 
d="M652 693l-280 -433l-36 -260h-162l37 259l-158 434h172l84 -305l169 305h174z" />
    <glyph glyph-name="Z" unicode="Z" horiz-adv-x="534" 
d="M-20 0l16 123l364 443h-270l18 127h455l-17 -124l-360 -439l303 1l-34 -131h-475z" />
    <glyph glyph-name="bracketleft" unicode="[" horiz-adv-x="314" 
d="M370 823l-16 -118h-114l-100 -711h114l-17 -117h-261l134 946h260z" />
    <glyph glyph-name="backslash" unicode="\" horiz-adv-x="510" 
d="M283 816l107 -897l-140 -31l-105 897z" />
    <glyph glyph-name="bracketright" unicode="]" horiz-adv-x="314" 
d="M362 823l-133 -946h-261l17 118h114l100 710h-114l17 118h260z" />
    <glyph glyph-name="asciicircum" unicode="^" horiz-adv-x="549" 
d="M426 844l142 -317h-151l-77 199l-131 -199h-155l231 317h141z" />
    <glyph glyph-name="underscore" unicode="_" horiz-adv-x="510" 
d="M-53 -171l17 124h494l-18 -124h-493z" />
    <glyph glyph-name="grave" unicode="`" horiz-adv-x="333" 
d="M161 835l201 -134l-44 -77l-224 93z" />
    <glyph glyph-name="a" unicode="a" horiz-adv-x="572" 
d="M547 492l-49 -340q-2 -18 -2 -23q0 -16 6 -25.5t22 -15.5l-45 -102q-46 4 -79 25.5t-44 62.5q-64 -91 -158 -91q-83 0 -127.5 56.5t-44.5 154.5q0 84 31 165t99.5 135t173.5 54q115 0 217 -56zM246.5 399q-31.5 -37 -45.5 -92t-14 -112q0 -53 15.5 -74.5t44.5 -21.5
q53 0 101 74l37 253q-29 10 -59 10q-48 0 -79.5 -37z" />
    <glyph glyph-name="b" unicode="b" horiz-adv-x="581" 
d="M513 494q42 -54 42 -153q0 -87 -28.5 -168t-97.5 -135.5t-184 -54.5q-56 0 -109 11t-109 33l100 715l157 17l-38 -273q30 29 68 45.5t78 16.5q79 0 121 -54zM230 371l-36 -260q34 -13 67 -13q46 0 76.5 37t44 92.5t13.5 110.5q0 52 -17 73t-46 21q-54 0 -102 -61z" />
    <glyph glyph-name="c" unicode="c" horiz-adv-x="470" 
d="M494 480l-77 -90q-40 37 -92 37q-73 0 -104 -67.5t-31 -153.5q0 -53 21.5 -75.5t61.5 -22.5q27 0 50 8.5t55 28.5l58 -101q-83 -61 -183 -61q-106 0 -166 61.5t-60 167.5q0 76 31 153.5t98 130t168 52.5q104 0 170 -68z" />
    <glyph glyph-name="d" unicode="d" horiz-adv-x="586" 
d="M592 742l-104 -742h-138l1 76q-28 -42 -67.5 -67.5t-90.5 -25.5q-82 0 -124.5 56.5t-42.5 157.5q0 79 27.5 160.5t84.5 136t142 54.5q76 0 122 -51l36 261zM239.5 394.5q-28.5 -38.5 -40.5 -93t-12 -105.5q0 -53 15 -75t43 -22q31 0 58.5 26t56.5 72l28 198
q-15 19 -33 28.5t-41 9.5q-46 0 -74.5 -38.5z" />
    <glyph glyph-name="e" unicode="e" horiz-adv-x="533" 
d="M429.5 255q-94.5 -47 -246.5 -62q5 -94 95 -94q33 0 65.5 12t69.5 37l56 -94q-98 -71 -211 -71t-172 60.5t-59 164.5q0 80 30.5 158t98.5 130t172 52q93 0 144.5 -41t51.5 -104q0 -101 -94.5 -148zM325 324.5q42 29.5 42 71.5q0 19 -12 33t-39 14q-52 0 -83 -44t-43 -110
q93 6 135 35.5z" />
    <glyph glyph-name="f" unicode="f" horiz-adv-x="346" 
d="M301.5 625q-18.5 -17 -23.5 -55l-5 -39h123l-32 -110h-107l-51 -363q-11 -83 -44 -136.5t-82 -85.5t-121 -58l-39 114q61 23 91 57t39 103l52 369h-79l15 110h79l7 49q11 80 68 129.5t150 49.5q82 0 148 -44l-55 -94q-33 21 -80 21q-35 0 -53.5 -17z" />
    <glyph glyph-name="g" unicode="g" horiz-adv-x="577" 
d="M553 492l-66 -451q-20 -139 -86.5 -201.5t-192.5 -62.5q-49 0 -102.5 16t-97.5 43l53 103q76 -42 144 -42q52 0 85.5 25t43.5 96l7 51q-28 -32 -63.5 -50.5t-76.5 -18.5q-84 0 -129 56t-45 150q0 81 31.5 159.5t101 130.5t176.5 52q115 0 217 -56zM249 401
q-32 -35 -46.5 -87t-14.5 -104q0 -93 62 -93q54 0 104 74l37 235q-30 10 -60 10q-50 0 -82 -35z" />
    <glyph glyph-name="h" unicode="h" horiz-adv-x="567" 
d="M498 514q32 -34 32 -95q0 -22 -2 -34l-54 -385h-155l49 351q2 20 2 26q0 23 -8 32.5t-24 9.5q-55 0 -119 -127l-41 -292h-155l104 742l157 16l-44 -316q29 48 73.5 77t95.5 29q57 0 89 -34z" />
    <glyph glyph-name="i" unicode="i" horiz-adv-x="277" 
d="M253 531l-74 -531h-155l74 531h155zM132 653.5q-23 22.5 -23 57.5q0 43 29.5 71t73.5 28q37 0 60 -22t23 -57q0 -43 -29.5 -71.5t-73.5 -28.5q-37 0 -60 22.5z" />
    <glyph glyph-name="j" unicode="j" horiz-adv-x="276" 
d="M-100 -110q61 25 91 59t40 103l66 479h155l-66 -473q-11 -83 -44 -136.5t-82 -85.5t-121 -58zM132 653.5q-23 22.5 -23 57.5q0 43 29.5 71t73.5 28q37 0 60 -22t23 -57q0 -43 -29.5 -71.5t-73.5 -28.5q-37 0 -60 22.5z" />
    <glyph glyph-name="k" unicode="k" horiz-adv-x="566" 
d="M243 462q75 86 176 86q65 0 104 -35t39 -92q0 -62 -36 -109t-109 -76l99 -236h-170l-97 256q84 27 119 60.5t35 77.5t-45 44q-33 0 -67.5 -27t-66.5 -82l-45 -329h-156l104 742l158 17z" />
    <glyph glyph-name="l" unicode="l" horiz-adv-x="288" 
d="M193 143q-2 -19 3 -27t18 -8q11 0 26 5l19 -110q-45 -20 -100 -20q-59 0 -91.5 30.5t-32.5 89.5q0 17 3 36l85 603l156 17z" />
    <glyph glyph-name="m" unicode="m" horiz-adv-x="831" 
d="M762.5 514q31.5 -34 31.5 -94q0 -22 -2 -34l-54 -386h-155l50 351q2 20 2 26q0 24 -8.5 33t-23.5 9q-48 0 -103 -121l-42 -298h-155l50 351q2 20 2 25q0 24 -9 33.5t-24 9.5q-25 0 -52 -34t-50 -91l-41 -294h-155l74 531h135l-3 -87q33 50 75 77t91 27q47 0 78 -26
t38 -73q32 46 75.5 72.5t89.5 26.5q54 0 85.5 -34z" />
    <glyph glyph-name="n" unicode="n" horiz-adv-x="568" 
d="M499 514q32 -34 32 -94q0 -16 -3 -36l-53 -384h-155l49 351q2 20 2 25q0 24 -8.5 33.5t-24.5 9.5q-54 0 -117 -127l-42 -292h-155l74 531h135l-3 -93q35 51 82 80.5t99 29.5q56 0 88 -34z" />
    <glyph glyph-name="o" unicode="o" horiz-adv-x="574" 
d="M86.5 43q-58.5 60 -58.5 166q0 82 29 159.5t95.5 128.5t171.5 51q104 0 163 -60t59 -163q0 -82 -29 -160t-95.5 -130t-171.5 -52t-163.5 60zM358 172.5q28 73.5 29 159.5q0 52 -18.5 76t-55.5 24q-69 0 -97.5 -74t-28.5 -159q0 -52 18 -76t56 -24q69 0 97 73.5z" />
    <glyph glyph-name="p" unicode="p" horiz-adv-x="581" 
d="M98 531h137v-59q72 76 156 76q80 0 122 -53.5t42 -153.5q0 -85 -28.5 -167t-91.5 -136.5t-162 -54.5q-54 0 -95 15l-30 -204l-155 -17zM338 135q30 37 44 92.5t14 110.5q0 52 -17 73t-47 21q-53 0 -101 -61l-36 -260q33 -13 67 -13q46 0 76 37z" />
    <glyph glyph-name="q" unicode="q" horiz-adv-x="575" 
d="M334 47q-18 -25 -55.5 -44.5t-81.5 -19.5q-82 0 -126.5 56.5t-44.5 154.5q0 86 31.5 167t100.5 134t174 53q117 0 218 -56l-98 -698l-156 -17zM350 173l37 253q-29 10 -59 10q-49 0 -80.5 -37t-46 -92t-14.5 -112q0 -53 16 -74.5t46 -21.5q53 0 101 74z" />
    <glyph glyph-name="r" unicode="r" horiz-adv-x="392" 
d="M434 538l-45 -152q-28 7 -44 7q-46 0 -76.5 -38t-54.5 -109l-35 -246h-155l74 531h135l-2 -99q27 55 66.5 84.5t83.5 29.5q26 0 53 -8z" />
    <glyph glyph-name="s" unicode="s" horiz-adv-x="473" 
d="M465 480l-69 -85q-29 20 -61.5 30.5t-63.5 10.5q-34 0 -52.5 -12t-18.5 -32q0 -14 8.5 -23t29 -17.5t65.5 -22.5q69 -22 103.5 -61t34.5 -100q0 -51 -26 -93t-80 -67t-132 -25q-69 0 -127 24t-94 63l79 82q63 -56 143 -56q40 0 61 15t21 38q0 18 -8.5 28.5t-29.5 20
t-67 25.5q-70 24 -102.5 60t-32.5 94q0 47 26 85.5t77 62t121 23.5q114 0 195 -68z" />
    <glyph glyph-name="t" unicode="t" horiz-adv-x="376" 
d="M217 176q-2 -18 -2 -24q0 -23 9.5 -33.5t28.5 -10.5q14 0 27.5 4t32.5 13l41 -103q-32 -19 -71 -29t-74 -10q-73 0 -112 39t-39 112q0 20 3 42l35 245h-73l15 110h80l33 118l134 15l-19 -133h122l-33 -110h-104z" />
    <glyph glyph-name="u" unicode="u" horiz-adv-x="562" 
d="M69 18q-33 35 -33 97q0 18 3 37l54 379h155l-49 -354q-2 -20 -2 -25q0 -24 9.5 -34t27.5 -10q47 0 102 84l47 339h155l-74 -531h-134l3 79q-74 -96 -168 -96q-63 0 -96 35z" />
    <glyph glyph-name="v" unicode="v" horiz-adv-x="503" 
d="M548 531l-237 -531h-186l-94 531h167l37 -411l149 411h164z" />
    <glyph glyph-name="w" unicode="w" horiz-adv-x="739" 
d="M771 531l-182 -531h-184l-15 391l-124 -391h-185l-37 531h156l-3 -413l139 413h151l14 -413l121 413h149z" />
    <glyph glyph-name="x" unicode="x" horiz-adv-x="504" 
d="M525 531l-177 -252l128 -279h-169l-65 195l-117 -195h-173l207 283l-116 248h169l50 -171l95 171h168z" />
    <glyph glyph-name="y" unicode="y" horiz-adv-x="507" 
d="M317 -2q-91 -207 -329 -220l-4 111q77 10 116.5 34t70.5 77h-55l-85 531h162l35 -429l161 429h162z" />
    <glyph glyph-name="z" unicode="z" horiz-adv-x="449" 
d="M465 531l-15 -111l-266 -300h229l-31 -120h-408l15 112l267 300h-204l17 119h396z" />
    <glyph glyph-name="braceleft" unicode="{" horiz-adv-x="314" 
d="M356 730q-43 0 -61 -14t-23 -47l-26 -187q-8 -63 -36.5 -91.5t-83.5 -42.5q43 -10 65 -31.5t22 -68.5q0 -16 -3 -34l-27 -186q-1 -6 -1 -17q0 -23 14.5 -32t50.5 -9l-12 -110q-105 0 -152.5 33.5t-47.5 100.5q0 21 2 33l25 179q3 18 3 32q0 26 -13 36.5t-44 10.5l18 129
q37 0 54.5 19.5t23.5 64.5l25 179q8 58 31 93t73 52.5t137 17.5z" />
    <glyph glyph-name="bar" unicode="|" horiz-adv-x="367" 
d="M332 810l-128 -915h-145l128 915h145z" />
    <glyph glyph-name="braceright" unicode="}" horiz-adv-x="314" 
d="M-18 -30q43 0 61 14t23 47l26 187q8 63 36.5 91.5t83.5 42.5q-43 10 -64.5 31.5t-21.5 66.5q0 17 3 36l26 186q1 6 1 17q0 23 -14.5 32t-50.5 9l12 110q105 0 152.5 -33.5t47.5 -100.5q0 -21 -2 -33l-25 -179q-3 -18 -3 -32q0 -26 13 -36.5t44 -10.5l-18 -129
q-37 0 -54.5 -19.5t-23.5 -64.5l-25 -179q-8 -58 -31 -93t-73 -52.5t-137 -17.5z" />
    <glyph glyph-name="asciitilde" unicode="~" horiz-adv-x="504" 
d="M275 241.5q-22 9.5 -47 27.5q-17 12 -29 18t-26 6q-25 0 -41.5 -14.5t-34.5 -41.5l-79 48q35 56 76.5 90.5t97.5 34.5q32 0 53 -9.5t46 -26.5q17 -12 29 -18t27 -6q25 0 42 13.5t34 39.5l79 -48q-34 -55 -75.5 -89t-97.5 -34q-32 0 -54 9.5z" />
    <glyph glyph-name="uni00A0" unicode="&#xa0;" horiz-adv-x="227" 
 />
    <glyph glyph-name="exclamdown" unicode="&#xa1;" horiz-adv-x="229" 
d="M72 352q-22 23 -22 59q0 40 29 69.5t70 29.5q34 0 56.5 -23t22.5 -58q0 -41 -28.5 -70.5t-70.5 -29.5q-35 0 -57 23zM176 235l-43 -440h-165l82 440h126z" />
    <glyph glyph-name="cent" unicode="&#xa2;" horiz-adv-x="470" 
d="M436 44q-70 -51 -148 -59l-21 -146h-113l22 154q-71 20 -110 77t-39 142q0 66 24 135t75 122.5t128 70.5l21 151h111l-20 -146q75 -12 128 -65l-77 -90q-40 37 -92 37q-73 0 -104 -67.5t-31 -153.5q0 -53 21.5 -75.5t61.5 -22.5q27 0 50 8.5t55 28.5z" />
    <glyph glyph-name="sterling" unicode="&#xa3;" horiz-adv-x="530" 
d="M235 167q-17 -27 -56 -48h301l-34 -119h-456l14 114q38 11 58.5 26.5t29 37t12.5 57.5l11 76h-67l12 82h66l14 97q13 93 73 146.5t160 53.5q128 0 191 -101l-101 -67q-15 28 -34 39t-48 11q-77 0 -89 -86l-13 -93h182l-12 -82h-181l-10 -72q-6 -45 -23 -72z" />
    <glyph glyph-name="currency" unicode="&#xa4;" 
d="M468 223l75 -75l-69 -70l-78 76q-53 -29 -116 -29t-115 30l-78 -77l-70 70l77 76q-33 53 -33 118q0 64 33 117l-77 77l70 70l78 -78q52 30 115 30q64 0 116 -30l78 78l69 -70l-75 -76q33 -53 33 -118q0 -66 -33 -119zM353 260q25 29 25 82q0 52 -25 81t-72 29
q-48 0 -73 -29t-25 -81q0 -53 25 -82t73 -29q47 0 72 29z" />
    <glyph glyph-name="yen" unicode="&#xa5;" horiz-adv-x="559" 
d="M624 676l-219 -324h95l-11 -82h-130l-11 -72h131l-12 -82h-130l-17 -116h-155l17 116h-131l12 82h130l11 72h-131l11 82h96l-130 324h162l86 -281l163 281h163z" />
    <glyph glyph-name="brokenbar" unicode="&#xa6;" horiz-adv-x="367" 
d="M332 810l-51 -367h-146l52 367h145zM256 262l-52 -367h-145l51 367h146z" />
    <glyph glyph-name="section" unicode="&#xa7;" horiz-adv-x="540" 
d="M462.5 405q33.5 -33 33.5 -85q0 -48 -26 -82t-75 -61q45 -38 45 -95q0 -44 -24 -81.5t-76.5 -60.5t-133.5 -23q-55 0 -103 16t-84 42l61 92q59 -41 125 -41q86 0 86 50q0 16 -8.5 27t-29.5 20.5t-66 24.5q-67 21 -100 53t-33 84q0 87 103 140q-46 42 -46 98
q0 77 61.5 121.5t163.5 44.5q54 0 104 -17t89 -44l-64 -87q-56 39 -124 39q-81 0 -81 -51q0 -22 20 -36t82 -34q67 -21 100.5 -54zM318 222q40 37 40 70q0 21 -17.5 38t-60.5 31q-26 8 -53 20q-33 -33 -33 -68q0 -22 14 -37.5t49 -28.5q22 -8 61 -25z" />
    <glyph glyph-name="dieresis" unicode="&#xa8;" horiz-adv-x="450" 
d="M114 661.5q-20 19.5 -20 49.5q0 38 26 63t64 25q33 0 53 -20t20 -50q0 -37 -26 -62t-64 -25q-33 0 -53 19.5zM341.5 661.5q-19.5 19.5 -19.5 49.5q0 38 26 63t64 25q33 0 53 -20t20 -50q0 -37 -26.5 -62t-64.5 -25q-33 0 -52.5 19.5z" />
    <glyph glyph-name="copyright" unicode="&#xa9;" horiz-adv-x="810" 
d="M599.5 723.5q77.5 -42.5 122 -119t44.5 -172.5t-44.5 -172t-122 -118.5t-170.5 -42.5t-170.5 42.5t-122.5 118.5t-45 172t45 172.5t122.5 119t170.5 42.5t170.5 -42.5zM302.5 655q-56.5 -32 -88 -90t-31.5 -133q0 -74 31.5 -131.5t88 -89.5t126.5 -32t126 32t88 89.5
t32 131.5q0 75 -32 133t-88 90t-126 32t-126.5 -32zM562 579l-48 -60q-19 14 -35 19t-36 5q-34 0 -54.5 -26.5t-20.5 -83.5q0 -109 73 -109q23 0 42.5 7t38.5 22l44 -64q-58 -53 -134 -53q-82 0 -129.5 51.5t-47.5 145.5q0 60 22.5 104.5t62.5 68.5t91 24q75 0 131 -51z" />
    <glyph glyph-name="ordfeminine" unicode="&#xaa;" horiz-adv-x="481" 
d="M92 298q-34 34 -34 85q0 62 50.5 103.5t167.5 41.5h38l2 13q1 5 1 14q0 21 -11.5 29.5t-39.5 8.5q-51 0 -120 -22l-20 92q40 15 85 22.5t86 7.5q77 0 116 -30.5t39 -96.5q0 -18 -3 -38l-16 -125q-2 -12 -2 -17q0 -10 5 -17t17 -11l-40 -91q-37 2 -61 15.5t-38 40.5
q-48 -59 -130 -59q-58 0 -92 34zM295 395l9 58h-25q-78 0 -78 -56q0 -33 33 -33q35 0 61 31zM3 0l16 122h402l-16 -122h-402z" />
    <glyph glyph-name="guillemotleft" unicode="&#xab;" horiz-adv-x="618" 
d="M258 556l90 -65l-156 -206l97 -207l-103 -65l-156 221l13 100zM527 556l90 -65l-156 -206l97 -207l-103 -65l-156 221l13 100z" />
    <glyph glyph-name="logicalnot" unicode="&#xac;" horiz-adv-x="520" 
d="M491 390l-39 -276h-136l22 153h-291l17 123h427z" />
    <glyph glyph-name="uni00AD" unicode="&#xad;" horiz-adv-x="398" 
d="M40 252l17 122h314l-17 -122h-314z" />
    <glyph glyph-name="registered" unicode="&#xae;" horiz-adv-x="637" 
d="M490.5 723.5q62.5 -35.5 98 -98.5t35.5 -141t-35.5 -140t-98 -97t-140.5 -35q-77 0 -140 35t-99 97t-36 140t36 141t99 98.5t140 35.5q78 0 140.5 -35.5zM452.5 304.5q44.5 25.5 69 72t24.5 107.5q0 62 -24.5 109t-69 73t-102.5 26q-57 0 -101.5 -26t-70 -73.5
t-25.5 -108.5t25.5 -107.5t70 -72t101.5 -25.5q58 0 102.5 25.5zM447.5 499q-15.5 -20 -42.5 -30l74 -117h-82l-58 102h-22v-102h-71v282h84q67 0 100 -21.5t33 -66.5q0 -27 -15.5 -47zM317 512h30q43 0 43 36q0 32 -45 32h-28v-68z" />
    <glyph glyph-name="macron" unicode="&#xaf;" horiz-adv-x="361" 
d="M386 655h-301l15 110h301z" />
    <glyph glyph-name="degree" unicode="&#xb0;" horiz-adv-x="511" 
d="M118.5 409q-43.5 40 -43.5 109q0 56 26.5 100t71 68t97.5 24q68 0 111.5 -40t43.5 -108q0 -56 -26.5 -100t-70.5 -68.5t-97 -24.5q-69 0 -112.5 40zM297 487q22 27 22 70q0 62 -56 62q-38 0 -60 -27t-22 -70q0 -30 14.5 -46t41.5 -16q38 0 60 27z" />
    <glyph glyph-name="plusminus" unicode="&#xb1;" horiz-adv-x="520" 
d="M16 0l17 122h415l-17 -122h-415zM374 622l-22 -156h149l-17 -122h-149l-22 -156h-129l22 156h-148l17 122h148l21 156h130z" />
    <glyph glyph-name="uni00B2" unicode="&#xb2;" horiz-adv-x="390" 
d="M361 719q37 -33 37 -81q0 -42 -23 -77t-59 -65.5t-111 -85.5h171l-24 -89h-293l11 84q24 20 36 29q91 75 131 116t40 77q0 18 -11 27.5t-30 9.5q-23 0 -41.5 -10.5t-39.5 -33.5l-65 56q73 76 167 76q67 0 104 -33z" />
    <glyph glyph-name="uni00B3" unicode="&#xb3;" horiz-adv-x="390" 
d="M362.5 723.5q36.5 -28.5 36.5 -73.5q0 -41 -28.5 -68t-78.5 -39q42 -4 67.5 -25.5t25.5 -62.5q0 -43 -25.5 -76.5t-68.5 -51.5t-95 -18q-100 0 -149 69l69 57q33 -38 81 -38q30 0 50 16.5t20 47.5q0 21 -14.5 30.5t-43.5 9.5h-40l25 80h24q29 0 46.5 13.5t17.5 37.5
q0 33 -43 33q-45 0 -90 -35l-51 64q73 58 163 58q65 0 101.5 -28.5z" />
    <glyph glyph-name="acute" unicode="&#xb4;" horiz-adv-x="334" 
d="M320 835l48 -118l-245 -95l-35 81z" />
    <glyph glyph-name="uni00B5" unicode="&#xb5;" horiz-adv-x="573" 
d="M485 80q0 -48 6 -81l-144 -15q-6 21 -8 39.5t-2 44.5q-24 -38 -53 -58t-67 -20q-40 0 -63 24q6 -24 6 -54q0 -37 -6 -75l-13 -90l-148 -15l105 751h155l-52 -370q-1 -5 -1 -15q0 -43 40 -43q24 0 49 15.5t47 48.5l50 364h155l-49 -350q-7 -53 -7 -101z" />
    <glyph glyph-name="paragraph" unicode="&#xb6;" horiz-adv-x="778" 
d="M722 693l-126 -898l-137 -18l113 806h-93l-110 -788l-137 -18l68 486q-102 3 -154.5 52t-52.5 132q0 77 37 132.5t104 84.5t155 29h333z" />
    <glyph glyph-name="periodcentered" unicode="&#xb7;" horiz-adv-x="240" 
d="M59 240q-22 23 -22 59q0 40 29 69.5t70 29.5q34 0 56.5 -23t22.5 -58q0 -41 -28.5 -70.5t-70.5 -29.5q-35 0 -57 23z" />
    <glyph glyph-name="cedilla" unicode="&#xb8;" horiz-adv-x="317" 
d="M138 -48q45 -5 68 -28.5t23 -61.5q0 -30 -16.5 -58.5t-52.5 -47t-90 -18.5q-66 0 -109 32l44 71q28 -17 61 -17q23 0 36.5 8t14.5 25q0 17 -19.5 24t-66.5 7l32 128h86z" />
    <glyph glyph-name="uni00B9" unicode="&#xb9;" horiz-adv-x="390" 
d="M359 742l-59 -421h-114l44 311l-97 -57l-42 78l163 89h105z" />
    <glyph glyph-name="ordmasculine" unicode="&#xba;" horiz-adv-x="490" 
d="M439.5 647.5q48.5 -45.5 48.5 -129.5q0 -74 -30 -131.5t-84.5 -90t-125.5 -32.5q-88 0 -137 46t-49 129q0 74 30 131.5t84.5 90t126.5 32.5q88 0 136.5 -45.5zM226.5 545q-21.5 -46 -21.5 -110q0 -69 52 -69q45 0 66.5 47t21.5 111q0 67 -51 67q-46 0 -67.5 -46zM0 0
l17 122h415l-17 -122h-415z" />
    <glyph glyph-name="guillemotright" unicode="&#xbb;" horiz-adv-x="618" 
d="M168 556l157 -222l-13 -100l-216 -221l-89 65l157 207l-99 206zM437 556l157 -222l-13 -100l-216 -221l-89 65l157 207l-99 206z" />
    <glyph glyph-name="onequarter" unicode="&#xbc;" horiz-adv-x="939" 
d="M352 693l-59 -421h-114l44 311l-97 -57l-42 78l163 89h105zM695 759l85 -45l-516 -799l-85 45zM903 170l-13 -86h-45l-12 -84h-109l11 84h-189l11 78l157 269l92 -36l-128 -225h71l33 95h88l-13 -95h46z" />
    <glyph glyph-name="onehalf" unicode="&#xbd;" horiz-adv-x="939" 
d="M352 693l-59 -421h-114l44 311l-97 -57l-42 78l163 89h105zM695 759l85 -45l-516 -799l-85 45zM865 398q37 -33 37 -81q0 -42 -23 -77t-59 -65.5t-111 -85.5h171l-24 -89h-293l11 84q24 20 36 29q91 75 131 116t40 77q0 18 -11 27.5t-30 9.5q-23 0 -41.5 -10.5
t-39.5 -33.5l-65 56q73 76 167 76q67 0 104 -33z" />
    <glyph glyph-name="threequarters" unicode="&#xbe;" horiz-adv-x="939" 
d="M355.5 674.5q36.5 -28.5 36.5 -73.5q0 -41 -28.5 -68t-78.5 -39q42 -4 67.5 -25.5t25.5 -62.5q0 -43 -25.5 -76.5t-68.5 -51.5t-95 -18q-100 0 -149 69l69 57q33 -38 81 -38q30 0 50 16.5t20 47.5q0 21 -14.5 30.5t-43.5 9.5h-40l25 80h24q29 0 46.5 13.5t17.5 37.5
q0 33 -43 33q-45 0 -90 -35l-51 64q73 58 163 58q65 0 101.5 -28.5zM695 759l85 -45l-516 -799l-85 45zM903 170l-13 -86h-45l-12 -84h-109l11 84h-189l11 78l157 269l92 -36l-128 -225h71l33 95h88l-13 -95h46z" />
    <glyph glyph-name="questiondown" unicode="&#xbf;" horiz-adv-x="471" 
d="M333 485q22 -23 22 -59q0 -40 -29 -69.5t-70 -29.5q-34 0 -56.5 23t-22.5 58q0 41 28.5 70.5t70.5 29.5q35 0 57 -23zM17 -181q-50 42 -50 106q0 52 19 86t46 54t70 43q33 18 51.5 30t30.5 30.5t12 43.5q0 14 -2 22l137 21q8 -26 8 -49q0 -45 -17.5 -75.5t-42 -49.5
t-63.5 -40q-45 -26 -65 -45t-20 -50q0 -22 15 -33t44 -11q62 0 126 62l89 -81q-103 -106 -243 -106q-95 0 -145 42z" />
    <glyph glyph-name="Agrave" unicode="&#xc0;" horiz-adv-x="581" 
d="M387 0l-14 149h-201l-55 -149h-168l303 693h196l108 -693h-169zM215 268h146l-30 315zM309 949l200 -124l-42 -77l-224 82z" />
    <glyph glyph-name="Aacute" unicode="&#xc1;" horiz-adv-x="581" 
d="M387 0l-14 149h-201l-55 -149h-168l303 693h196l108 -693h-169zM215 268h146l-30 315zM469 950l49 -119l-245 -84l-34 78z" />
    <glyph glyph-name="Acircumflex" unicode="&#xc2;" horiz-adv-x="581" 
d="M387 0l-14 149h-201l-55 -149h-168l303 693h196l108 -693h-169zM215 268h146l-30 315zM226 755l-51 65l157 129h95l121 -129l-61 -65l-120 84z" />
    <glyph glyph-name="Atilde" unicode="&#xc3;" horiz-adv-x="581" 
d="M387 0l-14 149h-201l-55 -149h-168l303 693h196l108 -693h-169zM215 268h146l-30 315zM389 767.5q-14 6.5 -36 20.5q-13 9 -21.5 13.5t-17.5 4.5q-18 0 -31 -11t-30 -35l-72 42q27 52 63 84t77 32q22 0 37.5 -7.5t34.5 -20.5q11 -9 19 -13t17 -4q16 0 29.5 10.5
t30.5 34.5l73 -41q-28 -53 -64 -84.5t-75 -31.5q-20 0 -34 6.5z" />
    <glyph glyph-name="Adieresis" unicode="&#xc4;" horiz-adv-x="581" 
d="M387 0l-14 149h-201l-55 -149h-168l303 693h196l108 -693h-169zM215 268h146l-30 315zM195 787.5q-20 19.5 -20 49.5q0 38 26 63t64 25q33 0 53 -20t20 -50q0 -37 -26 -62t-64 -25q-33 0 -53 19.5zM422.5 787.5q-19.5 19.5 -19.5 49.5q0 38 26 63t64 25q33 0 53 -20
t20 -50q0 -37 -26.5 -62t-64.5 -25q-33 0 -52.5 19.5z" />
    <glyph glyph-name="Aring" unicode="&#xc5;" horiz-adv-x="581" 
d="M387 0l-14 149h-201l-55 -149h-168l303 693h196l108 -693h-169zM215 268h146l-30 315zM480 960q33 -33 33 -85q0 -38 -19.5 -71t-54.5 -53t-80 -20q-56 0 -88.5 33t-32.5 85q0 37 19.5 70.5t54.5 53.5t79 20q56 0 89 -33zM343 895q-15 -18 -15 -42q0 -20 10 -30.5
t28 -10.5q26 0 41 17.5t15 42.5q0 20 -10 30.5t-28 10.5q-26 0 -41 -18z" />
    <glyph glyph-name="AE" unicode="&#xc6;" horiz-adv-x="832" 
d="M791 576h-267l11 -168h240l-15 -115h-218l11 -175h227l-17 -118h-354l-6 149h-217l-70 -149h-174l357 693h525zM242 268h156l-13 305z" />
    <glyph glyph-name="Ccedilla" unicode="&#xc7;" horiz-adv-x="565" 
d="M344 -15l-6 -33q45 -5 68 -28.5t23 -61.5q0 -30 -16.5 -58.5t-52.5 -47t-90 -18.5q-66 0 -109 32l44 71q28 -17 61 -17q23 0 36.5 8t14.5 25q0 17 -19.5 24t-66.5 7l25 98q-101 15 -159 87.5t-58 195.5q0 104 37 205.5t117 168.5t202 67q131 0 205 -82l-87 -85
q-28 23 -55 34.5t-61 11.5q-68 0 -111 -51.5t-61.5 -125t-18.5 -143.5q0 -81 32 -120t90 -39q37 0 69.5 15t70.5 43l63 -97q-84 -73 -187 -86z" />
    <glyph glyph-name="Egrave" unicode="&#xc8;" horiz-adv-x="517" 
d="M543 693l-34 -117h-240l-24 -166h210l-15 -115h-210l-25 -177h257l-16 -118h-419l97 693h419zM294 949l200 -124l-42 -77l-224 82z" />
    <glyph glyph-name="Eacute" unicode="&#xc9;" horiz-adv-x="517" 
d="M543 693l-34 -117h-240l-24 -166h210l-15 -115h-210l-25 -177h257l-16 -118h-419l97 693h419zM454 950l49 -119l-245 -84l-34 78z" />
    <glyph glyph-name="Ecircumflex" unicode="&#xca;" horiz-adv-x="517" 
d="M543 693l-34 -117h-240l-24 -166h210l-15 -115h-210l-25 -177h257l-16 -118h-419l97 693h419zM211 755l-51 65l157 129h95l121 -129l-61 -65l-120 84z" />
    <glyph glyph-name="Edieresis" unicode="&#xcb;" horiz-adv-x="517" 
d="M543 693l-34 -117h-240l-24 -166h210l-15 -115h-210l-25 -177h257l-16 -118h-419l97 693h419zM180 787.5q-20 19.5 -20 49.5q0 38 26 63t64 25q33 0 53 -20t20 -50q0 -37 -26 -62t-64 -25q-33 0 -53 19.5zM407.5 787.5q-19.5 19.5 -19.5 49.5q0 38 26 63t64 25
q33 0 53 -20t20 -50q0 -37 -26.5 -62t-64.5 -25q-33 0 -52.5 19.5z" />
    <glyph glyph-name="Igrave" unicode="&#xcc;" horiz-adv-x="290" 
d="M285 693l-97 -693h-161l97 693h161zM164 949l200 -124l-42 -77l-224 82z" />
    <glyph glyph-name="Iacute" unicode="&#xcd;" horiz-adv-x="290" 
d="M285 693l-97 -693h-161l97 693h161zM324 950l49 -119l-245 -84l-34 78z" />
    <glyph glyph-name="Icircumflex" unicode="&#xce;" horiz-adv-x="290" 
d="M285 693l-97 -693h-161l97 693h161zM81 755l-51 65l157 129h95l121 -129l-61 -65l-120 84z" />
    <glyph glyph-name="Idieresis" unicode="&#xcf;" horiz-adv-x="290" 
d="M285 693l-97 -693h-161l97 693h161zM50 787.5q-20 19.5 -20 49.5q0 38 26 63t64 25q33 0 53 -20t20 -50q0 -37 -26 -62t-64 -25q-33 0 -53 19.5zM277.5 787.5q-19.5 19.5 -19.5 49.5q0 38 26 63t64 25q33 0 53 -20t20 -50q0 -37 -26.5 -62t-64.5 -25q-33 0 -52.5 19.5z
" />
    <glyph glyph-name="Eth" unicode="&#xd0;" horiz-adv-x="651" 
d="M549.5 635.5q85.5 -57.5 85.5 -205.5q0 -189 -92.5 -309.5t-299.5 -120.5h-207l43 304h-63l13 98h63l41 291h188q143 0 228.5 -57.5zM423.5 211.5q46.5 93.5 46.5 218.5q0 83 -36 113.5t-103 30.5h-53l-24 -172h133l-14 -98h-133l-26 -186h53q110 0 156.5 93.5z" />
    <glyph glyph-name="Ntilde" unicode="&#xd1;" horiz-adv-x="654" 
d="M552 0h-204l-128 557q2 -54 2 -83q0 -106 -17 -228l-35 -246h-143l97 693h202l131 -557q-3 56 -3 104q0 88 13 180l39 273h143zM430 767.5q-14 6.5 -36 20.5q-13 9 -21.5 13.5t-17.5 4.5q-18 0 -31 -11t-30 -35l-72 42q27 52 63 84t77 32q22 0 37.5 -7.5t34.5 -20.5
q11 -9 19 -13t17 -4q16 0 29.5 10.5t30.5 34.5l73 -41q-28 -53 -64 -84.5t-75 -31.5q-20 0 -34 6.5z" />
    <glyph glyph-name="Ograve" unicode="&#xd2;" horiz-adv-x="681" 
d="M596 636q69 -74 69 -210q0 -105 -35 -206t-116 -169t-210 -68q-127 0 -196 74.5t-69 209.5q0 104 35.5 205t116.5 169.5t210 68.5q126 0 195 -74zM278.5 534q-41.5 -56 -57.5 -132t-16 -147q0 -80 27.5 -116t82.5 -36q69 0 110.5 56t57.5 132.5t16 148.5
q0 79 -27.5 114.5t-82.5 35.5q-69 0 -110.5 -56zM361 949l200 -124l-42 -77l-224 82z" />
    <glyph glyph-name="Oacute" unicode="&#xd3;" horiz-adv-x="681" 
d="M596 636q69 -74 69 -210q0 -105 -35 -206t-116 -169t-210 -68q-127 0 -196 74.5t-69 209.5q0 104 35.5 205t116.5 169.5t210 68.5q126 0 195 -74zM278.5 534q-41.5 -56 -57.5 -132t-16 -147q0 -80 27.5 -116t82.5 -36q69 0 110.5 56t57.5 132.5t16 148.5
q0 79 -27.5 114.5t-82.5 35.5q-69 0 -110.5 -56zM521 950l49 -119l-245 -84l-34 78z" />
    <glyph glyph-name="Ocircumflex" unicode="&#xd4;" horiz-adv-x="681" 
d="M596 636q69 -74 69 -210q0 -105 -35 -206t-116 -169t-210 -68q-127 0 -196 74.5t-69 209.5q0 104 35.5 205t116.5 169.5t210 68.5q126 0 195 -74zM278.5 534q-41.5 -56 -57.5 -132t-16 -147q0 -80 27.5 -116t82.5 -36q69 0 110.5 56t57.5 132.5t16 148.5
q0 79 -27.5 114.5t-82.5 35.5q-69 0 -110.5 -56zM278 755l-51 65l157 129h95l121 -129l-61 -65l-120 84z" />
    <glyph glyph-name="Otilde" unicode="&#xd5;" horiz-adv-x="681" 
d="M596 636q69 -74 69 -210q0 -105 -35 -206t-116 -169t-210 -68q-127 0 -196 74.5t-69 209.5q0 104 35.5 205t116.5 169.5t210 68.5q126 0 195 -74zM278.5 534q-41.5 -56 -57.5 -132t-16 -147q0 -80 27.5 -116t82.5 -36q69 0 110.5 56t57.5 132.5t16 148.5
q0 79 -27.5 114.5t-82.5 35.5q-69 0 -110.5 -56zM441 767.5q-14 6.5 -36 20.5q-13 9 -21.5 13.5t-17.5 4.5q-18 0 -31 -11t-30 -35l-72 42q27 52 63 84t77 32q22 0 37.5 -7.5t34.5 -20.5q11 -9 19 -13t17 -4q16 0 29.5 10.5t30.5 34.5l73 -41q-28 -53 -64 -84.5t-75 -31.5
q-20 0 -34 6.5z" />
    <glyph glyph-name="Odieresis" unicode="&#xd6;" horiz-adv-x="681" 
d="M596 636q69 -74 69 -210q0 -105 -35 -206t-116 -169t-210 -68q-127 0 -196 74.5t-69 209.5q0 104 35.5 205t116.5 169.5t210 68.5q126 0 195 -74zM278.5 534q-41.5 -56 -57.5 -132t-16 -147q0 -80 27.5 -116t82.5 -36q69 0 110.5 56t57.5 132.5t16 148.5
q0 79 -27.5 114.5t-82.5 35.5q-69 0 -110.5 -56zM247 787.5q-20 19.5 -20 49.5q0 38 26 63t64 25q33 0 53 -20t20 -50q0 -37 -26 -62t-64 -25q-33 0 -53 19.5zM474.5 787.5q-19.5 19.5 -19.5 49.5q0 38 26 63t64 25q33 0 53 -20t20 -50q0 -37 -26.5 -62t-64.5 -25
q-33 0 -52.5 19.5z" />
    <glyph glyph-name="multiply" unicode="&#xd7;" horiz-adv-x="510" 
d="M401 510l76 -87l-131 -114l100 -122l-96 -84l-96 120l-133 -120l-77 87l131 115l-99 121l96 84l96 -119z" />
    <glyph glyph-name="Oslash" unicode="&#xd8;" horiz-adv-x="681" 
d="M638.5 569.5q26.5 -60.5 26.5 -143.5q0 -105 -35 -206t-116 -169t-210 -68q-27 0 -51 3l-53 -120l-118 32l59 131q-50 35 -76 95.5t-26 142.5q0 104 35.5 205t116.5 169.5t210 68.5q25 0 49 -3l54 121l117 -33l-59 -130q50 -35 76.5 -95.5zM277.5 534
q-41.5 -56 -58.5 -134t-17 -151q0 -70 19 -105l193 445q-8 1 -25 1q-70 0 -111.5 -56zM426.5 159.5q41.5 56.5 58.5 135t17 152.5q0 71 -19 103l-193 -446q8 -1 25 -1q70 0 111.5 56.5z" />
    <glyph glyph-name="Ugrave" unicode="&#xd9;" horiz-adv-x="641" 
d="M582 229q-10 -72 -47.5 -127.5t-101.5 -87t-150 -31.5q-117 0 -177 55t-60 150q0 22 3 44l65 461h161l-64 -458q-3 -22 -3 -40q0 -46 21 -68t66 -22q56 0 86.5 33t39.5 100l65 455h161zM340 949l200 -124l-42 -77l-224 82z" />
    <glyph glyph-name="Uacute" unicode="&#xda;" horiz-adv-x="641" 
d="M582 229q-10 -72 -47.5 -127.5t-101.5 -87t-150 -31.5q-117 0 -177 55t-60 150q0 22 3 44l65 461h161l-64 -458q-3 -22 -3 -40q0 -46 21 -68t66 -22q56 0 86.5 33t39.5 100l65 455h161zM500 950l49 -119l-245 -84l-34 78z" />
    <glyph glyph-name="Ucircumflex" unicode="&#xdb;" horiz-adv-x="641" 
d="M582 229q-10 -72 -47.5 -127.5t-101.5 -87t-150 -31.5q-117 0 -177 55t-60 150q0 22 3 44l65 461h161l-64 -458q-3 -22 -3 -40q0 -46 21 -68t66 -22q56 0 86.5 33t39.5 100l65 455h161zM257 755l-51 65l157 129h95l121 -129l-61 -65l-120 84z" />
    <glyph glyph-name="Udieresis" unicode="&#xdc;" horiz-adv-x="641" 
d="M582 229q-10 -72 -47.5 -127.5t-101.5 -87t-150 -31.5q-117 0 -177 55t-60 150q0 22 3 44l65 461h161l-64 -458q-3 -22 -3 -40q0 -46 21 -68t66 -22q56 0 86.5 33t39.5 100l65 455h161zM226 787.5q-20 19.5 -20 49.5q0 38 26 63t64 25q33 0 53 -20t20 -50q0 -37 -26 -62
t-64 -25q-33 0 -53 19.5zM453.5 787.5q-19.5 19.5 -19.5 49.5q0 38 26 63t64 25q33 0 53 -20t20 -50q0 -37 -26.5 -62t-64.5 -25q-33 0 -52.5 19.5z" />
    <glyph glyph-name="Yacute" unicode="&#xdd;" horiz-adv-x="584" 
d="M652 693l-280 -433l-36 -260h-162l37 259l-158 434h172l84 -305l169 305h174zM472 950l49 -119l-245 -84l-34 78z" />
    <glyph glyph-name="Thorn" unicode="&#xde;" horiz-adv-x="591" 
d="M519 535.5q67 -49.5 67 -149.5q0 -66 -29 -128t-98 -103t-180 -41h-75l-16 -114h-161l97 693h161l-15 -108h58q124 0 191 -49.5zM387 277q32 45 32 105q0 86 -106 86h-59l-34 -236h59q76 0 108 45z" />
    <glyph glyph-name="germandbls" unicode="&#xdf;" horiz-adv-x="594" 
d="M-100 -108q60 23 90 53.5t39 92.5l69 497q14 106 81.5 165t178.5 59q89 0 137.5 -40t48.5 -103q0 -42 -19 -68t-55 -55q-26 -21 -38 -35.5t-12 -34.5q0 -19 12.5 -33.5t38.5 -35.5q29 -24 48 -43.5t32.5 -50.5t13.5 -74q0 -49 -24 -96t-74.5 -77t-124.5 -30
q-35 0 -67 8.5t-57 21.5l58 104q26 -13 53 -13q41 0 58.5 23t17.5 51q0 30 -15 51t-45 47q-32 28 -48.5 52t-16.5 60q0 43 16.5 70t47.5 56q27 25 39.5 43.5t12.5 46.5q0 21 -13.5 32.5t-36.5 11.5q-78 0 -93 -112l-66 -478q-11 -83 -44.5 -136.5t-82.5 -85.5t-121 -58z" />
    <glyph glyph-name="agrave" unicode="&#xe0;" horiz-adv-x="572" 
d="M547 492l-49 -340q-2 -18 -2 -23q0 -16 6 -25.5t22 -15.5l-45 -102q-46 4 -79 25.5t-44 62.5q-64 -91 -158 -91q-83 0 -127.5 56.5t-44.5 154.5q0 84 31 165t99.5 135t173.5 54q115 0 217 -56zM246.5 399q-31.5 -37 -45.5 -92t-14 -112q0 -53 15.5 -74.5t44.5 -21.5
q53 0 101 74l37 253q-29 10 -59 10q-48 0 -79.5 -37zM313 835l201 -134l-44 -77l-224 93z" />
    <glyph glyph-name="aacute" unicode="&#xe1;" horiz-adv-x="572" 
d="M547 492l-49 -340q-2 -18 -2 -23q0 -16 6 -25.5t22 -15.5l-45 -102q-46 4 -79 25.5t-44 62.5q-64 -91 -158 -91q-83 0 -127.5 56.5t-44.5 154.5q0 84 31 165t99.5 135t173.5 54q115 0 217 -56zM246.5 399q-31.5 -37 -45.5 -92t-14 -112q0 -53 15.5 -74.5t44.5 -21.5
q53 0 101 74l37 253q-29 10 -59 10q-48 0 -79.5 -37zM462 835l48 -118l-245 -95l-35 81z" />
    <glyph glyph-name="acircumflex" unicode="&#xe2;" horiz-adv-x="572" 
d="M547 492l-49 -340q-2 -18 -2 -23q0 -16 6 -25.5t22 -15.5l-45 -102q-46 4 -79 25.5t-44 62.5q-64 -91 -158 -91q-83 0 -127.5 56.5t-44.5 154.5q0 84 31 165t99.5 135t173.5 54q115 0 217 -56zM246.5 399q-31.5 -37 -45.5 -92t-14 -112q0 -53 15.5 -74.5t44.5 -21.5
q53 0 101 74l37 253q-29 10 -59 10q-48 0 -79.5 -37zM227 620l-50 65l157 137h95l120 -137l-63 -65l-117 92z" />
    <glyph glyph-name="atilde" unicode="&#xe3;" horiz-adv-x="572" 
d="M547 492l-49 -340q-2 -18 -2 -23q0 -16 6 -25.5t22 -15.5l-45 -102q-46 4 -79 25.5t-44 62.5q-64 -91 -158 -91q-83 0 -127.5 56.5t-44.5 154.5q0 84 31 165t99.5 135t173.5 54q115 0 217 -56zM246.5 399q-31.5 -37 -45.5 -92t-14 -112q0 -53 15.5 -74.5t44.5 -21.5
q53 0 101 74l37 253q-29 10 -59 10q-48 0 -79.5 -37zM388 641.5q-14 6.5 -36 20.5q-13 9 -21.5 13.5t-17.5 4.5q-18 0 -31 -11t-30 -35l-72 42q27 52 63 84t77 32q22 0 37.5 -7.5t34.5 -20.5q11 -9 19 -13t17 -4q16 0 29.5 10.5t30.5 34.5l73 -41q-28 -53 -64 -84.5
t-75 -31.5q-20 0 -34 6.5z" />
    <glyph glyph-name="adieresis" unicode="&#xe4;" horiz-adv-x="572" 
d="M547 492l-49 -340q-2 -18 -2 -23q0 -16 6 -25.5t22 -15.5l-45 -102q-46 4 -79 25.5t-44 62.5q-64 -91 -158 -91q-83 0 -127.5 56.5t-44.5 154.5q0 84 31 165t99.5 135t173.5 54q115 0 217 -56zM246.5 399q-31.5 -37 -45.5 -92t-14 -112q0 -53 15.5 -74.5t44.5 -21.5
q53 0 101 74l37 253q-29 10 -59 10q-48 0 -79.5 -37zM195 661.5q-20 19.5 -20 49.5q0 38 26 63t64 25q33 0 53 -20t20 -50q0 -37 -26 -62t-64 -25q-33 0 -53 19.5zM422.5 661.5q-19.5 19.5 -19.5 49.5q0 38 26 63t64 25q33 0 53 -20t20 -50q0 -37 -26.5 -62t-64.5 -25
q-33 0 -52.5 19.5z" />
    <glyph glyph-name="aring" unicode="&#xe5;" horiz-adv-x="572" 
d="M547 492l-49 -340q-2 -18 -2 -23q0 -16 6 -25.5t22 -15.5l-45 -102q-46 4 -79 25.5t-44 62.5q-64 -91 -158 -91q-83 0 -127.5 56.5t-44.5 154.5q0 84 31 165t99.5 135t173.5 54q115 0 217 -56zM246.5 399q-31.5 -37 -45.5 -92t-14 -112q0 -53 15.5 -74.5t44.5 -21.5
q53 0 101 74l37 253q-29 10 -59 10q-48 0 -79.5 -37zM477 834q33 -33 33 -85q0 -38 -19.5 -71t-54.5 -53t-80 -20q-56 0 -88.5 33t-32.5 85q0 37 19.5 70.5t54.5 53.5t79 20q56 0 89 -33zM340 769q-15 -18 -15 -42q0 -20 10 -30.5t28 -10.5q26 0 41 17.5t15 42.5
q0 20 -10 30.5t-28 10.5q-26 0 -41 -18z" />
    <glyph glyph-name="ae" unicode="&#xe6;" horiz-adv-x="833" 
d="M387 530q38 -18 62 -53q30 32 77.5 51.5t102.5 19.5q62 0 106.5 -19t67 -52t22.5 -74q0 -102 -95 -148t-247 -61q2 -52 27 -73.5t68 -21.5q34 0 65.5 12t70.5 37l56 -94q-98 -71 -211 -71q-69 0 -117 22.5t-75 65.5q-43 -48 -90.5 -68t-104.5 -20q-75 0 -119 39.5
t-44 104.5q0 83 63 139t213 56h59q5 22 10.5 36t6.5 17q-4 27 -30 42t-65 15q-64 0 -143 -26l-24 105q99 37 189 37q61 0 99 -18zM531.5 399q-30.5 -44 -41.5 -109q93 8 135.5 37t42.5 67q0 21 -12.5 35t-41.5 14q-52 0 -82.5 -44zM288 231q-55 0 -85 -20.5t-30 -63.5
q0 -51 53 -51q29 0 54 15.5t53 46.5q-4 22 -2 73h-43z" />
    <glyph glyph-name="ccedilla" unicode="&#xe7;" horiz-adv-x="470" 
d="M277 -16l-5 -32q45 -5 68 -28.5t23 -61.5q0 -30 -16.5 -58.5t-52.5 -47t-90 -18.5q-66 0 -109 32l44 71q28 -17 61 -17q23 0 36.5 8t14.5 25q0 17 -19.5 24t-66.5 7l25 101q-78 17 -120.5 75.5t-42.5 147.5q0 76 31 153.5t98 130t168 52.5q104 0 170 -68l-77 -90
q-40 37 -92 37q-73 0 -104 -67.5t-31 -153.5q0 -53 21.5 -75.5t61.5 -22.5q27 0 50 8.5t55 28.5l58 -101q-75 -55 -159 -60z" />
    <glyph glyph-name="egrave" unicode="&#xe8;" horiz-adv-x="533" 
d="M429.5 255q-94.5 -47 -246.5 -62q5 -94 95 -94q33 0 65.5 12t69.5 37l56 -94q-98 -71 -211 -71t-172 60.5t-59 164.5q0 80 30.5 158t98.5 130t172 52q93 0 144.5 -41t51.5 -104q0 -101 -94.5 -148zM325 324.5q42 29.5 42 71.5q0 19 -12 33t-39 14q-52 0 -83 -44t-43 -110
q93 6 135 35.5zM284 835l201 -134l-44 -77l-224 93z" />
    <glyph glyph-name="eacute" unicode="&#xe9;" horiz-adv-x="533" 
d="M429.5 255q-94.5 -47 -246.5 -62q5 -94 95 -94q33 0 65.5 12t69.5 37l56 -94q-98 -71 -211 -71t-172 60.5t-59 164.5q0 80 30.5 158t98.5 130t172 52q93 0 144.5 -41t51.5 -104q0 -101 -94.5 -148zM325 324.5q42 29.5 42 71.5q0 19 -12 33t-39 14q-52 0 -83 -44t-43 -110
q93 6 135 35.5zM433 835l48 -118l-245 -95l-35 81z" />
    <glyph glyph-name="ecircumflex" unicode="&#xea;" horiz-adv-x="533" 
d="M429.5 255q-94.5 -47 -246.5 -62q5 -94 95 -94q33 0 65.5 12t69.5 37l56 -94q-98 -71 -211 -71t-172 60.5t-59 164.5q0 80 30.5 158t98.5 130t172 52q93 0 144.5 -41t51.5 -104q0 -101 -94.5 -148zM325 324.5q42 29.5 42 71.5q0 19 -12 33t-39 14q-52 0 -83 -44t-43 -110
q93 6 135 35.5zM198 620l-50 65l157 137h95l120 -137l-63 -65l-117 92z" />
    <glyph glyph-name="edieresis" unicode="&#xeb;" horiz-adv-x="533" 
d="M429.5 255q-94.5 -47 -246.5 -62q5 -94 95 -94q33 0 65.5 12t69.5 37l56 -94q-98 -71 -211 -71t-172 60.5t-59 164.5q0 80 30.5 158t98.5 130t172 52q93 0 144.5 -41t51.5 -104q0 -101 -94.5 -148zM325 324.5q42 29.5 42 71.5q0 19 -12 33t-39 14q-52 0 -83 -44t-43 -110
q93 6 135 35.5zM166 661.5q-20 19.5 -20 49.5q0 38 26 63t64 25q33 0 53 -20t20 -50q0 -37 -26 -62t-64 -25q-33 0 -53 19.5zM393.5 661.5q-19.5 19.5 -19.5 49.5q0 38 26 63t64 25q33 0 53 -20t20 -50q0 -37 -26.5 -62t-64.5 -25q-33 0 -52.5 19.5z" />
    <glyph glyph-name="igrave" unicode="&#xec;" horiz-adv-x="277" 
d="M253 531l-74 -531h-155l74 531h155zM144 835l201 -134l-44 -77l-224 93z" />
    <glyph glyph-name="iacute" unicode="&#xed;" horiz-adv-x="277" 
d="M253 531l-74 -531h-155l74 531h155zM293 835l48 -118l-245 -95l-35 81z" />
    <glyph glyph-name="icircumflex" unicode="&#xee;" horiz-adv-x="277" 
d="M253 531l-74 -531h-155l74 531h155zM58 620l-50 65l157 137h95l120 -137l-63 -65l-117 92z" />
    <glyph glyph-name="idieresis" unicode="&#xef;" horiz-adv-x="277" 
d="M253 531l-74 -531h-155l74 531h155zM26 661.5q-20 19.5 -20 49.5q0 38 26 63t64 25q33 0 53 -20t20 -50q0 -37 -26 -62t-64 -25q-33 0 -53 19.5zM253.5 661.5q-19.5 19.5 -19.5 49.5q0 38 26 63t64 25q33 0 53 -20t20 -50q0 -37 -26.5 -62t-64.5 -25q-33 0 -52.5 19.5z
" />
    <glyph glyph-name="eth" unicode="&#xf0;" horiz-adv-x="574" 
d="M509.5 539.5q32.5 -72.5 32.5 -164.5q0 -112 -34.5 -201t-102 -140t-161.5 -51q-64 0 -113.5 25t-78 72.5t-28.5 113.5q0 68 27.5 134t82 108.5t130.5 42.5q41 0 72 -12t56 -35q-8 48 -26 83.5t-54 68.5l-62 -56l-93 46l65 60q-37 12 -86 21l43 103q73 -13 137 -39l84 79
l71 -71l-65 -59q71 -56 103.5 -128.5zM345.5 157q27.5 59 38.5 171q-32 41 -89 41q-60 0 -86.5 -54t-26.5 -125q0 -92 73 -92q63 0 90.5 59z" />
    <glyph glyph-name="ntilde" unicode="&#xf1;" horiz-adv-x="568" 
d="M499 514q32 -34 32 -94q0 -16 -3 -36l-53 -384h-155l49 351q2 20 2 25q0 24 -8.5 33.5t-24.5 9.5q-54 0 -117 -127l-42 -292h-155l74 531h135l-3 -93q35 51 82 80.5t99 29.5q56 0 88 -34zM368 641.5q-14 6.5 -36 20.5q-13 9 -21.5 13.5t-17.5 4.5q-18 0 -31 -11t-30 -35
l-72 42q27 52 63 84t77 32q22 0 37.5 -7.5t34.5 -20.5q11 -9 19 -13t17 -4q16 0 29.5 10.5t30.5 34.5l73 -41q-28 -53 -64 -84.5t-75 -31.5q-20 0 -34 6.5z" />
    <glyph glyph-name="ograve" unicode="&#xf2;" horiz-adv-x="574" 
d="M86.5 43q-58.5 60 -58.5 166q0 82 29 159.5t95.5 128.5t171.5 51q104 0 163 -60t59 -163q0 -82 -29 -160t-95.5 -130t-171.5 -52t-163.5 60zM358 172.5q28 73.5 29 159.5q0 52 -18.5 76t-55.5 24q-69 0 -97.5 -74t-28.5 -159q0 -52 18 -76t56 -24q69 0 97 73.5zM288 835
l201 -134l-44 -77l-224 93z" />
    <glyph glyph-name="oacute" unicode="&#xf3;" horiz-adv-x="574" 
d="M86.5 43q-58.5 60 -58.5 166q0 82 29 159.5t95.5 128.5t171.5 51q104 0 163 -60t59 -163q0 -82 -29 -160t-95.5 -130t-171.5 -52t-163.5 60zM358 172.5q28 73.5 29 159.5q0 52 -18.5 76t-55.5 24q-69 0 -97.5 -74t-28.5 -159q0 -52 18 -76t56 -24q69 0 97 73.5zM437 835
l48 -118l-245 -95l-35 81z" />
    <glyph glyph-name="ocircumflex" unicode="&#xf4;" horiz-adv-x="574" 
d="M86.5 43q-58.5 60 -58.5 166q0 82 29 159.5t95.5 128.5t171.5 51q104 0 163 -60t59 -163q0 -82 -29 -160t-95.5 -130t-171.5 -52t-163.5 60zM358 172.5q28 73.5 29 159.5q0 52 -18.5 76t-55.5 24q-69 0 -97.5 -74t-28.5 -159q0 -52 18 -76t56 -24q69 0 97 73.5zM202 620
l-50 65l157 137h95l120 -137l-63 -65l-117 92z" />
    <glyph glyph-name="otilde" unicode="&#xf5;" horiz-adv-x="574" 
d="M86.5 43q-58.5 60 -58.5 166q0 82 29 159.5t95.5 128.5t171.5 51q104 0 163 -60t59 -163q0 -82 -29 -160t-95.5 -130t-171.5 -52t-163.5 60zM358 172.5q28 73.5 29 159.5q0 52 -18.5 76t-55.5 24q-69 0 -97.5 -74t-28.5 -159q0 -52 18 -76t56 -24q69 0 97 73.5z
M363 641.5q-14 6.5 -36 20.5q-13 9 -21.5 13.5t-17.5 4.5q-18 0 -31 -11t-30 -35l-72 42q27 52 63 84t77 32q22 0 37.5 -7.5t34.5 -20.5q11 -9 19 -13t17 -4q16 0 29.5 10.5t30.5 34.5l73 -41q-28 -53 -64 -84.5t-75 -31.5q-20 0 -34 6.5z" />
    <glyph glyph-name="odieresis" unicode="&#xf6;" horiz-adv-x="574" 
d="M86.5 43q-58.5 60 -58.5 166q0 82 29 159.5t95.5 128.5t171.5 51q104 0 163 -60t59 -163q0 -82 -29 -160t-95.5 -130t-171.5 -52t-163.5 60zM358 172.5q28 73.5 29 159.5q0 52 -18.5 76t-55.5 24q-69 0 -97.5 -74t-28.5 -159q0 -52 18 -76t56 -24q69 0 97 73.5z
M170 661.5q-20 19.5 -20 49.5q0 38 26 63t64 25q33 0 53 -20t20 -50q0 -37 -26 -62t-64 -25q-33 0 -53 19.5zM397.5 661.5q-19.5 19.5 -19.5 49.5q0 38 26 63t64 25q33 0 53 -20t20 -50q0 -37 -26.5 -62t-64.5 -25q-33 0 -52.5 19.5z" />
    <glyph glyph-name="divide" unicode="&#xf7;" horiz-adv-x="509" 
d="M167 24q-22 23 -22 59q0 40 29 69.5t70 29.5q34 0 56.5 -23t22.5 -58q0 -41 -28.5 -70.5t-70.5 -29.5q-35 0 -57 23zM234 506q-22 23 -22 59q0 40 29 69.5t70 29.5q34 0 56.5 -23t22.5 -58q0 -41 -28.5 -70.5t-70.5 -29.5q-35 0 -57 23zM48 271l17 122h415l-17 -122h-415
z" />
    <glyph glyph-name="oslash" unicode="&#xf8;" horiz-adv-x="574" 
d="M525 431q21 -47 21 -105q0 -82 -29 -160.5t-95.5 -130.5t-171.5 -52q-13 0 -35 2l-53 -120l-110 34l58 126q-40 29 -61 76.5t-21 107.5q0 82 29 159.5t95.5 128.5t171.5 51q13 0 35 -2l55 121l110 -34l-60 -127q40 -28 61 -75zM231 393.5q-32 -38.5 -45 -91.5t-13 -100
q0 -45 14 -70l139 300h-11q-52 0 -84 -38.5zM343 137.5q31 38.5 44 91t13 98.5q0 44 -13 67l-138 -295h11q52 0 83 38.5z" />
    <glyph glyph-name="ugrave" unicode="&#xf9;" horiz-adv-x="562" 
d="M69 18q-33 35 -33 97q0 18 3 37l54 379h155l-49 -354q-2 -20 -2 -25q0 -24 9.5 -34t27.5 -10q47 0 102 84l47 339h155l-74 -531h-134l3 79q-74 -96 -168 -96q-63 0 -96 35zM285 835l201 -134l-44 -77l-224 93z" />
    <glyph glyph-name="uacute" unicode="&#xfa;" horiz-adv-x="562" 
d="M69 18q-33 35 -33 97q0 18 3 37l54 379h155l-49 -354q-2 -20 -2 -25q0 -24 9.5 -34t27.5 -10q47 0 102 84l47 339h155l-74 -531h-134l3 79q-74 -96 -168 -96q-63 0 -96 35zM434 835l48 -118l-245 -95l-35 81z" />
    <glyph glyph-name="ucircumflex" unicode="&#xfb;" horiz-adv-x="562" 
d="M69 18q-33 35 -33 97q0 18 3 37l54 379h155l-49 -354q-2 -20 -2 -25q0 -24 9.5 -34t27.5 -10q47 0 102 84l47 339h155l-74 -531h-134l3 79q-74 -96 -168 -96q-63 0 -96 35zM199 620l-50 65l157 137h95l120 -137l-63 -65l-117 92z" />
    <glyph glyph-name="udieresis" unicode="&#xfc;" horiz-adv-x="562" 
d="M69 18q-33 35 -33 97q0 18 3 37l54 379h155l-49 -354q-2 -20 -2 -25q0 -24 9.5 -34t27.5 -10q47 0 102 84l47 339h155l-74 -531h-134l3 79q-74 -96 -168 -96q-63 0 -96 35zM167 661.5q-20 19.5 -20 49.5q0 38 26 63t64 25q33 0 53 -20t20 -50q0 -37 -26 -62t-64 -25
q-33 0 -53 19.5zM394.5 661.5q-19.5 19.5 -19.5 49.5q0 38 26 63t64 25q33 0 53 -20t20 -50q0 -37 -26.5 -62t-64.5 -25q-33 0 -52.5 19.5z" />
    <glyph glyph-name="yacute" unicode="&#xfd;" horiz-adv-x="507" 
d="M317 -2q-91 -207 -329 -220l-4 111q77 10 116.5 34t70.5 77h-55l-85 531h162l35 -429l161 429h162zM409 835l48 -118l-245 -95l-35 81z" />
    <glyph glyph-name="thorn" unicode="&#xfe;" horiz-adv-x="581" 
d="M513 494.5q42 -53.5 42 -153.5q0 -86 -27.5 -167.5t-91.5 -136t-166 -54.5q-51 0 -92 15l-29 -204l-157 -17l135 965l157 17l-38 -272q30 28 68.5 44.5t76.5 16.5q80 0 122 -53.5zM337.5 135q30.5 37 44 92.5t13.5 110.5q0 52 -17 73t-47 21q-53 0 -101 -61l-36 -260
q34 -13 67 -13q46 0 76.5 37z" />
    <glyph glyph-name="ydieresis" unicode="&#xff;" horiz-adv-x="507" 
d="M317 -2q-91 -207 -329 -220l-4 111q77 10 116.5 34t70.5 77h-55l-85 531h162l35 -429l161 429h162zM142 661.5q-20 19.5 -20 49.5q0 38 26 63t64 25q33 0 53 -20t20 -50q0 -37 -26 -62t-64 -25q-33 0 -53 19.5zM369.5 661.5q-19.5 19.5 -19.5 49.5q0 38 26 63t64 25
q33 0 53 -20t20 -50q0 -37 -26.5 -62t-64.5 -25q-33 0 -52.5 19.5z" />
    <glyph glyph-name="Amacron" unicode="&#x100;" horiz-adv-x="581" 
d="M387 0l-14 149h-201l-55 -149h-168l303 693h196l108 -693h-169zM215 268h146l-30 315zM513 781h-301l15 110h301z" />
    <glyph glyph-name="amacron" unicode="&#x101;" horiz-adv-x="572" 
d="M547 492l-49 -340q-2 -18 -2 -23q0 -16 6 -25.5t22 -15.5l-45 -102q-46 4 -79 25.5t-44 62.5q-64 -91 -158 -91q-83 0 -127.5 56.5t-44.5 154.5q0 84 31 165t99.5 135t173.5 54q115 0 217 -56zM246.5 399q-31.5 -37 -45.5 -92t-14 -112q0 -53 15.5 -74.5t44.5 -21.5
q53 0 101 74l37 253q-29 10 -59 10q-48 0 -79.5 -37zM512 655h-301l15 110h301z" />
    <glyph glyph-name="Abreve" unicode="&#x102;" horiz-adv-x="581" 
d="M387 0l-14 149h-201l-55 -149h-168l303 693h196l108 -693h-169zM215 268h146l-30 315zM246.5 798.5q-38.5 47.5 -35.5 115.5l85 13q5 -30 23 -48.5t49 -18.5q33 0 57 19.5t38 50.5l86 -19q-15 -68 -65.5 -114t-123.5 -46q-75 0 -113.5 47.5z" />
    <glyph glyph-name="abreve" unicode="&#x103;" horiz-adv-x="572" 
d="M547 492l-49 -340q-2 -18 -2 -23q0 -16 6 -25.5t22 -15.5l-45 -102q-46 4 -79 25.5t-44 62.5q-64 -91 -158 -91q-83 0 -127.5 56.5t-44.5 154.5q0 84 31 165t99.5 135t173.5 54q115 0 217 -56zM246.5 399q-31.5 -37 -45.5 -92t-14 -112q0 -53 15.5 -74.5t44.5 -21.5
q53 0 101 74l37 253q-29 10 -59 10q-48 0 -79.5 -37zM240.5 681.5q-38.5 49.5 -34.5 124.5l87 13q6 -77 70 -77q34 0 59 21t39 58l83 -18q-16 -75 -66 -123t-124 -48q-75 0 -113.5 49.5z" />
    <glyph glyph-name="Aogonek" unicode="&#x104;" horiz-adv-x="581" 
d="M349 -114q0 -33 44 -33q26 0 63 8l-22 -99q-29 -7 -69 -7q-59 0 -95.5 28t-36.5 76q0 106 152 167l-12 123h-201l-55 -149h-168l303 693h196l108 -693h-73q-134 -48 -134 -114zM215 268h146l-30 315z" />
    <glyph glyph-name="aogonek" unicode="&#x105;" horiz-adv-x="572" 
d="M496 129q0 -16 6 -25.5t22 -15.5l-45 -102q-134 -48 -134 -114q0 -33 44 -33q26 0 63 8l-22 -99q-29 -7 -69 -7q-59 0 -95.5 28t-36.5 76q0 111 164 172q-27 23 -37 57q-64 -91 -158 -91q-83 0 -127.5 56.5t-44.5 154.5q0 84 31 165t99.5 135t173.5 54q115 0 217 -56
l-49 -340q-2 -18 -2 -23zM385 426q-29 10 -59 10q-48 0 -79.5 -37t-45.5 -92t-14 -112q0 -53 15.5 -74.5t44.5 -21.5q53 0 101 74z" />
    <glyph glyph-name="Cacute" unicode="&#x106;" horiz-adv-x="565" 
d="M600 628l-87 -85q-28 23 -55 34.5t-61 11.5q-68 0 -111 -51.5t-61.5 -125t-18.5 -143.5q0 -81 32 -120t90 -39q37 0 69.5 15t70.5 43l63 -97q-44 -39 -101.5 -63.5t-126.5 -24.5q-121 0 -192.5 74.5t-71.5 211.5q0 104 37 205.5t117 168.5t202 67q131 0 205 -82zM527 950
l49 -119l-245 -84l-34 78z" />
    <glyph glyph-name="cacute" unicode="&#x107;" horiz-adv-x="470" 
d="M494 480l-77 -90q-40 37 -92 37q-73 0 -104 -67.5t-31 -153.5q0 -53 21.5 -75.5t61.5 -22.5q27 0 50 8.5t55 28.5l58 -101q-83 -61 -183 -61q-106 0 -166 61.5t-60 167.5q0 76 31 153.5t98 130t168 52.5q104 0 170 -68zM441 835l48 -118l-245 -95l-35 81z" />
    <glyph glyph-name="Ccircumflex" unicode="&#x108;" horiz-adv-x="565" 
d="M600 628l-87 -85q-28 23 -55 34.5t-61 11.5q-68 0 -111 -51.5t-61.5 -125t-18.5 -143.5q0 -81 32 -120t90 -39q37 0 69.5 15t70.5 43l63 -97q-44 -39 -101.5 -63.5t-126.5 -24.5q-121 0 -192.5 74.5t-71.5 211.5q0 104 37 205.5t117 168.5t202 67q131 0 205 -82zM284 755
l-51 65l157 129h95l121 -129l-61 -65l-120 84z" />
    <glyph glyph-name="ccircumflex" unicode="&#x109;" horiz-adv-x="470" 
d="M494 480l-77 -90q-40 37 -92 37q-73 0 -104 -67.5t-31 -153.5q0 -53 21.5 -75.5t61.5 -22.5q27 0 50 8.5t55 28.5l58 -101q-83 -61 -183 -61q-106 0 -166 61.5t-60 167.5q0 76 31 153.5t98 130t168 52.5q104 0 170 -68zM206 620l-50 65l157 137h95l120 -137l-63 -65
l-117 92z" />
    <glyph glyph-name="Cdotaccent" unicode="&#x10a;" horiz-adv-x="565" 
d="M600 628l-87 -85q-28 23 -55 34.5t-61 11.5q-68 0 -111 -51.5t-61.5 -125t-18.5 -143.5q0 -81 32 -120t90 -39q37 0 69.5 15t70.5 43l63 -97q-44 -39 -101.5 -63.5t-126.5 -24.5q-121 0 -192.5 74.5t-71.5 211.5q0 104 37 205.5t117 168.5t202 67q131 0 205 -82z
M363 779.5q-23 22.5 -23 57.5q0 43 29.5 71t73.5 28q37 0 60 -22t23 -57q0 -43 -29.5 -71.5t-73.5 -28.5q-37 0 -60 22.5z" />
    <glyph glyph-name="cdotaccent" unicode="&#x10b;" horiz-adv-x="470" 
d="M494 480l-77 -90q-40 37 -92 37q-73 0 -104 -67.5t-31 -153.5q0 -53 21.5 -75.5t61.5 -22.5q27 0 50 8.5t55 28.5l58 -101q-83 -61 -183 -61q-106 0 -166 61.5t-60 167.5q0 76 31 153.5t98 130t168 52.5q104 0 170 -68zM280 653.5q-23 22.5 -23 57.5q0 43 29.5 71
t73.5 28q37 0 60 -22t23 -57q0 -43 -29.5 -71.5t-73.5 -28.5q-37 0 -60 22.5z" />
    <glyph glyph-name="Ccaron" unicode="&#x10c;" horiz-adv-x="565" 
d="M600 628l-87 -85q-28 23 -55 34.5t-61 11.5q-68 0 -111 -51.5t-61.5 -125t-18.5 -143.5q0 -81 32 -120t90 -39q37 0 69.5 15t70.5 43l63 -97q-44 -39 -101.5 -63.5t-126.5 -24.5q-121 0 -192.5 74.5t-71.5 211.5q0 104 37 205.5t117 168.5t202 67q131 0 205 -82zM570 943
l50 -64l-156 -129h-95l-122 129l62 64l119 -84z" />
    <glyph glyph-name="ccaron" unicode="&#x10d;" horiz-adv-x="470" 
d="M494 480l-77 -90q-40 37 -92 37q-73 0 -104 -67.5t-31 -153.5q0 -53 21.5 -75.5t61.5 -22.5q27 0 50 8.5t55 28.5l58 -101q-83 -61 -183 -61q-106 0 -166 61.5t-60 167.5q0 76 31 153.5t98 130t168 52.5q104 0 170 -68zM487 813l50 -65l-157 -137h-95l-120 137l60 65
l117 -91z" />
    <glyph glyph-name="Dcaron" unicode="&#x10e;" horiz-adv-x="642" 
d="M540.5 635.5q85.5 -57.5 85.5 -205.5q0 -189 -92.5 -309.5t-299.5 -120.5h-207l97 693h188q143 0 228.5 -57.5zM269 574l-64 -456h53q110 0 156.5 93.5t46.5 218.5q0 83 -36 113.5t-103 30.5h-53zM513 943l50 -64l-156 -129h-95l-122 129l62 64l119 -84z" />
    <glyph glyph-name="dcaron" unicode="&#x10f;" horiz-adv-x="660" 
d="M592 742l-104 -742h-138l1 76q-28 -42 -67.5 -67.5t-90.5 -25.5q-82 0 -124.5 56.5t-42.5 157.5q0 79 27.5 160.5t84.5 136t142 54.5q76 0 122 -51l36 261zM239.5 394.5q-28.5 -38.5 -40.5 -93t-12 -105.5q0 -53 15 -75t43 -22q31 0 58.5 26t56.5 72l28 198
q-15 19 -33 28.5t-41 9.5q-46 0 -74.5 -38.5zM642 756l115 -14l-76 -215l-80 8z" />
    <glyph glyph-name="Dcroat" unicode="&#x110;" horiz-adv-x="651" 
d="M549.5 635.5q85.5 -57.5 85.5 -205.5q0 -189 -92.5 -309.5t-299.5 -120.5h-207l43 304h-63l13 98h63l41 291h188q143 0 228.5 -57.5zM423.5 211.5q46.5 93.5 46.5 218.5q0 83 -36 113.5t-103 30.5h-53l-24 -172h133l-14 -98h-133l-26 -186h53q110 0 156.5 93.5z" />
    <glyph glyph-name="dcroat" unicode="&#x111;" horiz-adv-x="596" 
d="M632 596h-60l-84 -596h-138l1 76q-28 -42 -67.5 -67.5t-90.5 -25.5q-82 0 -124.5 56.5t-42.5 157.5q0 79 27.5 160.5t84.5 136t142 54.5q76 0 122 -51l14 99h-128v92h140l10 70l154 -16l-8 -54h61zM388 395q-15 19 -33 28.5t-41 9.5q-46 0 -74.5 -38.5t-40.5 -93
t-12 -105.5q0 -53 15 -75t43 -22q31 0 58.5 26t56.5 72z" />
    <glyph glyph-name="Emacron" unicode="&#x112;" horiz-adv-x="517" 
d="M543 693l-34 -117h-240l-24 -166h210l-15 -115h-210l-25 -177h257l-16 -118h-419l97 693h419zM498 781h-301l15 110h301z" />
    <glyph glyph-name="emacron" unicode="&#x113;" horiz-adv-x="533" 
d="M429.5 255q-94.5 -47 -246.5 -62q5 -94 95 -94q33 0 65.5 12t69.5 37l56 -94q-98 -71 -211 -71t-172 60.5t-59 164.5q0 80 30.5 158t98.5 130t172 52q93 0 144.5 -41t51.5 -104q0 -101 -94.5 -148zM325 324.5q42 29.5 42 71.5q0 19 -12 33t-39 14q-52 0 -83 -44t-43 -110
q93 6 135 35.5zM483 655h-301l15 110h301z" />
    <glyph glyph-name="Ebreve" unicode="&#x114;" horiz-adv-x="517" 
d="M543 693l-34 -117h-240l-24 -166h210l-15 -115h-210l-25 -177h257l-16 -118h-419l97 693h419zM231.5 798.5q-38.5 47.5 -35.5 115.5l85 13q5 -30 23 -48.5t49 -18.5q33 0 57 19.5t38 50.5l86 -19q-15 -68 -65.5 -114t-123.5 -46q-75 0 -113.5 47.5z" />
    <glyph glyph-name="ebreve" unicode="&#x115;" horiz-adv-x="533" 
d="M429.5 255q-94.5 -47 -246.5 -62q5 -94 95 -94q33 0 65.5 12t69.5 37l56 -94q-98 -71 -211 -71t-172 60.5t-59 164.5q0 80 30.5 158t98.5 130t172 52q93 0 144.5 -41t51.5 -104q0 -101 -94.5 -148zM325 324.5q42 29.5 42 71.5q0 19 -12 33t-39 14q-52 0 -83 -44t-43 -110
q93 6 135 35.5zM211.5 681.5q-38.5 49.5 -34.5 124.5l87 13q6 -77 70 -77q34 0 59 21t39 58l83 -18q-16 -75 -66 -123t-124 -48q-75 0 -113.5 49.5z" />
    <glyph glyph-name="Edotaccent" unicode="&#x116;" horiz-adv-x="517" 
d="M543 693l-34 -117h-240l-24 -166h210l-15 -115h-210l-25 -177h257l-16 -118h-419l97 693h419zM290 779.5q-23 22.5 -23 57.5q0 43 29.5 71t73.5 28q37 0 60 -22t23 -57q0 -43 -29.5 -71.5t-73.5 -28.5q-37 0 -60 22.5z" />
    <glyph glyph-name="edotaccent" unicode="&#x117;" horiz-adv-x="533" 
d="M429.5 255q-94.5 -47 -246.5 -62q5 -94 95 -94q33 0 65.5 12t69.5 37l56 -94q-98 -71 -211 -71t-172 60.5t-59 164.5q0 80 30.5 158t98.5 130t172 52q93 0 144.5 -41t51.5 -104q0 -101 -94.5 -148zM325 324.5q42 29.5 42 71.5q0 19 -12 33t-39 14q-52 0 -83 -44t-43 -110
q93 6 135 35.5zM272 653.5q-23 22.5 -23 57.5q0 43 29.5 71t73.5 28q37 0 60 -22t23 -57q0 -43 -29.5 -71.5t-73.5 -28.5q-37 0 -60 22.5z" />
    <glyph glyph-name="Eogonek" unicode="&#x118;" horiz-adv-x="517" 
d="M269 576l-24 -166h210l-15 -115h-210l-25 -177h257l-16 -118h-38q-134 -48 -134 -114q0 -33 44 -33q26 0 63 8l-22 -99q-29 -7 -69 -7q-59 0 -95.5 28t-36.5 76q0 85 97 141h-228l97 693h419l-34 -117h-240z" />
    <glyph glyph-name="eogonek" unicode="&#x119;" horiz-adv-x="533" 
d="M429.5 255q-94.5 -47 -246.5 -62q5 -94 95 -94q33 0 65.5 12t69.5 37l56 -94q-54 -40 -120 -59q-88 -39 -94 -90q-3 -44 48 -44q26 0 63 8l-20 -98q-34 -8 -70 -8q-61 0 -99.5 29t-38.5 78q0 72 78 115q-93 11 -141 70t-48 153q0 80 30.5 158t98.5 130t172 52
q93 0 144.5 -41t51.5 -104q0 -101 -94.5 -148zM325 324.5q42 29.5 42 71.5q0 19 -12 33t-39 14q-52 0 -83 -44t-43 -110q93 6 135 35.5z" />
    <glyph glyph-name="Ecaron" unicode="&#x11a;" horiz-adv-x="517" 
d="M543 693l-34 -117h-240l-24 -166h210l-15 -115h-210l-25 -177h257l-16 -118h-419l97 693h419zM497 943l50 -64l-156 -129h-95l-122 129l62 64l119 -84z" />
    <glyph glyph-name="ecaron" unicode="&#x11b;" horiz-adv-x="533" 
d="M429.5 255q-94.5 -47 -246.5 -62q5 -94 95 -94q33 0 65.5 12t69.5 37l56 -94q-98 -71 -211 -71t-172 60.5t-59 164.5q0 80 30.5 158t98.5 130t172 52q93 0 144.5 -41t51.5 -104q0 -101 -94.5 -148zM325 324.5q42 29.5 42 71.5q0 19 -12 33t-39 14q-52 0 -83 -44t-43 -110
q93 6 135 35.5zM479 813l50 -65l-157 -137h-95l-120 137l60 65l117 -91z" />
    <glyph glyph-name="Gcircumflex" unicode="&#x11c;" horiz-adv-x="634" 
d="M636 622l-90 -81q-34 27 -63 38.5t-68 11.5q-77 0 -124 -52.5t-67 -131t-20 -162.5q0 -76 28 -109t85 -33q49 0 97 23l22 157h-88l1 116h260l-47 -343q-56 -35 -122.5 -54t-132.5 -19q-133 0 -201 70.5t-68 205.5q0 112 39.5 215t125 169.5t214.5 66.5q136 0 219 -88z
M286 755l-51 65l157 129h95l121 -129l-61 -65l-120 84z" />
    <glyph glyph-name="gcircumflex" unicode="&#x11d;" horiz-adv-x="577" 
d="M553 492l-66 -451q-20 -139 -86.5 -201.5t-192.5 -62.5q-49 0 -102.5 16t-97.5 43l53 103q76 -42 144 -42q52 0 85.5 25t43.5 96l7 51q-28 -32 -63.5 -50.5t-76.5 -18.5q-84 0 -129 56t-45 150q0 81 31.5 159.5t101 130.5t176.5 52q115 0 217 -56zM249 401
q-32 -35 -46.5 -87t-14.5 -104q0 -93 62 -93q54 0 104 74l37 235q-30 10 -60 10q-50 0 -82 -35zM217 620l-50 65l157 137h95l120 -137l-63 -65l-117 92z" />
    <glyph glyph-name="Gbreve" unicode="&#x11e;" horiz-adv-x="634" 
d="M636 622l-90 -81q-34 27 -63 38.5t-68 11.5q-77 0 -124 -52.5t-67 -131t-20 -162.5q0 -76 28 -109t85 -33q49 0 97 23l22 157h-88l1 116h260l-47 -343q-56 -35 -122.5 -54t-132.5 -19q-133 0 -201 70.5t-68 205.5q0 112 39.5 215t125 169.5t214.5 66.5q136 0 219 -88z
M306.5 798.5q-38.5 47.5 -35.5 115.5l85 13q5 -30 23 -48.5t49 -18.5q33 0 57 19.5t38 50.5l86 -19q-15 -68 -65.5 -114t-123.5 -46q-75 0 -113.5 47.5z" />
    <glyph glyph-name="gbreve" unicode="&#x11f;" horiz-adv-x="577" 
d="M553 492l-66 -451q-20 -139 -86.5 -201.5t-192.5 -62.5q-49 0 -102.5 16t-97.5 43l53 103q76 -42 144 -42q52 0 85.5 25t43.5 96l7 51q-28 -32 -63.5 -50.5t-76.5 -18.5q-84 0 -129 56t-45 150q0 81 31.5 159.5t101 130.5t176.5 52q115 0 217 -56zM249 401
q-32 -35 -46.5 -87t-14.5 -104q0 -93 62 -93q54 0 104 74l37 235q-30 10 -60 10q-50 0 -82 -35zM230.5 681.5q-38.5 49.5 -34.5 124.5l87 13q6 -77 70 -77q34 0 59 21t39 58l83 -18q-16 -75 -66 -123t-124 -48q-75 0 -113.5 49.5z" />
    <glyph glyph-name="Gdotaccent" unicode="&#x120;" horiz-adv-x="634" 
d="M636 622l-90 -81q-34 27 -63 38.5t-68 11.5q-77 0 -124 -52.5t-67 -131t-20 -162.5q0 -76 28 -109t85 -33q49 0 97 23l22 157h-88l1 116h260l-47 -343q-56 -35 -122.5 -54t-132.5 -19q-133 0 -201 70.5t-68 205.5q0 112 39.5 215t125 169.5t214.5 66.5q136 0 219 -88z
M365 779.5q-23 22.5 -23 57.5q0 43 29.5 71t73.5 28q37 0 60 -22t23 -57q0 -43 -29.5 -71.5t-73.5 -28.5q-37 0 -60 22.5z" />
    <glyph glyph-name="gdotaccent" unicode="&#x121;" horiz-adv-x="577" 
d="M553 492l-66 -451q-20 -139 -86.5 -201.5t-192.5 -62.5q-49 0 -102.5 16t-97.5 43l53 103q76 -42 144 -42q52 0 85.5 25t43.5 96l7 51q-28 -32 -63.5 -50.5t-76.5 -18.5q-84 0 -129 56t-45 150q0 81 31.5 159.5t101 130.5t176.5 52q115 0 217 -56zM249 401
q-32 -35 -46.5 -87t-14.5 -104q0 -93 62 -93q54 0 104 74l37 235q-30 10 -60 10q-50 0 -82 -35zM291 653.5q-23 22.5 -23 57.5q0 43 29.5 71t73.5 28q37 0 60 -22t23 -57q0 -43 -29.5 -71.5t-73.5 -28.5q-37 0 -60 22.5z" />
    <glyph glyph-name="Gcommaaccent" unicode="&#x122;" horiz-adv-x="634" 
d="M636 622l-90 -81q-34 27 -63 38.5t-68 11.5q-77 0 -124 -52.5t-67 -131t-20 -162.5q0 -76 28 -109t85 -33q49 0 97 23l22 157h-88l1 116h260l-47 -343q-56 -35 -122.5 -54t-132.5 -19q-133 0 -201 70.5t-68 205.5q0 112 39.5 215t125 169.5t214.5 66.5q136 0 219 -88z
M349 -87.5q20 -19.5 20 -49.5q0 -23 -8.5 -43.5t-29.5 -52.5l-58 -92h-78l45 117q-27 22 -27 54q0 38 24.5 62t59.5 24q32 0 52 -19.5z" />
    <glyph glyph-name="gcommaaccent" unicode="&#x123;" horiz-adv-x="577" 
d="M553 492l-66 -451q-20 -139 -86.5 -201.5t-192.5 -62.5q-49 0 -102.5 16t-97.5 43l53 103q76 -42 144 -42q52 0 85.5 25t43.5 96l7 51q-28 -32 -63.5 -50.5t-76.5 -18.5q-84 0 -129 56t-45 150q0 81 31.5 159.5t101 130.5t176.5 52q115 0 217 -56zM249 401
q-32 -35 -46.5 -87t-14.5 -104q0 -93 62 -93q54 0 104 74l37 235q-30 10 -60 10q-50 0 -82 -35zM293 605.5q-20 19.5 -20 49.5q0 23 8.5 43.5t29.5 52.5l58 92h78l-45 -117q27 -22 27 -54q0 -38 -24.5 -62t-59.5 -24q-32 0 -52 19.5z" />
    <glyph glyph-name="Hcircumflex" unicode="&#x124;" horiz-adv-x="656" 
d="M188 0h-161l97 693h161l-38 -268h205l38 268h161l-97 -693h-161l41 297h-204zM264 755l-51 65l157 129h95l121 -129l-61 -65l-120 84z" />
    <glyph glyph-name="hcircumflex" unicode="&#x125;" horiz-adv-x="567" 
d="M498 514q32 -34 32 -95q0 -22 -2 -34l-54 -385h-155l49 351q2 20 2 26q0 23 -8 32.5t-24 9.5q-55 0 -119 -127l-41 -292h-155l104 742l157 16l-44 -316q29 48 73.5 77t95.5 29q57 0 89 -34zM226 804l-51 65l157 129h95l121 -129l-61 -65l-120 84z" />
    <glyph glyph-name="Hbar" unicode="&#x126;" horiz-adv-x="674" 
d="M702 592l-14 -92h-57l-70 -500h-161l41 297h-204l-42 -297h-161l70 500h-56l14 92h55l14 101h161l-14 -101h205l14 101h161l-14 -101h58zM459 425l11 75h-205l-11 -75h205z" />
    <glyph glyph-name="hbar" unicode="&#x127;" horiz-adv-x="577" 
d="M507 514q32 -34 32 -95q0 -22 -2 -34l-54 -385h-155l49 351q2 20 2 26q0 23 -8 32.5t-24 9.5q-55 0 -119 -127l-41 -292h-155l84 596h-60l13 92h59l8 54l157 16l-10 -70h139l-26 -92h-126l-21 -154q29 48 73.5 77t95.5 29q57 0 89 -34z" />
    <glyph glyph-name="Itilde" unicode="&#x128;" horiz-adv-x="290" 
d="M285 693l-97 -693h-161l97 693h161zM244 767.5q-14 6.5 -36 20.5q-13 9 -21.5 13.5t-17.5 4.5q-18 0 -31 -11t-30 -35l-72 42q27 52 63 84t77 32q22 0 37.5 -7.5t34.5 -20.5q11 -9 19 -13t17 -4q16 0 29.5 10.5t30.5 34.5l73 -41q-28 -53 -64 -84.5t-75 -31.5
q-20 0 -34 6.5z" />
    <glyph glyph-name="itilde" unicode="&#x129;" horiz-adv-x="277" 
d="M253 531l-74 -531h-155l74 531h155zM219 641.5q-14 6.5 -36 20.5q-13 9 -21.5 13.5t-17.5 4.5q-18 0 -31 -11t-30 -35l-72 42q27 52 63 84t77 32q22 0 37.5 -7.5t34.5 -20.5q11 -9 19 -13t17 -4q16 0 29.5 10.5t30.5 34.5l73 -41q-28 -53 -64 -84.5t-75 -31.5
q-20 0 -34 6.5z" />
    <glyph glyph-name="Imacron" unicode="&#x12a;" horiz-adv-x="290" 
d="M285 693l-97 -693h-161l97 693h161zM368 781h-301l15 110h301z" />
    <glyph glyph-name="imacron" unicode="&#x12b;" horiz-adv-x="277" 
d="M253 531l-74 -531h-155l74 531h155zM343 655h-301l15 110h301z" />
    <glyph glyph-name="Ibreve" unicode="&#x12c;" horiz-adv-x="290" 
d="M285 693l-97 -693h-161l97 693h161zM101.5 798.5q-38.5 47.5 -35.5 115.5l85 13q5 -30 23 -48.5t49 -18.5q33 0 57 19.5t38 50.5l86 -19q-15 -68 -65.5 -114t-123.5 -46q-75 0 -113.5 47.5z" />
    <glyph glyph-name="ibreve" unicode="&#x12d;" horiz-adv-x="277" 
d="M253 531l-74 -531h-155l74 531h155zM71.5 681.5q-38.5 49.5 -34.5 124.5l87 13q6 -77 70 -77q34 0 59 21t39 58l83 -18q-16 -75 -66 -123t-124 -48q-75 0 -113.5 49.5z" />
    <glyph glyph-name="Iogonek" unicode="&#x12e;" horiz-adv-x="290" 
d="M285 693l-97 -693h-34q-134 -48 -134 -114q0 -33 44 -33q26 0 63 8l-22 -99q-29 -7 -69 -7q-59 0 -95.5 28t-36.5 76q0 97 125 155l95 679h161z" />
    <glyph glyph-name="iogonek" unicode="&#x12f;" horiz-adv-x="277" 
d="M272 788q23 -22 23 -57q0 -43 -29.5 -71.5t-73.5 -28.5q-37 0 -60 22.5t-23 57.5q0 43 29.5 71t73.5 28q37 0 60 -22zM98 531h155l-74 -531h-34q-134 -48 -134 -114q0 -33 44 -33q26 0 63 8l-22 -99q-29 -7 -69 -7q-59 0 -95.5 28t-36.5 76q0 99 131 158z" />
    <glyph glyph-name="Idotaccent" unicode="&#x130;" horiz-adv-x="290" 
d="M285 693l-97 -693h-161l97 693h161zM160 779.5q-23 22.5 -23 57.5q0 43 29.5 71t73.5 28q37 0 60 -22t23 -57q0 -43 -29.5 -71.5t-73.5 -28.5q-37 0 -60 22.5z" />
    <glyph glyph-name="dotlessi" unicode="&#x131;" horiz-adv-x="277" 
d="M253 531l-74 -531h-155l74 531h155z" />
    <glyph glyph-name="IJ" unicode="&#x132;" horiz-adv-x="601" 
d="M285 693l-97 -693h-161l97 693h161zM517 104q-12 -83 -48.5 -137t-88 -84.5t-120.5 -52.5l-29 117q45 17 70.5 39.5t37 52t17.5 74.5l82 580h161z" />
    <glyph glyph-name="ij" unicode="&#x133;" horiz-adv-x="553" 
d="M253 531l-74 -531h-155l74 531h155zM132 653.5q-23 22.5 -23 57.5q0 43 29.5 71t73.5 28q37 0 60 -22t23 -57q0 -43 -29.5 -71.5t-73.5 -28.5q-37 0 -60 22.5zM177 -110q61 25 91 59t40 103l66 479h155l-66 -473q-11 -83 -44 -136.5t-82 -85.5t-121 -58zM409 653.5
q-23 22.5 -23 57.5q0 43 29.5 71t73.5 28q37 0 60 -22t23 -57q0 -43 -29.5 -71.5t-73.5 -28.5q-37 0 -60 22.5z" />
    <glyph glyph-name="Jcircumflex" unicode="&#x134;" horiz-adv-x="311" 
d="M227 104q-12 -83 -48.5 -137t-88 -84.5t-120.5 -52.5l-29 117q45 17 70.5 39.5t37 52t17.5 74.5l82 580h161zM104 755l-51 65l157 129h95l121 -129l-61 -65l-120 84z" />
    <glyph glyph-name="jcircumflex" unicode="&#x135;" horiz-adv-x="276" 
d="M-100 -110q61 25 91 59t40 103l66 479h155l-66 -473q-11 -83 -44 -136.5t-82 -85.5t-121 -58zM58 620l-50 65l157 137h95l120 -137l-63 -65l-117 92z" />
    <glyph glyph-name="Kcommaaccent" unicode="&#x136;" horiz-adv-x="623" 
d="M27 0l97 693h162l-97 -693h-162zM414 0l-168 370l259 323h173l-265 -321l185 -372h-184zM327 -87.5q20 -19.5 20 -49.5q0 -23 -8.5 -43.5t-29.5 -52.5l-58 -92h-78l45 117q-27 22 -27 54q0 38 24.5 62t59.5 24q32 0 52 -19.5z" />
    <glyph glyph-name="kcommaaccent" unicode="&#x137;" horiz-adv-x="566" 
d="M243 462q75 86 176 86q65 0 104 -35t39 -92q0 -62 -36 -109t-109 -76l99 -236h-170l-97 256q84 27 119 60.5t35 77.5t-45 44q-33 0 -67.5 -27t-66.5 -82l-45 -329h-156l104 742l158 17zM297 -87.5q20 -19.5 20 -49.5q0 -23 -8.5 -43.5t-29.5 -52.5l-58 -92h-78l45 117
q-27 22 -27 54q0 38 24.5 62t59.5 24q32 0 52 -19.5z" />
    <glyph glyph-name="kgreenlandic" unicode="&#x138;" horiz-adv-x="542" 
d="M254 531l-74 -531h-156l74 531h156zM575 531l-191 -249l130 -282h-170l-122 280l185 251h168z" />
    <glyph glyph-name="Lacute" unicode="&#x139;" horiz-adv-x="506" 
d="M285 693l-78 -563h265l-34 -130h-411l97 693h161zM324 950l49 -119l-245 -84l-34 78z" />
    <glyph glyph-name="lacute" unicode="&#x13a;" horiz-adv-x="288" 
d="M193 143q-2 -19 3 -27t18 -8q11 0 26 5l19 -110q-45 -20 -100 -20q-59 0 -91.5 30.5t-32.5 89.5q0 17 3 36l85 603l156 17zM319 999l49 -119l-245 -84l-34 78z" />
    <glyph glyph-name="Lcommaaccent" unicode="&#x13b;" horiz-adv-x="506" 
d="M285 693l-78 -563h265l-34 -130h-411l97 693h161zM277 -87.5q20 -19.5 20 -49.5q0 -23 -8.5 -43.5t-29.5 -52.5l-58 -92h-78l45 117q-27 22 -27 54q0 38 24.5 62t59.5 24q32 0 52 -19.5z" />
    <glyph glyph-name="lcommaaccent" unicode="&#x13c;" horiz-adv-x="288" 
d="M193 143q-2 -19 3 -27t18 -8q11 0 26 5l19 -110q-45 -20 -100 -20q-59 0 -91.5 30.5t-32.5 89.5q0 17 3 36l85 603l156 17zM188 -87.5q20 -19.5 20 -49.5q0 -23 -8.5 -43.5t-29.5 -52.5l-58 -92h-78l45 117q-27 22 -27 54q0 38 24.5 62t59.5 24q32 0 52 -19.5z" />
    <glyph glyph-name="Lcaron" unicode="&#x13d;" horiz-adv-x="506" 
d="M285 693l-78 -563h265l-34 -130h-411l97 693h161zM345 707l115 -14l-76 -215l-80 8z" />
    <glyph glyph-name="lcaron" unicode="&#x13e;" horiz-adv-x="354" 
d="M193 143q-2 -19 3 -27t18 -8q11 0 26 5l19 -110q-45 -20 -100 -20q-59 0 -91.5 30.5t-32.5 89.5q0 17 3 36l85 603l156 17zM331 756l115 -14l-76 -215l-80 8z" />
    <glyph glyph-name="Ldot" unicode="&#x13f;" horiz-adv-x="506" 
d="M285 693l-78 -563h265l-34 -130h-411l97 693h161zM340 330.5q-23 22.5 -23 57.5q0 43 29.5 71t73.5 28q37 0 60 -22t23 -57q0 -43 -29.5 -71.5t-73.5 -28.5q-37 0 -60 22.5z" />
    <glyph glyph-name="ldot" unicode="&#x140;" horiz-adv-x="433" 
d="M193 143q-2 -19 3 -27t18 -8q11 0 26 5l19 -110q-45 -20 -100 -20q-59 0 -91.5 30.5t-32.5 89.5q0 17 3 36l85 603l156 17zM292 307.5q-23 22.5 -23 57.5q0 43 29.5 71t73.5 28q37 0 60 -22t23 -57q0 -43 -29.5 -71.5t-73.5 -28.5q-37 0 -60 22.5z" />
    <glyph glyph-name="Lslash" unicode="&#x141;" horiz-adv-x="539" 
d="M241 130h265l-34 -130h-411l31 224l-43 -26l-41 87l101 59l49 349h161l-34 -248l137 80l42 -86l-196 -113z" />
    <glyph glyph-name="lslash" unicode="&#x142;" horiz-adv-x="335" 
d="M262 113l19 -110q-45 -20 -100 -20q-59 0 -91.5 30.5t-32.5 89.5q0 17 3 36l19 133l-47 -27l-25 97l89 51l49 349l156 17l-38 -269l69 40l24 -99l-110 -63l-31 -225q-2 -19 3 -27t18 -8q11 0 26 5z" />
    <glyph glyph-name="Nacute" unicode="&#x143;" horiz-adv-x="654" 
d="M552 0h-204l-128 557q2 -54 2 -83q0 -106 -17 -228l-35 -246h-143l97 693h202l131 -557q-3 56 -3 104q0 88 13 180l39 273h143zM510 950l49 -119l-245 -84l-34 78z" />
    <glyph glyph-name="nacute" unicode="&#x144;" horiz-adv-x="568" 
d="M499 514q32 -34 32 -94q0 -16 -3 -36l-53 -384h-155l49 351q2 20 2 25q0 24 -8.5 33.5t-24.5 9.5q-54 0 -117 -127l-42 -292h-155l74 531h135l-3 -93q35 51 82 80.5t99 29.5q56 0 88 -34zM442 835l48 -118l-245 -95l-35 81z" />
    <glyph glyph-name="Ncommaaccent" unicode="&#x145;" horiz-adv-x="654" 
d="M552 0h-204l-128 557q2 -54 2 -83q0 -106 -17 -228l-35 -246h-143l97 693h202l131 -557q-3 56 -3 104q0 88 13 180l39 273h143zM335 -87.5q20 -19.5 20 -49.5q0 -23 -8.5 -43.5t-29.5 -52.5l-58 -92h-78l45 117q-27 22 -27 54q0 38 24.5 62t59.5 24q32 0 52 -19.5z" />
    <glyph glyph-name="ncommaaccent" unicode="&#x146;" horiz-adv-x="568" 
d="M499 514q32 -34 32 -94q0 -16 -3 -36l-53 -384h-155l49 351q2 20 2 25q0 24 -8.5 33.5t-24.5 9.5q-54 0 -117 -127l-42 -292h-155l74 531h135l-3 -93q35 51 82 80.5t99 29.5q56 0 88 -34zM288 -87.5q20 -19.5 20 -49.5q0 -23 -8.5 -43.5t-29.5 -52.5l-58 -92h-78l45 117
q-27 22 -27 54q0 38 24.5 62t59.5 24q32 0 52 -19.5z" />
    <glyph glyph-name="Ncaron" unicode="&#x147;" horiz-adv-x="654" 
d="M552 0h-204l-128 557q2 -54 2 -83q0 -106 -17 -228l-35 -246h-143l97 693h202l131 -557q-3 56 -3 104q0 88 13 180l39 273h143zM553 943l50 -64l-156 -129h-95l-122 129l62 64l119 -84z" />
    <glyph glyph-name="ncaron" unicode="&#x148;" horiz-adv-x="568" 
d="M499 514q32 -34 32 -94q0 -16 -3 -36l-53 -384h-155l49 351q2 20 2 25q0 24 -8.5 33.5t-24.5 9.5q-54 0 -117 -127l-42 -292h-155l74 531h135l-3 -93q35 51 82 80.5t99 29.5q56 0 88 -34zM488 813l50 -65l-157 -137h-95l-120 137l60 65l117 -91z" />
    <glyph glyph-name="napostrophe" unicode="&#x149;" horiz-adv-x="692" 
d="M212.5 742.5q17.5 -17.5 17.5 -44.5q0 -18 -7.5 -34t-27.5 -48l-52 -81h-68l39 101q-22 22 -22 49q0 30 22 52.5t53 22.5q28 0 45.5 -17.5zM623 514q32 -34 32 -94q0 -16 -3 -36l-53 -384h-155l49 351q2 20 2 25q0 24 -8.5 33.5t-24.5 9.5q-54 0 -117 -127l-42 -292h-155
l74 531h135l-3 -93q35 51 82 80.5t99 29.5q56 0 88 -34z" />
    <glyph glyph-name="Eng" unicode="&#x14a;" horiz-adv-x="654" 
d="M649 693l-97 -693l-5 -34q-15 -93 -73 -140.5t-148 -47.5q-80 0 -135 44l65 95q19 -11 32 -15.5t32 -4.5q27 0 44 16t21 47l6 40h-43l-128 557q2 -54 2 -83q0 -106 -17 -228l-35 -246h-143l97 693h202l131 -557q-3 56 -3 104q0 88 13 180l39 273h143z" />
    <glyph glyph-name="eng" unicode="&#x14b;" horiz-adv-x="568" 
d="M499 514q32 -34 32 -94q0 -16 -3 -36l-53 -384l-5 -34q-15 -92 -72 -140t-145 -48q-81 0 -135 44l63 91q20 -11 33.5 -15.5t31.5 -4.5q28 0 45.5 16t21.5 47l7 44l49 351q2 20 2 25q0 24 -8.5 33.5t-24.5 9.5q-54 0 -117 -127l-42 -292h-155l74 531h135l-3 -93
q35 51 82 80.5t99 29.5q56 0 88 -34z" />
    <glyph glyph-name="Omacron" unicode="&#x14c;" horiz-adv-x="681" 
d="M596 636q69 -74 69 -210q0 -105 -35 -206t-116 -169t-210 -68q-127 0 -196 74.5t-69 209.5q0 104 35.5 205t116.5 169.5t210 68.5q126 0 195 -74zM278.5 534q-41.5 -56 -57.5 -132t-16 -147q0 -80 27.5 -116t82.5 -36q69 0 110.5 56t57.5 132.5t16 148.5
q0 79 -27.5 114.5t-82.5 35.5q-69 0 -110.5 -56zM565 781h-301l15 110h301z" />
    <glyph glyph-name="omacron" unicode="&#x14d;" horiz-adv-x="574" 
d="M86.5 43q-58.5 60 -58.5 166q0 82 29 159.5t95.5 128.5t171.5 51q104 0 163 -60t59 -163q0 -82 -29 -160t-95.5 -130t-171.5 -52t-163.5 60zM358 172.5q28 73.5 29 159.5q0 52 -18.5 76t-55.5 24q-69 0 -97.5 -74t-28.5 -159q0 -52 18 -76t56 -24q69 0 97 73.5zM487 655
h-301l15 110h301z" />
    <glyph glyph-name="Obreve" unicode="&#x14e;" horiz-adv-x="681" 
d="M596 636q69 -74 69 -210q0 -105 -35 -206t-116 -169t-210 -68q-127 0 -196 74.5t-69 209.5q0 104 35.5 205t116.5 169.5t210 68.5q126 0 195 -74zM278.5 534q-41.5 -56 -57.5 -132t-16 -147q0 -80 27.5 -116t82.5 -36q69 0 110.5 56t57.5 132.5t16 148.5
q0 79 -27.5 114.5t-82.5 35.5q-69 0 -110.5 -56zM298.5 798.5q-38.5 47.5 -35.5 115.5l85 13q5 -30 23 -48.5t49 -18.5q33 0 57 19.5t38 50.5l86 -19q-15 -68 -65.5 -114t-123.5 -46q-75 0 -113.5 47.5z" />
    <glyph glyph-name="obreve" unicode="&#x14f;" horiz-adv-x="574" 
d="M86.5 43q-58.5 60 -58.5 166q0 82 29 159.5t95.5 128.5t171.5 51q104 0 163 -60t59 -163q0 -82 -29 -160t-95.5 -130t-171.5 -52t-163.5 60zM358 172.5q28 73.5 29 159.5q0 52 -18.5 76t-55.5 24q-69 0 -97.5 -74t-28.5 -159q0 -52 18 -76t56 -24q69 0 97 73.5z
M215.5 681.5q-38.5 49.5 -34.5 124.5l87 13q6 -77 70 -77q34 0 59 21t39 58l83 -18q-16 -75 -66 -123t-124 -48q-75 0 -113.5 49.5z" />
    <glyph glyph-name="Ohungarumlaut" unicode="&#x150;" horiz-adv-x="681" 
d="M596 636q69 -74 69 -210q0 -105 -35 -206t-116 -169t-210 -68q-127 0 -196 74.5t-69 209.5q0 104 35.5 205t116.5 169.5t210 68.5q126 0 195 -74zM278.5 534q-41.5 -56 -57.5 -132t-16 -147q0 -80 27.5 -116t82.5 -36q69 0 110.5 56t57.5 132.5t16 148.5
q0 79 -27.5 114.5t-82.5 35.5q-69 0 -110.5 -56zM392 986l98 -50l-135 -180l-78 33zM564 986l98 -53l-144 -182l-76 38z" />
    <glyph glyph-name="ohungarumlaut" unicode="&#x151;" horiz-adv-x="574" 
d="M86.5 43q-58.5 60 -58.5 166q0 82 29 159.5t95.5 128.5t171.5 51q104 0 163 -60t59 -163q0 -82 -29 -160t-95.5 -130t-171.5 -52t-163.5 60zM358 172.5q28 73.5 29 159.5q0 52 -18.5 76t-55.5 24q-69 0 -97.5 -74t-28.5 -159q0 -52 18 -76t56 -24q69 0 97 73.5zM317 860
l98 -50l-135 -180l-78 33zM489 860l98 -53l-144 -182l-76 38z" />
    <glyph glyph-name="OE" unicode="&#x152;" horiz-adv-x="889" 
d="M603 576q38 -66 38 -166h187l-15 -115h-183q-22 -107 -86 -177h291l-16 -118h-436q-46 -17 -95 -17q-117 0 -183 74t-66 209q0 102 35 204t112.5 171t197.5 69q52 0 95 -17h436l-33 -117h-279zM304 103q92 0 133 104.5t41 241.5q0 141 -100 141q-64 0 -103 -52.5
t-55 -130t-16 -159.5q0 -145 100 -145z" />
    <glyph glyph-name="oe" unicode="&#x153;" horiz-adv-x="885" 
d="M782.5 255.5q-94.5 -46.5 -246.5 -62.5q5 -94 94 -94q34 0 65.5 12t69.5 37l57 -94q-98 -71 -212 -71q-119 0 -176 80q-66 -80 -183 -80q-105 0 -164 60t-59 166q0 82 29.5 159.5t94.5 128.5t167 51q57 0 99 -23t70 -61q75 84 192 84q62 0 106.5 -19t67.5 -52t23 -74
q0 -101 -94.5 -147.5zM677.5 325q42.5 30 42.5 69q0 21 -12.5 35t-41.5 14q-54 0 -84 -43t-40 -111q93 6 135.5 36zM361 174.5q28 75.5 28 161.5q0 96 -75 96q-70 0 -98.5 -74t-28.5 -159q0 -52 19 -76t56 -24q71 0 99 75.5z" />
    <glyph glyph-name="Racute" unicode="&#x154;" horiz-adv-x="607" 
d="M566 383q-35 -55 -123 -92l130 -291h-176l-105 264l-67 1l-37 -265h-161l97 693h223q124 0 189 -48t65 -136q0 -71 -35 -126zM241 378h71q64 0 93 36.5t29 86.5q0 40 -25.5 58.5t-78.5 18.5h-61zM482 950l49 -119l-245 -84l-34 78z" />
    <glyph glyph-name="racute" unicode="&#x155;" horiz-adv-x="392" 
d="M434 538l-45 -152q-28 7 -44 7q-46 0 -76.5 -38t-54.5 -109l-35 -246h-155l74 531h135l-2 -99q27 55 66.5 84.5t83.5 29.5q26 0 53 -8zM385 835l48 -118l-245 -95l-35 81z" />
    <glyph glyph-name="Rcommaaccent" unicode="&#x156;" horiz-adv-x="607" 
d="M566 383q-35 -55 -123 -92l130 -291h-176l-105 264l-67 1l-37 -265h-161l97 693h223q124 0 189 -48t65 -136q0 -71 -35 -126zM241 378h71q64 0 93 36.5t29 86.5q0 40 -25.5 58.5t-78.5 18.5h-61zM314 -87.5q20 -19.5 20 -49.5q0 -23 -8.5 -43.5t-29.5 -52.5l-58 -92h-78
l45 117q-27 22 -27 54q0 38 24.5 62t59.5 24q32 0 52 -19.5z" />
    <glyph glyph-name="rcommaaccent" unicode="&#x157;" horiz-adv-x="392" 
d="M434 538l-45 -152q-28 7 -44 7q-46 0 -76.5 -38t-54.5 -109l-35 -246h-155l74 531h135l-2 -99q27 55 66.5 84.5t83.5 29.5q26 0 53 -8zM140 -87.5q20 -19.5 20 -49.5q0 -23 -8.5 -43.5t-29.5 -52.5l-58 -92h-78l45 117q-27 22 -27 54q0 38 24.5 62t59.5 24q32 0 52 -19.5
z" />
    <glyph glyph-name="Rcaron" unicode="&#x158;" horiz-adv-x="607" 
d="M566 383q-35 -55 -123 -92l130 -291h-176l-105 264l-67 1l-37 -265h-161l97 693h223q124 0 189 -48t65 -136q0 -71 -35 -126zM241 378h71q64 0 93 36.5t29 86.5q0 40 -25.5 58.5t-78.5 18.5h-61zM525 943l50 -64l-156 -129h-95l-122 129l62 64l119 -84z" />
    <glyph glyph-name="rcaron" unicode="&#x159;" horiz-adv-x="392" 
d="M434 538l-45 -152q-28 7 -44 7q-46 0 -76.5 -38t-54.5 -109l-35 -246h-155l74 531h135l-2 -99q27 55 66.5 84.5t83.5 29.5q26 0 53 -8zM431 813l50 -65l-157 -137h-95l-120 137l60 65l117 -91z" />
    <glyph glyph-name="Sacute" unicode="&#x15a;" horiz-adv-x="562" 
d="M569 619l-86 -86q-60 57 -140 57q-48 0 -76.5 -20.5t-28.5 -56.5q0 -30 24 -48t92 -41q89 -29 133.5 -75t44.5 -122q0 -62 -30.5 -117.5t-97 -91t-168.5 -35.5q-84 0 -146.5 27.5t-105.5 73.5l93 92q66 -68 163 -68q57 0 89.5 25t32.5 69q0 34 -23.5 55t-85.5 43
q-98 33 -141 79t-43 115q0 55 30 104.5t90.5 80.5t148.5 31q142 0 231 -91zM469 950l49 -119l-245 -84l-34 78z" />
    <glyph glyph-name="sacute" unicode="&#x15b;" horiz-adv-x="473" 
d="M465 480l-69 -85q-29 20 -61.5 30.5t-63.5 10.5q-34 0 -52.5 -12t-18.5 -32q0 -14 8.5 -23t29 -17.5t65.5 -22.5q69 -22 103.5 -61t34.5 -100q0 -51 -26 -93t-80 -67t-132 -25q-69 0 -127 24t-94 63l79 82q63 -56 143 -56q40 0 61 15t21 38q0 18 -8.5 28.5t-29.5 20
t-67 25.5q-70 24 -102.5 60t-32.5 94q0 47 26 85.5t77 62t121 23.5q114 0 195 -68zM397 835l48 -118l-245 -95l-35 81z" />
    <glyph glyph-name="Scircumflex" unicode="&#x15c;" horiz-adv-x="562" 
d="M569 619l-86 -86q-60 57 -140 57q-48 0 -76.5 -20.5t-28.5 -56.5q0 -30 24 -48t92 -41q89 -29 133.5 -75t44.5 -122q0 -62 -30.5 -117.5t-97 -91t-168.5 -35.5q-84 0 -146.5 27.5t-105.5 73.5l93 92q66 -68 163 -68q57 0 89.5 25t32.5 69q0 34 -23.5 55t-85.5 43
q-98 33 -141 79t-43 115q0 55 30 104.5t90.5 80.5t148.5 31q142 0 231 -91zM226 755l-51 65l157 129h95l121 -129l-61 -65l-120 84z" />
    <glyph glyph-name="scircumflex" unicode="&#x15d;" horiz-adv-x="473" 
d="M465 480l-69 -85q-29 20 -61.5 30.5t-63.5 10.5q-34 0 -52.5 -12t-18.5 -32q0 -14 8.5 -23t29 -17.5t65.5 -22.5q69 -22 103.5 -61t34.5 -100q0 -51 -26 -93t-80 -67t-132 -25q-69 0 -127 24t-94 63l79 82q63 -56 143 -56q40 0 61 15t21 38q0 18 -8.5 28.5t-29.5 20
t-67 25.5q-70 24 -102.5 60t-32.5 94q0 47 26 85.5t77 62t121 23.5q114 0 195 -68zM162 620l-50 65l157 137h95l120 -137l-63 -65l-117 92z" />
    <glyph glyph-name="Scedilla" unicode="&#x15e;" horiz-adv-x="562" 
d="M487.5 349q44.5 -46 44.5 -122q0 -57 -25.5 -108.5t-80.5 -88t-140 -45.5l-6 -33q45 -5 68 -28.5t23 -61.5q0 -30 -16.5 -58.5t-52.5 -47t-90 -18.5q-66 0 -109 32l44 71q28 -17 61 -17q23 0 36.5 8t14.5 25q0 17 -19.5 24t-66.5 7l24 97q-132 11 -213 99l93 92
q66 -68 163 -68q57 0 89.5 25t32.5 69q0 34 -23.5 55t-85.5 43q-98 33 -141 79t-43 115q0 55 30 104.5t90.5 80.5t148.5 31q142 0 231 -91l-86 -86q-60 57 -140 57q-48 0 -76.5 -20.5t-28.5 -56.5q0 -30 24 -48t92 -41q89 -29 133.5 -75z" />
    <glyph glyph-name="scedilla" unicode="&#x15f;" horiz-adv-x="473" 
d="M406.5 268q34.5 -39 34.5 -100q0 -72 -51.5 -123t-149.5 -60l-6 -33q45 -5 68 -28.5t23 -61.5q0 -30 -16.5 -58.5t-52.5 -47t-90 -18.5q-66 0 -109 32l44 71q28 -17 61 -17q23 0 36.5 8t14.5 25q0 17 -19.5 24t-66.5 7l25 99q-53 7 -97 29t-73 54l79 82q63 -56 143 -56
q40 0 61 15t21 38q0 18 -8.5 28.5t-29.5 20t-67 25.5q-70 24 -102.5 60t-32.5 94q0 47 26 85.5t77 62t121 23.5q114 0 195 -68l-69 -85q-29 20 -61.5 30.5t-63.5 10.5q-34 0 -52.5 -12t-18.5 -32q0 -14 8.5 -23t29 -17.5t65.5 -22.5q69 -22 103.5 -61z" />
    <glyph glyph-name="Scaron" unicode="&#x160;" horiz-adv-x="562" 
d="M569 619l-86 -86q-60 57 -140 57q-48 0 -76.5 -20.5t-28.5 -56.5q0 -30 24 -48t92 -41q89 -29 133.5 -75t44.5 -122q0 -62 -30.5 -117.5t-97 -91t-168.5 -35.5q-84 0 -146.5 27.5t-105.5 73.5l93 92q66 -68 163 -68q57 0 89.5 25t32.5 69q0 34 -23.5 55t-85.5 43
q-98 33 -141 79t-43 115q0 55 30 104.5t90.5 80.5t148.5 31q142 0 231 -91zM512 943l50 -64l-156 -129h-95l-122 129l62 64l119 -84z" />
    <glyph glyph-name="scaron" unicode="&#x161;" horiz-adv-x="473" 
d="M465 480l-69 -85q-29 20 -61.5 30.5t-63.5 10.5q-34 0 -52.5 -12t-18.5 -32q0 -14 8.5 -23t29 -17.5t65.5 -22.5q69 -22 103.5 -61t34.5 -100q0 -51 -26 -93t-80 -67t-132 -25q-69 0 -127 24t-94 63l79 82q63 -56 143 -56q40 0 61 15t21 38q0 18 -8.5 28.5t-29.5 20
t-67 25.5q-70 24 -102.5 60t-32.5 94q0 47 26 85.5t77 62t121 23.5q114 0 195 -68zM443 813l50 -65l-157 -137h-95l-120 137l60 65l117 -91z" />
    <glyph glyph-name="uni0162" unicode="&#x162;" horiz-adv-x="530" 
d="M388 567l-80 -567h1l-8 -48q45 -5 67.5 -28t22.5 -61q0 -29 -16.5 -57.5t-52.5 -48t-92 -19.5q-63 0 -108 32l45 71q26 -17 58 -17q24 0 39 8.5t15 25.5q0 16 -19.5 23t-66.5 7l28 112h-74l80 567h-177l18 126h523l-35 -126h-168z" />
    <glyph glyph-name="uni0163" unicode="&#x163;" horiz-adv-x="376" 
d="M217 176q-2 -18 -2 -24q0 -23 9.5 -33.5t28.5 -10.5q14 0 27.5 4t32.5 13l41 -103q-48 -28 -112 -37l-6 -33q45 -5 68 -28.5t23 -61.5q0 -30 -16.5 -58.5t-52.5 -47t-90 -18.5q-66 0 -109 32l44 71q28 -17 61 -17q23 0 36.5 8t14.5 25q0 17 -19.5 24t-66.5 7l25 102
q-47 13 -71.5 49.5t-24.5 94.5q0 20 3 42l35 245h-73l15 110h80l33 118l134 15l-19 -133h122l-33 -110h-104z" />
    <glyph glyph-name="Tcaron" unicode="&#x164;" horiz-adv-x="530" 
d="M591 693l-35 -126h-168l-80 -567h-161l80 567h-177l18 126h523zM487 943l50 -64l-156 -129h-95l-122 129l62 64l119 -84z" />
    <glyph glyph-name="tcaron" unicode="&#x165;" horiz-adv-x="376" 
d="M350 799l115 -14l-76 -215l-80 8zM266 531h122l-33 -110h-104l-34 -245q-2 -18 -2 -24q0 -23 9.5 -33.5t28.5 -10.5q14 0 27.5 4t32.5 13l41 -103q-32 -19 -71 -29t-74 -10q-73 0 -112 39t-39 112q0 20 3 42l35 245h-73l15 110h80l33 118l134 15z" />
    <glyph glyph-name="Tbar" unicode="&#x166;" horiz-adv-x="530" 
d="M556 567h-168l-25 -177h112l-12 -92h-113l-42 -298h-161l42 298h-111l12 92h112l25 177h-177l18 126h523z" />
    <glyph glyph-name="tbar" unicode="&#x167;" horiz-adv-x="376" 
d="M251 421l-8 -60h106l-30 -104h-91l-11 -81q-2 -18 -2 -24q0 -23 9.5 -33.5t28.5 -10.5q14 0 27.5 4t32.5 13l41 -103q-32 -19 -71 -29t-74 -10q-73 0 -112 39t-39 112q0 20 3 42l12 81h-62l14 104h63l8 60h-73l15 110h80l33 118l134 15l-19 -133h122l-33 -110h-104z" />
    <glyph glyph-name="Utilde" unicode="&#x168;" horiz-adv-x="641" 
d="M582 229q-10 -72 -47.5 -127.5t-101.5 -87t-150 -31.5q-117 0 -177 55t-60 150q0 22 3 44l65 461h161l-64 -458q-3 -22 -3 -40q0 -46 21 -68t66 -22q56 0 86.5 33t39.5 100l65 455h161zM420 767.5q-14 6.5 -36 20.5q-13 9 -21.5 13.5t-17.5 4.5q-18 0 -31 -11t-30 -35
l-72 42q27 52 63 84t77 32q22 0 37.5 -7.5t34.5 -20.5q11 -9 19 -13t17 -4q16 0 29.5 10.5t30.5 34.5l73 -41q-28 -53 -64 -84.5t-75 -31.5q-20 0 -34 6.5z" />
    <glyph glyph-name="utilde" unicode="&#x169;" horiz-adv-x="562" 
d="M69 18q-33 35 -33 97q0 18 3 37l54 379h155l-49 -354q-2 -20 -2 -25q0 -24 9.5 -34t27.5 -10q47 0 102 84l47 339h155l-74 -531h-134l3 79q-74 -96 -168 -96q-63 0 -96 35zM360 641.5q-14 6.5 -36 20.5q-13 9 -21.5 13.5t-17.5 4.5q-18 0 -31 -11t-30 -35l-72 42
q27 52 63 84t77 32q22 0 37.5 -7.5t34.5 -20.5q11 -9 19 -13t17 -4q16 0 29.5 10.5t30.5 34.5l73 -41q-28 -53 -64 -84.5t-75 -31.5q-20 0 -34 6.5z" />
    <glyph glyph-name="Umacron" unicode="&#x16a;" horiz-adv-x="641" 
d="M582 229q-10 -72 -47.5 -127.5t-101.5 -87t-150 -31.5q-117 0 -177 55t-60 150q0 22 3 44l65 461h161l-64 -458q-3 -22 -3 -40q0 -46 21 -68t66 -22q56 0 86.5 33t39.5 100l65 455h161zM544 781h-301l15 110h301z" />
    <glyph glyph-name="umacron" unicode="&#x16b;" horiz-adv-x="562" 
d="M69 18q-33 35 -33 97q0 18 3 37l54 379h155l-49 -354q-2 -20 -2 -25q0 -24 9.5 -34t27.5 -10q47 0 102 84l47 339h155l-74 -531h-134l3 79q-74 -96 -168 -96q-63 0 -96 35zM484 655h-301l15 110h301z" />
    <glyph glyph-name="Ubreve" unicode="&#x16c;" horiz-adv-x="641" 
d="M582 229q-10 -72 -47.5 -127.5t-101.5 -87t-150 -31.5q-117 0 -177 55t-60 150q0 22 3 44l65 461h161l-64 -458q-3 -22 -3 -40q0 -46 21 -68t66 -22q56 0 86.5 33t39.5 100l65 455h161zM277.5 798.5q-38.5 47.5 -35.5 115.5l85 13q5 -30 23 -48.5t49 -18.5q33 0 57 19.5
t38 50.5l86 -19q-15 -68 -65.5 -114t-123.5 -46q-75 0 -113.5 47.5z" />
    <glyph glyph-name="ubreve" unicode="&#x16d;" horiz-adv-x="562" 
d="M69 18q-33 35 -33 97q0 18 3 37l54 379h155l-49 -354q-2 -20 -2 -25q0 -24 9.5 -34t27.5 -10q47 0 102 84l47 339h155l-74 -531h-134l3 79q-74 -96 -168 -96q-63 0 -96 35zM212.5 681.5q-38.5 49.5 -34.5 124.5l87 13q6 -77 70 -77q34 0 59 21t39 58l83 -18
q-16 -75 -66 -123t-124 -48q-75 0 -113.5 49.5z" />
    <glyph glyph-name="Uring" unicode="&#x16e;" horiz-adv-x="641" 
d="M582 229q-10 -72 -47.5 -127.5t-101.5 -87t-150 -31.5q-117 0 -177 55t-60 150q0 22 3 44l65 461h161l-64 -458q-3 -22 -3 -40q0 -46 21 -68t66 -22q56 0 86.5 33t39.5 100l65 455h161zM511 960q33 -33 33 -85q0 -38 -19.5 -71t-54.5 -53t-80 -20q-56 0 -88.5 33
t-32.5 85q0 37 19.5 70.5t54.5 53.5t79 20q56 0 89 -33zM374 895q-15 -18 -15 -42q0 -20 10 -30.5t28 -10.5q26 0 41 17.5t15 42.5q0 20 -10 30.5t-28 10.5q-26 0 -41 -18z" />
    <glyph glyph-name="uring" unicode="&#x16f;" horiz-adv-x="562" 
d="M69 18q-33 35 -33 97q0 18 3 37l54 379h155l-49 -354q-2 -20 -2 -25q0 -24 9.5 -34t27.5 -10q47 0 102 84l47 339h155l-74 -531h-134l3 79q-74 -96 -168 -96q-63 0 -96 35zM449 834q33 -33 33 -85q0 -38 -19.5 -71t-54.5 -53t-80 -20q-56 0 -88.5 33t-32.5 85
q0 37 19.5 70.5t54.5 53.5t79 20q56 0 89 -33zM312 769q-15 -18 -15 -42q0 -20 10 -30.5t28 -10.5q26 0 41 17.5t15 42.5q0 20 -10 30.5t-28 10.5q-26 0 -41 -18z" />
    <glyph glyph-name="Uhungarumlaut" unicode="&#x170;" horiz-adv-x="641" 
d="M582 229q-10 -72 -47.5 -127.5t-101.5 -87t-150 -31.5q-117 0 -177 55t-60 150q0 22 3 44l65 461h161l-64 -458q-3 -22 -3 -40q0 -46 21 -68t66 -22q56 0 86.5 33t39.5 100l65 455h161zM371 986l98 -50l-135 -180l-78 33zM543 986l98 -53l-144 -182l-76 38z" />
    <glyph glyph-name="uhungarumlaut" unicode="&#x171;" horiz-adv-x="562" 
d="M69 18q-33 35 -33 97q0 18 3 37l54 379h155l-49 -354q-2 -20 -2 -25q0 -24 9.5 -34t27.5 -10q47 0 102 84l47 339h155l-74 -531h-134l3 79q-74 -96 -168 -96q-63 0 -96 35zM314 860l98 -50l-135 -180l-78 33zM486 860l98 -53l-144 -182l-76 38z" />
    <glyph glyph-name="Uogonek" unicode="&#x172;" horiz-adv-x="641" 
d="M647 693l-65 -464q-12 -85 -62 -147t-134 -85q-119 -46 -119 -106q0 -39 48 -39q26 0 63 8l-20 -98q-34 -8 -70 -8q-61 0 -99.5 29t-38.5 78q0 81 95 124q-98 9 -148.5 62.5t-50.5 139.5q0 21 3 45l65 461h161l-64 -458q-3 -22 -3 -40q0 -46 21 -68t66 -22q56 0 86.5 33
t39.5 100l65 455h161z" />
    <glyph glyph-name="uogonek" unicode="&#x173;" horiz-adv-x="562" 
d="M330 -114q0 -33 44 -33q26 0 63 8l-22 -99q-29 -7 -69 -7q-59 0 -95.5 28t-36.5 76q0 94 116 151l3 69q-74 -96 -168 -96q-63 0 -96 35t-33 97q0 18 3 37l54 379h155l-49 -354q-2 -20 -2 -25q0 -24 9.5 -34t27.5 -10q47 0 102 84l47 339h155l-74 -531q-134 -48 -134 -114
z" />
    <glyph glyph-name="Wcircumflex" unicode="&#x174;" horiz-adv-x="837" 
d="M886 693l-211 -693h-209l-11 529l-165 -529h-204l-15 693h158l-11 -569l175 569h170l9 -569l159 569h155zM356 755l-51 65l157 129h95l121 -129l-61 -65l-120 84z" />
    <glyph glyph-name="wcircumflex" unicode="&#x175;" horiz-adv-x="739" 
d="M771 531l-182 -531h-184l-15 391l-124 -391h-185l-37 531h156l-3 -413l139 413h151l14 -413l121 413h149zM290 620l-50 65l157 137h95l120 -137l-63 -65l-117 92z" />
    <glyph glyph-name="Ycircumflex" unicode="&#x176;" horiz-adv-x="584" 
d="M652 693l-280 -433l-36 -260h-162l37 259l-158 434h172l84 -305l169 305h174zM229 755l-51 65l157 129h95l121 -129l-61 -65l-120 84z" />
    <glyph glyph-name="ycircumflex" unicode="&#x177;" horiz-adv-x="507" 
d="M317 -2q-91 -207 -329 -220l-4 111q77 10 116.5 34t70.5 77h-55l-85 531h162l35 -429l161 429h162zM174 620l-50 65l157 137h95l120 -137l-63 -65l-117 92z" />
    <glyph glyph-name="Ydieresis" unicode="&#x178;" horiz-adv-x="584" 
d="M652 693l-280 -433l-36 -260h-162l37 259l-158 434h172l84 -305l169 305h174zM198 787.5q-20 19.5 -20 49.5q0 38 26 63t64 25q33 0 53 -20t20 -50q0 -37 -26 -62t-64 -25q-33 0 -53 19.5zM425.5 787.5q-19.5 19.5 -19.5 49.5q0 38 26 63t64 25q33 0 53 -20t20 -50
q0 -37 -26.5 -62t-64.5 -25q-33 0 -52.5 19.5z" />
    <glyph glyph-name="Zacute" unicode="&#x179;" horiz-adv-x="534" 
d="M-20 0l16 123l364 443h-270l18 127h455l-17 -124l-360 -439l303 1l-34 -131h-475zM450 950l49 -119l-245 -84l-34 78z" />
    <glyph glyph-name="zacute" unicode="&#x17a;" horiz-adv-x="449" 
d="M465 531l-15 -111l-266 -300h229l-31 -120h-408l15 112l267 300h-204l17 119h396zM385 835l48 -118l-245 -95l-35 81z" />
    <glyph glyph-name="Zdotaccent" unicode="&#x17b;" horiz-adv-x="534" 
d="M-20 0l16 123l364 443h-270l18 127h455l-17 -124l-360 -439l303 1l-34 -131h-475zM286 779.5q-23 22.5 -23 57.5q0 43 29.5 71t73.5 28q37 0 60 -22t23 -57q0 -43 -29.5 -71.5t-73.5 -28.5q-37 0 -60 22.5z" />
    <glyph glyph-name="zdotaccent" unicode="&#x17c;" horiz-adv-x="449" 
d="M465 531l-15 -111l-266 -300h229l-31 -120h-408l15 112l267 300h-204l17 119h396zM224 653.5q-23 22.5 -23 57.5q0 43 29.5 71t73.5 28q37 0 60 -22t23 -57q0 -43 -29.5 -71.5t-73.5 -28.5q-37 0 -60 22.5z" />
    <glyph glyph-name="Zcaron" unicode="&#x17d;" horiz-adv-x="534" 
d="M-20 0l16 123l364 443h-270l18 127h455l-17 -124l-360 -439l303 1l-34 -131h-475zM493 943l50 -64l-156 -129h-95l-122 129l62 64l119 -84z" />
    <glyph glyph-name="zcaron" unicode="&#x17e;" horiz-adv-x="449" 
d="M465 531l-15 -111l-266 -300h229l-31 -120h-408l15 112l267 300h-204l17 119h396zM431 813l50 -65l-157 -137h-95l-120 137l60 65l117 -91z" />
    <glyph glyph-name="longs" unicode="&#x17f;" horiz-adv-x="346" 
d="M490 715l-55 -94q-33 21 -80 21q-35 0 -53.5 -17t-23.5 -55l-80 -570h-155l59 421h-79l15 110h79l7 49q11 80 68 129.5t150 49.5q82 0 148 -44z" />
    <glyph glyph-name="uni0180" unicode="&#x180;" horiz-adv-x="592" 
d="M524 494q42 -54 42 -153q0 -87 -28.5 -168t-97.5 -135.5t-184 -54.5q-56 0 -109 11t-109 33l80 569h-62l13 92h61l8 54l157 17l-10 -71h137l-26 -92h-124l-15 -110q30 29 68 45.5t78 16.5q79 0 121 -54zM348.5 135q30.5 37 44 92.5t13.5 110.5q0 52 -17 73t-46 21
q-54 0 -102 -61l-36 -260q34 -13 67 -13q46 0 76.5 37z" />
    <glyph glyph-name="uni0181" unicode="&#x181;" horiz-adv-x="747" 
d="M676 321.5q38 -33.5 38 -100.5q0 -100 -76.5 -160.5t-249.5 -60.5h-221l81 576h-26q-26 0 -40 -14.5t-14 -42.5q0 -19 8 -51l-109 -42q-25 50 -25 97q0 78 52 124t140 46h233q262 0 262 -158q0 -69 -43 -111t-109 -58q61 -11 99 -44.5zM534.5 444q28.5 28 28.5 74
q0 32 -23.5 45.5t-70.5 13.5h-61l-22 -161h60q60 0 88.5 28zM517 149q32 30 32 84q0 74 -105 74h-74l-26 -188h58q83 0 115 30z" />
    <glyph glyph-name="uni0182" unicode="&#x182;" horiz-adv-x="587" 
d="M504.5 399q63.5 -47 63.5 -140q0 -64 -30 -123t-97.5 -97.5t-174.5 -38.5h-239l97 693h426l-33 -124h-249l-17 -123h72q118 0 181.5 -47zM366.5 155.5q31.5 36.5 31.5 94.5q0 82 -102 82h-61l-30 -213h62q68 0 99.5 36.5z" />
    <glyph glyph-name="uni0183" unicode="&#x183;" horiz-adv-x="583" 
d="M513.5 482q41.5 -54 41.5 -154q0 -81 -28.5 -159.5t-98 -132t-183.5 -53.5q-56 0 -109 11t-109 33l100 715h373l-33 -113h-201l-22 -155q30 29 69.5 45.5t79.5 16.5q79 0 120.5 -54zM337 134.5q30 36.5 44 89t14 101.5q0 53 -17 74t-47 21q-55 0 -102 -62l-35 -247
q34 -13 67 -13q46 0 76 36.5z" />
    <glyph glyph-name="uni0184" unicode="&#x184;" horiz-adv-x="598" 
d="M518 407.5q64 -49.5 64 -144.5q0 -68 -31 -127.5t-99 -97.5t-173 -38h-239l69 491l-68 51q67 60 123 151h134l-33 -236h72q117 0 181 -49.5zM382 159q30 40 30 94q0 90 -101 90h-62l-31 -224h62q72 0 102 40z" />
    <glyph glyph-name="uni0185" unicode="&#x185;" horiz-adv-x="529" 
d="M505 202q0 -53 -26 -103t-84 -83t-148 -33q-53 0 -101.5 8t-102.5 25l45 323l-67 51q68 60 121 141h128l-23 -165h35q223 0 223 -164zM325.5 120.5q23.5 33.5 23.5 78.5q0 32 -18.5 49t-61.5 17h-35l-24 -173q19 -5 40 -5q52 0 75.5 33.5z" />
    <glyph glyph-name="uni0186" unicode="&#x186;" horiz-adv-x="565" 
d="M479 635q69 -75 69 -211q0 -121 -43.5 -221.5t-126 -160t-193.5 -59.5q-125 0 -206 91l82 91q32 -27 61 -41t67 -14q65 0 108 46t63.5 118.5t20.5 152.5q0 162 -111 162q-36 0 -69.5 -13t-69.5 -38l-67 97q50 37 104.5 56t121.5 19q120 0 189 -75z" />
    <glyph glyph-name="uni0187" unicode="&#x187;" horiz-adv-x="574" 
d="M786 813l-56 -96q-17 9 -31 13.5t-32 4.5q-53 0 -62 -63l-5 -44l-73 -76q-64 37 -128 37q-69 0 -112.5 -51.5t-62.5 -125t-19 -143.5q0 -81 32 -120t90 -39q38 0 70 15t72 44l62 -98q-45 -39 -102 -63.5t-122 -24.5q-126 0 -197.5 74t-71.5 212q0 101 39 203.5t116 170
t186 67.5q52 0 91 -17q13 76 60.5 117t127.5 41q72 0 128 -38z" />
    <glyph glyph-name="uni0188" unicode="&#x188;" horiz-adv-x="471" 
d="M688 720l-56 -96q-31 18 -63 18q-52 0 -62 -63l-13 -99l-66 -79q-50 26 -103 26q-73 0 -104 -67.5t-31 -153.5q0 -53 21.5 -75.5t61.5 -22.5q27 0 50 8.5t55 28.5l58 -101q-83 -61 -183 -61q-106 0 -166 61.5t-60 167.5q0 74 31.5 152.5t94 131t150.5 52.5q28 0 62 -9
l7 51q11 82 58.5 125.5t128.5 43.5q76 0 129 -39z" />
    <glyph glyph-name="uni0189" unicode="&#x189;" horiz-adv-x="651" 
d="M549.5 635.5q85.5 -57.5 85.5 -205.5q0 -189 -92.5 -309.5t-299.5 -120.5h-207l43 304h-63l13 98h63l41 291h188q143 0 228.5 -57.5zM423.5 211.5q46.5 93.5 46.5 218.5q0 83 -36 113.5t-103 30.5h-53l-24 -172h133l-14 -98h-133l-26 -186h53q110 0 156.5 93.5z" />
    <glyph glyph-name="uni018A" unicode="&#x18a;" horiz-adv-x="782" 
d="M680.5 635.5q85.5 -57.5 85.5 -205.5q0 -189 -92.5 -309.5t-299.5 -120.5h-207l81 576h-26q-26 0 -40 -14.5t-14 -42.5q0 -19 8 -51l-109 -42q-25 50 -25 97q0 78 52 124t140 46h218q143 0 228.5 -57.5zM554.5 211.5q46.5 93.5 46.5 218.5q0 83 -36 113.5t-103 30.5h-53
l-64 -456h53q110 0 156.5 93.5z" />
    <glyph glyph-name="uni018B" unicode="&#x18b;" horiz-adv-x="589" 
d="M488 0h-242q-108 0 -172 51t-64 153q0 116 82 179t222 63h75l17 123h-258l17 124h420zM343 119l30 213h-59q-67 0 -100.5 -33.5t-33.5 -89.5q0 -48 24 -69t75 -21h64z" />
    <glyph glyph-name="uni018C" unicode="&#x18c;" horiz-adv-x="586" 
d="M488 0h-138l1 76q-28 -42 -67.5 -67.5t-90.5 -25.5q-83 0 -125 56t-42 158q0 79 26.5 157t84 130t143.5 52q38 0 68.5 -14t51.5 -38l20 145h-209l16 113h365zM386 381q-15 21 -32.5 30.5t-41.5 9.5q-44 0 -72 -35.5t-40.5 -87.5t-12.5 -102q0 -53 15.5 -75t43.5 -22
q30 0 57.5 26t56.5 72z" />
    <glyph glyph-name="uni018D" unicode="&#x18d;" horiz-adv-x="570" 
d="M25 -149l78 76q26 -22 51.5 -32t58.5 -10q37 0 56 15.5t19 40.5q0 21 -17 35.5t-69 37.5q-89 38 -130.5 89t-41.5 130q0 68 29.5 140.5t94.5 123.5t166 51q69 0 119.5 -28.5t77.5 -77t27 -108.5q0 -92 -42.5 -160t-144.5 -108q44 -30 62 -61t18 -66q0 -40 -25 -77.5
t-75 -61t-121 -23.5q-120 0 -191 74zM362 208.5q22 56.5 22 128.5q0 45 -19 70t-55 25q-63 0 -92 -64t-29 -141q0 -41 20 -67t70 -53q61 45 83 101.5z" />
    <glyph glyph-name="uni018E" unicode="&#x18e;" horiz-adv-x="515" 
d="M97 693h413l-97 -693h-418l16 118h257l25 177h-210l16 115h210l24 166h-253z" />
    <glyph glyph-name="uni018F" unicode="&#x18f;" horiz-adv-x="631" 
d="M548 640.5q68 -69.5 68 -202.5q0 -128 -38.5 -231t-115.5 -163.5t-187 -60.5q-121 0 -184.5 70t-63.5 196q0 84 21 157h405q3 26 3 47q0 72 -29.5 104.5t-87.5 32.5q-48 0 -87 -16.5t-77 -44.5l-65 94q58 44 118 65.5t131 21.5q121 0 189 -69.5zM379 147.5
q40 44.5 57 143.5l-254 -1q-4 -29 -4 -60q0 -67 26 -97t75 -30q60 0 100 44.5z" />
    <glyph glyph-name="uni0190" unicode="&#x190;" horiz-adv-x="532" 
d="M466 687q53 -23 96 -70l-87 -81q-55 55 -124 55q-52 0 -79.5 -26t-27.5 -68q0 -36 23 -54.5t67 -18.5h76l-36 -118h-51q-68 0 -105.5 -29.5t-37.5 -85.5q0 -87 102 -87q41 0 77 16t73 47l76 -88q-101 -96 -251 -96q-73 0 -128 23.5t-85.5 67t-30.5 101.5q0 86 53 134.5
t146 58.5q-65 15 -98 51.5t-33 89.5q0 60 35 105.5t94.5 70.5t128.5 25q74 0 127 -23z" />
    <glyph glyph-name="uni0191" unicode="&#x191;" horiz-adv-x="479" 
d="M269 576l-26 -184h200l-16 -117h-200l-39 -275l-5 -34q-15 -93 -73 -140.5t-148 -47.5q-80 0 -135 44l65 95q19 -11 32 -15.5t32 -4.5q27 0 44 16t21 47l6 40l97 693h407l-33 -117h-229z" />
    <glyph glyph-name="florin" unicode="&#x192;" horiz-adv-x="346" 
d="M301.5 625q-18.5 -17 -23.5 -55l-5 -39h123l-32 -110h-107l-51 -363q-11 -83 -44 -136.5t-82 -85.5t-121 -58l-39 114q61 23 91 57t39 103l52 369h-79l15 110h79l7 49q11 80 68 129.5t150 49.5q82 0 148 -44l-55 -94q-33 21 -80 21q-35 0 -53.5 -17z" />
    <glyph glyph-name="uni0193" unicode="&#x193;" horiz-adv-x="611" 
d="M823 813l-57 -96q-17 10 -30.5 14t-31.5 4q-55 0 -62 -63l-6 -50l-82 -73q-66 42 -139 42q-77 0 -124.5 -52.5t-67.5 -131t-20 -162.5q0 -76 28 -109t86 -33q48 0 96 23l23 157h-89l2 116h259l-47 -343q-56 -35 -122 -54t-133 -19q-133 0 -201 70.5t-68 205.5
q0 109 41.5 213t124.5 171t200 67q59 0 104 -20q12 78 59.5 119.5t127.5 41.5q73 0 129 -38z" />
    <glyph glyph-name="uni0194" unicode="&#x194;" horiz-adv-x="562" 
d="M338 86q23 -50 33.5 -85t10.5 -73q0 -72 -43.5 -111t-121.5 -39q-67 0 -101 31.5t-34 85.5q0 44 23 90t70 107l-129 601h169l56 -495l197 495h167zM246 8q-43 -66 -43 -102q0 -25 23 -25q18 0 27 12t9 32q0 33 -16 83z" />
    <glyph glyph-name="uni0195" unicode="&#x195;" horiz-adv-x="854" 
d="M389 30.5q-47 47.5 -47 117.5q0 9 2 29l24 174q2 20 2 26q0 23 -8 32.5t-24 9.5q-55 0 -118 -127l-42 -292h-155l104 742l157 16l-44 -316q29 48 73.5 77t95.5 29q57 0 89 -34t32 -95q0 -22 -2 -34l-28 -203q-2 -18 -2 -25q0 -58 47 -58q73 0 100.5 105t27.5 236
q0 50 -4 91h147q8 -56 8 -116q0 -202 -64.5 -317t-229.5 -115q-94 0 -141 47.5z" />
    <glyph glyph-name="uni0196" unicode="&#x196;" horiz-adv-x="381" 
d="M357 24q-61 -41 -142 -41q-83 0 -129.5 39t-46.5 115q0 19 3 38l4 30l69 488h161l-69 -488l-6 -44q-1 -6 -1 -16q0 -43 43 -43q21 0 36.5 5t36.5 15z" />
    <glyph glyph-name="uni0197" unicode="&#x197;" horiz-adv-x="330" 
d="M343 420l-17 -120h-75l-42 -300h-161l42 300h-78l17 120h78l38 273h161l-38 -273h75z" />
    <glyph glyph-name="uni0198" unicode="&#x198;" horiz-adv-x="646" 
d="M246 370l174 228q47 63 86 87.5t98 24.5q38 0 64 -10.5t48 -30.5l-57 -88q-11 6 -19.5 9t-21.5 3q-20 0 -35 -10.5t-40 -42.5l-129 -166l184 -374h-185zM27 0l97 693h162l-97 -693h-162z" />
    <glyph glyph-name="uni0199" unicode="&#x199;" horiz-adv-x="566" 
d="M526 312q-36 -47 -109 -76l99 -236h-170l-97 256q84 27 119 60.5t35 77.5t-45 44q-33 0 -67.5 -27t-66.5 -82l-45 -329h-156l75 530l7 50q11 79 68.5 129t152.5 50q39 0 75.5 -9.5t65.5 -25.5l-55 -101q-35 19 -78 19q-34 0 -51.5 -17t-23.5 -55l-6 -40l-9 -68
q73 86 175 86q65 0 104 -35t39 -92q0 -62 -36 -109z" />
    <glyph glyph-name="uni019A" unicode="&#x19a;" horiz-adv-x="333" 
d="M222 143q-2 -19 3 -27t18 -8q11 0 26 5l19 -110q-45 -20 -100 -20q-59 0 -91.5 30.5t-32.5 89.5q0 17 3 36l25 178h-78l17 110h77l44 315l156 17l-46 -332h83l-17 -110h-82z" />
    <glyph glyph-name="uni019B" unicode="&#x19b;" horiz-adv-x="521" 
d="M441 188q21 -83 63 -156l-155 -48q-27 54 -42.5 102.5t-23.5 115.5t-10 169l-150 -388l-150 38l230 472l67 -12q-3 53 -13 86l-63 -47l-78 52l83 65q-30 16 -82 22l30 100q50 -8 86.5 -20t63.5 -31l81 62l54 -74l-75 -57q37 -72 49 -209q14 -159 35 -242z" />
    <glyph glyph-name="uni019C" unicode="&#x19c;" horiz-adv-x="902" 
d="M897 693l-97 -693h-141l-3 66q-40 -44 -78.5 -63.5t-84.5 -19.5q-50 0 -84 24t-49 66q-40 -47 -84 -68.5t-94 -21.5q-68 0 -105.5 42.5t-37.5 113.5q0 19 3 40l72 514h161l-71 -510q-2 -16 -2 -22q0 -27 11.5 -41.5t33.5 -14.5q28 0 51.5 15.5t53.5 50.5l1 8l72 514h161
l-71 -510q-2 -16 -2 -22q0 -27 12 -41.5t34 -14.5q27 0 51 16t53 51l73 521h161z" />
    <glyph glyph-name="uni019D" unicode="&#x19d;" horiz-adv-x="654" 
d="M649 693l-97 -693h-204l-128 557q2 -54 2 -83q0 -106 -17 -228l-35 -246l-5 -35q-14 -93 -66 -140t-136 -47q-81 0 -136 44l65 90q17 -11 30.5 -15.5t33.5 -4.5q56 0 66 68l5 40l97 693h202l131 -557q-3 56 -3 104q0 88 13 180l39 273h143z" />
    <glyph glyph-name="uni019E" unicode="&#x19e;" horiz-adv-x="567" 
d="M498.5 514.5q32.5 -33.5 32.5 -94.5q0 -16 -3 -36l-84 -590l-158 -17l86 574q2 18 2 24q0 44 -34 44q-56 0 -120 -127l-41 -292h-155l74 531h135l-3 -93q35 51 82 80.5t97 29.5q57 0 89.5 -33.5z" />
    <glyph glyph-name="uni019F" unicode="&#x19f;" horiz-adv-x="681" 
d="M596 636q69 -74 69 -210q0 -105 -35 -206t-116 -169t-210 -68q-127 0 -196 74.5t-69 209.5q0 104 35.5 205t116.5 169.5t210 68.5q126 0 195 -74zM275 538q-43 -55 -62 -141h292q1 14 1 40q0 82 -28 119t-86 37q-74 0 -117 -55zM431.5 158q43.5 58 61.5 147h-293
q-2 -34 -2 -47q0 -83 28 -120.5t86 -37.5q76 0 119.5 58z" />
    <glyph glyph-name="Ohorn" unicode="&#x1a0;" horiz-adv-x="704" 
d="M731 611.5q-31 -38.5 -89 -49.5q23 -58 23 -136q0 -105 -35 -206t-116 -169t-210 -68q-127 0 -196 74.5t-69 209.5q0 104 35.5 205t116.5 169.5t210 68.5q127 0 196 -75q31 4 45 22.5t14 53.5q0 26 -5 48l102 13q9 -25 9 -59q0 -63 -31 -101.5zM425.5 159
q41.5 56 57.5 132.5t16 148.5q0 79 -27.5 114.5t-82.5 35.5q-69 0 -110.5 -56t-57.5 -132t-16 -147q0 -80 27.5 -116t82.5 -36q69 0 110.5 56z" />
    <glyph glyph-name="ohorn" unicode="&#x1a1;" horiz-adv-x="620" 
d="M632 445.5q-33 -38.5 -95 -47.5q9 -34 9 -76q-1 -81 -30 -158.5t-95.5 -129t-170.5 -51.5q-105 0 -163.5 60t-58.5 166q0 82 29 159.5t95.5 128.5t171.5 51q118 0 177 -76q59 6 59 76q0 30 -6 49l103 13q8 -37 8 -60q0 -66 -33 -104.5zM358 172.5q28 73.5 29 159.5
q0 52 -18.5 76t-55.5 24q-69 0 -97.5 -74t-28.5 -159q0 -52 18 -76t56 -24q69 0 97 73.5z" />
    <glyph glyph-name="uni01A2" unicode="&#x1a2;" horiz-adv-x="946" 
d="M874 671q46 -40 46 -116q0 -17 -3 -37l-102 -728h-162l104 735q2 14 2 21q0 50 -49 50q-39 0 -76 -19q31 -64 31 -151q0 -105 -35 -206t-116 -169t-210 -68q-127 0 -196 74.5t-69 209.5q0 104 35.5 205t116.5 169.5t210 68.5q102 0 168 -52q78 53 173 53q86 0 132 -40z
M425.5 159q41.5 56 57.5 132.5t16 148.5q0 79 -27.5 114.5t-82.5 35.5q-69 0 -110.5 -56t-57.5 -132t-16 -147q0 -80 27.5 -116t82.5 -36q69 0 110.5 56z" />
    <glyph glyph-name="uni01A3" unicode="&#x1a3;" horiz-adv-x="810" 
d="M725.5 507.5q43.5 -40.5 43.5 -113.5q0 -19 -3 -39l-78 -561l-157 -17l82 594q1 6 1 18q0 23 -11 33.5t-35 10.5q-21 0 -42 -6q20 -46 20 -105q-1 -81 -30 -158.5t-95.5 -129t-170.5 -51.5q-105 0 -163.5 60t-58.5 166q0 82 29 159.5t95.5 128.5t171.5 51q75 0 131 -37
q36 20 70 28.5t76 8.5q81 0 124.5 -40.5zM358 172.5q28 73.5 29 159.5q0 52 -18.5 76t-55.5 24q-69 0 -97.5 -74t-28.5 -159q0 -52 18 -76t56 -24q69 0 97 73.5z" />
    <glyph glyph-name="uni01A4" unicode="&#x1a4;" horiz-adv-x="730" 
d="M673 644q67 -49 67 -144q0 -69 -31 -130t-99.5 -100t-174.5 -39h-76l-32 -231h-161l81 576h-25q-26 0 -40 -14.5t-14 -42.5q0 -19 8 -51l-109 -42q-25 50 -25 97q0 78 52 124t140 46h249q123 0 190 -49zM542 391.5q31 42.5 31 100.5q0 44 -26.5 64t-79.5 20h-59l-32 -227
h59q76 0 107 42.5z" />
    <glyph glyph-name="uni01A5" unicode="&#x1a5;" horiz-adv-x="582" 
d="M514.5 494.5q41.5 -53.5 41.5 -153.5q0 -85 -28.5 -167t-91.5 -136.5t-162 -54.5q-54 0 -95 15l-29 -204l-156 -17l104 753l7 50q11 79 68.5 129t152.5 50q39 0 75.5 -9.5t65.5 -25.5l-55 -101q-35 19 -78 19q-34 0 -51.5 -17t-23.5 -55l-6 -40h1l-5 -47q29 33 67 49
t77 16q80 0 121.5 -53.5zM339 135q30 37 44 92.5t14 110.5q0 52 -17 73t-47 21q-53 0 -101 -61l-36 -260q33 -13 67 -13q46 0 76 37z" />
    <glyph glyph-name="uni01A6" unicode="&#x1a6;" horiz-adv-x="607" 
d="M550.5 271.5q-34.5 -56.5 -123.5 -94.5l130 -292h-173l-107 264l-68 1l-21 -150h-161l97 693h161l-16 -114h62q254 0 254 -177q0 -74 -34.5 -130.5zM225 264h71q66 0 94 37.5t28 87.5q0 39 -25.5 56.5t-78.5 17.5h-61z" />
    <glyph glyph-name="uni01A7" unicode="&#x1a7;" horiz-adv-x="553" 
d="M504 663.5q59 -46.5 59 -125.5q0 -93 -60.5 -146.5t-180.5 -90.5q-80 -24 -112 -52.5t-32 -71.5q0 -33 23.5 -52t66.5 -19q88 0 178 68l71 -93q-51 -45 -119.5 -71.5t-151.5 -26.5q-72 0 -125 23.5t-81 66.5t-28 99q0 97 57.5 154.5t173.5 93.5q59 17 91.5 32t47.5 34
t15 47q0 57 -75 57q-45 0 -84.5 -14.5t-80.5 -43.5l-64 90q56 44 117.5 66t136.5 22q98 0 157 -46.5z" />
    <glyph glyph-name="uni01A8" unicode="&#x1a8;" horiz-adv-x="471" 
d="M403 509q52 -39 52 -102q0 -59 -38.5 -105t-134.5 -76q-52 -16 -78 -29.5t-34 -26t-8 -29.5q0 -21 16.5 -33t45.5 -12q38 0 77 15t72 40l67 -90q-44 -36 -107 -57t-131 -21q-90 0 -146.5 42t-56.5 113q0 63 42.5 108t150.5 78q47 14 70.5 26.5t30.5 23t7 24.5
q0 18 -14 28t-42 10q-30 0 -63 -11.5t-64 -31.5l-53 90q42 31 94 48t107 17q86 0 138 -39z" />
    <glyph glyph-name="uni01A9" unicode="&#x1a9;" horiz-adv-x="495" 
d="M534 693l-17 -119h-279l138 -204l-7 -66l-190 -183h275l-17 -121h-453l16 119l221 223l-156 232l16 119h453z" />
    <glyph glyph-name="uni01AA" unicode="&#x1aa;" horiz-adv-x="398" 
d="M452 -181q-64 -41 -145 -41q-80 0 -125.5 40t-45.5 117q0 23 2 35l4 30l61 432q-31 -14 -66 -14q-55 0 -92.5 40t-37.5 104q0 57 26.5 102t73 70t104.5 25q79 0 123 -41.5t44 -118.5q0 -20 -3 -43l-78 -556l-6 -47q-1 -6 -1 -15q0 -45 46 -45q21 0 36.5 4.5t37.5 15.5z
M217 533l8 58q2 18 2 23q0 19 -7 27t-23 8q-28 0 -42 -24t-13 -57q0 -41 39 -41q18 0 36 6z" />
    <glyph glyph-name="uni01AB" unicode="&#x1ab;" horiz-adv-x="376" 
d="M216 166q-2 -16 -2 -22q0 -23 10.5 -32.5t32.5 -9.5q26 0 60 13l37 -93l-8 -55q-15 -94 -69.5 -141t-143.5 -47q-45 0 -80.5 12t-58.5 32l63 91q18 -10 36 -15t42 -5q30 0 49.5 15.5t23.5 47.5l4 26h-5q-149 1 -149 147q0 22 3 46l35 245h-73l15 110h80l33 118l134 15
l-18 -133h119l-31 -110h-104z" />
    <glyph glyph-name="uni01AC" unicode="&#x1ac;" horiz-adv-x="585" 
d="M611 567h-168l-80 -567h-161l80 567h-65q-24 0 -36.5 -13.5t-12.5 -37.5q0 -16 8 -48l-109 -42q-25 50 -25 97q0 78 50.5 124t131.5 46h421z" />
    <glyph glyph-name="uni01AD" unicode="&#x1ad;" horiz-adv-x="376" 
d="M293.5 633q-15.5 -16 -19.5 -48l-8 -54h120l-31 -110h-104l-34 -245q-2 -18 -2 -25q0 -23 9.5 -33t28.5 -10q27 0 60 18l41 -104q-32 -19 -71 -29t-74 -10q-151 1 -151 147q0 22 3 46l35 245h-73l15 110h73l6 47q12 82 65.5 131.5t139.5 49.5q72 0 127 -39l-56 -90
q-29 19 -60 19q-24 0 -39.5 -16z" />
    <glyph glyph-name="uni01AE" unicode="&#x1ae;" horiz-adv-x="530" 
d="M388 567l-80 -567h1l-6 -44q-1 -6 -1 -16q0 -43 43 -43q21 0 36.5 5t36.5 15l41 -98q-61 -41 -142 -41q-83 0 -129.5 39t-46.5 115q0 18 3 38l4 30h-1l80 567h-177l18 126h523l-35 -126h-168z" />
    <glyph glyph-name="Uhorn" unicode="&#x1af;" horiz-adv-x="710" 
d="M749 599.5q-42 -39.5 -121 -41.5l-46 -329q-10 -72 -47.5 -127.5t-101.5 -87t-150 -31.5q-117 0 -177 55t-60 150q0 22 3 44l65 461h161l-64 -458q-3 -22 -3 -40q0 -46 21 -68t66 -22q56 0 86.5 33t39.5 100l65 455h161l-8 -55q24 6 35 24t11 49q0 26 -5 48l102 13
q9 -25 9 -59q0 -74 -42 -113.5z" />
    <glyph glyph-name="uhorn" unicode="&#x1b0;" horiz-adv-x="637" 
d="M639.5 436q-42.5 -39 -120.5 -41l-55 -395h-134l3 79q-74 -96 -168 -96q-63 0 -96 35t-33 97q0 18 3 37l54 379h155l-49 -354q-2 -20 -2 -25q0 -24 9.5 -34t27.5 -10q47 0 102 84l47 339h155l-8 -57q47 11 47 74q0 30 -6 49l103 13q8 -37 8 -60q0 -75 -42.5 -114z" />
    <glyph glyph-name="uni01B1" unicode="&#x1b1;" horiz-adv-x="681" 
d="M158.5 17q-60.5 34 -92.5 94t-32 137q0 106 44.5 189t133.5 140h-114l16 116h232l-15 -113q-64 -65 -96.5 -152.5t-32.5 -180.5q0 -144 113 -144q91 0 134.5 85t43.5 205q0 67 -13 109.5t-40 80.5l15 110h231l-16 -119h-109q97 -74 97 -209q0 -109 -44.5 -196
t-125 -136.5t-184.5 -49.5q-85 0 -145.5 34z" />
    <glyph glyph-name="uni01B2" unicode="&#x1b2;" horiz-adv-x="631" 
d="M628 580q0 -20 -3 -44l-34 -246q-20 -148 -106 -227.5t-219 -79.5q-104 0 -162.5 54.5t-58.5 142.5q0 24 2 36l68 477h161l-67 -480q-2 -20 -2 -29q0 -79 72 -79q58 0 97.5 46t52.5 141l37 263l1 11q0 25 -23 25q-8 0 -28 -4l-14 106q43 17 92 17q134 0 134 -130z" />
    <glyph glyph-name="uni01B3" unicode="&#x1b3;" horiz-adv-x="619" 
d="M211 259l-158 434h172l84 -305l98 185q38 76 78.5 106.5t108.5 30.5q39 0 67 -10t52 -28l-56 -93q-23 15 -48 15q-21 0 -35 -11t-32 -42l-170 -281l-37 -260h-161z" />
    <glyph glyph-name="uni01B4" unicode="&#x1b4;" horiz-adv-x="518" 
d="M-16 -111q76 10 116.5 34.5t70.5 76.5h-55l-85 531h162l35 -430l121 347q25 72 61 103t100 31q44 0 81 -15l-39 -105q-12 5 -26 5q-17 0 -28 -9.5t-20 -33.5l-152 -399q-45 -123 -128.5 -181.5t-209.5 -65.5z" />
    <glyph glyph-name="uni01B5" unicode="&#x1b5;" horiz-adv-x="534" 
d="M563 693l-17 -124l-144 -171h73l-15 -102h-144l-140 -166l313 1l-34 -131h-475l16 123l147 173h-81l16 102h152l143 168h-283l18 127h455z" />
    <glyph glyph-name="uni01B6" unicode="&#x1b6;" horiz-adv-x="448" 
d="M463 531l-14 -105l-98 -107h61l-15 -93h-132l-103 -112h249l-31 -114h-407l14 106l111 120h-67l15 93h138l92 100h-225l17 112h395z" />
    <glyph glyph-name="uni01B7" unicode="&#x1b7;" horiz-adv-x="542" 
d="M525 578l-198 -175q87 -4 135 -48t48 -121t-39.5 -134t-108 -87t-152.5 -30q-82 0 -136.5 26.5t-90.5 77.5l92 79q30 -33 60 -47t74 -14q59 0 96.5 33.5t37.5 89.5q0 43 -27.5 61.5t-82.5 18.5h-99l1 1l12 91l193 174h-250l16 119h434z" />
    <glyph glyph-name="uni01B8" unicode="&#x1b8;" horiz-adv-x="544" 
d="M538 574h-259l152 -176l-12 -90l-2 1l1 -1h-95q-65 0 -102.5 -32.5t-37.5 -89.5q0 -39 24 -60t68 -21q47 0 84 15t77 48l74 -84q-49 -49 -111 -75t-144 -26q-113 0 -176 54t-63 144q0 65 32 114.5t88.5 78t125.5 29.5l-156 175l15 115h434z" />
    <glyph glyph-name="uni01B9" unicode="&#x1b9;" horiz-adv-x="503" 
d="M496 413h-261l149 -204l-11 -89l-2 1l1 -1h-90q-68 0 -105 -33.5t-37 -94.5q0 -47 25 -70t71 -23q42 0 77.5 14.5t76.5 47.5l71 -82q-99 -101 -246 -101q-74 0 -127 26t-81 72t-28 106q0 67 31 118t88 80.5t133 32.5h1l-160 210l15 108h425z" />
    <glyph glyph-name="uni01BA" unicode="&#x1ba;" horiz-adv-x="502" 
d="M16.5 -162.5q-36.5 35.5 -36.5 80.5q0 62 49 96t140 52q74 15 104 31.5t30 48.5q0 23 -16.5 32.5t-54.5 9.5h-132l12 86l173 145h-241l16 112h423l-13 -102l-189 -149h23q75 0 116.5 -34t42.5 -95q0 -81 -57.5 -124.5t-161.5 -64.5q-51 -10 -77 -18.5t-35.5 -16.5
t-9.5 -19q0 -13 10 -23t32 -22l-47 -85q-64 24 -100.5 59.5z" />
    <glyph glyph-name="uni01BB" unicode="&#x1bb;" horiz-adv-x="507" 
d="M483 430.5q-14 -39.5 -53 -87.5h62l-15 -103h-147q-64 -58 -146 -120l273 1l-34 -121h-432l14 114q106 92 142 126h-78l15 103h170q49 51 65.5 83.5t16.5 69.5q0 35 -20.5 54t-54.5 19q-35 0 -65 -17t-66 -53l-86 81q52 54 111 82t131 28q67 0 114.5 -23t72 -63.5
t24.5 -91.5q0 -42 -14 -81.5z" />
    <glyph glyph-name="uni01BC" unicode="&#x1bc;" horiz-adv-x="532" 
d="M-14 86l96 77q21 -29 53 -45t71 -16q70 0 101.5 48t31.5 111q0 85 -77 85q-22 0 -42.5 -6t-48.5 -20l-107 2l52 371h413l-33 -113h-247l-21 -149q49 23 104 23q75 0 121 -49t46 -136q0 -68 -30 -133t-97 -109t-173 -44q-136 0 -213 103z" />
    <glyph glyph-name="uni01BD" unicode="&#x1bd;" horiz-adv-x="472" 
d="M412 416h-195l-13 -86q34 18 84 18q64 0 104.5 -39t41.5 -109q0 -64 -33.5 -113.5t-91.5 -76.5t-128 -27q-67 0 -110 20.5t-81 61.5l88 82q28 -24 52 -35t57 -11q40 0 65.5 24.5t25.5 65.5q0 26 -14 38.5t-38 12.5q-34 0 -70 -15l-103 1l43 303h353z" />
    <glyph glyph-name="uni01BE" unicode="&#x1be;" horiz-adv-x="504" 
d="M467 257q0 -79 -35.5 -141.5t-99 -97.5t-143.5 -35q-66 0 -118 24t-94 70l86 77q28 -28 55.5 -41t61.5 -13q61 0 94.5 42.5t33.5 112.5q0 51 -24 79.5t-75 42.5l-55 12l20 140h-70l13 93h70l17 120l155 16l-19 -136h102l-12 -93h-103l-13 -89l28 -8q125 -42 125 -175z
" />
    <glyph glyph-name="uni01BF" unicode="&#x1bf;" horiz-adv-x="586" 
d="M522 503q44 -45 44 -124q0 -90 -41 -156t-109 -112.5t-169 -93.5l-71 -32l-27 -190l-156 -17l105 753h137v-62q74 79 171 79q72 0 116 -45zM359 234q45 59 45 137q0 64 -57 64q-59 0 -115 -56l-40 -280l41 26q81 50 126 109z" />
    <glyph glyph-name="uni01C0" unicode="&#x1c0;" horiz-adv-x="264" 
d="M268 756l-107 -756h-134l104 742z" />
    <glyph glyph-name="uni01C1" unicode="&#x1c1;" horiz-adv-x="467" 
d="M268 756l-107 -756h-134l104 742zM471 756l-107 -756h-134l104 742z" />
    <glyph glyph-name="uni01C2" unicode="&#x1c2;" horiz-adv-x="330" 
d="M341 397h-91l-8 -59h90l-12 -90h-91l-35 -248h-134l35 248h-91l13 90h90l9 59h-90l13 90h89l36 255l137 14l-38 -269h90z" />
    <glyph glyph-name="uni01C3" unicode="&#x1c3;" horiz-adv-x="306" 
d="M287 756l-73 -521h-135l71 507zM59 6q-22 23 -22 59q0 40 29 69.5t70 29.5q34 0 56.5 -23t22.5 -58q0 -41 -28.5 -70.5t-70.5 -29.5q-35 0 -57 23z" />
    <glyph glyph-name="uni01C4" unicode="&#x1c4;" horiz-adv-x="1151" 
d="M540.5 635.5q85.5 -57.5 85.5 -205.5q0 -189 -92.5 -309.5t-299.5 -120.5h-207l97 693h188q143 0 228.5 -57.5zM269 574l-64 -456h53q110 0 156.5 93.5t46.5 218.5q0 83 -36 113.5t-103 30.5h-53zM597 0l16 123l364 443h-270l18 127h455l-17 -124l-360 -439l303 1
l-34 -131h-475zM1110 943l50 -64l-156 -129h-95l-122 129l62 64l119 -84z" />
    <glyph glyph-name="uni01C5" unicode="&#x1c5;" horiz-adv-x="1081" 
d="M540.5 635.5q85.5 -57.5 85.5 -205.5q0 -189 -92.5 -309.5t-299.5 -120.5h-207l97 693h188q143 0 228.5 -57.5zM269 574l-64 -456h53q110 0 156.5 93.5t46.5 218.5q0 83 -36 113.5t-103 30.5h-53zM1097 531l-15 -111l-266 -300h229l-31 -120h-408l15 112l267 300h-204
l17 119h396zM1063 813l50 -65l-157 -137h-95l-120 137l60 65l117 -91z" />
    <glyph glyph-name="uni01C6" unicode="&#x1c6;" horiz-adv-x="1035" 
d="M592 742l-104 -742h-138l1 76q-28 -42 -67.5 -67.5t-90.5 -25.5q-82 0 -124.5 56.5t-42.5 157.5q0 79 27.5 160.5t84.5 136t142 54.5q76 0 122 -51l36 261zM239.5 394.5q-28.5 -38.5 -40.5 -93t-12 -105.5q0 -53 15 -75t43 -22q31 0 58.5 26t56.5 72l28 198
q-15 19 -33 28.5t-41 9.5q-46 0 -74.5 -38.5zM1051 531l-15 -111l-266 -300h229l-31 -120h-408l15 112l267 300h-204l17 119h396zM1017 813l50 -65l-157 -137h-95l-120 137l60 65l117 -91z" />
    <glyph glyph-name="uni01C7" unicode="&#x1c7;" horiz-adv-x="794" 
d="M285 693l-78 -563h265l-34 -130h-411l97 693h161zM710 104q-12 -83 -48.5 -137t-88 -84.5t-120.5 -52.5l-29 117q45 17 70.5 39.5t37 52t17.5 74.5l82 580h161z" />
    <glyph glyph-name="uni01C8" unicode="&#x1c8;" horiz-adv-x="767" 
d="M285 693l-78 -563h265l-34 -130h-411l97 693h161zM391 -110q61 25 91 59t40 103l66 479h155l-66 -473q-11 -83 -44 -136.5t-82 -85.5t-121 -58zM623 653.5q-23 22.5 -23 57.5q0 43 29.5 71t73.5 28q37 0 60 -22t23 -57q0 -43 -29.5 -71.5t-73.5 -28.5q-37 0 -60 22.5z
" />
    <glyph glyph-name="uni01C9" unicode="&#x1c9;" horiz-adv-x="564" 
d="M193 143q-2 -19 3 -27t18 -8q11 0 26 5l19 -110q-45 -20 -100 -20q-59 0 -91.5 30.5t-32.5 89.5q0 17 3 36l85 603l156 17zM188 -110q61 25 91 59t40 103l66 479h155l-66 -473q-11 -83 -44 -136.5t-82 -85.5t-121 -58zM420 653.5q-23 22.5 -23 57.5q0 43 29.5 71t73.5 28
q37 0 60 -22t23 -57q0 -43 -29.5 -71.5t-73.5 -28.5q-37 0 -60 22.5z" />
    <glyph glyph-name="uni01CA" unicode="&#x1ca;" horiz-adv-x="965" 
d="M552 0h-204l-128 557q2 -54 2 -83q0 -106 -17 -228l-35 -246h-143l97 693h202l131 -557q-3 56 -3 104q0 88 13 180l39 273h143zM881 104q-12 -83 -48.5 -137t-88 -84.5t-120.5 -52.5l-29 117q45 17 70.5 39.5t37 52t17.5 74.5l82 580h161z" />
    <glyph glyph-name="uni01CB" unicode="&#x1cb;" horiz-adv-x="930" 
d="M552 0h-204l-128 557q2 -54 2 -83q0 -106 -17 -228l-35 -246h-143l97 693h202l131 -557q-3 56 -3 104q0 88 13 180l39 273h143zM554 -110q61 25 91 59t40 103l66 479h155l-66 -473q-11 -83 -44 -136.5t-82 -85.5t-121 -58zM786 653.5q-23 22.5 -23 57.5q0 43 29.5 71
t73.5 28q37 0 60 -22t23 -57q0 -43 -29.5 -71.5t-73.5 -28.5q-37 0 -60 22.5z" />
    <glyph glyph-name="uni01CC" unicode="&#x1cc;" horiz-adv-x="844" 
d="M499 514q32 -34 32 -94q0 -16 -3 -36l-53 -384h-155l49 351q2 20 2 25q0 24 -8.5 33.5t-24.5 9.5q-54 0 -117 -127l-42 -292h-155l74 531h135l-3 -93q35 51 82 80.5t99 29.5q56 0 88 -34zM468 -110q61 25 91 59t40 103l66 479h155l-66 -473q-11 -83 -44 -136.5t-82 -85.5
t-121 -58zM700 653.5q-23 22.5 -23 57.5q0 43 29.5 71t73.5 28q37 0 60 -22t23 -57q0 -43 -29.5 -71.5t-73.5 -28.5q-37 0 -60 22.5z" />
    <glyph glyph-name="uni01CD" unicode="&#x1cd;" horiz-adv-x="581" 
d="M387 0l-14 149h-201l-55 -149h-168l303 693h196l108 -693h-169zM215 268h146l-30 315zM512 943l50 -64l-156 -129h-95l-122 129l62 64l119 -84z" />
    <glyph glyph-name="uni01CE" unicode="&#x1ce;" horiz-adv-x="572" 
d="M547 492l-49 -340q-2 -18 -2 -23q0 -16 6 -25.5t22 -15.5l-45 -102q-46 4 -79 25.5t-44 62.5q-64 -91 -158 -91q-83 0 -127.5 56.5t-44.5 154.5q0 84 31 165t99.5 135t173.5 54q115 0 217 -56zM246.5 399q-31.5 -37 -45.5 -92t-14 -112q0 -53 15.5 -74.5t44.5 -21.5
q53 0 101 74l37 253q-29 10 -59 10q-48 0 -79.5 -37zM508 813l50 -65l-157 -137h-95l-120 137l60 65l117 -91z" />
    <glyph glyph-name="uni01CF" unicode="&#x1cf;" horiz-adv-x="290" 
d="M285 693l-97 -693h-161l97 693h161zM367 943l50 -64l-156 -129h-95l-122 129l62 64l119 -84z" />
    <glyph glyph-name="uni01D0" unicode="&#x1d0;" horiz-adv-x="277" 
d="M253 531l-74 -531h-155l74 531h155zM339 813l50 -65l-157 -137h-95l-120 137l60 65l117 -91z" />
    <glyph glyph-name="uni01D1" unicode="&#x1d1;" horiz-adv-x="681" 
d="M596 636q69 -74 69 -210q0 -105 -35 -206t-116 -169t-210 -68q-127 0 -196 74.5t-69 209.5q0 104 35.5 205t116.5 169.5t210 68.5q126 0 195 -74zM278.5 534q-41.5 -56 -57.5 -132t-16 -147q0 -80 27.5 -116t82.5 -36q69 0 110.5 56t57.5 132.5t16 148.5
q0 79 -27.5 114.5t-82.5 35.5q-69 0 -110.5 -56zM564 943l50 -64l-156 -129h-95l-122 129l62 64l119 -84z" />
    <glyph glyph-name="uni01D2" unicode="&#x1d2;" horiz-adv-x="574" 
d="M86.5 43q-58.5 60 -58.5 166q0 82 29 159.5t95.5 128.5t171.5 51q104 0 163 -60t59 -163q0 -82 -29 -160t-95.5 -130t-171.5 -52t-163.5 60zM358 172.5q28 73.5 29 159.5q0 52 -18.5 76t-55.5 24q-69 0 -97.5 -74t-28.5 -159q0 -52 18 -76t56 -24q69 0 97 73.5zM483 813
l50 -65l-157 -137h-95l-120 137l60 65l117 -91z" />
    <glyph glyph-name="uni01D3" unicode="&#x1d3;" horiz-adv-x="641" 
d="M582 229q-10 -72 -47.5 -127.5t-101.5 -87t-150 -31.5q-117 0 -177 55t-60 150q0 22 3 44l65 461h161l-64 -458q-3 -22 -3 -40q0 -46 21 -68t66 -22q56 0 86.5 33t39.5 100l65 455h161zM543 943l50 -64l-156 -129h-95l-122 129l62 64l119 -84z" />
    <glyph glyph-name="uni01D4" unicode="&#x1d4;" horiz-adv-x="562" 
d="M69 18q-33 35 -33 97q0 18 3 37l54 379h155l-49 -354q-2 -20 -2 -25q0 -24 9.5 -34t27.5 -10q47 0 102 84l47 339h155l-74 -531h-134l3 79q-74 -96 -168 -96q-63 0 -96 35zM480 813l50 -65l-157 -137h-95l-120 137l60 65l117 -91z" />
    <glyph glyph-name="uni01D5" unicode="&#x1d5;" horiz-adv-x="641" 
d="M582 229q-10 -72 -47.5 -127.5t-101.5 -87t-150 -31.5q-117 0 -177 55t-60 150q0 22 3 44l65 461h161l-64 -458q-3 -22 -3 -40q0 -46 21 -68t66 -22q56 0 86.5 33t39.5 100l65 455h161zM220 765.5q-20 19.5 -20 49.5q0 38 26 63t64 25q33 0 53 -20t20 -50q0 -37 -26 -62
t-64 -25q-33 0 -53 19.5zM447.5 765.5q-19.5 19.5 -19.5 49.5q0 38 26 63t64 25q33 0 53 -20t20 -50q0 -37 -26.5 -62t-64.5 -25q-33 0 -52.5 19.5zM558 940h-301l15 110h301z" />
    <glyph glyph-name="uni01D6" unicode="&#x1d6;" horiz-adv-x="562" 
d="M69 18q-33 35 -33 97q0 18 3 37l54 379h155l-49 -354q-2 -20 -2 -25q0 -24 9.5 -34t27.5 -10q47 0 102 84l47 339h155l-74 -531h-134l3 79q-74 -96 -168 -96q-63 0 -96 35zM163 622.5q-20 19.5 -20 49.5q0 38 26 63t64 25q33 0 53 -20t20 -50q0 -37 -26 -62t-64 -25
q-33 0 -53 19.5zM390.5 622.5q-19.5 19.5 -19.5 49.5q0 38 26 63t64 25q33 0 53 -20t20 -50q0 -37 -26.5 -62t-64.5 -25q-33 0 -52.5 19.5zM502 801h-301l15 110h301z" />
    <glyph glyph-name="uni01D7" unicode="&#x1d7;" horiz-adv-x="641" 
d="M582 229q-10 -72 -47.5 -127.5t-101.5 -87t-150 -31.5q-117 0 -177 55t-60 150q0 22 3 44l65 461h161l-64 -458q-3 -22 -3 -40q0 -46 21 -68t66 -22q56 0 86.5 33t39.5 100l65 455h161zM504 1096l75 -83l-174 -141l-54 54zM217 768.5q-20 19.5 -20 50.5q0 37 26.5 62
t64.5 25q33 0 53 -19.5t20 -50.5q0 -37 -26.5 -62t-64.5 -25q-33 0 -53 19.5zM458 768.5q-20 19.5 -20 50.5q0 37 26 62t64 25q33 0 53 -19.5t20 -50.5q0 -37 -26 -62t-64 -25q-33 0 -53 19.5z" />
    <glyph glyph-name="uni01D8" unicode="&#x1d8;" horiz-adv-x="562" 
d="M69 18q-33 35 -33 97q0 18 3 37l54 379h155l-49 -354q-2 -20 -2 -25q0 -24 9.5 -34t27.5 -10q47 0 102 84l47 339h155l-74 -531h-134l3 79q-74 -96 -168 -96q-63 0 -96 35zM434 949l75 -83l-174 -141l-54 54zM146 621.5q-20 19.5 -20 50.5q0 37 26.5 62t64.5 25
q33 0 53 -19.5t20 -50.5q0 -37 -26.5 -62t-64.5 -25q-33 0 -53 19.5zM388 621.5q-20 19.5 -20 50.5q0 37 26 62t64 25q33 0 53 -19.5t20 -50.5q0 -37 -26 -62t-64 -25q-33 0 -53 19.5z" />
    <glyph glyph-name="uni01D9" unicode="&#x1d9;" horiz-adv-x="641" 
d="M582 229q-10 -72 -47.5 -127.5t-101.5 -87t-150 -31.5q-117 0 -177 55t-60 150q0 22 3 44l65 461h161l-64 -458q-3 -22 -3 -40q0 -46 21 -68t66 -22q56 0 86.5 33t39.5 100l65 455h161zM558 1098l50 -64l-156 -129h-95l-122 129l62 64l119 -84zM215 768.5
q-20 19.5 -20 50.5q0 37 26 62t64 25q33 0 53 -19.5t20 -50.5q0 -37 -26 -62t-64 -25q-33 0 -53 19.5zM455 768.5q-20 19.5 -20 50.5q0 37 26.5 62t64.5 25q33 0 53 -19.5t20 -50.5q0 -37 -26.5 -62t-64.5 -25q-33 0 -53 19.5z" />
    <glyph glyph-name="uni01DA" unicode="&#x1da;" horiz-adv-x="562" 
d="M69 18q-33 35 -33 97q0 18 3 37l54 379h155l-49 -354q-2 -20 -2 -25q0 -24 9.5 -34t27.5 -10q47 0 102 84l47 339h155l-74 -531h-134l3 79q-74 -96 -168 -96q-63 0 -96 35zM490 952l50 -64l-156 -129h-95l-122 129l62 64l119 -84zM145 621.5q-20 19.5 -20 50.5
q0 37 26.5 62t64.5 25q33 0 52.5 -19.5t19.5 -50.5q0 -37 -26 -62t-64 -25q-33 0 -53 19.5zM387 621.5q-20 19.5 -20 50.5q0 37 26 62t64 25q33 0 53 -19.5t20 -50.5q0 -37 -26 -62t-64 -25q-33 0 -53 19.5z" />
    <glyph glyph-name="uni01DB" unicode="&#x1db;" horiz-adv-x="641" 
d="M582 229q-10 -72 -47.5 -127.5t-101.5 -87t-150 -31.5q-117 0 -177 55t-60 150q0 22 3 44l65 461h161l-64 -458q-3 -22 -3 -40q0 -46 21 -68t66 -22q56 0 86.5 33t39.5 100l65 455h161zM356 1094l106 -173l-62 -49l-137 145zM214 768.5q-20 19.5 -20 50.5q0 37 26.5 62
t64.5 25q33 0 53 -19.5t20 -50.5q0 -37 -26.5 -62t-64.5 -25q-33 0 -53 19.5zM455 768.5q-20 19.5 -20 50.5q0 37 26 62t64 25q33 0 53 -19.5t20 -50.5q0 -37 -26 -62t-64 -25q-33 0 -53 19.5z" />
    <glyph glyph-name="uni01DC" unicode="&#x1dc;" horiz-adv-x="562" 
d="M69 18q-33 35 -33 97q0 18 3 37l54 379h155l-49 -354q-2 -20 -2 -25q0 -24 9.5 -34t27.5 -10q47 0 102 84l47 339h155l-74 -531h-134l3 79q-74 -96 -168 -96q-63 0 -96 35zM288 947l106 -173l-62 -49l-137 145zM148 621.5q-20 19.5 -20 50.5q0 37 26.5 62t64.5 25
q33 0 53 -19.5t20 -50.5q0 -37 -26.5 -62t-64.5 -25q-33 0 -53 19.5zM390 621.5q-20 19.5 -20 50.5q0 37 26 62t64 25q33 0 53 -19.5t20 -50.5q0 -37 -26 -62t-64 -25q-33 0 -53 19.5z" />
    <glyph glyph-name="uni01DD" unicode="&#x1dd;" horiz-adv-x="533" 
d="M447 487.5q59 -60.5 59 -164.5q0 -80 -30.5 -158t-98.5 -130t-172 -52q-93 0 -144.5 41t-51.5 104q0 101 94.5 148t246.5 62q-5 94 -95 94q-33 0 -65.5 -12t-69.5 -37l-56 94q98 71 211 71t172 -60.5zM300 132q31 44 43 110q-93 -6 -135 -35.5t-42 -71.5q0 -19 12 -33
t39 -14q52 0 83 44z" />
    <glyph glyph-name="uni01DE" unicode="&#x1de;" horiz-adv-x="581" 
d="M387 0l-14 149h-201l-55 -149h-168l303 693h196l108 -693h-169zM215 268h146l-30 315zM189 765.5q-20 19.5 -20 49.5q0 38 26 63t64 25q33 0 53 -20t20 -50q0 -37 -26 -62t-64 -25q-33 0 -53 19.5zM416.5 765.5q-19.5 19.5 -19.5 49.5q0 38 26 63t64 25q33 0 53 -20
t20 -50q0 -37 -26.5 -62t-64.5 -25q-33 0 -52.5 19.5zM527 940h-301l15 110h301z" />
    <glyph glyph-name="uni01DF" unicode="&#x1df;" horiz-adv-x="572" 
d="M547 492l-49 -340q-2 -18 -2 -23q0 -16 6 -25.5t22 -15.5l-45 -102q-46 4 -79 25.5t-44 62.5q-64 -91 -158 -91q-83 0 -127.5 56.5t-44.5 154.5q0 84 31 165t99.5 135t173.5 54q115 0 217 -56zM246.5 399q-31.5 -37 -45.5 -92t-14 -112q0 -53 15.5 -74.5t44.5 -21.5
q53 0 101 74l37 253q-29 10 -59 10q-48 0 -79.5 -37zM191 622.5q-20 19.5 -20 49.5q0 38 26 63t64 25q33 0 53 -20t20 -50q0 -37 -26 -62t-64 -25q-33 0 -53 19.5zM418.5 622.5q-19.5 19.5 -19.5 49.5q0 38 26 63t64 25q33 0 53 -20t20 -50q0 -37 -26.5 -62t-64.5 -25
q-33 0 -52.5 19.5zM530 801h-301l15 110h301z" />
    <glyph glyph-name="uni01E0" unicode="&#x1e0;" horiz-adv-x="581" 
d="M387 0l-14 149h-201l-55 -149h-168l303 693h196l108 -693h-169zM215 268h146l-30 315zM295 758.5q-23 22.5 -23 57.5q0 43 29.5 71t73.5 28q37 0 60 -22t23 -57q0 -43 -29.5 -71.5t-73.5 -28.5q-37 0 -60 22.5zM533 940h-301l15 110h301z" />
    <glyph glyph-name="uni01E1" unicode="&#x1e1;" horiz-adv-x="572" 
d="M547 492l-49 -340q-2 -18 -2 -23q0 -16 6 -25.5t22 -15.5l-45 -102q-46 4 -79 25.5t-44 62.5q-64 -91 -158 -91q-83 0 -127.5 56.5t-44.5 154.5q0 84 31 165t99.5 135t173.5 54q115 0 217 -56zM246.5 399q-31.5 -37 -45.5 -92t-14 -112q0 -53 15.5 -74.5t44.5 -21.5
q53 0 101 74l37 253q-29 10 -59 10q-48 0 -79.5 -37zM293 615.5q-23 22.5 -23 57.5q0 43 29.5 71t73.5 28q37 0 60 -22t23 -57q0 -43 -29.5 -71.5t-73.5 -28.5q-37 0 -60 22.5zM530 803h-301l15 110h301z" />
    <glyph glyph-name="uni01E2" unicode="&#x1e2;" horiz-adv-x="832" 
d="M791 576h-267l11 -168h240l-15 -115h-218l11 -175h227l-17 -118h-354l-6 149h-217l-70 -149h-174l357 693h525zM242 268h156l-13 305zM700 781h-301l15 110h301z" />
    <glyph glyph-name="uni01E3" unicode="&#x1e3;" horiz-adv-x="833" 
d="M387 530q38 -18 62 -53q30 32 77.5 51.5t102.5 19.5q62 0 106.5 -19t67 -52t22.5 -74q0 -102 -95 -148t-247 -61q2 -52 27 -73.5t68 -21.5q34 0 65.5 12t70.5 37l56 -94q-98 -71 -211 -71q-69 0 -117 22.5t-75 65.5q-43 -48 -90.5 -68t-104.5 -20q-75 0 -119 39.5
t-44 104.5q0 83 63 139t213 56h59q5 22 10.5 36t6.5 17q-4 27 -30 42t-65 15q-64 0 -143 -26l-24 105q99 37 189 37q61 0 99 -18zM531.5 399q-30.5 -44 -41.5 -109q93 8 135.5 37t42.5 67q0 21 -12.5 35t-41.5 14q-52 0 -82.5 -44zM288 231q-55 0 -85 -20.5t-30 -63.5
q0 -51 53 -51q29 0 54 15.5t53 46.5q-4 22 -2 73h-43zM625 655h-301l15 110h301z" />
    <glyph glyph-name="uni01E4" unicode="&#x1e4;" horiz-adv-x="665" 
d="M645 176h-67l-16 -120q-56 -35 -122.5 -54t-132.5 -19q-133 0 -201 70.5t-68 205.5q0 112 39.5 215t125 169.5t214.5 66.5q136 0 219 -88l-93 -83q-31 28 -60 40t-68 12q-77 0 -124 -52.5t-67 -131t-20 -162.5q0 -76 28 -109t85 -33q55 0 103 23l7 50h-96l13 95h96l6 43
h-95v100h260l-20 -143h67z" />
    <glyph glyph-name="uni01E5" unicode="&#x1e5;" horiz-adv-x="554" 
d="M481 -3h59l-8 -63h-70q-31 -82 -92.5 -119.5t-157.5 -37.5q-53 0 -105.5 15.5t-96.5 43.5l49 96q78 -42 148 -42q36 0 62.5 9.5t41.5 34.5h-113l8 63h126l14 95q-27 -32 -64.5 -51t-78.5 -19q-84 0 -129.5 56.5t-45.5 146.5q0 74 32.5 148.5t102 124.5t174.5 50
q116 0 217 -56l-65 -451q-2 -18 -8 -44zM307.5 159.5q27.5 19.5 51.5 53.5l33 213q-29 10 -59 10q-49 0 -81.5 -31.5t-47.5 -79t-15 -94.5q0 -46 16.5 -68.5t46.5 -22.5q28 0 55.5 19.5z" />
    <glyph glyph-name="Gcaron" unicode="&#x1e6;" horiz-adv-x="634" 
d="M636 622l-90 -81q-34 27 -63 38.5t-68 11.5q-77 0 -124 -52.5t-67 -131t-20 -162.5q0 -76 28 -109t85 -33q49 0 97 23l22 157h-88l1 116h260l-47 -343q-56 -35 -122.5 -54t-132.5 -19q-133 0 -201 70.5t-68 205.5q0 112 39.5 215t125 169.5t214.5 66.5q136 0 219 -88z
M572 943l50 -64l-156 -129h-95l-122 129l62 64l119 -84z" />
    <glyph glyph-name="gcaron" unicode="&#x1e7;" horiz-adv-x="577" 
d="M553 492l-66 -451q-20 -139 -86.5 -201.5t-192.5 -62.5q-49 0 -102.5 16t-97.5 43l53 103q76 -42 144 -42q52 0 85.5 25t43.5 96l7 51q-28 -32 -63.5 -50.5t-76.5 -18.5q-84 0 -129 56t-45 150q0 81 31.5 159.5t101 130.5t176.5 52q115 0 217 -56zM249 401
q-32 -35 -46.5 -87t-14.5 -104q0 -93 62 -93q54 0 104 74l37 235q-30 10 -60 10q-50 0 -82 -35zM498 813l50 -65l-157 -137h-95l-120 137l60 65l117 -91z" />
    <glyph glyph-name="uni01E8" unicode="&#x1e8;" horiz-adv-x="623" 
d="M27 0l97 693h162l-97 -693h-162zM414 0l-168 370l259 323h173l-265 -321l185 -372h-184zM547 943l50 -64l-156 -129h-95l-122 129l62 64l119 -84z" />
    <glyph glyph-name="uni01E9" unicode="&#x1e9;" horiz-adv-x="566" 
d="M243 462q75 86 176 86q65 0 104 -35t39 -92q0 -62 -36 -109t-109 -76l99 -236h-170l-97 256q84 27 119 60.5t35 77.5t-45 44q-33 0 -67.5 -27t-66.5 -82l-45 -329h-156l104 742l158 17zM534 992l50 -64l-156 -129h-95l-122 129l62 64l119 -84z" />
    <glyph glyph-name="uni01EA" unicode="&#x1ea;" horiz-adv-x="681" 
d="M282 -114q0 -33 44 -33q26 0 63 8l-22 -99q-29 -7 -69 -7q-59 0 -95.5 28t-36.5 76q0 77 78 129q-99 16 -152 88.5t-53 190.5q0 104 35.5 205t116.5 169.5t210 68.5q126 0 195 -74t69 -210q0 -89 -25.5 -177t-83.5 -157.5t-150 -95.5q-124 -46 -124 -110zM232.5 139
q27.5 -36 82.5 -36q69 0 110.5 56t57.5 132.5t16 148.5q0 79 -27.5 114.5t-82.5 35.5q-69 0 -110.5 -56t-57.5 -132t-16 -147q0 -80 27.5 -116z" />
    <glyph glyph-name="uni01EB" unicode="&#x1eb;" horiz-adv-x="574" 
d="M487 488q59 -60 59 -163q0 -66 -19.5 -132t-63.5 -119t-112 -76q-130 -47 -130 -112q0 -33 44 -33q26 0 63 8l-22 -99q-29 -7 -69 -7q-59 0 -95.5 28t-36.5 76q0 78 80 131q-75 17 -116 74t-41 145q0 82 29 159.5t95.5 128.5t171.5 51q104 0 163 -60zM358 172.5
q28 73.5 29 159.5q0 52 -18.5 76t-55.5 24q-69 0 -97.5 -74t-28.5 -159q0 -52 18 -76t56 -24q69 0 97 73.5z" />
    <glyph glyph-name="uni01EC" unicode="&#x1ec;" horiz-adv-x="681" 
d="M580 891l-15 -110h-301l15 110h301zM282 -114q0 -33 44 -33q26 0 63 8l-22 -99q-29 -7 -69 -7q-59 0 -95.5 28t-36.5 76q0 77 78 129q-99 16 -152 88.5t-53 190.5q0 104 35.5 205t116.5 169.5t210 68.5q126 0 195 -74t69 -210q0 -89 -25.5 -177t-83.5 -157.5t-150 -95.5
q-124 -46 -124 -110zM232.5 139q27.5 -36 82.5 -36q69 0 110.5 56t57.5 132.5t16 148.5q0 79 -27.5 114.5t-82.5 35.5q-69 0 -110.5 -56t-57.5 -132t-16 -147q0 -80 27.5 -116z" />
    <glyph glyph-name="uni01ED" unicode="&#x1ed;" horiz-adv-x="574" 
d="M502 765l-15 -110h-301l15 110h301zM487 488q59 -60 59 -163q0 -66 -19.5 -132t-63.5 -119t-112 -76q-130 -47 -130 -112q0 -33 44 -33q26 0 63 8l-22 -99q-29 -7 -69 -7q-59 0 -95.5 28t-36.5 76q0 78 80 131q-75 17 -116 74t-41 145q0 82 29 159.5t95.5 128.5t171.5 51
q104 0 163 -60zM358 172.5q28 73.5 29 159.5q0 52 -18.5 76t-55.5 24q-69 0 -97.5 -74t-28.5 -159q0 -52 18 -76t56 -24q69 0 97 73.5z" />
    <glyph glyph-name="uni01EE" unicode="&#x1ee;" horiz-adv-x="542" 
d="M525 578l-198 -175q87 -4 135 -48t48 -121t-39.5 -134t-108 -87t-152.5 -30q-82 0 -136.5 26.5t-90.5 77.5l92 79q30 -33 60 -47t74 -14q59 0 96.5 33.5t37.5 89.5q0 43 -27.5 61.5t-82.5 18.5h-99l1 1l12 91l193 174h-250l16 119h434zM485 943l50 -64l-156 -129h-95
l-122 129l62 64l119 -84z" />
    <glyph glyph-name="uni01EF" unicode="&#x1ef;" horiz-adv-x="500" 
d="M474 423l-209 -211q89 -6 137 -50t48 -121q0 -78 -38.5 -138t-106 -92.5t-152.5 -32.5q-145 0 -219 104l91 79q32 -34 61.5 -48t69.5 -14q61 0 97.5 38t36.5 103q0 44 -26.5 62t-83.5 18h-93l1 1l12 91l195 201h-249l17 118h425zM439 813l50 -65l-157 -137h-95l-120 137
l60 65l117 -91z" />
    <glyph glyph-name="uni01F0" unicode="&#x1f0;" horiz-adv-x="276" 
d="M-100 -110q61 25 91 59t40 103l66 479h155l-66 -473q-11 -83 -44 -136.5t-82 -85.5t-121 -58zM339 813l50 -65l-157 -137h-95l-120 137l60 65l117 -91z" />
    <glyph glyph-name="uni01F1" unicode="&#x1f1;" horiz-adv-x="1151" 
d="M540.5 635.5q85.5 -57.5 85.5 -205.5q0 -189 -92.5 -309.5t-299.5 -120.5h-207l97 693h188q143 0 228.5 -57.5zM269 574l-64 -456h53q110 0 156.5 93.5t46.5 218.5q0 83 -36 113.5t-103 30.5h-53zM597 0l16 123l364 443h-270l18 127h455l-17 -124l-360 -439l303 1
l-34 -131h-475z" />
    <glyph glyph-name="uni01F2" unicode="&#x1f2;" horiz-adv-x="1081" 
d="M540.5 635.5q85.5 -57.5 85.5 -205.5q0 -189 -92.5 -309.5t-299.5 -120.5h-207l97 693h188q143 0 228.5 -57.5zM269 574l-64 -456h53q110 0 156.5 93.5t46.5 218.5q0 83 -36 113.5t-103 30.5h-53zM1097 531l-15 -111l-266 -300h229l-31 -120h-408l15 112l267 300h-204
l17 119h396z" />
    <glyph glyph-name="uni01F3" unicode="&#x1f3;" horiz-adv-x="1035" 
d="M592 742l-104 -742h-138l1 76q-28 -42 -67.5 -67.5t-90.5 -25.5q-82 0 -124.5 56.5t-42.5 157.5q0 79 27.5 160.5t84.5 136t142 54.5q76 0 122 -51l36 261zM239.5 394.5q-28.5 -38.5 -40.5 -93t-12 -105.5q0 -53 15 -75t43 -22q31 0 58.5 26t56.5 72l28 198
q-15 19 -33 28.5t-41 9.5q-46 0 -74.5 -38.5zM1051 531l-15 -111l-266 -300h229l-31 -120h-408l15 112l267 300h-204l17 119h396z" />
    <glyph glyph-name="uni01F4" unicode="&#x1f4;" horiz-adv-x="634" 
d="M636 622l-90 -81q-34 27 -63 38.5t-68 11.5q-77 0 -124 -52.5t-67 -131t-20 -162.5q0 -76 28 -109t85 -33q49 0 97 23l22 157h-88l1 116h260l-47 -343q-56 -35 -122.5 -54t-132.5 -19q-133 0 -201 70.5t-68 205.5q0 112 39.5 215t125 169.5t214.5 66.5q136 0 219 -88z
M529 950l49 -119l-245 -84l-34 78z" />
    <glyph glyph-name="uni01F5" unicode="&#x1f5;" horiz-adv-x="577" 
d="M553 492l-66 -451q-20 -139 -86.5 -201.5t-192.5 -62.5q-49 0 -102.5 16t-97.5 43l53 103q76 -42 144 -42q52 0 85.5 25t43.5 96l7 51q-28 -32 -63.5 -50.5t-76.5 -18.5q-84 0 -129 56t-45 150q0 81 31.5 159.5t101 130.5t176.5 52q115 0 217 -56zM249 401
q-32 -35 -46.5 -87t-14.5 -104q0 -93 62 -93q54 0 104 74l37 235q-30 10 -60 10q-50 0 -82 -35zM452 835l48 -118l-245 -95l-35 81z" />
    <glyph glyph-name="uni01F6" unicode="&#x1f6;" horiz-adv-x="935" 
d="M465.5 30.5q-49.5 47.5 -49.5 119.5q0 9 2 27l16 120h-204l-42 -297h-161l97 693h161l-38 -268h206l38 268h161l-72 -511q-2 -18 -2 -26q0 -57 47 -57q74 0 101.5 104.5t27.5 236.5q0 52 -5 91h147q8 -56 8 -116q0 -203 -64 -317.5t-229 -114.5q-96 0 -145.5 47.5z" />
    <glyph glyph-name="uni01F7" unicode="&#x1f7;" horiz-adv-x="591" 
d="M560 665q47 -45 47 -124q0 -82 -40 -140.5t-107 -97.5t-163 -73l-81 -29l-28 -201h-161l97 693h161l-6 -41q67 58 160 58q74 0 121 -45zM439 524q0 34 -17 51t-48 17q-57 0 -109 -42l-33 -233l43 18q164 74 164 189z" />
    <glyph glyph-name="uni01F8" unicode="&#x1f8;" horiz-adv-x="654" 
d="M552 0h-204l-128 557q2 -54 2 -83q0 -106 -17 -228l-35 -246h-143l97 693h202l131 -557q-3 56 -3 104q0 88 13 180l39 273h143zM350 949l200 -124l-42 -77l-224 82z" />
    <glyph glyph-name="uni01F9" unicode="&#x1f9;" horiz-adv-x="568" 
d="M499 514q32 -34 32 -94q0 -16 -3 -36l-53 -384h-155l49 351q2 20 2 25q0 24 -8.5 33.5t-24.5 9.5q-54 0 -117 -127l-42 -292h-155l74 531h135l-3 -93q35 51 82 80.5t99 29.5q56 0 88 -34zM293 835l201 -134l-44 -77l-224 93z" />
    <glyph glyph-name="Aringacute" unicode="&#x1fa;" horiz-adv-x="581" 
d="M387 0l-14 149h-201l-55 -149h-168l303 693h196l108 -693h-169zM215 268h146l-30 315zM472 956q33 -33 33 -85q0 -38 -19.5 -71t-54.5 -53t-80 -20q-56 0 -88.5 33t-32.5 85q0 37 19.5 70.5t54.5 53.5t79 20q56 0 89 -33zM335 891q-15 -18 -15 -42q0 -20 10 -30.5
t28 -10.5q26 0 41 17.5t15 42.5q0 20 -10 30.5t-28 10.5q-26 0 -41 -18zM474 1190l49 -119l-245 -84l-34 78z" />
    <glyph glyph-name="aringacute" unicode="&#x1fb;" horiz-adv-x="572" 
d="M547 492l-49 -340q-2 -18 -2 -23q0 -16 6 -25.5t22 -15.5l-45 -102q-46 4 -79 25.5t-44 62.5q-64 -91 -158 -91q-83 0 -127.5 56.5t-44.5 154.5q0 84 31 165t99.5 135t173.5 54q115 0 217 -56zM246.5 399q-31.5 -37 -45.5 -92t-14 -112q0 -53 15.5 -74.5t44.5 -21.5
q53 0 101 74l37 253q-29 10 -59 10q-48 0 -79.5 -37zM472 806q33 -33 33 -85q0 -38 -19.5 -71t-54.5 -53t-80 -20q-56 0 -88.5 33t-32.5 85q0 37 19.5 70.5t54.5 53.5t79 20q56 0 89 -33zM335 741q-15 -18 -15 -42q0 -20 10 -30.5t28 -10.5q26 0 41 17.5t15 42.5
q0 20 -10 30.5t-28 10.5q-26 0 -41 -18zM476 1042l49 -119l-245 -84l-34 78z" />
    <glyph glyph-name="AEacute" unicode="&#x1fc;" horiz-adv-x="832" 
d="M791 576h-267l11 -168h240l-15 -115h-218l11 -175h227l-17 -118h-354l-6 149h-217l-70 -149h-174l357 693h525zM242 268h156l-13 305zM656 950l49 -119l-245 -84l-34 78z" />
    <glyph glyph-name="aeacute" unicode="&#x1fd;" horiz-adv-x="833" 
d="M387 530q38 -18 62 -53q30 32 77.5 51.5t102.5 19.5q62 0 106.5 -19t67 -52t22.5 -74q0 -102 -95 -148t-247 -61q2 -52 27 -73.5t68 -21.5q34 0 65.5 12t70.5 37l56 -94q-98 -71 -211 -71q-69 0 -117 22.5t-75 65.5q-43 -48 -90.5 -68t-104.5 -20q-75 0 -119 39.5
t-44 104.5q0 83 63 139t213 56h59q5 22 10.5 36t6.5 17q-4 27 -30 42t-65 15q-64 0 -143 -26l-24 105q99 37 189 37q61 0 99 -18zM531.5 399q-30.5 -44 -41.5 -109q93 8 135.5 37t42.5 67q0 21 -12.5 35t-41.5 14q-52 0 -82.5 -44zM288 231q-55 0 -85 -20.5t-30 -63.5
q0 -51 53 -51q29 0 54 15.5t53 46.5q-4 22 -2 73h-43zM575 835l48 -118l-245 -95l-35 81z" />
    <glyph glyph-name="Oslashacute" unicode="&#x1fe;" horiz-adv-x="681" 
d="M638.5 569.5q26.5 -60.5 26.5 -143.5q0 -105 -35 -206t-116 -169t-210 -68q-27 0 -51 3l-53 -120l-118 32l59 131q-50 35 -76 95.5t-26 142.5q0 104 35.5 205t116.5 169.5t210 68.5q25 0 49 -3l54 121l117 -33l-59 -130q50 -35 76.5 -95.5zM277.5 534
q-41.5 -56 -58.5 -134t-17 -151q0 -70 19 -105l193 445q-8 1 -25 1q-70 0 -111.5 -56zM426.5 159.5q41.5 56.5 58.5 135t17 152.5q0 71 -19 103l-193 -446q8 -1 25 -1q70 0 111.5 56.5zM522 984l49 -119l-245 -84l-34 78z" />
    <glyph glyph-name="oslashacute" unicode="&#x1ff;" horiz-adv-x="574" 
d="M525 431q21 -47 21 -105q0 -82 -29 -160.5t-95.5 -130.5t-171.5 -52q-13 0 -35 2l-53 -120l-110 34l58 126q-40 29 -61 76.5t-21 107.5q0 82 29 159.5t95.5 128.5t171.5 51q13 0 35 -2l55 121l110 -34l-60 -127q40 -28 61 -75zM231 393.5q-32 -38.5 -45 -91.5t-13 -100
q0 -45 14 -70l139 300h-11q-52 0 -84 -38.5zM343 137.5q31 38.5 44 91t13 98.5q0 44 -13 67l-138 -295h11q52 0 83 38.5zM441 842l48 -118l-245 -95l-35 81z" />
    <glyph glyph-name="uni0200" unicode="&#x200;" horiz-adv-x="581" 
d="M387 0l-14 149h-201l-55 -149h-168l303 693h196l108 -693h-169zM215 268h146l-30 315zM260 986l69 -197l-86 -38l-94 182zM432 986l60 -197l-85 -33l-86 180z" />
    <glyph glyph-name="uni0201" unicode="&#x201;" horiz-adv-x="572" 
d="M547 492l-49 -340q-2 -18 -2 -23q0 -16 6 -25.5t22 -15.5l-45 -102q-46 4 -79 25.5t-44 62.5q-64 -91 -158 -91q-83 0 -127.5 56.5t-44.5 154.5q0 84 31 165t99.5 135t173.5 54q115 0 217 -56zM246.5 399q-31.5 -37 -45.5 -92t-14 -112q0 -53 15.5 -74.5t44.5 -21.5
q53 0 101 74l37 253q-29 10 -59 10q-48 0 -79.5 -37zM262 860l69 -197l-86 -38l-94 182zM434 860l60 -197l-85 -33l-86 180z" />
    <glyph glyph-name="uni0202" unicode="&#x202;" horiz-adv-x="581" 
d="M387 0l-14 149h-201l-55 -149h-168l303 693h196l108 -693h-169zM215 268h146l-30 315zM191 781q16 75 67.5 122.5t126.5 47.5q76 0 115 -49.5t35 -124.5l-89 -12q-8 76 -72 76q-67 0 -98 -79z" />
    <glyph glyph-name="uni0203" unicode="&#x203;" horiz-adv-x="572" 
d="M547 492l-49 -340q-2 -18 -2 -23q0 -16 6 -25.5t22 -15.5l-45 -102q-46 4 -79 25.5t-44 62.5q-64 -91 -158 -91q-83 0 -127.5 56.5t-44.5 154.5q0 84 31 165t99.5 135t173.5 54q115 0 217 -56zM246.5 399q-31.5 -37 -45.5 -92t-14 -112q0 -53 15.5 -74.5t44.5 -21.5
q53 0 101 74l37 253q-29 10 -59 10q-48 0 -79.5 -37zM185 619q16 75 67.5 122.5t126.5 47.5q76 0 115 -49.5t35 -124.5l-89 -12q-8 76 -72 76q-67 0 -98 -79z" />
    <glyph glyph-name="uni0204" unicode="&#x204;" horiz-adv-x="517" 
d="M543 693l-34 -117h-240l-24 -166h210l-15 -115h-210l-25 -177h257l-16 -118h-419l97 693h419zM245 986l69 -197l-86 -38l-94 182zM417 986l60 -197l-85 -33l-86 180z" />
    <glyph glyph-name="uni0205" unicode="&#x205;" horiz-adv-x="533" 
d="M429.5 255q-94.5 -47 -246.5 -62q5 -94 95 -94q33 0 65.5 12t69.5 37l56 -94q-98 -71 -211 -71t-172 60.5t-59 164.5q0 80 30.5 158t98.5 130t172 52q93 0 144.5 -41t51.5 -104q0 -101 -94.5 -148zM325 324.5q42 29.5 42 71.5q0 19 -12 33t-39 14q-52 0 -83 -44t-43 -110
q93 6 135 35.5zM233 860l69 -197l-86 -38l-94 182zM405 860l60 -197l-85 -33l-86 180z" />
    <glyph glyph-name="uni0206" unicode="&#x206;" horiz-adv-x="517" 
d="M543 693l-34 -117h-240l-24 -166h210l-15 -115h-210l-25 -177h257l-16 -118h-419l97 693h419zM176 781q16 75 67.5 122.5t126.5 47.5q76 0 115 -49.5t35 -124.5l-89 -12q-8 76 -72 76q-67 0 -98 -79z" />
    <glyph glyph-name="uni0207" unicode="&#x207;" horiz-adv-x="533" 
d="M429.5 255q-94.5 -47 -246.5 -62q5 -94 95 -94q33 0 65.5 12t69.5 37l56 -94q-98 -71 -211 -71t-172 60.5t-59 164.5q0 80 30.5 158t98.5 130t172 52q93 0 144.5 -41t51.5 -104q0 -101 -94.5 -148zM325 324.5q42 29.5 42 71.5q0 19 -12 33t-39 14q-52 0 -83 -44t-43 -110
q93 6 135 35.5zM156 619q16 75 67.5 122.5t126.5 47.5q76 0 115 -49.5t35 -124.5l-89 -12q-8 76 -72 76q-67 0 -98 -79z" />
    <glyph glyph-name="uni0208" unicode="&#x208;" horiz-adv-x="290" 
d="M285 693l-97 -693h-161l97 693h161zM115 986l69 -197l-86 -38l-94 182zM287 986l60 -197l-85 -33l-86 180z" />
    <glyph glyph-name="uni0209" unicode="&#x209;" horiz-adv-x="277" 
d="M253 531l-74 -531h-155l74 531h155zM93 860l69 -197l-86 -38l-94 182zM265 860l60 -197l-85 -33l-86 180z" />
    <glyph glyph-name="uni020A" unicode="&#x20a;" horiz-adv-x="290" 
d="M285 693l-97 -693h-161l97 693h161zM46 781q16 75 67.5 122.5t126.5 47.5q76 0 115 -49.5t35 -124.5l-89 -12q-8 76 -72 76q-67 0 -98 -79z" />
    <glyph glyph-name="uni020B" unicode="&#x20b;" horiz-adv-x="277" 
d="M253 531l-74 -531h-155l74 531h155zM16 619q16 75 67.5 122.5t126.5 47.5q76 0 115 -49.5t35 -124.5l-89 -12q-8 76 -72 76q-67 0 -98 -79z" />
    <glyph glyph-name="uni020C" unicode="&#x20c;" horiz-adv-x="681" 
d="M596 636q69 -74 69 -210q0 -105 -35 -206t-116 -169t-210 -68q-127 0 -196 74.5t-69 209.5q0 104 35.5 205t116.5 169.5t210 68.5q126 0 195 -74zM278.5 534q-41.5 -56 -57.5 -132t-16 -147q0 -80 27.5 -116t82.5 -36q69 0 110.5 56t57.5 132.5t16 148.5
q0 79 -27.5 114.5t-82.5 35.5q-69 0 -110.5 -56zM312 986l69 -197l-86 -38l-94 182zM484 986l60 -197l-85 -33l-86 180z" />
    <glyph glyph-name="uni020D" unicode="&#x20d;" horiz-adv-x="574" 
d="M86.5 43q-58.5 60 -58.5 166q0 82 29 159.5t95.5 128.5t171.5 51q104 0 163 -60t59 -163q0 -82 -29 -160t-95.5 -130t-171.5 -52t-163.5 60zM358 172.5q28 73.5 29 159.5q0 52 -18.5 76t-55.5 24q-69 0 -97.5 -74t-28.5 -159q0 -52 18 -76t56 -24q69 0 97 73.5zM237 860
l69 -197l-86 -38l-94 182zM409 860l60 -197l-85 -33l-86 180z" />
    <glyph glyph-name="uni020E" unicode="&#x20e;" horiz-adv-x="681" 
d="M596 636q69 -74 69 -210q0 -105 -35 -206t-116 -169t-210 -68q-127 0 -196 74.5t-69 209.5q0 104 35.5 205t116.5 169.5t210 68.5q126 0 195 -74zM278.5 534q-41.5 -56 -57.5 -132t-16 -147q0 -80 27.5 -116t82.5 -36q69 0 110.5 56t57.5 132.5t16 148.5
q0 79 -27.5 114.5t-82.5 35.5q-69 0 -110.5 -56zM243 781q16 75 67.5 122.5t126.5 47.5q76 0 115 -49.5t35 -124.5l-89 -12q-8 76 -72 76q-67 0 -98 -79z" />
    <glyph glyph-name="uni020F" unicode="&#x20f;" horiz-adv-x="574" 
d="M86.5 43q-58.5 60 -58.5 166q0 82 29 159.5t95.5 128.5t171.5 51q104 0 163 -60t59 -163q0 -82 -29 -160t-95.5 -130t-171.5 -52t-163.5 60zM358 172.5q28 73.5 29 159.5q0 52 -18.5 76t-55.5 24q-69 0 -97.5 -74t-28.5 -159q0 -52 18 -76t56 -24q69 0 97 73.5zM160 619
q16 75 67.5 122.5t126.5 47.5q76 0 115 -49.5t35 -124.5l-89 -12q-8 76 -72 76q-67 0 -98 -79z" />
    <glyph glyph-name="uni0210" unicode="&#x210;" horiz-adv-x="607" 
d="M566 383q-35 -55 -123 -92l130 -291h-176l-105 264l-67 1l-37 -265h-161l97 693h223q124 0 189 -48t65 -136q0 -71 -35 -126zM241 378h71q64 0 93 36.5t29 86.5q0 40 -25.5 58.5t-78.5 18.5h-61zM273 986l69 -197l-86 -38l-94 182zM445 986l60 -197l-85 -33l-86 180z" />
    <glyph glyph-name="uni0211" unicode="&#x211;" horiz-adv-x="392" 
d="M434 538l-45 -152q-28 7 -44 7q-46 0 -76.5 -38t-54.5 -109l-35 -246h-155l74 531h135l-2 -99q27 55 66.5 84.5t83.5 29.5q26 0 53 -8zM185 860l69 -197l-86 -38l-94 182zM357 860l60 -197l-85 -33l-86 180z" />
    <glyph glyph-name="uni0212" unicode="&#x212;" horiz-adv-x="607" 
d="M566 383q-35 -55 -123 -92l130 -291h-176l-105 264l-67 1l-37 -265h-161l97 693h223q124 0 189 -48t65 -136q0 -71 -35 -126zM241 378h71q64 0 93 36.5t29 86.5q0 40 -25.5 58.5t-78.5 18.5h-61zM204 781q16 75 67.5 122.5t126.5 47.5q76 0 115 -49.5t35 -124.5l-89 -12
q-8 76 -72 76q-67 0 -98 -79z" />
    <glyph glyph-name="uni0213" unicode="&#x213;" horiz-adv-x="392" 
d="M434 538l-45 -152q-28 7 -44 7q-46 0 -76.5 -38t-54.5 -109l-35 -246h-155l74 531h135l-2 -99q27 55 66.5 84.5t83.5 29.5q26 0 53 -8zM108 619q16 75 67.5 122.5t126.5 47.5q76 0 115 -49.5t35 -124.5l-89 -12q-8 76 -72 76q-67 0 -98 -79z" />
    <glyph glyph-name="uni0214" unicode="&#x214;" horiz-adv-x="641" 
d="M582 229q-10 -72 -47.5 -127.5t-101.5 -87t-150 -31.5q-117 0 -177 55t-60 150q0 22 3 44l65 461h161l-64 -458q-3 -22 -3 -40q0 -46 21 -68t66 -22q56 0 86.5 33t39.5 100l65 455h161zM291 986l69 -197l-86 -38l-94 182zM463 986l60 -197l-85 -33l-86 180z" />
    <glyph glyph-name="uni0215" unicode="&#x215;" horiz-adv-x="562" 
d="M69 18q-33 35 -33 97q0 18 3 37l54 379h155l-49 -354q-2 -20 -2 -25q0 -24 9.5 -34t27.5 -10q47 0 102 84l47 339h155l-74 -531h-134l3 79q-74 -96 -168 -96q-63 0 -96 35zM234 860l69 -197l-86 -38l-94 182zM406 860l60 -197l-85 -33l-86 180z" />
    <glyph glyph-name="uni0216" unicode="&#x216;" horiz-adv-x="641" 
d="M582 229q-10 -72 -47.5 -127.5t-101.5 -87t-150 -31.5q-117 0 -177 55t-60 150q0 22 3 44l65 461h161l-64 -458q-3 -22 -3 -40q0 -46 21 -68t66 -22q56 0 86.5 33t39.5 100l65 455h161zM222 781q16 75 67.5 122.5t126.5 47.5q76 0 115 -49.5t35 -124.5l-89 -12
q-8 76 -72 76q-67 0 -98 -79z" />
    <glyph glyph-name="uni0217" unicode="&#x217;" horiz-adv-x="562" 
d="M69 18q-33 35 -33 97q0 18 3 37l54 379h155l-49 -354q-2 -20 -2 -25q0 -24 9.5 -34t27.5 -10q47 0 102 84l47 339h155l-74 -531h-134l3 79q-74 -96 -168 -96q-63 0 -96 35zM157 619q16 75 67.5 122.5t126.5 47.5q76 0 115 -49.5t35 -124.5l-89 -12q-8 76 -72 76
q-67 0 -98 -79z" />
    <glyph glyph-name="Scommaaccent" unicode="&#x218;" horiz-adv-x="562" 
d="M569 619l-86 -86q-60 57 -140 57q-48 0 -76.5 -20.5t-28.5 -56.5q0 -30 24 -48t92 -41q89 -29 133.5 -75t44.5 -122q0 -62 -30.5 -117.5t-97 -91t-168.5 -35.5q-84 0 -146.5 27.5t-105.5 73.5l93 92q66 -68 163 -68q57 0 89.5 25t32.5 69q0 34 -23.5 55t-85.5 43
q-98 33 -141 79t-43 115q0 55 30 104.5t90.5 80.5t148.5 31q142 0 231 -91zM285 -87.5q20 -19.5 20 -49.5q0 -23 -8.5 -43.5t-29.5 -52.5l-58 -92h-78l45 117q-27 22 -27 54q0 38 24.5 62t59.5 24q32 0 52 -19.5z" />
    <glyph glyph-name="scommaaccent" unicode="&#x219;" horiz-adv-x="473" 
d="M465 480l-69 -85q-29 20 -61.5 30.5t-63.5 10.5q-34 0 -52.5 -12t-18.5 -32q0 -14 8.5 -23t29 -17.5t65.5 -22.5q69 -22 103.5 -61t34.5 -100q0 -51 -26 -93t-80 -67t-132 -25q-69 0 -127 24t-94 63l79 82q63 -56 143 -56q40 0 61 15t21 38q0 18 -8.5 28.5t-29.5 20
t-67 25.5q-70 24 -102.5 60t-32.5 94q0 47 26 85.5t77 62t121 23.5q114 0 195 -68zM238 -87.5q20 -19.5 20 -49.5q0 -23 -8.5 -43.5t-29.5 -52.5l-58 -92h-78l45 117q-27 22 -27 54q0 38 24.5 62t59.5 24q32 0 52 -19.5z" />
    <glyph glyph-name="uni021A" unicode="&#x21a;" horiz-adv-x="530" 
d="M591 693l-35 -126h-168l-80 -567h-161l80 567h-177l18 126h523zM272 -87.5q20 -19.5 20 -49.5q0 -23 -8.5 -43.5t-29.5 -52.5l-58 -92h-78l45 117q-27 22 -27 54q0 38 24.5 62t59.5 24q32 0 52 -19.5z" />
    <glyph glyph-name="uni021B" unicode="&#x21b;" horiz-adv-x="376" 
d="M217 176q-2 -18 -2 -24q0 -23 9.5 -33.5t28.5 -10.5q14 0 27.5 4t32.5 13l41 -103q-32 -19 -71 -29t-74 -10q-73 0 -112 39t-39 112q0 20 3 42l35 245h-73l15 110h80l33 118l134 15l-19 -133h122l-33 -110h-104zM240 -87.5q20 -19.5 20 -49.5q0 -23 -8.5 -43.5
t-29.5 -52.5l-58 -92h-78l45 117q-27 22 -27 54q0 38 24.5 62t59.5 24q32 0 52 -19.5z" />
    <glyph glyph-name="uni021C" unicode="&#x21c;" horiz-adv-x="512" 
d="M446 662.5q56 -47.5 56 -125.5q0 -138 -174 -180q70 -3 111 -39t41 -100q0 -128 -130 -211.5t-332 -119.5l1 118q142 37 217 86t75 129q0 40 -26 58t-82 18h-73l34 118h55q54 0 86 29.5t32 79.5q0 68 -76 68q-69 0 -146 -55l-67 84q108 90 243 90q99 0 155 -47.5z" />
    <glyph glyph-name="uni021D" unicode="&#x21d;" horiz-adv-x="482" 
d="M393.5 511q53.5 -37 53.5 -105q0 -98 -133 -133q59 -1 92 -27t33 -72q0 -102 -112.5 -173.5t-307.5 -109.5l-3 106q131 39 196.5 81t65.5 94q0 22 -14.5 31t-42.5 9h-99l24 102h53q41 0 65 19t24 56q0 25 -16.5 37.5t-45.5 12.5q-32 0 -60 -9t-62 -28l-59 86
q48 31 98 45.5t109 14.5q88 0 141.5 -37z" />
    <glyph glyph-name="uni021E" unicode="&#x21e;" horiz-adv-x="656" 
d="M188 0h-161l97 693h161l-38 -268h205l38 268h161l-97 -693h-161l41 297h-204zM550 943l50 -64l-156 -129h-95l-122 129l62 64l119 -84z" />
    <glyph glyph-name="uni021F" unicode="&#x21f;" horiz-adv-x="567" 
d="M498 514q32 -34 32 -95q0 -22 -2 -34l-54 -385h-155l49 351q2 20 2 26q0 23 -8 32.5t-24 9.5q-55 0 -119 -127l-41 -292h-155l104 742l157 16l-44 -316q29 48 73.5 77t95.5 29q57 0 89 -34zM512 992l50 -64l-156 -129h-95l-122 129l62 64l119 -84z" />
    <glyph glyph-name="uni0220" unicode="&#x220;" horiz-adv-x="643" 
d="M580.5 667q41.5 -43 41.5 -114q0 -18 -3 -36l-100 -727h-161l98 710q2 18 2 26q0 32 -14 47t-44 15q-36 0 -67 -16.5t-72 -51.5l-73 -520h-161l97 693h141l3 -63q46 41 92 60.5t101 19.5q78 0 119.5 -43z" />
    <glyph glyph-name="uni0221" unicode="&#x221;" horiz-adv-x="779" 
d="M737 217.5q31 -27.5 31 -73.5q0 -75 -59 -118t-148 -43q-28 0 -56 5l-41 -72l-71 31l41 66q-48 28 -69 78q-74 -108 -172 -108q-83 0 -125 56t-42 158q0 81 26.5 161.5t85 135t147.5 54.5q35 0 65.5 -14t51.5 -37l36 261l154 -16l-80 -567q-2 -13 -2 -33l1 1q30 52 64 77
t82 25q49 0 80 -27.5zM387 394q-15 20 -32 29.5t-41 9.5q-46 0 -74.5 -38.5t-40.5 -93t-12 -105.5q0 -53 15.5 -75t43.5 -22q30 0 57.5 26.5t55.5 71.5zM641.5 108q19.5 12 19.5 32q0 10 -6 15.5t-17 5.5q-17 0 -32 -14t-37 -50q6 -1 22 -1q31 0 50.5 12z" />
    <glyph glyph-name="uni0222" unicode="&#x222;" horiz-adv-x="640" 
d="M492 395q110 -44 110 -153q0 -73 -40 -132.5t-112.5 -93t-164.5 -33.5q-81 0 -140 27t-90 74t-31 106q0 74 42.5 126t117.5 79q-74 38 -74 127q0 8 2 28l20 143h162l-22 -153q-2 -10 -2 -28q0 -33 18 -49.5t56 -16.5q90 0 103 97l21 150h162l-21 -146q-14 -105 -117 -152
zM397 140.5q37 37.5 37 98.5q0 43 -25.5 67.5t-76.5 24.5q-64 0 -102 -37.5t-38 -99.5q0 -43 26.5 -67t76.5 -24q65 0 102 37.5z" />
    <glyph glyph-name="uni0223" unicode="&#x223;" horiz-adv-x="569" 
d="M507.5 472.5q-26.5 -36.5 -70.5 -57.5q96 -40 96 -152q0 -80 -37 -143.5t-102 -100t-147 -36.5q-107 0 -165.5 56.5t-58.5 147.5q0 82 39 140.5t111 86.5q-65 36 -65 116q0 20 2 31l26 181h153l-29 -210q-2 -14 -2 -21q0 -52 51 -52q33 0 51.5 20.5t23.5 56.5l29 206h154
l-26 -185q-7 -48 -33.5 -84.5zM345.5 147.5q28.5 48.5 28.5 117.5q0 46 -17.5 68t-56.5 22q-58 0 -88 -50t-30 -118q0 -88 75 -88q60 0 88.5 48.5z" />
    <glyph glyph-name="uni0224" unicode="&#x224;" horiz-adv-x="528" 
d="M546 569l-357 -439l292 1l-19 -131l-6 -39q-15 -90 -70 -136.5t-143 -46.5q-80 0 -135 44l63 92q18 -10 32.5 -15t33.5 -5q55 0 65 66l6 40h-328l16 123l364 443h-270l18 127h455z" />
    <glyph glyph-name="uni0225" unicode="&#x225;" horiz-adv-x="445" 
d="M450 420l-266 -300h220l-16 -120l-5 -36q-12 -93 -67 -139.5t-143 -46.5q-80 0 -135 44l63 91q21 -11 34 -15.5t31 -4.5q28 0 46 16t22 47l6 44h-266l15 112l267 300h-204l17 119h396z" />
    <glyph glyph-name="uni0226" unicode="&#x226;" horiz-adv-x="581" 
d="M387 0l-14 149h-201l-55 -149h-168l303 693h196l108 -693h-169zM215 268h146l-30 315zM305 779.5q-23 22.5 -23 57.5q0 43 29.5 71t73.5 28q37 0 60 -22t23 -57q0 -43 -29.5 -71.5t-73.5 -28.5q-37 0 -60 22.5z" />
    <glyph glyph-name="uni0227" unicode="&#x227;" horiz-adv-x="572" 
d="M547 492l-49 -340q-2 -18 -2 -23q0 -16 6 -25.5t22 -15.5l-45 -102q-46 4 -79 25.5t-44 62.5q-64 -91 -158 -91q-83 0 -127.5 56.5t-44.5 154.5q0 84 31 165t99.5 135t173.5 54q115 0 217 -56zM246.5 399q-31.5 -37 -45.5 -92t-14 -112q0 -53 15.5 -74.5t44.5 -21.5
q53 0 101 74l37 253q-29 10 -59 10q-48 0 -79.5 -37zM301 653.5q-23 22.5 -23 57.5q0 43 29.5 71t73.5 28q37 0 60 -22t23 -57q0 -43 -29.5 -71.5t-73.5 -28.5q-37 0 -60 22.5z" />
    <glyph glyph-name="uni0228" unicode="&#x228;" horiz-adv-x="517" 
d="M269 576l-24 -166h210l-15 -115h-210l-25 -177h257l-16 -118h-165l-8 -48q45 -5 68 -28.5t23 -61.5q0 -29 -16.5 -57.5t-52.5 -47.5t-92 -19q-33 0 -60.5 9t-46.5 23l44 70q29 -16 63 -16q23 0 36 8t13 25t-19.5 24t-66.5 7l28 112h-167l97 693h419l-34 -117h-240z" />
    <glyph glyph-name="uni0229" unicode="&#x229;" horiz-adv-x="533" 
d="M429.5 255q-94.5 -47 -246.5 -62q5 -94 95 -94q33 0 65.5 12t69.5 37l56 -94q-84 -61 -177 -69l-6 -33q45 -5 68 -28.5t23 -61.5q0 -30 -16.5 -58.5t-52.5 -47t-90 -18.5q-66 0 -109 32l44 71q28 -17 61 -17q23 0 36.5 8t14.5 25q0 17 -19.5 24t-66.5 7l25 99
q-87 14 -132 72t-45 149q0 80 30.5 158t98.5 130t172 52q93 0 144.5 -41t51.5 -104q0 -101 -94.5 -148zM325 324.5q42 29.5 42 71.5q0 19 -12 33t-39 14q-52 0 -83 -44t-43 -110q93 6 135 35.5z" />
    <glyph glyph-name="uni022A" unicode="&#x22a;" horiz-adv-x="681" 
d="M596 636q69 -74 69 -210q0 -105 -35 -206t-116 -169t-210 -68q-127 0 -196 74.5t-69 209.5q0 104 35.5 205t116.5 169.5t210 68.5q126 0 195 -74zM278.5 534q-41.5 -56 -57.5 -132t-16 -147q0 -80 27.5 -116t82.5 -36q69 0 110.5 56t57.5 132.5t16 148.5
q0 79 -27.5 114.5t-82.5 35.5q-69 0 -110.5 -56zM241 765.5q-20 19.5 -20 49.5q0 38 26 63t64 25q33 0 53 -20t20 -50q0 -37 -26 -62t-64 -25q-33 0 -53 19.5zM468.5 765.5q-19.5 19.5 -19.5 49.5q0 38 26 63t64 25q33 0 53 -20t20 -50q0 -37 -26.5 -62t-64.5 -25
q-33 0 -52.5 19.5zM579 940h-301l15 110h301z" />
    <glyph glyph-name="uni022B" unicode="&#x22b;" horiz-adv-x="574" 
d="M86.5 43q-58.5 60 -58.5 166q0 82 29 159.5t95.5 128.5t171.5 51q104 0 163 -60t59 -163q0 -82 -29 -160t-95.5 -130t-171.5 -52t-163.5 60zM358 172.5q28 73.5 29 159.5q0 52 -18.5 76t-55.5 24q-69 0 -97.5 -74t-28.5 -159q0 -52 18 -76t56 -24q69 0 97 73.5z
M166 622.5q-20 19.5 -20 49.5q0 38 26 63t64 25q33 0 53 -20t20 -50q0 -37 -26 -62t-64 -25q-33 0 -53 19.5zM393.5 622.5q-19.5 19.5 -19.5 49.5q0 38 26 63t64 25q33 0 53 -20t20 -50q0 -37 -26.5 -62t-64.5 -25q-33 0 -52.5 19.5zM505 801h-301l15 110h301z" />
    <glyph glyph-name="uni022C" unicode="&#x22c;" horiz-adv-x="681" 
d="M576 942h-301l15 110h301zM434 762.5q-14 6.5 -36 20.5q-13 9 -21.5 13.5t-17.5 4.5q-18 0 -31 -11t-30 -35l-72 42q27 52 63 84t77 32q22 0 37.5 -7.5t34.5 -20.5q11 -9 19 -13t17 -4q16 0 29.5 10.5t30.5 34.5l73 -41q-28 -53 -64 -84.5t-75 -31.5q-20 0 -34 6.5z
M596 636q69 -74 69 -210q0 -105 -35 -206t-116 -169t-210 -68q-127 0 -196 74.5t-69 209.5q0 104 35.5 205t116.5 169.5t210 68.5q126 0 195 -74zM278.5 534q-41.5 -56 -57.5 -132t-16 -147q0 -80 27.5 -116t82.5 -36q69 0 110.5 56t57.5 132.5t16 148.5q0 79 -27.5 114.5
t-82.5 35.5q-69 0 -110.5 -56z" />
    <glyph glyph-name="uni022D" unicode="&#x22d;" horiz-adv-x="574" 
d="M86.5 43q-58.5 60 -58.5 166q0 82 29 159.5t95.5 128.5t171.5 51q104 0 163 -60t59 -163q0 -82 -29 -160t-95.5 -130t-171.5 -52t-163.5 60zM358 172.5q28 73.5 29 159.5q0 52 -18.5 76t-55.5 24q-69 0 -97.5 -74t-28.5 -159q0 -52 18 -76t56 -24q69 0 97 73.5z
M344 600.5q-14 6.5 -36 20.5q-13 9 -21.5 13.5t-17.5 4.5q-18 0 -31 -11t-30 -35l-72 42q27 52 63 84t77 32q22 0 37.5 -7.5t34.5 -20.5q11 -9 19 -13t17 -4q16 0 29.5 10.5t30.5 34.5l73 -41q-28 -53 -64 -84.5t-75 -31.5q-20 0 -34 6.5zM491 782h-301l15 110h301z" />
    <glyph glyph-name="uni022E" unicode="&#x22e;" horiz-adv-x="681" 
d="M596 636q69 -74 69 -210q0 -105 -35 -206t-116 -169t-210 -68q-127 0 -196 74.5t-69 209.5q0 104 35.5 205t116.5 169.5t210 68.5q126 0 195 -74zM278.5 534q-41.5 -56 -57.5 -132t-16 -147q0 -80 27.5 -116t82.5 -36q69 0 110.5 56t57.5 132.5t16 148.5
q0 79 -27.5 114.5t-82.5 35.5q-69 0 -110.5 -56zM357 779.5q-23 22.5 -23 57.5q0 43 29.5 71t73.5 28q37 0 60 -22t23 -57q0 -43 -29.5 -71.5t-73.5 -28.5q-37 0 -60 22.5z" />
    <glyph glyph-name="uni022F" unicode="&#x22f;" horiz-adv-x="574" 
d="M86.5 43q-58.5 60 -58.5 166q0 82 29 159.5t95.5 128.5t171.5 51q104 0 163 -60t59 -163q0 -82 -29 -160t-95.5 -130t-171.5 -52t-163.5 60zM358 172.5q28 73.5 29 159.5q0 52 -18.5 76t-55.5 24q-69 0 -97.5 -74t-28.5 -159q0 -52 18 -76t56 -24q69 0 97 73.5z
M276 653.5q-23 22.5 -23 57.5q0 43 29.5 71t73.5 28q37 0 60 -22t23 -57q0 -43 -29.5 -71.5t-73.5 -28.5q-37 0 -60 22.5z" />
    <glyph glyph-name="uni0230" unicode="&#x230;" horiz-adv-x="681" 
d="M596 636q69 -74 69 -210q0 -105 -35 -206t-116 -169t-210 -68q-127 0 -196 74.5t-69 209.5q0 104 35.5 205t116.5 169.5t210 68.5q126 0 195 -74zM278.5 534q-41.5 -56 -57.5 -132t-16 -147q0 -80 27.5 -116t82.5 -36q69 0 110.5 56t57.5 132.5t16 148.5
q0 79 -27.5 114.5t-82.5 35.5q-69 0 -110.5 -56zM347 758.5q-23 22.5 -23 57.5q0 43 29.5 71t73.5 28q37 0 60 -22t23 -57q0 -43 -29.5 -71.5t-73.5 -28.5q-37 0 -60 22.5zM585 940h-301l15 110h301z" />
    <glyph glyph-name="uni0231" unicode="&#x231;" horiz-adv-x="574" 
d="M86.5 43q-58.5 60 -58.5 166q0 82 29 159.5t95.5 128.5t171.5 51q104 0 163 -60t59 -163q0 -82 -29 -160t-95.5 -130t-171.5 -52t-163.5 60zM358 172.5q28 73.5 29 159.5q0 52 -18.5 76t-55.5 24q-69 0 -97.5 -74t-28.5 -159q0 -52 18 -76t56 -24q69 0 97 73.5z
M268 615.5q-23 22.5 -23 57.5q0 43 29.5 71t73.5 28q37 0 60 -22t23 -57q0 -43 -29.5 -71.5t-73.5 -28.5q-37 0 -60 22.5zM505 803h-301l15 110h301z" />
    <glyph glyph-name="uni0232" unicode="&#x232;" horiz-adv-x="584" 
d="M652 693l-280 -433l-36 -260h-162l37 259l-158 434h172l84 -305l169 305h174zM516 781h-301l15 110h301z" />
    <glyph glyph-name="uni0233" unicode="&#x233;" horiz-adv-x="507" 
d="M317 -2q-91 -207 -329 -220l-4 111q77 10 116.5 34t70.5 77h-55l-85 531h162l35 -429l161 429h162zM459 655h-301l15 110h301z" />
    <glyph glyph-name="uni0234" unicode="&#x234;" horiz-adv-x="464" 
d="M422 217.5q31 -27.5 31 -73.5q0 -75 -58.5 -118t-147.5 -43q-33 0 -56 4l-42 -71l-71 31l39 63q-38 21 -57 55.5t-19 80.5q0 10 2 32l80 564l156 17l-83 -597q-2 -18 -2 -24q31 56 65.5 81.5t83.5 25.5q48 0 79 -27.5zM327 108q19 12 19 32q0 10 -6 15.5t-16 5.5
q-18 0 -32.5 -13.5t-37.5 -50.5q7 -1 23 -1q31 0 50 12z" />
    <glyph glyph-name="uni0235" unicode="&#x235;" horiz-adv-x="766" 
d="M724 217.5q31 -27.5 31 -73.5q0 -75 -58.5 -118t-147.5 -43q-33 0 -56 4l-42 -71l-71 31l39 63q-38 21 -57 55t-19 79q0 16 3 34l26 173q2 20 2 25q0 24 -9 33.5t-25 9.5q-56 0 -120 -127l-41 -292h-155l74 531h135l-3 -93q35 51 82 80.5t97 29.5q57 0 89.5 -33.5
t32.5 -94.5q0 -16 -3 -36l-31 -222q-2 -17 -1 -24q31 56 65.5 81.5t82.5 25.5q49 0 80 -27.5zM628.5 108q19.5 12 19.5 32q0 21 -23 21q-17 0 -32 -14t-37 -50q6 -1 22 -1q31 0 50.5 12z" />
    <glyph glyph-name="uni0236" unicode="&#x236;" horiz-adv-x="484" 
d="M442 217.5q31 -27.5 31 -75.5q0 -74 -58.5 -116.5t-147.5 -42.5q-33 0 -57 4l-41 -71l-71 31l39 63q-38 21 -57.5 56t-19.5 81q0 10 2 32l34 242h-73l15 110h80l33 118l134 15l-19 -133h122l-33 -110h-104l-37 -258q-2 -21 -1 -28q34 60 68 85t82 25t79 -27.5zM346.5 108
q19.5 12 19.5 32q0 21 -23 21q-17 0 -31.5 -13.5t-37.5 -50.5q7 -1 23 -1q30 0 49.5 12z" />
    <glyph glyph-name="uni0237" unicode="&#x237;" horiz-adv-x="276" 
d="M-100 -110q61 25 91 59t40 103l66 479h155l-66 -473q-11 -83 -44 -136.5t-82 -85.5t-121 -58z" />
    <glyph glyph-name="uni0238" unicode="&#x238;" horiz-adv-x="852" 
d="M787 494.5q39 -53.5 39 -151.5q-1 -91 -30 -174t-83.5 -134.5t-127.5 -51.5q-78 0 -117 82l-18 -65h-120l1 71q-29 -43 -66.5 -65.5t-81.5 -22.5q-74 0 -115.5 56t-41.5 154q0 90 30 172t85.5 132.5t127.5 50.5q35 0 63.5 -16.5t47.5 -48.5l36 259l158 17l-40 -281
q29 34 65 52t77 18q72 0 111 -53.5zM337 176l29 210q-26 47 -66 47q-38 0 -63.5 -37.5t-37.5 -92t-12 -106.5q0 -54 15 -76t42 -22q48 0 93 77zM616 136.5q25 38.5 37 94.5t12 107q0 52 -14.5 73t-40.5 21q-46 0 -90 -58l-30 -214q13 -33 28 -47.5t36 -14.5q37 0 62 38.5z
" />
    <glyph glyph-name="uni0239" unicode="&#x239;" horiz-adv-x="851" 
d="M785 495q40 -53 40 -148q-1 -93 -30 -176.5t-83.5 -135.5t-126.5 -52q-34 0 -64 19.5t-46 58.5l-37 -266l-158 -17l39 278q-57 -73 -139 -73q-71 0 -112.5 56t-41.5 153q0 91 30 173t86 132.5t129 50.5q77 0 118 -73l15 56h118v-57q34 39 70.5 56.5t78.5 17.5
q74 0 114 -53zM335 169l29 210q-13 29 -28.5 41.5t-36.5 12.5q-38 0 -63.5 -39t-37 -95.5t-11.5 -108.5q0 -91 54 -91q48 0 94 70zM615 139q25 40 37.5 97.5t12.5 108.5q0 48 -13.5 67.5t-39.5 19.5q-45 0 -93 -60l-29 -208q10 -35 25.5 -50t37.5 -15q37 0 62 40z" />
    <glyph glyph-name="uni023A" unicode="&#x23a;" horiz-adv-x="581" 
d="M403 0l-17 149h-117l-90 -223l-57 13l85 210h-46l-58 -149h-154l303 693h175l26 63l57 -14l-50 -124l96 -618h-153zM204 261h48l94 231l-12 105zM315 261h58l-13 111z" />
    <glyph glyph-name="uni023B" unicode="&#x23b;" horiz-adv-x="565" 
d="M397.5 125q32.5 15 70.5 43l63 -97q-44 -39 -101.5 -63.5t-126.5 -24.5q-32 0 -71 7l-26 -64l-58 13l29 70q-66 32 -102 98t-36 162q0 104 37 205.5t117 168.5t202 67q34 0 64 -6l21 52l57 -14l-22 -54q49 -21 85 -60l-87 -85q-25 20 -45 30l-185 -456q20 -7 45 -7
q37 0 69.5 15zM235 153l177 435q-5 1 -15 1q-68 0 -111 -51.5t-61.5 -125t-18.5 -143.5q0 -76 29 -116z" />
    <glyph glyph-name="uni023C" unicode="&#x23c;" horiz-adv-x="470" 
d="M323 116.5q23 8.5 55 28.5l58 -101q-83 -61 -183 -61q-24 0 -45 3l-25 -60l-53 13l25 61q-62 24 -95 79t-33 133q0 76 31 153.5t98 130t168 52.5q25 0 52 -5l24 58l53 -14l-25 -61q38 -17 66 -46l-77 -90q-16 16 -35 24l-124 -305q5 -1 15 -1q27 0 50 8.5zM209 133
l120 294h-4q-73 0 -104 -67.5t-31 -153.5q0 -49 19 -73z" />
    <glyph glyph-name="uni023D" unicode="&#x23d;" horiz-adv-x="523" 
d="M224 130h265l-34 -130h-411l42 302h-73l17 122h73l38 269h161l-37 -269h79l-17 -122h-79z" />
    <glyph glyph-name="uni023E" unicode="&#x23e;" horiz-adv-x="530" 
d="M557 573h-88l-121 -219l-49 -354h-142l1 10l-46 -84l-45 21l111 201l60 425h-187l17 120h410l35 63l45 -22l-23 -41h56zM368 493l44 80h-33z" />
    <glyph glyph-name="uni023F" unicode="&#x23f;" horiz-adv-x="482" 
d="M422.5 75.5q-26.5 -42.5 -75 -67.5t-111.5 -25q-27 0 -48 4q23 -11 37.5 -23.5t32.5 -31.5q18 -20 31.5 -29t35.5 -9q24 0 54 10l20 -96q-43 -29 -105 -29q-46 0 -77 17t-51 43t-48 74q-30 53 -57.5 89.5t-69.5 67.5l68 81q39 -27 75.5 -41t79.5 -14q39 0 59.5 15
t20.5 38q0 18 -8.5 28.5t-29 20t-66.5 25.5q-70 24 -103 60t-33 94q0 47 26 86t77 62t122 23q57 0 107 -18t87 -50l-69 -85q-29 20 -61.5 30.5t-63.5 10.5q-34 0 -52 -12t-18 -32q0 -14 8.5 -23t28.5 -17.5t65 -22.5q69 -22 103.5 -61t34.5 -100q0 -50 -26.5 -92.5z" />
    <glyph glyph-name="uni0240" unicode="&#x240;" horiz-adv-x="449" 
d="M-11 112l274 300h-211l17 119h396l-15 -111l-316 -342q47 -15 73 -43t51 -72q21 -36 37 -52.5t44 -16.5q26 0 55 11l20 -100q-45 -26 -103 -26q-43 0 -71.5 13.5t-45.5 33.5t-39 54q-24 37 -43.5 59t-53 39.5t-84.5 21.5z" />
    <glyph glyph-name="uni0241" unicode="&#x241;" horiz-adv-x="509" 
d="M159 330l56 16q69 19 104.5 57.5t35.5 101.5q0 42 -21.5 64t-63.5 22q-37 0 -71 -14t-71 -43l-70 86q53 45 110 67.5t130 22.5q104 0 164 -52t60 -142q0 -174 -181 -229l-27 -8l-40 -279h-161z" />
    <glyph glyph-name="uni0242" unicode="&#x242;" horiz-adv-x="461" 
d="M104 203l52 15q62 17 94 50t32 87q0 36 -19 56t-54 20q-32 0 -58 -12t-59 -37l-66 83q47 42 96.5 62.5t112.5 20.5q62 0 108.5 -23t72 -64.5t25.5 -95.5q0 -80 -40.5 -131.5t-116.5 -73.5l-32 -10l-21 -150h-155z" />
    <glyph glyph-name="uni0243" unicode="&#x243;" horiz-adv-x="618" 
d="M547 321.5q38 -33.5 38 -100.5q0 -100 -76.5 -160.5t-249.5 -60.5h-221l24 175h-64l12 80h64l61 438h203q262 0 262 -158q0 -69 -43 -111t-109 -58q61 -11 99 -44.5zM405.5 444q28.5 28 28.5 74q0 32 -23.5 45.5t-70.5 13.5h-61l-22 -161h60q60 0 88.5 28zM388 149
q32 30 32 84q0 74 -105 74h-74l-7 -52h115l-12 -80h-114l-8 -56h58q83 0 115 30z" />
    <glyph glyph-name="uni0244" unicode="&#x244;" horiz-adv-x="680" 
d="M695 500h-57l-38 -271q-10 -72 -47.5 -127.5t-101.5 -87t-150 -31.5q-117 0 -177 55t-60 150q0 22 3 44l38 268h-56l13 92h56l14 101h161l-14 -101h211l14 101h161l-14 -101h56zM476 500h-210l-37 -265q-3 -22 -3 -40q0 -46 21 -68t66 -22q56 0 86.5 33t39.5 100z" />
    <glyph glyph-name="uni0245" unicode="&#x245;" horiz-adv-x="581" 
d="M448 693l108 -693h-166l-56 574l-214 -574h-171l303 693h196z" />
    <glyph glyph-name="uni0246" unicode="&#x246;" horiz-adv-x="517" 
d="M509 576h-51l-67 -166h64l-15 -115h-96l-71 -177h189l-16 -118h-221l-30 -74l-58 13l25 61h-135l97 693h319l26 63l56 -14l-20 -49h38zM328 410l68 166h-127l-24 -166h83zM210 118l72 177h-52l-25 -177h5z" />
    <glyph glyph-name="uni0247" unicode="&#x247;" horiz-adv-x="533" 
d="M452 269.5q-72 -46.5 -191 -66.5l-38 -94q21 -10 55 -10q33 0 65.5 12t69.5 37l56 -94q-98 -71 -211 -71q-41 0 -83 10l-27 -67l-53 13l30 74q-48 28 -73 78t-25 117q0 80 30.5 158t98.5 130t172 52h15l22 53l53 -14l-19 -47q60 -14 92.5 -51t32.5 -86q0 -87 -72 -133.5z
M222 392q-29 -45 -39 -109q23 1 54 5l65 159q-51 -10 -80 -55zM358 441l-56 -137q78 27 78 94q0 31 -22 43zM199 195l-22 -2q2 -22 7 -37z" />
    <glyph glyph-name="uni0248" unicode="&#x248;" horiz-adv-x="329" 
d="M328 282h-75l-25 -178q-12 -83 -48.5 -137t-88 -84.5t-120.5 -52.5l-29 117q45 17 70.5 39.5t37 52t17.5 74.5l24 169h-77l17 122h77l41 289h161l-40 -289h75z" />
    <glyph glyph-name="uni0249" unicode="&#x249;" horiz-adv-x="335" 
d="M318 196h-79l-19 -138q-11 -83 -44 -136.5t-82 -85.5t-121 -58l-39 112q61 25 91 59t40 103l20 144h-81l16 111h80l31 224h155l-31 -224h79zM166 653.5q-23 22.5 -23 57.5q0 43 29.5 71t73.5 28q37 0 60 -22t23 -57q0 -43 -29.5 -71.5t-73.5 -28.5q-37 0 -60 22.5z" />
    <glyph glyph-name="uni024A" unicode="&#x24a;" horiz-adv-x="667" 
d="M712 -181q-61 -41 -142 -41q-83 0 -129.5 39t-46.5 115q0 18 3 38l4 30l6 41q-63 -58 -149 -58q-102 0 -161.5 72t-59.5 200q0 116 39.5 221t113 169.5t169.5 64.5q87 0 144 -62l13 45h143l-97 -693l-6 -44q-1 -6 -1 -16q0 -43 43 -43q21 0 36.5 5t36.5 15zM422 147
l55 400q-19 21 -42 32t-55 11q-58 0 -98 -51.5t-59.5 -130t-19.5 -160.5q0 -79 27 -113.5t77 -34.5q64 0 115 47z" />
    <glyph glyph-name="uni024B" unicode="&#x24b;" horiz-adv-x="574" 
d="M519 -92l17 -113q-18 -8 -43.5 -12.5t-51.5 -4.5q-61 0 -94 32t-33 90q0 21 2 32l10 69l7 44q-19 -24 -55.5 -43t-80.5 -19q-83 0 -127 56.5t-44 154.5q0 86 31.5 167t100.5 134t174 53q117 0 218 -56l-69 -491l-9 -67q-1 -5 -1 -12q0 -19 20 -19q16 0 28 5zM301 118
q24 19 48 55l38 253q-29 10 -59 10q-49 0 -80.5 -37t-46 -92t-14.5 -112q0 -53 16.5 -74.5t46.5 -21.5q27 0 51 19z" />
    <glyph glyph-name="uni024C" unicode="&#x24c;" horiz-adv-x="618" 
d="M577 383q-35 -55 -123 -92l130 -291h-176l-105 264l-67 1l-37 -265h-161l37 265h-64l15 113h65l44 315h223q124 0 189 -48t65 -136q0 -71 -35 -126zM280 578l-28 -200h71q64 0 93 36.5t29 86.5q0 40 -25.5 58.5t-78.5 18.5h-61z" />
    <glyph glyph-name="uni024D" unicode="&#x24d;" horiz-adv-x="416" 
d="M457 538l-45 -152q-28 7 -44 7q-41 0 -69.5 -30.5t-50.5 -87.5h76l-17 -110h-82l-23 -165h-155l23 165h-77l17 110h75l36 256h135l-2 -99q27 55 66.5 84.5t83.5 29.5q26 0 53 -8z" />
    <glyph glyph-name="uni024E" unicode="&#x24e;" horiz-adv-x="585" 
d="M653 693l-50 -78h38l-12 -92h-86l-170 -263l-36 -260h-162l37 259l-96 264h-85l12 92h39l-28 78h160l23 -78h210l45 78h161zM309 375l85 148h-129z" />
    <glyph glyph-name="uni024F" unicode="&#x24f;" horiz-adv-x="537" 
d="M507 394h41l-14 -98h-70l-131 -298q-91 -207 -329 -220l-4 111q77 10 116.5 34t70.5 77h-55l-47 296h-72l14 98h42l-22 137h162l11 -137h134l51 137h162zM244 102l73 194h-89z" />
    <glyph glyph-name="uni0250" unicode="&#x250;" horiz-adv-x="536" 
d="M199 178q-2 -18 -2 -24q0 -31 16 -43.5t56 -12.5q61 0 140 27l29 -103q-99 -39 -201 -39q-195 0 -195 151q0 18 3 39l29 206q2 16 2 22q0 17 -6.5 27t-21.5 16l45 102q47 -5 75.5 -22t40.5 -53q61 77 165 77q72 0 112.5 -39.5t40.5 -106.5q0 -98 -74 -148.5t-196 -50.5
h-54zM269.5 422q-23.5 -14 -41.5 -39l-13 -93h36q58 0 88.5 24t30.5 72q0 24 -13 37t-37 13q-27 0 -50.5 -14z" />
    <glyph glyph-name="uni0251" unicode="&#x251;" horiz-adv-x="572" 
d="M496 129q0 -16 6 -25.5t22 -15.5l-45 -102q-46 4 -79 25.5t-44 62.5q-62 -91 -157 -91q-85 0 -129 56.5t-44 155.5q0 87 33 169t94.5 133t141.5 51q87 0 122 -71l25 54h111l-55 -379q-2 -18 -2 -23zM379 381q-22 55 -73 55q-58 0 -88.5 -71.5t-30.5 -169.5
q0 -53 16 -74.5t45 -21.5q52 0 100 74z" />
    <glyph glyph-name="uni0252" unicode="&#x252;" horiz-adv-x="572" 
d="M502 491.5q44 -56.5 44 -155.5q0 -87 -33 -169t-94.5 -133t-141.5 -51q-87 0 -122 71l-25 -54h-111l55 379q2 18 2 23q0 16 -6 25.5t-22 15.5l45 102q46 -4 79 -25.5t44 -62.5q62 91 157 91q85 0 129 -56.5zM354.5 166.5q30.5 71.5 30.5 169.5q0 53 -16 74.5t-45 21.5
q-52 0 -100 -74l-31 -208q22 -55 73 -55q58 0 88.5 71.5z" />
    <glyph glyph-name="uni0253" unicode="&#x253;" horiz-adv-x="581" 
d="M513 494.5q42 -53.5 42 -153.5q0 -87 -28.5 -168t-97.5 -135.5t-184 -54.5q-56 0 -109 11t-109 33l71 503l7 50q11 79 68.5 129t152.5 50q39 0 75.5 -9.5t65.5 -25.5l-55 -101q-35 19 -78 19q-34 0 -51.5 -17t-23.5 -55l-6 -40l-6 -44q29 29 67.5 45.5t76.5 16.5
q80 0 122 -53.5zM337.5 135q30.5 37 44 92.5t13.5 110.5q0 52 -17 73t-47 21q-53 0 -101 -61l-36 -260q34 -13 67 -13q46 0 76.5 37z" />
    <glyph glyph-name="uni0254" unicode="&#x254;" horiz-adv-x="466" 
d="M45.5 -1.5q-40.5 15.5 -73.5 45.5l80 90q22 -18 42 -26t49 -9q69 0 102 67.5t33 155.5q0 59 -19.5 84.5t-59.5 25.5q-50 0 -106 -36l-57 91q81 61 185 61q102 0 159 -59t57 -166q0 -99 -35.5 -176t-102.5 -120.5t-157 -43.5q-56 0 -96.5 15.5z" />
    <glyph glyph-name="uni0255" unicode="&#x255;" horiz-adv-x="497" 
d="M437.5 226.5q31.5 -28.5 31.5 -80.5q0 -78 -58 -120.5t-148 -42.5q-39 0 -71 7l-43 -74l-71 31l43 72q-45 28 -69 77t-24 117q0 76 31.5 153.5t98.5 129.5t167 52q103 0 169 -68l-76 -90q-40 37 -92 37q-73 0 -104.5 -67t-31.5 -154q0 -37 8 -59q31 57 68.5 82.5
t87.5 25.5q52 0 83.5 -28.5zM342.5 109q18.5 13 18.5 37q0 23 -25 23q-20 0 -39 -16t-42 -53q16 -4 37 -4q32 0 50.5 13z" />
    <glyph glyph-name="uni0256" unicode="&#x256;" horiz-adv-x="594" 
d="M643 -181q-64 -41 -145 -41q-80 0 -125.5 40t-45.5 117q0 23 2 35l4 30l10 67q-22 -35 -61 -59.5t-89 -24.5q-83 0 -125 56t-42 158q0 81 26.5 161.5t85 135t147.5 54.5q35 0 65.5 -14t51.5 -37l36 261l154 -16l-104 -742l-6 -47q-1 -6 -1 -15q0 -45 46 -45
q21 0 36.5 4.5t37.5 15.5zM303.5 125q27.5 26 56.5 72l27 197q-15 20 -32 29.5t-41 9.5q-46 0 -74.5 -38.5t-40.5 -93t-12 -105.5q0 -53 15.5 -75t43.5 -22q30 0 57.5 26z" />
    <glyph glyph-name="uni0257" unicode="&#x257;" horiz-adv-x="585" 
d="M751 720l-57 -96q-31 18 -63 18q-53 0 -62 -63l-7 -48l-74 -531h-138l1 76q-28 -42 -67.5 -67.5t-90.5 -25.5q-83 0 -125 56t-42 158q0 81 26.5 161.5t85 135t147.5 54.5q35 0 65.5 -14t51.5 -37l5 34l6 47q12 83 66 132t142 49q73 0 130 -39zM387 394q-15 20 -32 29.5
t-41 9.5q-46 0 -74.5 -38.5t-40.5 -93t-12 -105.5q0 -53 15.5 -75t43.5 -22q30 0 57.5 26t56.5 72z" />
    <glyph glyph-name="uni0258" unicode="&#x258;" horiz-adv-x="536" 
d="M451.5 482.5q55.5 -65.5 54.5 -168.5q1 -96 -34.5 -171t-103.5 -117.5t-160 -42.5q-121 0 -198 74l71 86q31 -23 60 -33.5t66 -10.5q91 0 125 94q-138 8 -214.5 48t-76.5 125q0 51 29 92.5t82 65.5t122 24q122 0 177.5 -65.5zM235.5 313q35.5 -21 115.5 -25q1 13 1 41
q0 114 -81 114q-33 0 -52 -19.5t-19 -52.5q0 -37 35.5 -58z" />
    <glyph glyph-name="uni0259" unicode="&#x259;" horiz-adv-x="533" 
d="M447 487.5q59 -60.5 59 -164.5q0 -80 -30.5 -158t-98.5 -130t-172 -52q-93 0 -144.5 41t-51.5 104q0 101 94.5 148t246.5 62q-5 94 -95 94q-33 0 -65.5 -12t-69.5 -37l-56 94q98 71 211 71t172 -60.5zM300 132q31 44 43 110q-93 -6 -135 -35.5t-42 -71.5q0 -19 12 -33
t39 -14q52 0 83 44z" />
    <glyph glyph-name="uni025A" unicode="&#x25a;" horiz-adv-x="806" 
d="M830 343q-56 -36 -128 -36q-68 0 -103 32t-37 87v8l-65 -35q9 -34 9 -76q0 -80 -30.5 -158t-98.5 -130t-172 -52q-93 0 -144.5 41t-51.5 104q0 101 94.5 148t246.5 62q-5 94 -95 94q-33 0 -65.5 -12t-69.5 -37l-56 94q98 71 211 71q122 0 182 -71l111 54h130l-8 -61
q-1 -5 -1 -14q0 -39 41 -39q19 0 32 3.5t33 12.5zM300 132q31 44 43 110q-93 -6 -135 -35.5t-42 -71.5q0 -19 12 -33t39 -14q52 0 83 44z" />
    <glyph glyph-name="uni025B" unicode="&#x25b;" horiz-adv-x="487" 
d="M73.5 24.5q-58.5 41.5 -58.5 115.5q0 60 41.5 98t119.5 45q-104 25 -104 110q0 69 58 112t161 43q121 0 192 -67l-71 -76q-25 17 -50 25.5t-57 8.5q-38 0 -59 -17t-21 -45q0 -25 16.5 -39t48.5 -14h67l-29 -102h-57q-51 0 -73.5 -19t-22.5 -51q0 -26 21 -41t63 -15
q31 0 61.5 10.5t70.5 33.5l52 -90q-41 -32 -97 -49.5t-118 -17.5q-96 0 -154.5 41.5z" />
    <glyph glyph-name="uni025C" unicode="&#x25c;" horiz-adv-x="488" 
d="M398 511.5q53 -36.5 53 -98.5q0 -50 -34 -84t-98 -47q60 -7 92 -38.5t32 -82.5q0 -47 -26.5 -87.5t-83.5 -65.5t-143 -25q-126 0 -208 66l75 87q32 -21 63 -30.5t67 -9.5q47 0 71 19.5t24 50.5q0 56 -81 56h-83l23 102h60q44 0 68 18.5t24 47.5q0 49 -62 49
q-34 0 -61.5 -9t-60.5 -28l-61 85q48 31 100 46t115 15q82 0 135 -36.5z" />
    <glyph glyph-name="uni025D" unicode="&#x25d;" horiz-adv-x="754" 
d="M778 343q-56 -36 -128 -36q-68 0 -103 32t-37 87v8l-59 -32q-4 -46 -37.5 -77t-94.5 -43q60 -7 92 -38.5t32 -82.5q0 -47 -26.5 -87.5t-83.5 -65.5t-143 -25q-126 0 -208 66l75 87q32 -21 63 -30.5t67 -9.5q47 0 71 19.5t24 50.5q0 56 -81 56h-83l23 102h60q44 0 68 18.5
t24 47.5q0 49 -62 49q-34 0 -61.5 -9t-60.5 -28l-61 85q48 31 100 46t115 15q53 0 95.5 -16t66.5 -45l91 44h130l-8 -61q-1 -5 -1 -14q0 -39 41 -39q19 0 32 3.5t33 12.5z" />
    <glyph glyph-name="uni025E" unicode="&#x25e;" horiz-adv-x="564" 
d="M87.5 40.5q-59.5 57.5 -59.5 165.5q0 99 36.5 177t105 121.5t162.5 43.5q85 0 140.5 -38t55.5 -100q0 -49 -34 -82t-99 -46q60 -7 92 -38.5t32 -82.5q0 -47 -27 -87.5t-85 -65.5t-146 -25q-114 0 -173.5 57.5zM337.5 116q23.5 20 23.5 53q0 28 -20.5 40.5t-63.5 12.5h-28
l24 102h5q45 0 69 19t24 49q0 23 -14.5 35t-41.5 12q-46 0 -76.5 -36.5t-44 -91t-13.5 -109.5q0 -58 20 -82t65 -24q48 0 71.5 20z" />
    <glyph glyph-name="uni025F" unicode="&#x25f;" horiz-adv-x="335" 
d="M318 196h-79l-19 -138q-11 -83 -44 -136.5t-82 -85.5t-121 -58l-39 112q61 25 91 59t40 103l20 144h-81l16 111h80l31 224h155l-31 -224h79z" />
    <glyph glyph-name="uni0260" unicode="&#x260;" horiz-adv-x="583" 
d="M748 720l-57 -96q-31 18 -63 18q-53 0 -62 -63l-7 -48l-72 -490q-20 -139 -86.5 -201.5t-192.5 -62.5q-49 0 -102.5 16t-97.5 43l53 103q76 -42 144 -42q52 0 85.5 25t43.5 96l7 51q-28 -32 -63.5 -50.5t-76.5 -18.5q-84 0 -129 56t-45 150q0 81 31.5 159.5t99.5 130.5
t171 52q31 0 76 -9l5 39q12 83 66 132t142 49q73 0 130 -39zM354 191l35 235q-29 10 -58 10q-50 0 -82 -35t-46.5 -87t-14.5 -104q0 -93 62 -93q54 0 104 74z" />
    <glyph glyph-name="uni0261" unicode="&#x261;" horiz-adv-x="577" 
d="M553 492l-66 -451q-20 -139 -86.5 -201.5t-192.5 -62.5q-49 0 -102.5 16t-97.5 43l53 103q76 -42 144 -42q52 0 85.5 25t43.5 96l7 51q-28 -32 -63.5 -50.5t-76.5 -18.5q-84 0 -129 56t-45 150q0 81 31.5 159.5t101 130.5t176.5 52q115 0 217 -56zM249 401
q-32 -35 -46.5 -87t-14.5 -104q0 -93 62 -93q54 0 104 74l37 235q-30 10 -60 10q-50 0 -82 -35z" />
    <glyph glyph-name="uni0262" unicode="&#x262;" horiz-adv-x="552" 
d="M449.5 528.5q45.5 -19.5 83.5 -54.5l-84 -80q-27 22 -53 32t-57 10q-76 0 -114 -68.5t-38 -166.5q0 -57 20.5 -80.5t60.5 -23.5q38 0 75 14l13 96h-67v104h227l-36 -264q-102 -62 -225 -62q-113 0 -170.5 55t-57.5 162q0 99 39 178t110 123.5t162 44.5q66 0 111.5 -19.5z
" />
    <glyph glyph-name="uni0263" unicode="&#x263;" horiz-adv-x="503" 
d="M304 80q24 -49 35 -84t11 -72q0 -70 -41.5 -108t-118.5 -38q-62 0 -96 29.5t-34 77.5q0 45 24 91t71 107l-124 448h167l45 -347l141 347h164l-243 -450zM231 -46.5q-4 16.5 -12 42.5q-44 -63 -44 -97q0 -23 24 -23q18 0 27 12.5t9 31.5q0 17 -4 33.5z" />
    <glyph glyph-name="uni0264" unicode="&#x264;" 
d="M555 540q22 -8 45 -24l-55 -88q-2 1 -11.5 5t-23.5 4q-16 0 -27.5 -9t-26.5 -31l-108 -158q22 -39 32.5 -67t10.5 -60q0 -56 -37.5 -92.5t-109.5 -36.5q-57 0 -88.5 28.5t-31.5 73.5q0 38 20 75.5t59 82.5l-59 160q-8 20 -16 27t-23 7q-18 0 -40 -10l-34 92
q24 14 48 21.5t54 7.5q54 0 81.5 -30t45.5 -96l27 -91l56 98q35 64 69.5 91.5t90.5 27.5q30 0 52 -8zM267 170q-17 -23 -26 -40t-9 -31q0 -21 21 -21q14 0 22 8.5t8 24.5q0 24 -16 59z" />
    <glyph glyph-name="uni0265" unicode="&#x265;" horiz-adv-x="563" 
d="M328 82q-31 -44 -74.5 -71.5t-92.5 -27.5q-58 0 -91 34.5t-33 95.5q0 21 2 33l54 385h155l-50 -350q-2 -18 -2 -25q0 -44 32 -44q54 0 119 115l42 304h155l-103 -737l-155 -17z" />
    <glyph glyph-name="uni0266" unicode="&#x266;" horiz-adv-x="567" 
d="M497.5 514q32.5 -34 32.5 -95q0 -22 -2 -34l-54 -385h-155l52 351q2 20 2 25q0 24 -8.5 33.5t-24.5 9.5q-29 0 -60 -34t-60 -93l-42 -292h-155l75 530l7 50q11 79 68.5 129t152.5 50q39 0 75.5 -9.5t65.5 -25.5l-55 -101q-35 19 -78 19q-34 0 -51.5 -17t-23.5 -55l-6 -40
l-12 -90q28 49 72 78.5t93 29.5q59 0 91.5 -34z" />
    <glyph glyph-name="uni0267" unicode="&#x267;" horiz-adv-x="567" 
d="M497.5 514q32.5 -34 32.5 -95q0 -22 -2 -34l-54 -385l-5 -34q-15 -92 -72 -140t-145 -48q-81 0 -135 44l63 91q20 -11 33.5 -15.5t31.5 -4.5q28 0 45.5 16t21.5 47l7 44l52 351q2 20 2 25q0 24 -8.5 33.5t-24.5 9.5q-29 0 -60 -34t-60 -93l-42 -292h-155l75 530l7 50
q11 79 68.5 129t152.5 50q39 0 75.5 -9.5t65.5 -25.5l-55 -101q-35 19 -78 19q-34 0 -51.5 -17t-23.5 -55l-6 -40l-12 -90q28 49 72 78.5t93 29.5q59 0 91.5 -34z" />
    <glyph glyph-name="uni0268" unicode="&#x268;" horiz-adv-x="330" 
d="M158 653.5q-23 22.5 -23 57.5q0 43 29.5 71t73.5 28q37 0 60 -22t23 -57q0 -43 -29.5 -71.5t-73.5 -28.5q-37 0 -60 22.5zM333 337l-17 -110h-79l-32 -227h-155l32 227h-80l17 110h78l27 194h155l-27 -194h81z" />
    <glyph glyph-name="uni0269" unicode="&#x269;" horiz-adv-x="289" 
d="M93 531h155l-54 -388q-1 -4 -1 -11q0 -24 22 -24q13 0 26 5l18 -110q-43 -20 -99 -20q-60 0 -92 31t-32 90q0 17 3 35z" />
    <glyph glyph-name="uni026A" unicode="&#x26a;" horiz-adv-x="328" 
d="M336 421h-73l-44 -311h74l-16 -110h-301l15 110h73l43 311h-72l15 110h302z" />
    <glyph glyph-name="uni026B" unicode="&#x26b;" horiz-adv-x="458" 
d="M281 143q-2 -19 3 -27t18 -8q11 0 26 5l19 -110q-45 -20 -100 -20q-59 0 -91.5 30.5t-32.5 89.5q0 17 3 36l28 198h-7q-25 0 -41.5 -14.5t-34.5 -41.5l-79 48q35 56 76.5 90.5t97.5 34.5h4l41 288l156 17l-51 -365h5q25 0 42 13.5t34 39.5l79 -48q-34 -55 -75.5 -89
t-97.5 -34h-3z" />
    <glyph glyph-name="uni026C" unicode="&#x26c;" horiz-adv-x="430" 
d="M342 113l19 -110q-45 -20 -100 -20q-59 0 -91.5 30.5t-32.5 89.5q0 17 3 36l14 102q-71 2 -107.5 32.5t-36.5 82.5q0 56 39 90t101 34q19 0 37 -4l38 266l156 17l-60 -430h3q38 3 74 10l1 -81q-48 -11 -86 -14h-4l-14 -101q-2 -19 3 -27t18 -8q11 0 26 5zM167 327l10 71
q-12 3 -24 3q-17 0 -28 -10.5t-11 -28.5q0 -35 53 -35z" />
    <glyph glyph-name="uni026D" unicode="&#x26d;" horiz-adv-x="277" 
d="M333 -181q-64 -41 -145 -41q-80 0 -125.5 40t-45.5 117q0 23 2 35l4 30l105 742l156 17l-106 -759l-6 -47q-1 -6 -1 -15q0 -45 46 -45q21 0 36.5 4.5t37.5 15.5z" />
    <glyph glyph-name="uni026E" unicode="&#x26e;" horiz-adv-x="698" 
d="M672 423l-210 -211q89 -6 137 -50t48 -121q0 -78 -38.5 -138t-105.5 -92.5t-152 -32.5q-125 0 -198 79l84 90q26 -26 53 -37t63 -11q62 0 98.5 38t36.5 103q0 44 -26.5 62t-83.5 18h-93l13 92l194 201h-261l-38 -270q-2 -19 3 -27t18 -8q11 0 26 5l19 -110
q-45 -20 -100 -20q-59 0 -91.5 30.5t-32.5 89.5q0 17 3 36l85 603l156 17l-32 -228h439z" />
    <glyph glyph-name="uni026F" unicode="&#x26f;" horiz-adv-x="831" 
d="M807 531l-74 -531h-135l3 87q-33 -50 -75 -77t-91 -27q-47 0 -78 26t-38 73q-32 -46 -75.5 -72.5t-89.5 -26.5q-54 0 -85.5 34t-31.5 94q0 22 2 34l54 386h155l-50 -351q-2 -20 -2 -26q0 -24 8.5 -33t23.5 -9q48 0 103 121l42 298h155l-50 -351q-2 -20 -2 -25
q0 -24 9 -33.5t24 -9.5q25 0 52 34t50 91l41 294h155z" />
    <glyph glyph-name="uni0270" unicode="&#x270;" horiz-adv-x="827" 
d="M808 531l-103 -737l-157 -17l41 291q-31 -40 -70.5 -62.5t-81.5 -22.5q-44 0 -77 24.5t-41 72.5q-34 -46 -76.5 -71.5t-85.5 -25.5q-56 0 -88 34t-32 94q0 22 2 34l54 386h155l-52 -351q-2 -20 -2 -25q0 -24 9 -33.5t24 -9.5q25 0 53 33t52 89l42 297h155l-52 -351
q-2 -10 -2 -27q0 -23 8.5 -32t24.5 -9q25 0 52.5 33t50.5 89l42 297h155z" />
    <glyph glyph-name="uni0271" unicode="&#x271;" horiz-adv-x="831" 
d="M762.5 514q31.5 -34 31.5 -94q0 -22 -2 -34l-54 -386l-5 -34q-15 -92 -72 -140t-145 -48q-81 0 -135 44l63 91q20 -11 33.5 -15.5t31.5 -4.5q28 0 45.5 16t21.5 47l7 44l50 351q2 20 2 26q0 24 -8.5 33t-23.5 9q-48 0 -103 -121l-42 -298h-155l50 351q2 20 2 25
q0 24 -9 33.5t-24 9.5q-25 0 -52 -34t-50 -91l-41 -294h-155l74 531h135l-3 -87q33 50 75 77t91 27q47 0 78 -26t38 -73q32 46 75.5 72.5t89.5 26.5q54 0 85.5 -34z" />
    <glyph glyph-name="uni0272" unicode="&#x272;" horiz-adv-x="568" 
d="M499 514q32 -34 32 -94q0 -16 -3 -36l-53 -384h-155l49 351q2 20 2 25q0 24 -8.5 33.5t-24.5 9.5q-54 0 -117 -127l-42 -292l-5 -34q-15 -92 -72 -140t-145 -48q-81 0 -135 44l63 91q20 -11 33.5 -15.5t31.5 -4.5q28 0 45.5 16t21.5 47l7 44l74 531h135l-3 -93
q35 51 82 80.5t99 29.5q56 0 88 -34z" />
    <glyph glyph-name="uni0273" unicode="&#x273;" horiz-adv-x="568" 
d="M629 -181q-64 -41 -145 -41q-80 0 -125.5 40t-45.5 117q0 23 2 35l4 30h1l49 351q2 20 2 25q0 24 -8.5 33.5t-24.5 9.5q-54 0 -117 -127l-42 -292h-155l74 531h135l-3 -93q35 51 82 80.5t99 29.5q56 0 88 -34t32 -94q0 -16 -3 -36l-53 -384h-1l-6 -47q-1 -6 -1 -15
q0 -45 46 -45q21 0 36.5 4.5t37.5 15.5z" />
    <glyph glyph-name="uni0274" unicode="&#x274;" horiz-adv-x="578" 
d="M480 0h-186l-101 393q1 -22 1 -71q0 -90 -12 -173l-20 -149h-138l74 531h184l103 -392l-1 29q-2 34 -2 52q0 60 11 138l24 173h137z" />
    <glyph glyph-name="uni0275" unicode="&#x275;" horiz-adv-x="574" 
d="M487 488q59 -60 59 -163q0 -82 -29 -160t-95.5 -130t-171.5 -52t-163.5 60t-58.5 166q0 82 29 159.5t95.5 128.5t171.5 51q104 0 163 -60zM193 314h201v16q0 55 -19.5 80t-59.5 25q-90 0 -122 -121zM383 226h-202q-1 -9 -1 -25q0 -55 19 -80t60 -25q93 0 124 130z" />
    <glyph glyph-name="uni0276" unicode="&#x276;" horiz-adv-x="756" 
d="M509 422q25 -45 30 -100h162l-15 -106h-157q-19 -62 -60 -106h241l-16 -110h-350q-45 -17 -96 -17q-104 0 -162 60t-58 166q0 82 29 159.5t95 128.5t170 51q50 0 96 -17h353l-32 -109h-230zM205 123q18 -24 56 -24q69 0 97 73.5t29 159.5q0 52 -18.5 76t-55.5 24
q-69 0 -97.5 -74t-28.5 -159q0 -52 18 -76z" />
    <glyph glyph-name="uni0277" unicode="&#x277;" horiz-adv-x="755" 
d="M643 483.5q80 -64.5 80 -188.5q0 -83 -27 -154t-80 -114.5t-128 -43.5q-62 0 -95 28.5t-38 89.5q-24 -63 -63.5 -90.5t-101.5 -27.5q-77 0 -121.5 49t-44.5 145q0 118 47 201t135 126.5t210 43.5q147 0 227 -64.5zM547 153.5q25 54.5 25 136.5q0 73 -40 111t-129 38
q-228 0 -228 -259q0 -42 12.5 -61.5t38.5 -19.5q56 0 68 89l16 111l146 19l-19 -139q-2 -20 -2 -27q0 -53 43 -53q44 0 69 54.5z" />
    <glyph glyph-name="uni0278" unicode="&#x278;" horiz-adv-x="655" 
d="M600 162q-32 -68 -92 -109t-143 -48l-29 -210l-156 -17l32 228q-85 9 -137.5 61.5t-52.5 146.5q0 87 31.5 155t91 109.5t141.5 48.5l29 215l156 16l-32 -232q86 -10 139.5 -62.5t53.5 -146.5q0 -87 -32 -155zM453 174.5q28 60.5 28 148.5q0 50 -17 74.5t-52 28.5
l-45 -320q58 8 86 68.5zM189.5 136.5q16.5 -25.5 50.5 -30.5l45 319q-57 -8 -84.5 -67.5t-27.5 -146.5q0 -49 16.5 -74.5z" />
    <glyph glyph-name="uni0279" unicode="&#x279;" horiz-adv-x="392" 
d="M-42 -7l45 152q28 -7 44 -7q46 0 76.5 38t54.5 109l35 246h155l-74 -531h-135l2 99q-27 -55 -66.5 -84.5t-83.5 -29.5q-26 0 -53 8z" />
    <glyph glyph-name="uni027A" unicode="&#x27a;" horiz-adv-x="392" 
d="M398 742l-30 -211l-74 -531h-135l2 99q-27 -55 -66.5 -84.5t-83.5 -29.5q-26 0 -53 8l45 152q28 -7 44 -7q46 0 76.5 38t54.5 109l35 246l32 227z" />
    <glyph glyph-name="uni027B" unicode="&#x27b;" horiz-adv-x="392" 
d="M449 -181q-64 -41 -145 -41q-80 0 -125.5 40t-45.5 117q0 23 2 35l4 30l12 78q-27 -44 -63.5 -68.5t-76.5 -24.5q-26 0 -53 8l45 153q22 -7 45 -7q45 0 75.5 38t54.5 109l35 245h155l-74 -531l-6 -47q-1 -6 -1 -15q0 -45 46 -45q21 0 36.5 4.5t37.5 15.5z" />
    <glyph glyph-name="uni027C" unicode="&#x27c;" horiz-adv-x="393" 
d="M434 538l-44 -152q-28 7 -45 7q-46 0 -76.5 -38t-54.5 -109l-66 -452l-155 -17l105 754h135l-2 -99q26 54 67 84t83 30q27 0 53 -8z" />
    <glyph glyph-name="uni027D" unicode="&#x27d;" horiz-adv-x="392" 
d="M434 538l-45 -152q-28 7 -44 7q-46 0 -76.5 -38t-54.5 -109l-35 -246l-6 -47q-1 -6 -1 -15q0 -45 46 -45q21 0 36.5 4.5t37.5 15.5l42 -94q-64 -41 -145 -41q-80 0 -125.5 40t-45.5 117q0 23 2 35l4 30l74 531h135l-2 -99q27 55 66.5 84.5t83.5 29.5q26 0 53 -8z" />
    <glyph glyph-name="uni027E" unicode="&#x27e;" horiz-adv-x="384" 
d="M421 506l-63 -91q-20 11 -33.5 15.5t-31.5 4.5q-28 0 -45.5 -16t-21.5 -47l-7 -44l-45 -328h-155l45 328l5 34q15 92 72 140t145 48q81 0 135 -44z" />
    <glyph glyph-name="uni027F" unicode="&#x27f;" horiz-adv-x="387" 
d="M300.5 510q45.5 -40 45.5 -117q0 -23 -2 -35l-4 -30l-46 -328h-155l46 328l6 47q1 6 1 15q0 45 -46 45q-21 0 -36.5 -4.5t-37.5 -15.5l-42 94q64 41 145 41q80 0 125.5 -40z" />
    <glyph glyph-name="uni0280" unicode="&#x280;" horiz-adv-x="533" 
d="M379 208l101 -208h-160l-75 183h-46l-26 -183h-149l74 531h187q102 0 155 -38.5t53 -114.5q0 -119 -114 -170zM213 288h38q44 0 66.5 22.5t22.5 59.5q0 30 -17 41.5t-54 11.5h-37z" />
    <glyph glyph-name="uni0281" unicode="&#x281;" horiz-adv-x="532" 
d="M468 197q0 -98 -68.5 -147.5t-186.5 -49.5h-189l74 531h149l-26 -183h46l128 183h160l-159 -209q72 -40 72 -125zM314 190q0 28 -17 40.5t-51 12.5h-39l-19 -134h34q92 0 92 81z" />
    <glyph glyph-name="uni0282" unicode="&#x282;" horiz-adv-x="474" 
d="M407.5 268q34.5 -39 34.5 -101q0 -51 -26 -92.5t-79.5 -66.5t-132.5 -25q-50 0 -96 16l-6 -47q-1 -5 -1 -14q0 -24 13.5 -34.5t40.5 -10.5q25 0 43.5 5.5t41.5 16.5l42 -96q-28 -19 -65.5 -30t-81.5 -11q-81 0 -125 38.5t-44 113.5q0 19 3 40l14 100l70 75
q72 -49 150 -49q41 0 62.5 15t21.5 38q0 18 -8.5 28.5t-29.5 20t-67 25.5q-135 46 -135 155q0 46 26 85t77 62t123 23q55 0 107 -18.5t85 -49.5l-69 -88q-25 21 -58 32.5t-65 11.5q-35 0 -53.5 -11.5t-18.5 -32.5q0 -14 8.5 -23t28.5 -17.5t65 -22.5q70 -22 104.5 -61z" />
    <glyph glyph-name="uni0283" unicode="&#x283;" horiz-adv-x="278" 
d="M442 720l-57 -96q-31 18 -63 18q-53 0 -62 -63l-7 -48l-74 -531l-5 -34q-15 -92 -72 -140t-145 -48q-81 0 -135 44l63 91q20 -11 33.5 -15.5t31.5 -4.5q28 0 45.5 16t21.5 47l7 44l74 531l6 47q12 83 66 132t142 49q73 0 130 -39z" />
    <glyph glyph-name="uni0284" unicode="&#x284;" horiz-adv-x="335" 
d="M475 720l-57 -96q-31 18 -63 18q-53 0 -62 -63l-7 -48l-59 -421h77l-16 -110h-80q-24 -90 -81.5 -139t-153.5 -83l-37 108q54 23 80.5 46t39.5 68h-82l16 110h83l58 421l6 47q12 83 66 132t142 49q73 0 130 -39z" />
    <glyph glyph-name="uni0285" unicode="&#x285;" horiz-adv-x="496" 
d="M472 24q-64 -41 -145 -41q-80 0 -125.5 40t-45.5 117q0 23 2 35l4 30l17 122l6 47q1 6 1 15q0 45 -46 45q-21 0 -36.5 -4.5t-37.5 -15.5l-42 94q64 41 145 41q80 0 125.5 -40t45.5 -117q0 -23 -2 -35l-4 -30l-17 -122l-6 -47q-1 -6 -1 -15q0 -45 46 -45q21 0 36.5 4.5
t37.5 15.5z" />
    <glyph glyph-name="uni0286" unicode="&#x286;" horiz-adv-x="337" 
d="M501 720l-57 -96q-32 18 -63 18q-53 0 -62 -63l-7 -48l-73 -516l-3 -21q48 -14 93 -39l-35 -64q-33 16 -78 29q-26 -71 -77.5 -106t-133.5 -35q-63 0 -98.5 30.5t-35.5 83.5q0 60 45 96t113 36q39 0 57 -3l71 509l6 47q12 83 66 132t142 49q73 0 130 -39zM48.5 -119
q17.5 20 26.5 65q-18 3 -45 3q-32 0 -49 -14t-17 -38q0 -36 38 -36q29 0 46.5 20z" />
    <glyph glyph-name="uni0287" unicode="&#x287;" horiz-adv-x="376" 
d="M338 0h-80l-33 -118l-134 -15l19 133h-122l33 110h104l34 245q2 18 2 24q0 23 -9.5 33.5t-28.5 10.5q-14 0 -27.5 -4t-32.5 -13l-41 103q32 19 71 29t74 10q73 0 112 -39t39 -112q0 -19 -3 -42l-35 -245h73z" />
    <glyph glyph-name="uni0288" unicode="&#x288;" horiz-adv-x="376" 
d="M186 -47q-1 -6 -1 -15q0 -45 46 -45q21 0 36.5 4.5t37.5 15.5l42 -94q-64 -41 -145 -41q-80 0 -125.5 40t-45.5 117q0 23 2 35l4 30l59 421h-73l15 110h80l33 118l134 15l-19 -133h120l-31 -110h-104l-59 -421z" />
    <glyph glyph-name="uni0289" unicode="&#x289;" horiz-adv-x="611" 
d="M607 296h-76l-41 -296h-134l3 79q-74 -96 -168 -96q-63 0 -96 35t-33 97q0 18 3 37l21 144h-76l14 98h75l20 137h155l-19 -137h135l19 137h155l-19 -137h76zM376 296h-135l-16 -119q-2 -20 -2 -25q0 -24 9.5 -34t27.5 -10q47 0 102 84z" />
    <glyph glyph-name="uni028A" unicode="&#x28a;" horiz-adv-x="579" 
d="M128.5 10q-51.5 27 -78.5 74t-27 106q0 74 34.5 133.5t98.5 99.5h-87l15 108h201l-14 -103q-42 -45 -64.5 -106t-22.5 -125q0 -101 77 -101q64 0 94.5 56.5t30.5 137.5q0 87 -34 141l13 100h200l-15 -108h-89q39 -32 60.5 -70.5t21.5 -91.5q0 -80 -38 -143.5t-105 -99
t-149 -35.5q-71 0 -122.5 27z" />
    <glyph glyph-name="uni028B" unicode="&#x28b;" horiz-adv-x="557" 
d="M92.5 24q-51.5 41 -51.5 118q0 22 2 33l50 356h155l-49 -351q-2 -20 -2 -27q0 -54 48 -54q42 0 72 35.5t41 113.5l22 151q4 30 -22 30q-8 0 -20 -3l-14 108q40 14 84 14q61 0 95 -31.5t34 -92.5q0 -17 -3 -35l-20 -139q-19 -136 -98.5 -201.5t-189.5 -65.5
q-82 0 -133.5 41z" />
    <glyph glyph-name="uni028C" unicode="&#x28c;" horiz-adv-x="503" 
d="M-45 0l237 531h186l94 -531h-167l-37 411l-149 -411h-164z" />
    <glyph glyph-name="uni028D" unicode="&#x28d;" horiz-adv-x="739" 
d="M-32 0l182 531h184l15 -391l124 391h185l37 -531h-156l3 413l-139 -413h-151l-14 413l-121 -413h-149z" />
    <glyph glyph-name="uni028E" unicode="&#x28e;" horiz-adv-x="507" 
d="M191 533q46 106 127.5 162.5t202.5 63.5l4 -109q-77 -10 -118.5 -37t-71.5 -83l56 1l85 -531h-162l-35 429l-161 -429h-162z" />
    <glyph glyph-name="uni028F" unicode="&#x28f;" horiz-adv-x="501" 
d="M545 531l-227 -339l-27 -192h-155l27 191l-132 340h164l59 -231l124 231h167z" />
    <glyph glyph-name="uni0290" unicode="&#x290;" horiz-adv-x="449" 
d="M545 -181q-64 -41 -145 -41q-80 0 -125.5 40t-45.5 117q0 23 2 35l4 30h-261l15 112l267 300h-204l17 119h396l-15 -111l-266 -300h223l-17 -120l-6 -47q-1 -6 -1 -15q0 -45 46 -45q21 0 36.5 4.5t37.5 15.5z" />
    <glyph glyph-name="uni0291" unicode="&#x291;" horiz-adv-x="531" 
d="M506.5 238.5q31.5 -27.5 31.5 -75.5q0 -84 -60 -124t-164 -39l10 34l-12 -26l-1 -3q-7 -24 -13 -58t-8 -48q-2 -18 -4 -29l-89 4q9 68 23 126h-246l15 112l278 300h-215l17 119h395l-14 -105l-282 -306h85q56 146 171 146q51 0 82.5 -27.5zM411 129.5q21 9.5 21 31.5
q0 10 -6 16t-18 6q-41 0 -64 -63h6q40 0 61 9.5z" />
    <glyph glyph-name="uni0292" unicode="&#x292;" horiz-adv-x="500" 
d="M474 423l-209 -211q89 -6 137 -50t48 -121q0 -78 -38.5 -138t-106 -92.5t-152.5 -32.5q-145 0 -219 104l91 79q32 -34 61.5 -48t69.5 -14q61 0 97.5 38t36.5 103q0 44 -26.5 62t-83.5 18h-93l1 1l12 91l195 201h-249l17 118h425z" />
    <glyph glyph-name="uni0293" unicode="&#x293;" horiz-adv-x="505" 
d="M479 423l-210 -205q89 -5 137 -49.5t48 -124.5q0 -92 -53 -157t-147 -92l18 -55l-82 -30l-21 70q-30 -2 -46 -2q-90 0 -141 36.5t-51 102.5q0 63 40.5 101t98.5 38q56 0 88 -31.5t55 -107.5l1 -3q81 32 81 129q0 46 -26.5 64.5t-83.5 18.5h-93l1 1l12 91l196 195h-250
l17 118h425zM58 -91.5q18 -9.5 65 -9.5h12q-13 41 -26 56.5t-34 15.5q-16 0 -25.5 -9t-9.5 -24q0 -20 18 -29.5z" />
    <glyph glyph-name="uni0294" unicode="&#x294;" horiz-adv-x="478" 
d="M143 354l44 13q74 23 109 68.5t35 114.5q0 92 -88 92q-34 0 -65.5 -13.5t-67.5 -41.5l-67 81q54 47 108 69t123 22q103 0 162.5 -55t59.5 -150t-45.5 -154.5t-136.5 -90.5l-22 -7l-42 -302h-155z" />
    <glyph glyph-name="uni0295" unicode="&#x295;" horiz-adv-x="473" 
d="M150 0l44 302l-18 9q-59 28 -91 67t-32 107q0 78 36 140.5t100 98t145 35.5q67 0 116.5 -23.5t91.5 -70.5l-85 -77q-27 28 -54.5 41t-61.5 13q-59 0 -94 -42t-35 -114q0 -47 25 -75.5t76 -44.5l42 -12l-50 -354h-155z" />
    <glyph glyph-name="uni0296" unicode="&#x296;" horiz-adv-x="504" 
d="M359 758l-45 -318l28 -8q125 -42 125 -175q0 -79 -35.5 -141.5t-99 -97.5t-143.5 -35q-66 0 -118 24t-94 70l86 77q28 -28 55.5 -41t61.5 -13q61 0 94.5 42.5t33.5 112.5q0 51 -24 79.5t-75 42.5l-55 12l50 353z" />
    <glyph glyph-name="uni0297" unicode="&#x297;" horiz-adv-x="481" 
d="M506 481l-74 -87q-39 33 -87 33q-56 0 -93 -59.5t-54 -145.5t-17 -169q0 -81 20 -115t59 -34q26 0 49 9t52 28l57 -100q-82 -62 -176 -62q-107 0 -164.5 72t-58.5 204q0 127 38 240t112 183t177 70q98 0 160 -67z" />
    <glyph glyph-name="uni0298" unicode="&#x298;" horiz-adv-x="786" 
d="M621.5 673.5q71.5 -36.5 110 -104t38.5 -160.5q0 -120 -52 -217.5t-146 -153t-215 -55.5q-96 0 -168 36.5t-110.5 105t-38.5 161.5q0 121 52.5 217.5t146.5 151.5t214 55q97 0 168.5 -36.5zM304 557q-57 -43 -84.5 -115.5t-27.5 -162.5q0 -95 46 -140.5t129 -45.5
t139.5 43t84 115t27.5 161q0 96 -46 142t-128 46q-83 0 -140 -43zM347 288.5q-20 19.5 -20 50.5q0 37 26 61.5t65 24.5q32 0 52 -19.5t20 -49.5q0 -37 -26 -62t-64 -25q-33 0 -53 19.5z" />
    <glyph glyph-name="uni0299" unicode="&#x299;" horiz-adv-x="536" 
d="M481 337q-32 -33 -95 -46q117 -13 117 -108q0 -93 -69.5 -138t-186.5 -45h-223l73 526q119 22 207 22q98 0 153.5 -33t55.5 -94q0 -51 -32 -84zM336 343.5q22 20.5 22 56.5q0 47 -64 47q-24 0 -51 -3l-17 -121h51q37 0 59 20.5zM318 125.5q27 21.5 27 65.5q0 27 -17.5 38
t-51.5 11h-62l-20 -136h54q43 0 70 21.5z" />
    <glyph glyph-name="uni029A" unicode="&#x29a;" horiz-adv-x="566" 
d="M74 24.5q-59 41.5 -59 117.5q0 59 41.5 96.5t120.5 44.5q-49 12 -75.5 39t-26.5 67q0 45 27.5 81t79.5 57t123 21q111 0 171.5 -61.5t60.5 -167.5q0 -99 -36 -175t-105 -118.5t-165 -42.5q-98 0 -157 41.5zM351.5 161.5q32.5 65.5 32.5 155.5q0 65 -21.5 93.5t-63.5 28.5
q-34 0 -53 -16.5t-19 -44.5q0 -25 16 -39.5t47 -14.5h29l-30 -102h-17q-51 0 -74 -19t-23 -51q0 -27 19 -41.5t56 -14.5q69 0 101.5 65.5z" />
    <glyph glyph-name="uni029B" unicode="&#x29b;" 
d="M728 720l-56 -96q-17 9 -31 13.5t-32 4.5q-54 0 -61 -63l-15 -105l-75 -70q-62 32 -120 32q-77 0 -114 -69.5t-37 -169.5q0 -54 20.5 -77t60.5 -23q36 0 75 14l12 96h-66l-1 104h228l-36 -264q-102 -62 -226 -62q-113 0 -170.5 55t-57.5 162q0 98 40 177t107.5 124
t147.5 45q47 0 83 -12l8 54q11 82 58.5 125.5t128.5 43.5q76 0 129 -39z" />
    <glyph glyph-name="uni029C" unicode="&#x29c;" horiz-adv-x="576" 
d="M323 0l30 211h-144l-30 -211h-155l74 531h155l-28 -203h144l28 203h155l-74 -531h-155z" />
    <glyph glyph-name="uni029D" unicode="&#x29d;" horiz-adv-x="334" 
d="M192 653.5q-23 22.5 -23 57.5q0 43 29.5 71t73.5 28q37 0 60 -22t23 -57q0 -43 -29.5 -71.5t-73.5 -28.5q-37 0 -60 22.5zM236 -6q48 -14 93 -39l-35 -64q-33 16 -78 29q-26 -71 -77.5 -106t-133.5 -35q-63 0 -98.5 30.5t-35.5 83.5q0 60 45 96t113 36q39 0 57 -3l71 509
h155l-73 -516zM48.5 -119q17.5 20 26.5 65q-18 3 -45 3q-32 0 -49 -14t-17 -38q0 -36 38 -36q29 0 46.5 20z" />
    <glyph glyph-name="uni029E" unicode="&#x29e;" horiz-adv-x="534" 
d="M-37 0l197 245l-132 286h168l119 -290l-186 -241h-166zM258 -223l103 754h155l-104 -738z" />
    <glyph glyph-name="uni029F" unicode="&#x29f;" horiz-adv-x="446" 
d="M253 531l-57 -410h219l-34 -121h-357l74 531h155z" />
    <glyph glyph-name="uni02A0" unicode="&#x2a0;" horiz-adv-x="578" 
d="M744 720l-57 -96q-31 18 -63 18q-53 0 -62 -63l-7 -48l-103 -737l-156 -17l38 270q-18 -25 -55.5 -44.5t-81.5 -19.5q-83 0 -127 56.5t-44 154.5q0 86 31 167t99 134t170 53q42 0 75 -9l5 39q12 83 66 132t142 49q73 0 130 -39zM389 430q-33 6 -61 6q-49 0 -80.5 -37
t-46 -92t-14.5 -112q0 -53 16.5 -74.5t46.5 -21.5q52 0 100 74z" />
    </font>
</defs>
</svg>
