<?xml version="1.0" standalone="no"?>
<!DOCTYPE svg PUBLIC "-//W3C//DTD SVG 1.1//EN" "http://www.w3.org/Graphics/SVG/1.1/DTD/svg11.dtd" >
<svg xmlns="http://www.w3.org/2000/svg" xmlns:xlink="http://www.w3.org/1999/xlink" version="1.1">
<metadata>
Created by FontForge 20170731 at Fri Dec  2 11:32:35 2016
 By Aleksey,,,
Digitized data copyright 2012-2016, The Mozilla Foundation and Telefonica S.A.
</metadata>
<defs>
<font id="FiraSans-Bold" horiz-adv-x="560" >
  <font-face 
    font-family="Fira Sans"
    font-weight="700"
    font-stretch="normal"
    units-per-em="1000"
    panose-1="2 11 8 3 5 0 0 2 0 4"
    ascent="800"
    descent="-200"
    x-height="531"
    cap-height="693"
    bbox="-783 -354 1360 1191"
    underline-thickness="50"
    underline-position="-150"
    unicode-range="U+000D-FEFF"
  />
<missing-glyph horiz-adv-x="666" 
d="M543 1050v-1400h-420v1400h420zM489 998h-311v-1296h311v1296zM409.5 419q25.5 -32 25.5 -83q0 -53 -22.5 -82t-72.5 -36v-45q0 -11 -7.5 -17.5t-17.5 -6.5t-17.5 6.5t-7.5 17.5v84q53 3 72 19.5t19 57.5q0 33 -13 51t-48 18q-29 0 -52 -11q-8 -3 -13 -3q-11 0 -17.5 6.5
t-6.5 16.5q0 19 29.5 29t63.5 10q60 0 85.5 -32zM340 110q10 -10 10 -25q0 -16 -10 -26.5t-25 -10.5t-25 10.5t-10 26.5q0 15 10 25t25 10t25 -10z" />
    <glyph glyph-name="fi" unicode="fi" horiz-adv-x="599" 
d="M481 719l-44 -101q-59 24 -114 24q-46 0 -63.5 -16t-17.5 -55v-40h295v-531h-158v421h-137v-421h-158v421h-81v110h81v46q0 82 54 132t167 50q94 0 176 -40z" />
    <glyph glyph-name="fl" unicode="fl" horiz-adv-x="631" 
d="M633 1q-44 -18 -102 -18q-67 0 -103.5 38.5t-36.5 111.5v501q-44 11 -78 11q-40 0 -55.5 -16t-15.5 -55v-43h101l-18 -110h-83v-421h-158v421h-81v110h81v47q0 80 53 130.5t153 50.5q53 0 116 -18l143 15v-607q0 -22 6.5 -31.5t20.5 -9.5t26 5z" />
    <glyph glyph-name=".notdef" horiz-adv-x="666" 
d="M543 1050v-1400h-420v1400h420zM489 998h-311v-1296h311v1296zM409.5 419q25.5 -32 25.5 -83q0 -53 -22.5 -82t-72.5 -36v-45q0 -11 -7.5 -17.5t-17.5 -6.5t-17.5 6.5t-7.5 17.5v84q53 3 72 19.5t19 57.5q0 33 -13 51t-48 18q-29 0 -52 -11q-8 -3 -13 -3q-11 0 -17.5 6.5
t-6.5 16.5q0 19 29.5 29t63.5 10q60 0 85.5 -32zM340 110q10 -10 10 -25q0 -16 -10 -26.5t-25 -10.5t-25 10.5t-10 26.5q0 15 10 25t25 10t25 -10z" />
    <glyph glyph-name=".null" horiz-adv-x="0" 
 />
    <glyph glyph-name="nonmarkingreturn" unicode="&#xd;" horiz-adv-x="237" 
 />
    <glyph glyph-name="space" unicode=" " horiz-adv-x="237" 
 />
    <glyph glyph-name="exclam" unicode="!" horiz-adv-x="240" 
d="M204 693l-20 -438h-128l-20 438h168zM184.5 137.5q26.5 -26.5 26.5 -63.5q0 -38 -26.5 -64.5t-64.5 -26.5q-37 0 -63.5 26.5t-26.5 64.5q0 37 26.5 63.5t63.5 26.5q38 0 64.5 -26.5z" />
    <glyph glyph-name="quotedbl" unicode="&#x22;" horiz-adv-x="439" 
d="M67 414l-19 279h143l-20 -279h-104zM268 414l-19 279h143l-20 -279h-104z" />
    <glyph glyph-name="numbersign" unicode="#" horiz-adv-x="557" 
d="M542 440h-70l-25 -192h58v-105h-72l-19 -143h-131l19 143h-100l-19 -143h-131l19 143h-56v105h70l25 192h-58v105h72l17 131h131l-17 -131h100l17 131h131l-17 -131h56v-105zM316 248l25 192h-100l-25 -192h100z" />
    <glyph glyph-name="dollar" unicode="$" horiz-adv-x="549" 
d="M476 68.5q-49 -53.5 -136 -71.5v-158h-114v152q-132 11 -217 94l81 88q72 -67 166 -67q49 0 77 22t28 60q0 25 -10 41.5t-36 30t-75 28.5q-110 35 -156.5 83t-46.5 123t52 125.5t137 62.5v148h114v-148q99 -16 166 -81l-73 -86q-66 56 -145 56q-42 0 -66 -17t-24 -48
q0 -22 10.5 -36t37.5 -26.5t81 -29.5q101 -32 149.5 -80t48.5 -134q0 -78 -49 -131.5z" />
    <glyph glyph-name="percent" unicode="%" horiz-adv-x="859" 
d="M614 720l97 -62l-463 -698l-97 62zM297.5 668q40.5 -22 64 -63t23.5 -95t-23.5 -95t-64 -63t-90.5 -22t-90.5 22.5t-64 63t-23.5 94.5t23.5 94.5t64 63t90.5 22.5t90.5 -22zM142 510q0 -37 14.5 -61t50.5 -24q64 0 64 85t-64 85q-65 0 -65 -85zM742.5 320
q40.5 -22 64 -62.5t23.5 -94.5t-23.5 -95t-64 -63t-90.5 -22t-91 22t-64.5 63t-23.5 95t23.5 94.5t64.5 62.5t91 22t90.5 -22zM587 163q0 -37 14.5 -61.5t50.5 -24.5q64 0 64 86q0 84 -64 84q-65 0 -65 -84z" />
    <glyph glyph-name="ampersand" unicode="&#x26;" horiz-adv-x="760" 
d="M427.5 689q48.5 -21 74 -57t25.5 -82q0 -59 -33.5 -102.5t-98.5 -86.5l135 -127q29 60 48 144l132 -39q-38 -110 -92 -186l121 -107l-135 -63l-78 75q-93 -75 -219 -75q-73 0 -129 24t-87 68t-31 102q0 60 32.5 105t102.5 91q-54 52 -75 88.5t-21 82.5q0 45 24 82.5
t72.5 60.5t117.5 23q66 0 114.5 -21zM268 590.5q-17 -17.5 -17 -46.5q0 -26 12.5 -47t44.5 -53q35 23 51.5 47t16.5 55q0 29 -16.5 45.5t-44.5 16.5q-30 0 -47 -17.5zM239.5 240.5q-14.5 -24.5 -14.5 -54.5q0 -41 30 -66t79 -25q63 0 113 38l-162 155q-31 -23 -45.5 -47.5z
" />
    <glyph glyph-name="quotesingle" unicode="'" horiz-adv-x="238" 
d="M67 414l-19 279h143l-20 -279h-104z" />
    <glyph glyph-name="parenleft" unicode="(" horiz-adv-x="325" 
d="M313 791q-71 -102 -103 -203.5t-32 -237.5t32 -237.5t103 -203.5l-101 -68q-65 90 -104 155.5t-64.5 153.5t-25.5 200t25.5 200t64.5 153.5t104 155.5z" />
    <glyph glyph-name="parenright" unicode=")" horiz-adv-x="325" 
d="M216.5 703q38.5 -65 64 -153t25.5 -200t-25.5 -200t-64 -153t-103.5 -156l-101 68q71 103 103 204.5t32 236.5t-32 236.5t-103 204.5l101 68q65 -91 103.5 -156z" />
    <glyph glyph-name="asterisk" unicode="*" horiz-adv-x="449" 
d="M441 535l-141 -23l101 -102l-110 -80l-66 127l-66 -128l-110 80l100 102l-141 24l41 126l128 -62l-20 143h136l-21 -144l127 64z" />
    <glyph glyph-name="plus" unicode="+" horiz-adv-x="531" 
d="M331 549v-156h151v-122h-151v-156h-131v156h-152v122h152v156h131z" />
    <glyph glyph-name="comma" unicode="," horiz-adv-x="240" 
d="M184 138q26 -26 26 -64q0 -22 -7 -44t-25 -62l-63 -145h-89l43 176q-19 13 -29.5 32.5t-10.5 42.5q0 38 26 64t65 26q38 0 64 -26z" />
    <glyph glyph-name="hyphen" unicode="-" horiz-adv-x="407" 
d="M44 252v122h319v-122h-319z" />
    <glyph glyph-name="period" unicode="." horiz-adv-x="240" 
d="M183.5 137.5q26.5 -26.5 26.5 -63.5q0 -38 -26.5 -64.5t-63.5 -26.5q-38 0 -64.5 26.5t-26.5 64.5q0 37 26.5 63.5t64.5 26.5q37 0 63.5 -26.5z" />
    <glyph glyph-name="slash" unicode="/" horiz-adv-x="520" 
d="M309 816l138 -31l-235 -897l-139 32z" />
    <glyph glyph-name="zero" unicode="0" horiz-adv-x="585" 
d="M482.5 599q65.5 -91 65.5 -262q0 -170 -65.5 -262t-189.5 -92t-189.5 92t-65.5 262q0 171 65.5 262t189.5 91t189.5 -91zM239 551q-20 -22 -29.5 -73t-9.5 -141t9.5 -141.5t29.5 -73.5t54 -22t54 21.5t29.5 73t9.5 142.5t-9.5 142.5t-29.5 72.5t-54 21t-54 -22z" />
    <glyph glyph-name="one" unicode="1" horiz-adv-x="464" 
d="M382 676v-676h-155v522l-145 -89l-69 105l228 138h141z" />
    <glyph glyph-name="two" unicode="2" horiz-adv-x="517" 
d="M363.5 664q52.5 -26 80 -70t27.5 -97q0 -54 -22 -103t-78 -112.5t-163 -160.5h277l-16 -121h-440v112q123 121 179 182.5t78.5 102.5t22.5 84q0 41 -23.5 64.5t-63.5 23.5q-36 0 -64 -16.5t-59 -53.5l-93 74q42 55 100.5 86t131.5 31t125.5 -26z" />
    <glyph glyph-name="three" unicode="3" horiz-adv-x="520" 
d="M360.5 667q50.5 -23 77 -62t26.5 -87q0 -61 -34.5 -102t-97.5 -59q68 -7 111 -48.5t43 -117.5q0 -57 -30 -104.5t-88.5 -75.5t-139.5 -28q-148 0 -232 102l85 83q34 -34 66.5 -49.5t71.5 -15.5q47 0 76 26t29 72q0 52 -27.5 74.5t-82.5 22.5h-56l17 109h39q45 0 71 23
t26 65q0 37 -24 57.5t-66 20.5q-71 0 -132 -59l-78 85q96 91 228 91q71 0 121.5 -23z" />
    <glyph glyph-name="four" unicode="4" horiz-adv-x="565" 
d="M544 264v-118h-76v-146h-154l-1 146h-285v105l192 442l134 -50l-163 -379h124l17 160h136v-160h76z" />
    <glyph glyph-name="five" unicode="5" horiz-adv-x="536" 
d="M454 563h-245v-142q47 22 100 22q56 0 100 -26t69 -76t25 -118q0 -71 -32.5 -125.5t-93 -84.5t-139.5 -30q-137 0 -225 102l88 82q55 -65 131 -65q52 0 80.5 31t28.5 89q0 113 -95 113q-20 0 -39 -5.5t-42 -18.5h-107v365h414z" />
    <glyph glyph-name="six" unicode="6" horiz-adv-x="564" 
d="M445 428.5q44 -26.5 69 -77t25 -120.5q0 -69 -30 -125.5t-85.5 -89.5t-129.5 -33q-130 0 -193 87t-63 239q0 114 35.5 200t102 133.5t156.5 47.5q87 0 154 -45l-58 -94q-45 26 -92 26q-57 0 -92 -48t-42 -136q61 62 143 62q56 0 100 -26.5zM359.5 131.5
q21.5 35.5 21.5 97.5q0 63 -20 90t-60 27q-54 0 -99 -53q2 -107 23 -152t71 -45q42 0 63.5 35.5z" />
    <glyph glyph-name="seven" unicode="7" horiz-adv-x="468" 
d="M450 676v-107l-248 -585l-143 48l227 525h-273v119h437z" />
    <glyph glyph-name="eight" unicode="8" horiz-adv-x="581" 
d="M518 285.5q33 -44.5 33 -102.5q0 -55 -31.5 -100.5t-91.5 -72.5t-141 -27q-79 0 -137.5 26.5t-89.5 71t-31 99.5q0 113 126 168q-99 58 -99 160q0 54 30 95t83.5 64t121.5 23q103 0 168.5 -46.5t65.5 -127.5q0 -45 -26.5 -84.5t-81.5 -68.5q68 -33 101 -77.5zM231.5 563
q-22.5 -20 -22.5 -57q0 -34 19.5 -55.5t62.5 -39.5l21 -8q34 22 47 46.5t13 58.5t-20.5 54.5t-59.5 20.5q-38 0 -60.5 -20zM366.5 120.5q26.5 24.5 26.5 63.5q0 41 -23 64.5t-81 44.5l-33 12q-68 -38 -68 -117q0 -42 28 -67t76 -25t74.5 24.5z" />
    <glyph glyph-name="nine" unicode="9" 
d="M464 618.5q65 -71.5 65 -190.5q0 -137 -44.5 -227t-136.5 -144.5t-240 -84.5l-32 110q131 32 197 80.5t86 136.5q-53 -65 -140 -65q-53 0 -97 27t-70 78t-26 118q0 69 33 122t90.5 82t127.5 29q122 0 187 -71.5zM322.5 360.5q25.5 15.5 45.5 44.5q1 94 -20 133t-71 39
q-43 0 -67.5 -29.5t-24.5 -85.5q0 -62 22.5 -89.5t60.5 -27.5q29 0 54.5 15.5z" />
    <glyph glyph-name="colon" unicode=":" horiz-adv-x="240" 
d="M183.5 137.5q26.5 -26.5 26.5 -63.5q0 -38 -26.5 -64.5t-63.5 -26.5q-38 0 -64.5 26.5t-26.5 64.5q0 37 26.5 63.5t64.5 26.5q37 0 63.5 -26.5zM183.5 483.5q26.5 -26.5 26.5 -63.5q0 -38 -26.5 -64.5t-63.5 -26.5q-38 0 -64.5 26.5t-26.5 64.5q0 37 26.5 63.5t64.5 26.5
q37 0 63.5 -26.5z" />
    <glyph glyph-name="semicolon" unicode=";" horiz-adv-x="240" 
d="M184 138q26 -26 26 -64q0 -22 -7 -44t-25 -62l-63 -145h-89l43 176q-19 13 -29.5 32.5t-10.5 42.5q0 38 26 64t65 26q38 0 64 -26zM183.5 483.5q26.5 -26.5 26.5 -63.5q0 -38 -26.5 -64.5t-63.5 -26.5q-38 0 -64.5 26.5t-26.5 64.5q0 37 26.5 63.5t64.5 26.5
q37 0 63.5 -26.5z" />
    <glyph glyph-name="less" unicode="&#x3c;" horiz-adv-x="519" 
d="M434 576l50 -111l-316 -132l316 -128l-50 -115l-400 173v139z" />
    <glyph glyph-name="equal" unicode="=" horiz-adv-x="519" 
d="M48 375v122h422v-122h-422zM48 166v122h422v-122h-422z" />
    <glyph glyph-name="greater" unicode="&#x3e;" horiz-adv-x="519" 
d="M84 576l400 -174v-139l-400 -173l-50 115l316 128l-316 132z" />
    <glyph glyph-name="question" unicode="?" horiz-adv-x="481" 
d="M367.5 687.5q49.5 -22.5 74.5 -60.5t25 -84q0 -41 -14.5 -70t-34.5 -47t-53 -42q-40 -27 -59 -48.5t-19 -55.5v-25h-144v31q0 47 14.5 79.5t35 51t51.5 40.5q30 20 44 35t14 37q0 27 -18.5 42t-51.5 15q-63 0 -117 -61l-101 78q91 107 234 107q70 0 119.5 -22.5z
M280.5 137.5q26.5 -26.5 26.5 -63.5q0 -38 -26.5 -64.5t-63.5 -26.5t-63.5 26.5t-26.5 64.5q0 37 26.5 63.5t63.5 26.5t63.5 -26.5z" />
    <glyph glyph-name="at" unicode="@" horiz-adv-x="1020" 
d="M614.5 491.5q45.5 -11.5 85.5 -33.5v-247q0 -61 10.5 -85t36.5 -24q39 0 61 48.5t22 163.5q0 134 -76 207.5t-228 73.5q-105 0 -180.5 -44.5t-115 -124t-39.5 -184.5q0 -162 86.5 -254.5t249.5 -92.5q50 0 103 9.5t94 24.5l37 -109q-49 -19 -111.5 -30.5t-123.5 -11.5
q-144 0 -252 57t-167 162t-59 245q0 134 61.5 241t170.5 167t247 60q137 0 238 -54.5t154 -144.5t53 -195q0 -90 -27 -161t-76.5 -111t-114.5 -40q-56 0 -90.5 30t-43.5 72q-19 -45 -55 -71.5t-88 -26.5q-91 0 -137 61.5t-46 163.5q0 124 61.5 197t171.5 73q42 0 87.5 -11.5
zM539 121q17 14 27 35v238q-23 9 -44 9q-41 0 -63 -39.5t-22 -131.5q0 -68 14.5 -96.5t46.5 -28.5q24 0 41 14z" />
    <glyph glyph-name="A" unicode="A" horiz-adv-x="590" 
d="M430 0l-36 149h-202l-35 -149h-170l209 693h199l209 -693h-174zM220 268h146l-73 306z" />
    <glyph glyph-name="B" unicode="B" horiz-adv-x="617" 
d="M546.5 316q43.5 -38 43.5 -114q0 -111 -79.5 -156.5t-222.5 -45.5h-223v693h196q146 0 223 -41.5t77 -135.5q0 -61 -36.5 -98.5t-90.5 -50.5q69 -13 112.5 -51zM229 577v-161h61q104 0 104 84q0 42 -28 59.5t-89 17.5h-48zM387.5 138.5q33.5 19.5 33.5 72.5q0 96 -120 96
h-72v-188h60q65 0 98.5 19.5z" />
    <glyph glyph-name="C" unicode="C" horiz-adv-x="575" 
d="M463.5 691q50.5 -19 95.5 -57l-78 -93q-31 24 -61 36t-64 12q-70 0 -110.5 -59t-40.5 -182q0 -121 40.5 -179.5t112.5 -58.5q38 0 69 14.5t67 41.5l73 -94q-39 -39 -94.5 -64t-122.5 -25q-96 0 -167 42t-110.5 124.5t-39.5 198.5q0 113 40.5 195t112 124.5t162.5 42.5
q65 0 115.5 -19z" />
    <glyph glyph-name="D" unicode="D" horiz-adv-x="651" 
d="M519.5 619.5q98.5 -73.5 98.5 -269.5q0 -193 -96 -271.5t-249 -78.5h-208v693h193q163 0 261.5 -73.5zM229 574v-455h54q81 0 123 50.5t42 180.5q0 89 -21 138t-57 67.5t-89 18.5h-52z" />
    <glyph glyph-name="E" unicode="E" horiz-adv-x="526" 
d="M490 693l-17 -117h-244v-166h213v-115h-213v-177h261v-118h-425v693h425z" />
    <glyph glyph-name="F" unicode="F" horiz-adv-x="487" 
d="M65 0v693h413l-17 -117h-232v-184h202v-117h-202v-275h-164z" />
    <glyph glyph-name="G" unicode="G" horiz-adv-x="645" 
d="M596 625l-83 -87q-37 28 -68.5 40.5t-72.5 12.5q-77 0 -123 -60.5t-46 -183.5q0 -133 35 -188.5t109 -55.5q52 0 94 23v157h-90l-16 116h265v-343q-54 -35 -119 -54t-130 -19q-158 0 -238 92.5t-80 271.5q0 114 43.5 196t119 124.5t169.5 42.5q134 0 231 -85z" />
    <glyph glyph-name="H" unicode="H" horiz-adv-x="666" 
d="M437 0v297h-208v-297h-164v693h164v-268h208v268h164v-693h-164z" />
    <glyph glyph-name="I" unicode="I" horiz-adv-x="293" 
d="M229 693v-693h-164v693h164z" />
    <glyph glyph-name="J" unicode="J" horiz-adv-x="317" 
d="M256 105q0 -83 -29.5 -137t-78 -84.5t-115.5 -52.5l-44 116q44 17 66 39t29.5 51t7.5 74v582h164v-588z" />
    <glyph glyph-name="K" unicode="K" horiz-adv-x="633" 
d="M229 693v-693h-164v693h164zM627 693l-221 -311l239 -382h-190l-221 370l220 323h173z" />
    <glyph glyph-name="L" unicode="L" horiz-adv-x="513" 
d="M229 693v-563h270l-17 -130h-417v693h164z" />
    <glyph glyph-name="M" unicode="M" horiz-adv-x="786" 
d="M753 0h-161l-12 271q-5 97 -5 173q0 58 3 110l-107 -481h-155l-114 481q6 -87 6 -164q0 -58 -3 -121l-12 -269h-160l52 693h207l104 -470l97 470h208z" />
    <glyph glyph-name="N" unicode="N" horiz-adv-x="663" 
d="M599 0h-209l-200 537q10 -79 15.5 -139.5t5.5 -143.5v-254h-146v693h204l205 -538q-22 137 -22 258v280h147v-693z" />
    <glyph glyph-name="O" unicode="O" horiz-adv-x="691" 
d="M575.5 615q82.5 -95 82.5 -268q0 -113 -37.5 -195t-108 -125.5t-167.5 -43.5t-167 43t-107.5 124.5t-37.5 196.5q0 112 37.5 194t107.5 125.5t167 43.5q148 0 230.5 -95zM239.5 532.5q-34.5 -57.5 -34.5 -185.5t35 -186t105 -58q72 0 106.5 57.5t34.5 186.5t-35 186
t-106 57t-105.5 -57.5z" />
    <glyph glyph-name="P" unicode="P" horiz-adv-x="600" 
d="M502 636q76 -57 76 -169q0 -117 -74.5 -176.5t-199.5 -59.5h-75v-231h-164v693h224q137 0 213 -57zM378.5 376.5q30.5 27.5 30.5 90.5q0 109 -122 109h-58v-227h61q58 0 88.5 27.5z" />
    <glyph glyph-name="Q" unicode="Q" horiz-adv-x="690" 
d="M608 29.5q48 -15.5 92 -47.5l-99 -129q-57 64 -117 98.5t-149 34.5q-93 0 -161 42.5t-104.5 123.5t-36.5 195q0 112 37.5 194t107.5 125.5t167 43.5q148 0 230.5 -95t82.5 -268q0 -212 -163 -302q65 0 113 -15.5zM240 161q35 -58 105 -58q72 0 106.5 57.5t34.5 186.5
t-35 186t-106 57t-105.5 -57.5t-34.5 -185.5t35 -186z" />
    <glyph glyph-name="R" unicode="R" horiz-adv-x="617" 
d="M293 265h-64v-265h-164v693h227q142 0 213.5 -52t71.5 -159q0 -67 -32 -111.5t-101 -75.5l176 -295h-185zM229 378h69q55 0 82.5 25t27.5 79q0 50 -29.5 73t-90.5 23h-59v-200z" />
    <glyph glyph-name="S" unicode="S" horiz-adv-x="572" 
d="M423.5 688q57.5 -22 104.5 -67l-76 -89q-71 58 -152 58q-43 0 -68 -17.5t-25 -50.5q0 -23 11 -37.5t39 -27.5t84 -31q106 -34 156 -83.5t50 -140.5q0 -65 -33 -114.5t-95 -77t-147 -27.5t-150.5 27t-112.5 72l83 91q40 -34 82.5 -51t92.5 -17q51 0 80.5 22.5t29.5 62.5
q0 26 -11 43.5t-38 31.5t-78 30q-115 35 -163.5 86t-48.5 129q0 60 32 105.5t89 70t129 24.5q78 0 135.5 -22z" />
    <glyph glyph-name="T" unicode="T" horiz-adv-x="540" 
d="M539 693l-16 -126h-171v-567h-164v567h-179v126h530z" />
    <glyph glyph-name="U" unicode="U" horiz-adv-x="651" 
d="M596 230q0 -71 -30.5 -127t-91.5 -88t-149 -32q-132 0 -201 67t-69 180v463h164v-456q0 -67 25.5 -99.5t80.5 -32.5q56 0 81.5 32.5t25.5 99.5v456h164v-463z" />
    <glyph glyph-name="V" unicode="V" horiz-adv-x="570" 
d="M584 693l-193 -693h-204l-200 693h173l132 -565l124 565h168z" />
    <glyph glyph-name="W" unicode="W" horiz-adv-x="847" 
d="M837 693l-116 -693h-213l-86 529l-91 -529h-208l-114 693h164l69 -569l96 569h172l90 -569l81 569h156z" />
    <glyph glyph-name="X" unicode="X" horiz-adv-x="581" 
d="M385 374l200 -374h-179l-119 264l-117 -264h-174l194 368l-179 325h178l100 -222l105 222h174z" />
    <glyph glyph-name="Y" unicode="Y" horiz-adv-x="594" 
d="M601 693l-222 -433v-260h-164v259l-222 434h179l128 -305l128 305h173z" />
    <glyph glyph-name="Z" unicode="Z" horiz-adv-x="544" 
d="M512 693v-124l-301 -438h306l-16 -131h-483v123l307 443h-276v127h463z" />
    <glyph glyph-name="bracketleft" unicode="[" horiz-adv-x="324" 
d="M299 823v-118h-115v-711h115v-117h-265v946h265z" />
    <glyph glyph-name="backslash" unicode="\" horiz-adv-x="520" 
d="M211 816l236 -896l-139 -32l-235 897z" />
    <glyph glyph-name="bracketright" unicode="]" horiz-adv-x="324" 
d="M290 823v-946h-265v118h115v710h-115v118h265z" />
    <glyph glyph-name="asciicircum" unicode="^" horiz-adv-x="559" 
d="M351 844l189 -317h-154l-108 199l-103 -199h-157l189 317h144z" />
    <glyph glyph-name="underscore" unicode="_" horiz-adv-x="520" 
d="M10 -171v124h500v-124h-500z" />
    <glyph glyph-name="grave" unicode="`" horiz-adv-x="340" 
d="M92 835l218 -132l-44 -81l-236 95z" />
    <glyph glyph-name="a" unicode="a" horiz-adv-x="548" 
d="M492.5 110q8.5 -14 27.5 -21l-33 -103q-49 4 -80 21.5t-48 55.5q-52 -80 -160 -80q-79 0 -126 46t-47 120q0 87 64 133t185 46h54v23q0 47 -20 64.5t-70 17.5q-26 0 -63 -7.5t-76 -20.5l-36 104q50 19 102.5 29t97.5 10q114 0 167 -47t53 -141v-206q0 -30 8.5 -44z
M329 147v94h-39q-54 0 -80.5 -19t-26.5 -59q0 -32 16.5 -49.5t45.5 -17.5q54 0 84 51z" />
    <glyph glyph-name="b" unicode="b" horiz-adv-x="597" 
d="M509 473.5q51 -74.5 51 -208.5q0 -82 -25.5 -146t-73 -100t-112.5 -36q-43 0 -78.5 18t-60.5 50l-8 -51h-140v742l158 17v-282q24 33 61.5 52t81.5 19q95 0 146 -74.5zM396 265q0 95 -22 131t-64 36q-53 0 -90 -62v-221q15 -24 36.5 -37.5t46.5 -13.5q93 0 93 167z" />
    <glyph glyph-name="c" unicode="c" horiz-adv-x="479" 
d="M391 532q44 -16 83 -49l-68 -94q-50 38 -101 38q-53 0 -80 -39t-27 -126q0 -84 27 -119t78 -35q27 0 49 8.5t53 27.5l69 -98q-79 -63 -179 -63q-81 0 -140 34.5t-91 97t-32 146.5t32 149t91 101.5t137 36.5q55 0 99 -16z" />
    <glyph glyph-name="d" unicode="d" horiz-adv-x="600" 
d="M538 742v-742h-140l-8 62q-56 -79 -151 -79q-99 0 -150.5 76t-51.5 208q0 81 27 145t76.5 100t113.5 36q76 0 126 -50v261zM380 159v229q-19 23 -38.5 34t-44.5 11q-44 0 -70 -41t-26 -126q0 -93 22.5 -130t64.5 -37q55 0 92 60z" />
    <glyph glyph-name="e" unicode="e" horiz-adv-x="552" 
d="M522 219h-329q8 -67 38 -94t83 -27q32 0 62 11.5t65 35.5l65 -88q-93 -74 -207 -74q-129 0 -198 76t-69 204q0 81 29 145.5t85 102t134 37.5q115 0 180 -72t65 -200q0 -33 -3 -57zM370 321q-2 122 -86 122q-41 0 -63.5 -30t-27.5 -99h177v7z" />
    <glyph glyph-name="f" unicode="f" horiz-adv-x="356" 
d="M256 626q-15 -16 -15 -54v-41h125l-17 -110h-108v-421h-158v421h-80v110h80v47q0 80 52.5 130.5t150.5 50.5q79 0 145 -34l-43 -103q-40 20 -83 20q-34 0 -49 -16z" />
    <glyph glyph-name="g" unicode="g" horiz-adv-x="551" 
d="M551 500q-52 -21 -153 -21q52 -22 76 -54t24 -83t-27 -91.5t-77.5 -63.5t-118.5 -23q-32 0 -61 6q-8 -4 -12.5 -12.5t-4.5 -17.5q0 -15 11.5 -23.5t46.5 -8.5h80q61 0 107 -20t71 -55t25 -79q0 -83 -71.5 -129.5t-206.5 -46.5q-97 0 -153 20.5t-78.5 57.5t-22.5 93h142
q0 -24 9.5 -38t34.5 -21t72 -7q65 0 90 15.5t25 44.5q0 24 -19 38t-57 14h-77q-82 0 -122.5 29.5t-40.5 75.5q0 29 17 56.5t46 45.5q-50 27 -72.5 63.5t-22.5 88.5q0 89 64 141.5t169 52.5q80 -2 135.5 16t114.5 53zM209.5 420.5q-21.5 -23.5 -21.5 -64.5q0 -43 21.5 -66.5
t58.5 -23.5q39 0 59.5 23t20.5 69q0 86 -80 86q-37 0 -58.5 -23.5z" />
    <glyph glyph-name="h" unicode="h" horiz-adv-x="577" 
d="M481 506q39 -42 39 -118v-388h-158v361q0 40 -13 55.5t-37 15.5q-48 0 -92 -68v-364h-158v742l158 16v-284q33 37 70 55.5t83 18.5q69 0 108 -42z" />
    <glyph glyph-name="i" unicode="i" horiz-adv-x="282" 
d="M220 531v-531h-158v531h158zM207.5 785.5q26.5 -25.5 26.5 -64.5t-26.5 -64.5t-67.5 -25.5t-67 25.5t-26 64.5t26 64.5t67 25.5t67.5 -25.5z" />
    <glyph glyph-name="j" unicode="j" horiz-adv-x="281" 
d="M219 60q0 -83 -26.5 -137t-72 -86.5t-114.5 -57.5l-53 115q39 18 61 35t34.5 45.5t12.5 75.5v481h158v-471zM207.5 785.5q26.5 -25.5 26.5 -64.5t-26.5 -64.5t-67.5 -25.5t-67 25.5t-26 64.5t26 64.5t67 25.5t67.5 -25.5z" />
    <glyph glyph-name="k" unicode="k" horiz-adv-x="552" 
d="M220 759v-759h-158v742zM548 531l-161 -233l174 -298h-178l-158 290l162 241h161z" />
    <glyph glyph-name="l" unicode="l" horiz-adv-x="297" 
d="M95.5 22.5q-38.5 39.5 -38.5 112.5v607l158 17v-618q0 -33 27 -33q14 0 26 5l31 -112q-43 -18 -96 -18q-69 0 -107.5 39.5z" />
    <glyph glyph-name="m" unicode="m" horiz-adv-x="845" 
d="M750 505.5q38 -42.5 38 -117.5v-388h-158v361q0 71 -45 71q-25 0 -44 -17t-37 -52v-363h-158v361q0 71 -45 71q-24 0 -43.5 -17.5t-37.5 -51.5v-363h-158v531h138l11 -62q31 40 68.5 59.5t85.5 19.5q45 0 77.5 -22t47.5 -62q32 43 70.5 63.5t88.5 20.5q63 0 101 -42.5z
" />
    <glyph glyph-name="n" unicode="n" horiz-adv-x="577" 
d="M481 506q39 -42 39 -118v-388h-158v361q0 40 -12.5 55.5t-37.5 15.5q-48 0 -92 -69v-363h-158v531h138l11 -63q34 40 73.5 60t88.5 20q69 0 108 -42z" />
    <glyph glyph-name="o" unicode="o" horiz-adv-x="584" 
d="M483 473.5q69 -74.5 69 -208.5q0 -85 -31.5 -148.5t-90 -98.5t-138.5 -35q-121 0 -190.5 74.5t-69.5 208.5q0 85 31.5 148.5t90 98.5t138.5 35q122 0 191 -74.5zM220 391.5q-24 -40.5 -24 -125.5q0 -87 23.5 -127t72.5 -40q48 0 72 40.5t24 125.5q0 87 -23.5 127
t-72.5 40q-48 0 -72 -40.5z" />
    <glyph glyph-name="p" unicode="p" horiz-adv-x="597" 
d="M511 474q49 -74 49 -207q0 -82 -25.5 -146.5t-73.5 -101t-112 -36.5q-80 0 -129 55v-243l-158 -17v753h139l8 -59q31 39 71 57.5t82 18.5q100 0 149 -74zM396 265q0 94 -21 130.5t-63 36.5q-27 0 -50.5 -16t-41.5 -46v-224q32 -47 81 -47q95 0 95 166z" />
    <glyph glyph-name="q" unicode="q" horiz-adv-x="600" 
d="M538 531v-753l-158 17v256q-53 -68 -141 -68q-99 0 -150.5 76t-51.5 208q0 82 27 145.5t76.5 99.5t114.5 36q81 0 137 -63l8 46h138zM380 159v229q-19 23 -38 34t-44 11q-45 0 -71 -40.5t-26 -126.5q0 -93 22.5 -130t64.5 -37q55 0 92 60z" />
    <glyph glyph-name="r" unicode="r" horiz-adv-x="401" 
d="M403 539l-25 -153q-30 7 -48 7q-47 0 -71.5 -32.5t-38.5 -97.5v-263h-158v531h138l13 -103q18 55 54.5 86.5t82.5 31.5q29 0 53 -7z" />
    <glyph glyph-name="s" unicode="s" horiz-adv-x="483" 
d="M356 531q50 -17 88 -48l-58 -89q-65 41 -131 41q-31 0 -47.5 -10.5t-16.5 -29.5q0 -15 7.5 -24.5t30.5 -19.5t71 -24q83 -24 123.5 -62.5t40.5 -106.5q0 -54 -31 -93.5t-85 -60.5t-120 -21q-67 0 -124.5 21t-97.5 58l77 86q67 -52 141 -52q36 0 56.5 13t20.5 37
q0 19 -8 30t-31 20.5t-73 23.5q-79 23 -118 64t-39 102q0 46 26.5 82.5t76 58t114.5 21.5q57 0 107 -17z" />
    <glyph glyph-name="t" unicode="t" horiz-adv-x="386" 
d="M395 25q-29 -20 -67.5 -31t-76.5 -11q-174 1 -174 192v246h-75v110h75v115l158 18v-133h122l-17 -110h-105v-244q0 -37 12 -53t38 -16q27 0 57 17z" />
    <glyph glyph-name="u" unicode="u" horiz-adv-x="572" 
d="M510 0h-137l-7 67q-58 -84 -161 -84q-73 0 -110.5 44t-37.5 123v381h158v-361q0 -39 12.5 -54.5t38.5 -15.5q50 0 86 62v369h158v-531z" />
    <glyph glyph-name="v" unicode="v" horiz-adv-x="513" 
d="M519 531l-167 -531h-187l-171 531h172l94 -411l98 411h161z" />
    <glyph glyph-name="w" unicode="w" horiz-adv-x="749" 
d="M744 531l-110 -531h-189l-71 390l-70 -390h-187l-113 531h160l55 -413l83 413h154l73 -413l64 413h151z" />
    <glyph glyph-name="x" unicode="x" horiz-adv-x="512" 
d="M351 284l171 -284h-179l-92 199l-90 -199h-172l171 279l-154 252h177l74 -170l71 170h168z" />
    <glyph glyph-name="y" unicode="y" horiz-adv-x="518" 
d="M355 -1q-32 -103 -104.5 -158.5t-194.5 -62.5l-17 111q76 10 112.5 34t58.5 77h-54l-162 531h168l95 -430l104 430h163z" />
    <glyph glyph-name="z" unicode="z" horiz-adv-x="459" 
d="M436 531v-111l-240 -300h245l-14 -120h-414v112l241 300h-220v119h402z" />
    <glyph glyph-name="braceleft" unicode="{" horiz-adv-x="324" 
d="M298 730q-44 0 -60 -13.5t-16 -46.5v-186q0 -63 -25 -92t-79 -43q52 -11 78 -40.5t26 -92.5v-186q0 -33 16.5 -46.5t59.5 -13.5v-110q-88 0 -137 18.5t-68 54t-19 92.5v179q0 45 -13.5 63t-51.5 18v129q38 0 51.5 18.5t13.5 63.5v179q0 58 19 93.5t68 53.5t137 18v-110z
" />
    <glyph glyph-name="bar" unicode="|" horiz-adv-x="376" 
d="M262 810v-915h-147v915h147z" />
    <glyph glyph-name="braceright" unicode="}" horiz-adv-x="324" 
d="M162.5 822q48.5 -18 67.5 -53.5t19 -93.5v-179q0 -45 14 -63.5t51 -18.5v-129q-37 0 -51 -18t-14 -63v-179q0 -57 -19 -92.5t-67.5 -54t-136.5 -18.5v110q43 0 59 13.5t16 46.5v186q0 62 26 92t79 41q-54 14 -79 43t-25 92v186q0 33 -16 46.5t-60 13.5v110
q88 0 136.5 -18z" />
    <glyph glyph-name="asciitilde" unicode="~" horiz-adv-x="514" 
d="M280 241.5q-24 9.5 -52 27.5q-21 13 -33 18.5t-26 5.5q-23 0 -36.5 -12.5t-32.5 -39.5l-84 42q28 57 66 92t95 35q33 0 56 -9t53 -27q20 -12 33 -18t27 -6q23 0 37.5 12t31.5 36l83 -41q-28 -57 -65.5 -91t-94.5 -34q-34 0 -58 9.5z" />
    <glyph glyph-name="uni00A0" unicode="&#xa0;" horiz-adv-x="237" 
 />
    <glyph glyph-name="exclamdown" unicode="&#xa1;" horiz-adv-x="240" 
d="M184.5 482.5q26.5 -26.5 26.5 -63.5t-26.5 -63.5t-64.5 -26.5q-37 0 -63.5 26.5t-26.5 63.5t26.5 63.5t63.5 26.5q38 0 64.5 -26.5zM184 235l21 -445h-168l20 445h127z" />
    <glyph glyph-name="cent" unicode="&#xa2;" horiz-adv-x="479" 
d="M474 46q-60 -47 -128 -59v-148h-114v150q-94 19 -147 91t-53 181q0 111 54 186.5t147 94.5v149h113v-147q71 -13 128 -61l-68 -94q-50 38 -101 38q-53 0 -80 -39t-27 -126q0 -84 27 -119t78 -35q27 0 49 8.5t53 27.5z" />
    <glyph glyph-name="sterling" unicode="&#xa3;" horiz-adv-x="539" 
d="M253 168.5q-13 -27.5 -51 -48.5h307l-18 -120h-463v114q37 11 54.5 26t23 36t5.5 57v78h-68v82h68v89q0 93 55.5 150.5t157.5 57.5q68 0 117.5 -24.5t86.5 -75.5l-97 -71q-20 29 -41.5 41t-49.5 12q-74 0 -74 -91v-88h185v-82h-185v-70q0 -45 -13 -72.5z" />
    <glyph glyph-name="currency" unicode="&#xa4;" 
d="M468 223l75 -75l-69 -70l-78 76q-53 -29 -116 -29t-115 30l-79 -77l-69 70l77 76q-33 53 -33 118q0 64 33 117l-77 77l70 70l78 -78q52 30 115 30q65 0 117 -30l77 78l69 -70l-75 -76q33 -53 33 -118q0 -66 -33 -119zM353.5 260q24.5 29 24.5 82t-24.5 81.5t-72.5 28.5
q-47 0 -72 -29t-25 -81q0 -53 25 -82t72 -29q48 0 72.5 29z" />
    <glyph glyph-name="yen" unicode="&#xa5;" horiz-adv-x="568" 
d="M576 676l-177 -324h98v-82h-133v-72h133v-82h-133v-116h-158v116h-132v82h132v72h-132v82h96l-177 324h168l127 -281l125 281h163z" />
    <glyph glyph-name="brokenbar" unicode="&#xa6;" horiz-adv-x="376" 
d="M262 810v-367h-147v367h147zM262 262v-367h-147v367h147z" />
    <glyph glyph-name="section" unicode="&#xa7;" horiz-adv-x="550" 
d="M461 137.5q13 -24.5 13 -61.5q0 -47 -27.5 -83t-77.5 -56t-117 -20q-112 0 -191 54l51 93q65 -38 132 -38q38 0 58.5 11.5t20.5 32.5q0 17 -8 28t-33 22.5t-78 27.5q-77 24 -114 57.5t-37 92.5q0 74 80 123q-29 21 -42 47t-13 61q0 46 26.5 82.5t75 57t113.5 20.5
q53 0 103 -15t90 -41l-53 -89q-65 36 -132 36q-73 0 -73 -45q0 -17 8 -28t32 -22t76 -27q77 -24 115 -58t38 -93q0 -75 -78 -125q29 -20 42 -44.5zM333 224q12 15 19 31t7 30q0 26 -20 42t-78 35l-49 17q-21 -28 -21 -58q0 -26 16 -41t61 -31q51 -19 65 -25z" />
    <glyph glyph-name="dieresis" unicode="&#xa8;" horiz-adv-x="453" 
d="M167.5 776q23.5 -23 23.5 -56t-23.5 -56t-57.5 -23t-57.5 23t-23.5 56t23.5 56t57.5 23t57.5 -23zM399 776q23 -23 23 -56t-23 -56t-58 -23q-33 0 -56.5 23t-23.5 56t23.5 56t56.5 23q35 0 58 -23z" />
    <glyph glyph-name="copyright" unicode="&#xa9;" horiz-adv-x="810" 
d="M576.5 723.5q77.5 -42.5 122 -119t44.5 -172.5t-44.5 -172t-122 -118.5t-170.5 -42.5t-171 42.5t-123 118.5t-45 172t45 172.5t122.5 119t171.5 42.5q93 0 170.5 -42.5zM279 655q-56 -32 -88 -90t-32 -133q0 -74 32 -131.5t88 -89.5t127 -32q70 0 126 32t88 89.5
t32 131.5q0 75 -32 133t-88 90t-126 32q-71 0 -127 -32zM478.5 616.5q33.5 -13.5 60.5 -37.5l-48 -60q-19 14 -35 19t-37 5q-33 0 -53.5 -26.5t-20.5 -83.5q0 -109 73 -109q42 0 80 29l44 -64q-56 -53 -133 -53q-82 0 -130 51.5t-48 145.5q0 60 23 104.5t63 68.5t91 24
q37 0 70.5 -13.5z" />
    <glyph glyph-name="ordfeminine" unicode="&#xaa;" horiz-adv-x="500" 
d="M286 528v11q0 31 -14.5 42.5t-52.5 11.5q-19 0 -49 -5.5t-61 -15.5l-32 90q40 15 83.5 23t80.5 8q96 0 140 -36t44 -110v-142q0 -21 6.5 -31t20.5 -15l-29 -92q-39 3 -65 15.5t-43 39.5q-21 -30 -55 -44t-73 -14q-64 0 -102 35.5t-38 91.5q0 67 52 102t150 35h37z
M286 390v63h-23q-72 0 -72 -51q0 -18 10.5 -28t30.5 -10q31 0 54 26zM52 122h408v-122h-408v122z" />
    <glyph glyph-name="guillemotleft" unicode="&#xab;" horiz-adv-x="628" 
d="M226 556l97 -65l-129 -206l129 -207l-97 -65l-190 221v100zM495 556l97 -65l-129 -206l129 -207l-97 -65l-190 221v100z" />
    <glyph glyph-name="logicalnot" unicode="&#xac;" horiz-adv-x="531" 
d="M483 390v-276h-131v153h-304v123h435z" />
    <glyph glyph-name="uni00AD" unicode="&#xad;" horiz-adv-x="407" 
d="M44 252v122h319v-122h-319z" />
    <glyph glyph-name="registered" unicode="&#xae;" horiz-adv-x="637" 
d="M459.5 723.5q62.5 -35.5 98 -98.5t35.5 -141t-35.5 -140t-98 -97t-140.5 -35t-140.5 35t-98.5 97t-36 140t36 141t98.5 98.5t140.5 35.5t140.5 -35.5zM421.5 304.5q44.5 25.5 69 72t24.5 107.5q0 62 -24.5 109t-69 73t-102.5 26q-57 0 -102 -26t-70 -73t-25 -109
q0 -61 25 -107.5t70 -72t102 -25.5q58 0 102.5 25.5zM416.5 499q-15.5 -20 -42.5 -30l74 -117h-82l-58 102h-22v-102h-71v282h84q133 0 133 -88q0 -27 -15.5 -47zM286 512h30q43 0 43 36q0 32 -45 32h-28v-68z" />
    <glyph glyph-name="macron" unicode="&#xaf;" horiz-adv-x="365" 
d="M335 655h-305v110h305v-110z" />
    <glyph glyph-name="degree" unicode="&#xb0;" horiz-adv-x="521" 
d="M132 390q-41 21 -67 60.5t-26 90.5t25.5 89.5t67 59t86.5 20.5t86 -20.5t66.5 -59t25.5 -89.5q0 -52 -25.5 -91t-66.5 -60t-86 -21t-86 21zM268 483.5q19 21.5 19 57.5t-18.5 57t-50.5 21t-51 -21t-19 -57t19 -57.5t51 -21.5q31 0 50 21.5z" />
    <glyph glyph-name="plusminus" unicode="&#xb1;" horiz-adv-x="531" 
d="M54 0v122h422v-122h-422zM331 622v-156h151v-122h-151v-156h-131v156h-152v122h152v156h131z" />
    <glyph glyph-name="uni00B2" unicode="&#xb2;" horiz-adv-x="400" 
d="M311.5 715.5q41.5 -36.5 41.5 -89.5q0 -31 -13.5 -59.5t-49.5 -65t-104 -91.5h177l-12 -89h-298v82q77 70 113.5 106.5t51 60.5t14.5 46t-13.5 35t-36.5 13t-41 -10t-37 -32l-68 53q28 36 68 56.5t90 20.5q76 0 117.5 -36.5z" />
    <glyph glyph-name="uni00B3" unicode="&#xb3;" horiz-adv-x="400" 
d="M312 721q40 -31 40 -79q0 -36 -23.5 -61.5t-69.5 -37.5q49 -3 78.5 -29t29.5 -73q0 -56 -46 -94t-129 -38q-102 0 -159 67l65 62q19 -21 39.5 -30t45.5 -9q28 0 45 12.5t17 37.5q0 27 -16.5 39.5t-50.5 12.5h-37l13 80h26q28 0 42.5 11t14.5 32q0 20 -14 30.5t-39 10.5
q-46 0 -84 -35l-59 62q65 60 158 60q73 0 113 -31z" />
    <glyph glyph-name="acute" unicode="&#xb4;" horiz-adv-x="340" 
d="M248 835l62 -118l-236 -95l-44 81z" />
    <glyph glyph-name="uni00B5" unicode="&#xb5;" horiz-adv-x="582" 
d="M392 -17q-9 19 -13.5 36.5t-9.5 48.5q-46 -76 -108 -76q-29 0 -50 9t-39 33q21 -38 30.5 -68.5t9.5 -78.5v-92l-150 -15v751h158v-364q0 -61 50 -61q23 0 45 15.5t40 47.5v362h158v-349q0 -98 24 -182z" />
    <glyph glyph-name="paragraph" unicode="&#xb6;" horiz-adv-x="788" 
d="M672 693v-897l-138 -18v805h-92v-787l-138 -18v485q-117 3 -178 61.5t-61 153.5q0 101 69.5 158t193.5 57h344z" />
    <glyph glyph-name="periodcentered" unicode="&#xb7;" horiz-adv-x="240" 
d="M183.5 371.5q26.5 -26.5 26.5 -63.5q0 -38 -26.5 -64.5t-63.5 -26.5q-38 0 -64.5 26.5t-26.5 64.5q0 37 26.5 63.5t64.5 26.5q37 0 63.5 -26.5z" />
    <glyph glyph-name="cedilla" unicode="&#xb8;" horiz-adv-x="321" 
d="M187 -48q53 -6 78.5 -31.5t25.5 -67.5q0 -51 -40.5 -83t-108.5 -32q-34 0 -63 8.5t-49 21.5l36 73q34 -17 64 -17q47 0 47 30q0 18 -22 26t-70 8l15 128h87v-64z" />
    <glyph glyph-name="uni00B9" unicode="&#xb9;" horiz-adv-x="400" 
d="M300 742v-421h-117v311l-91 -57l-53 78l154 89h107z" />
    <glyph glyph-name="ordmasculine" unicode="&#xba;" horiz-adv-x="500" 
d="M407 637q57 -56 57 -159q0 -98 -57 -156t-156 -58q-100 0 -157 56t-57 159q0 98 57 156t156 58q100 0 157 -56zM199.5 564q-16.5 -27 -16.5 -85q0 -60 16.5 -86.5t51.5 -26.5q34 0 50.5 27t16.5 85q0 60 -16.5 86.5t-51.5 26.5q-34 0 -50.5 -27zM39 0v122h422v-122h-422z
" />
    <glyph glyph-name="guillemotright" unicode="&#xbb;" horiz-adv-x="625" 
d="M134 556l189 -222v-100l-189 -221l-98 65l129 207l-129 206zM400 556l189 -222v-100l-189 -221l-98 65l129 207l-129 206z" />
    <glyph glyph-name="onequarter" unicode="&#xbc;" horiz-adv-x="969" 
d="M300 693v-421h-117v311l-91 -57l-53 78l154 89h107zM644 759l92 -45l-411 -799l-92 45zM943 170v-86h-46v-84h-112v84h-191v78l121 269l99 -36l-100 -225h73l20 95h90v-95h46z" />
    <glyph glyph-name="onehalf" unicode="&#xbd;" horiz-adv-x="969" 
d="M300 693v-421h-117v311l-91 -57l-53 78l154 89h107zM644 759l92 -45l-411 -799l-92 45zM880.5 394.5q41.5 -36.5 41.5 -89.5q0 -31 -13.5 -59.5t-49.5 -65t-104 -91.5h177l-12 -89h-298v82q77 70 113.5 106.5t51 60.5t14.5 46t-13.5 35t-36.5 13t-41 -10t-37 -32l-68 53
q28 36 68 56.5t90 20.5q76 0 117.5 -36.5z" />
    <glyph glyph-name="threequarters" unicode="&#xbe;" horiz-adv-x="969" 
d="M312 672q40 -31 40 -79q0 -36 -23.5 -61.5t-69.5 -37.5q49 -3 78.5 -29t29.5 -73q0 -56 -46 -94t-129 -38q-102 0 -159 67l65 62q19 -21 39.5 -30t45.5 -9q28 0 45 12.5t17 37.5q0 27 -16.5 39.5t-50.5 12.5h-37l13 80h26q28 0 42.5 11t14.5 32q0 20 -14 30.5t-39 10.5
q-46 0 -84 -35l-59 62q65 60 158 60q73 0 113 -31zM644 759l92 -45l-411 -799l-92 45zM943 170v-86h-46v-84h-112v84h-191v78l121 269l99 -36l-100 -225h73l20 95h90v-95h46z" />
    <glyph glyph-name="questiondown" unicode="&#xbf;" horiz-adv-x="481" 
d="M200.5 355.5q-26.5 26.5 -26.5 63.5t26.5 63.5t64.5 26.5q37 0 63.5 -26.5t26.5 -63.5t-26.5 -63.5t-63.5 -26.5q-38 0 -64.5 26.5zM113.5 -199.5q-49.5 22.5 -74.5 60.5t-25 84q0 41 14.5 70.5t35 48t53.5 40.5q39 26 58 47.5t19 54.5v30h144v-36q0 -47 -14.5 -78.5
t-34 -50t-51.5 -40.5q-31 -20 -44.5 -34.5t-13.5 -37.5q0 -27 18 -42t51 -15q64 0 118 61l100 -78q-89 -107 -234 -107q-70 0 -119.5 22.5z" />
    <glyph glyph-name="Agrave" unicode="&#xc0;" horiz-adv-x="590" 
d="M430 0l-36 149h-202l-35 -149h-170l209 693h199l209 -693h-174zM220 268h146l-73 306zM211 956l221 -125l-40 -80l-240 87z" />
    <glyph glyph-name="Aacute" unicode="&#xc1;" horiz-adv-x="590" 
d="M430 0l-36 149h-202l-35 -149h-170l209 693h199l209 -693h-174zM220 268h146l-73 306zM377 956l59 -118l-240 -87l-40 80z" />
    <glyph glyph-name="Acircumflex" unicode="&#xc2;" horiz-adv-x="590" 
d="M430 0l-36 149h-202l-35 -149h-170l209 693h199l209 -693h-174zM220 268h146l-73 306zM163 755l-57 65l142 129h96l141 -129l-56 -65l-133 84z" />
    <glyph glyph-name="Atilde" unicode="&#xc3;" horiz-adv-x="590" 
d="M430 0l-36 149h-202l-35 -149h-170l209 693h199l209 -693h-174zM220 268h146l-73 306zM316 768q-16 7 -35 20q-25 18 -41 18q-17 0 -28.5 -10.5t-24.5 -33.5l-79 38q20 52 53.5 85t75.5 33q23 0 39.5 -7.5t36.5 -20.5q14 -9 22.5 -13t17.5 -4q16 0 27.5 10.5t24.5 33.5
l79 -39q-21 -53 -54.5 -85t-75.5 -32q-22 0 -38 7z" />
    <glyph glyph-name="Adieresis" unicode="&#xc4;" horiz-adv-x="590" 
d="M430 0l-36 149h-202l-35 -149h-170l209 693h199l209 -693h-174zM220 268h146l-73 306zM236.5 902q23.5 -23 23.5 -56t-23.5 -56t-57.5 -23t-57.5 23t-23.5 56t23.5 56t57.5 23t57.5 -23zM468 902q23 -23 23 -56t-23 -56t-58 -23q-33 0 -56.5 23t-23.5 56t23.5 56t56.5 23
q35 0 58 -23z" />
    <glyph glyph-name="Aring" unicode="&#xc5;" horiz-adv-x="590" 
d="M430 0l-36 149h-202l-35 -149h-170l209 693h199l209 -693h-174zM220 268h146l-73 306zM397 955q38 -38 38 -93t-38 -93t-101 -38t-101 38t-38 93t38 93t101 38t101 -38zM263 899q-12 -13 -12 -37t12 -37t33 -13q20 0 32.5 13t12.5 37t-12 37t-33 13t-33 -13z" />
    <glyph glyph-name="AE" unicode="&#xc6;" horiz-adv-x="845" 
d="M582 118h230v-118h-368l-26 149h-215l-50 -149h-176l272 693h526l-17 -117h-270l34 -168h244v-115h-220zM243 268h155l-53 305z" />
    <glyph glyph-name="Ccedilla" unicode="&#xc7;" horiz-adv-x="575" 
d="M461.5 -79.5q25.5 -25.5 25.5 -67.5q0 -51 -40.5 -83t-108.5 -32q-34 0 -63 8.5t-49 21.5l36 73q34 -17 64 -17q47 0 47 30q0 18 -22 26t-70 8l12 99q-121 18 -190.5 111.5t-69.5 249.5q0 113 40.5 195t112 124.5t162.5 42.5q65 0 115.5 -19t95.5 -57l-78 -93
q-31 24 -61 36t-64 12q-70 0 -110.5 -59t-40.5 -182q0 -121 40.5 -179.5t112.5 -58.5q38 0 69 14.5t67 41.5l73 -94q-34 -34 -81 -57.5t-103 -29.5v-33q53 -6 78.5 -31.5z" />
    <glyph glyph-name="Egrave" unicode="&#xc8;" horiz-adv-x="526" 
d="M490 693l-17 -117h-244v-166h213v-115h-213v-177h261v-118h-425v693h425zM194 956l221 -125l-40 -80l-240 87z" />
    <glyph glyph-name="Eacute" unicode="&#xc9;" horiz-adv-x="526" 
d="M490 693l-17 -117h-244v-166h213v-115h-213v-177h261v-118h-425v693h425zM360 956l59 -118l-240 -87l-40 80z" />
    <glyph glyph-name="Ecircumflex" unicode="&#xca;" horiz-adv-x="526" 
d="M490 693l-17 -117h-244v-166h213v-115h-213v-177h261v-118h-425v693h425zM146 755l-57 65l142 129h96l141 -129l-56 -65l-133 84z" />
    <glyph glyph-name="Edieresis" unicode="&#xcb;" horiz-adv-x="526" 
d="M490 693l-17 -117h-244v-166h213v-115h-213v-177h261v-118h-425v693h425zM219.5 902q23.5 -23 23.5 -56t-23.5 -56t-57.5 -23t-57.5 23t-23.5 56t23.5 56t57.5 23t57.5 -23zM451 902q23 -23 23 -56t-23 -56t-58 -23q-33 0 -56.5 23t-23.5 56t23.5 56t56.5 23q35 0 58 -23
z" />
    <glyph glyph-name="Igrave" unicode="&#xcc;" horiz-adv-x="293" 
d="M229 693v-693h-164v693h164zM61 956l221 -125l-40 -80l-240 87z" />
    <glyph glyph-name="Iacute" unicode="&#xcd;" horiz-adv-x="293" 
d="M229 693v-693h-164v693h164zM227 956l59 -118l-240 -87l-40 80z" />
    <glyph glyph-name="Icircumflex" unicode="&#xce;" horiz-adv-x="293" 
d="M229 693v-693h-164v693h164zM13 755l-57 65l142 129h96l141 -129l-56 -65l-133 84z" />
    <glyph glyph-name="Idieresis" unicode="&#xcf;" horiz-adv-x="293" 
d="M229 693v-693h-164v693h164zM86.5 902q23.5 -23 23.5 -56t-23.5 -56t-57.5 -23t-57.5 23t-23.5 56t23.5 56t57.5 23t57.5 -23zM318 902q23 -23 23 -56t-23 -56t-58 -23q-33 0 -56.5 23t-23.5 56t23.5 56t56.5 23q35 0 58 -23z" />
    <glyph glyph-name="Eth" unicode="&#xd0;" horiz-adv-x="665" 
d="M533.5 619.5q98.5 -73.5 98.5 -269.5q0 -193 -96 -271.5t-249 -78.5h-208v304h-65v98h65v291h193q163 0 261.5 -73.5zM420 169.5q42 50.5 42 180.5q0 89 -21 138t-57 67.5t-89 18.5h-52v-172h134v-98h-134v-185h54q81 0 123 50.5z" />
    <glyph glyph-name="Ntilde" unicode="&#xd1;" horiz-adv-x="663" 
d="M599 0h-209l-200 537q10 -79 15.5 -139.5t5.5 -143.5v-254h-146v693h204l205 -538q-22 137 -22 258v280h147v-693zM356 768q-16 7 -35 20q-25 18 -41 18q-17 0 -28.5 -10.5t-24.5 -33.5l-79 38q20 52 53.5 85t75.5 33q23 0 39.5 -7.5t36.5 -20.5q14 -9 22.5 -13t17.5 -4
q16 0 27.5 10.5t24.5 33.5l79 -39q-21 -53 -54.5 -85t-75.5 -32q-22 0 -38 7z" />
    <glyph glyph-name="Ograve" unicode="&#xd2;" horiz-adv-x="691" 
d="M575.5 615q82.5 -95 82.5 -268q0 -113 -37.5 -195t-108 -125.5t-167.5 -43.5t-167 43t-107.5 124.5t-37.5 196.5q0 112 37.5 194t107.5 125.5t167 43.5q148 0 230.5 -95zM239.5 532.5q-34.5 -57.5 -34.5 -185.5t35 -186t105 -58q72 0 106.5 57.5t34.5 186.5t-35 186
t-106 57t-105.5 -57.5zM260 956l221 -125l-40 -80l-240 87z" />
    <glyph glyph-name="Oacute" unicode="&#xd3;" horiz-adv-x="691" 
d="M575.5 615q82.5 -95 82.5 -268q0 -113 -37.5 -195t-108 -125.5t-167.5 -43.5t-167 43t-107.5 124.5t-37.5 196.5q0 112 37.5 194t107.5 125.5t167 43.5q148 0 230.5 -95zM239.5 532.5q-34.5 -57.5 -34.5 -185.5t35 -186t105 -58q72 0 106.5 57.5t34.5 186.5t-35 186
t-106 57t-105.5 -57.5zM426 956l59 -118l-240 -87l-40 80z" />
    <glyph glyph-name="Ocircumflex" unicode="&#xd4;" horiz-adv-x="691" 
d="M575.5 615q82.5 -95 82.5 -268q0 -113 -37.5 -195t-108 -125.5t-167.5 -43.5t-167 43t-107.5 124.5t-37.5 196.5q0 112 37.5 194t107.5 125.5t167 43.5q148 0 230.5 -95zM239.5 532.5q-34.5 -57.5 -34.5 -185.5t35 -186t105 -58q72 0 106.5 57.5t34.5 186.5t-35 186
t-106 57t-105.5 -57.5zM212 755l-57 65l142 129h96l141 -129l-56 -65l-133 84z" />
    <glyph glyph-name="Otilde" unicode="&#xd5;" horiz-adv-x="691" 
d="M575.5 615q82.5 -95 82.5 -268q0 -113 -37.5 -195t-108 -125.5t-167.5 -43.5t-167 43t-107.5 124.5t-37.5 196.5q0 112 37.5 194t107.5 125.5t167 43.5q148 0 230.5 -95zM239.5 532.5q-34.5 -57.5 -34.5 -185.5t35 -186t105 -58q72 0 106.5 57.5t34.5 186.5t-35 186
t-106 57t-105.5 -57.5zM365 768q-16 7 -35 20q-25 18 -41 18q-17 0 -28.5 -10.5t-24.5 -33.5l-79 38q20 52 53.5 85t75.5 33q23 0 39.5 -7.5t36.5 -20.5q14 -9 22.5 -13t17.5 -4q16 0 27.5 10.5t24.5 33.5l79 -39q-21 -53 -54.5 -85t-75.5 -32q-22 0 -38 7z" />
    <glyph glyph-name="Odieresis" unicode="&#xd6;" horiz-adv-x="691" 
d="M575.5 615q82.5 -95 82.5 -268q0 -113 -37.5 -195t-108 -125.5t-167.5 -43.5t-167 43t-107.5 124.5t-37.5 196.5q0 112 37.5 194t107.5 125.5t167 43.5q148 0 230.5 -95zM239.5 532.5q-34.5 -57.5 -34.5 -185.5t35 -186t105 -58q72 0 106.5 57.5t34.5 186.5t-35 186
t-106 57t-105.5 -57.5zM285.5 902q23.5 -23 23.5 -56t-23.5 -56t-57.5 -23t-57.5 23t-23.5 56t23.5 56t57.5 23t57.5 -23zM517 902q23 -23 23 -56t-23 -56t-58 -23q-33 0 -56.5 23t-23.5 56t23.5 56t56.5 23q35 0 58 -23z" />
    <glyph glyph-name="multiply" unicode="&#xd7;" horiz-adv-x="519" 
d="M376 510l87 -87l-116 -114l116 -119l-87 -87l-115 121l-118 -121l-87 87l115 114l-115 119l87 87l114 -121z" />
    <glyph glyph-name="Oslash" unicode="&#xd8;" horiz-adv-x="691" 
d="M621 543q37 -82 37 -196q0 -113 -37.5 -195t-108 -125.5t-167.5 -43.5q-25 0 -49 3l-36 -120l-124 32l40 129q-69 43 -106 124.5t-37 195.5q0 112 37.5 194t107.5 125.5t167 43.5q26 0 50 -3l37 121l123 -33l-41 -128q70 -42 107 -124zM239.5 532.5
q-34.5 -57.5 -34.5 -185.5q0 -144 38 -199l132 440q-18 2 -30 2q-71 0 -105.5 -57.5zM451.5 160.5q34.5 57.5 34.5 186.5q0 146 -38 199l-133 -441q20 -2 30 -2q72 0 106.5 57.5z" />
    <glyph glyph-name="Ugrave" unicode="&#xd9;" horiz-adv-x="651" 
d="M596 230q0 -71 -30.5 -127t-91.5 -88t-149 -32q-132 0 -201 67t-69 180v463h164v-456q0 -67 25.5 -99.5t80.5 -32.5q56 0 81.5 32.5t25.5 99.5v456h164v-463zM240 956l221 -125l-40 -80l-240 87z" />
    <glyph glyph-name="Uacute" unicode="&#xda;" horiz-adv-x="651" 
d="M596 230q0 -71 -30.5 -127t-91.5 -88t-149 -32q-132 0 -201 67t-69 180v463h164v-456q0 -67 25.5 -99.5t80.5 -32.5q56 0 81.5 32.5t25.5 99.5v456h164v-463zM406 956l59 -118l-240 -87l-40 80z" />
    <glyph glyph-name="Ucircumflex" unicode="&#xdb;" horiz-adv-x="651" 
d="M596 230q0 -71 -30.5 -127t-91.5 -88t-149 -32q-132 0 -201 67t-69 180v463h164v-456q0 -67 25.5 -99.5t80.5 -32.5q56 0 81.5 32.5t25.5 99.5v456h164v-463zM192 755l-57 65l142 129h96l141 -129l-56 -65l-133 84z" />
    <glyph glyph-name="Udieresis" unicode="&#xdc;" horiz-adv-x="651" 
d="M596 230q0 -71 -30.5 -127t-91.5 -88t-149 -32q-132 0 -201 67t-69 180v463h164v-456q0 -67 25.5 -99.5t80.5 -32.5q56 0 81.5 32.5t25.5 99.5v456h164v-463zM265.5 902q23.5 -23 23.5 -56t-23.5 -56t-57.5 -23t-57.5 23t-23.5 56t23.5 56t57.5 23t57.5 -23zM497 902
q23 -23 23 -56t-23 -56t-58 -23q-33 0 -56.5 23t-23.5 56t23.5 56t56.5 23q35 0 58 -23z" />
    <glyph glyph-name="Yacute" unicode="&#xdd;" horiz-adv-x="594" 
d="M601 693l-222 -433v-260h-164v259l-222 434h179l128 -305l128 305h173zM378 956l59 -118l-240 -87l-40 80z" />
    <glyph glyph-name="Thorn" unicode="&#xde;" horiz-adv-x="600" 
d="M502 527q76 -58 76 -171q0 -120 -74.5 -181t-199.5 -61h-75v-114h-164v693h164v-108h60q137 0 213 -58zM378.5 261.5q30.5 28.5 30.5 94.5q0 57 -30.5 84.5t-91.5 27.5h-58v-235h61q58 0 88.5 28.5z" />
    <glyph glyph-name="germandbls" unicode="&#xdf;" horiz-adv-x="606" 
d="M409.5 738.5q46.5 -20.5 71 -54.5t24.5 -75q0 -38 -15.5 -62t-44.5 -52q-21 -19 -31 -32.5t-10 -31.5q0 -20 15 -35.5t48 -38.5q36 -25 61 -47.5t42.5 -58.5t17.5 -85q0 -56 -26.5 -97.5t-72.5 -63.5t-103 -22q-67 0 -119 27l47 107q23 -12 52 -12q28 0 43.5 16t15.5 48
q0 35 -18.5 57.5t-55.5 48.5q-28 22 -44.5 37t-28 38t-11.5 55q0 36 12 57.5t36 46.5q21 21 31 37.5t10 43.5t-17 42t-45 15q-74 0 -74 -109v-538h-158v533q0 106 61 166t175 60q65 0 111.5 -20.5z" />
    <glyph glyph-name="agrave" unicode="&#xe0;" horiz-adv-x="548" 
d="M492.5 110q8.5 -14 27.5 -21l-33 -103q-49 4 -80 21.5t-48 55.5q-52 -80 -160 -80q-79 0 -126 46t-47 120q0 87 64 133t185 46h54v23q0 47 -20 64.5t-70 17.5q-26 0 -63 -7.5t-76 -20.5l-36 104q50 19 102.5 29t97.5 10q114 0 167 -47t53 -141v-206q0 -30 8.5 -44z
M329 147v94h-39q-54 0 -80.5 -19t-26.5 -59q0 -32 16.5 -49.5t45.5 -17.5q54 0 84 51zM203 835l218 -132l-44 -81l-236 95z" />
    <glyph glyph-name="aacute" unicode="&#xe1;" horiz-adv-x="548" 
d="M492.5 110q8.5 -14 27.5 -21l-33 -103q-49 4 -80 21.5t-48 55.5q-52 -80 -160 -80q-79 0 -126 46t-47 120q0 87 64 133t185 46h54v23q0 47 -20 64.5t-70 17.5q-26 0 -63 -7.5t-76 -20.5l-36 104q50 19 102.5 29t97.5 10q114 0 167 -47t53 -141v-206q0 -30 8.5 -44z
M329 147v94h-39q-54 0 -80.5 -19t-26.5 -59q0 -32 16.5 -49.5t45.5 -17.5q54 0 84 51zM343 835l62 -118l-236 -95l-44 81z" />
    <glyph glyph-name="acircumflex" unicode="&#xe2;" horiz-adv-x="548" 
d="M492.5 110q8.5 -14 27.5 -21l-33 -103q-49 4 -80 21.5t-48 55.5q-52 -80 -160 -80q-79 0 -126 46t-47 120q0 87 64 133t185 46h54v23q0 47 -20 64.5t-70 17.5q-26 0 -63 -7.5t-76 -20.5l-36 104q50 19 102.5 29t97.5 10q114 0 167 -47t53 -141v-206q0 -30 8.5 -44z
M329 147v94h-39q-54 0 -80.5 -19t-26.5 -59q0 -32 16.5 -49.5t45.5 -17.5q54 0 84 51zM137 620l-56 65l141 137h97l141 -137l-56 -65l-133 92z" />
    <glyph glyph-name="atilde" unicode="&#xe3;" horiz-adv-x="548" 
d="M492.5 110q8.5 -14 27.5 -21l-33 -103q-49 4 -80 21.5t-48 55.5q-52 -80 -160 -80q-79 0 -126 46t-47 120q0 87 64 133t185 46h54v23q0 47 -20 64.5t-70 17.5q-26 0 -63 -7.5t-76 -20.5l-36 104q50 19 102.5 29t97.5 10q114 0 167 -47t53 -141v-206q0 -30 8.5 -44z
M329 147v94h-39q-54 0 -80.5 -19t-26.5 -59q0 -32 16.5 -49.5t45.5 -17.5q54 0 84 51zM291 642q-16 7 -35 20q-25 18 -41 18q-17 0 -28.5 -10.5t-24.5 -33.5l-79 38q20 52 53.5 85t75.5 33q23 0 39.5 -7.5t36.5 -20.5q14 -9 22.5 -13t17.5 -4q16 0 27.5 10.5t24.5 33.5
l79 -39q-21 -53 -54.5 -85t-75.5 -32q-22 0 -38 7z" />
    <glyph glyph-name="adieresis" unicode="&#xe4;" horiz-adv-x="548" 
d="M492.5 110q8.5 -14 27.5 -21l-33 -103q-49 4 -80 21.5t-48 55.5q-52 -80 -160 -80q-79 0 -126 46t-47 120q0 87 64 133t185 46h54v23q0 47 -20 64.5t-70 17.5q-26 0 -63 -7.5t-76 -20.5l-36 104q50 19 102.5 29t97.5 10q114 0 167 -47t53 -141v-206q0 -30 8.5 -44z
M329 147v94h-39q-54 0 -80.5 -19t-26.5 -59q0 -32 16.5 -49.5t45.5 -17.5q54 0 84 51zM212.5 776q23.5 -23 23.5 -56t-23.5 -56t-57.5 -23t-57.5 23t-23.5 56t23.5 56t57.5 23t57.5 -23zM444 776q23 -23 23 -56t-23 -56t-58 -23q-33 0 -56.5 23t-23.5 56t23.5 56t56.5 23
q35 0 58 -23z" />
    <glyph glyph-name="aring" unicode="&#xe5;" horiz-adv-x="548" 
d="M492.5 110q8.5 -14 27.5 -21l-33 -103q-49 4 -80 21.5t-48 55.5q-52 -80 -160 -80q-79 0 -126 46t-47 120q0 87 64 133t185 46h54v23q0 47 -20 64.5t-70 17.5q-26 0 -63 -7.5t-76 -20.5l-36 104q50 19 102.5 29t97.5 10q114 0 167 -47t53 -141v-206q0 -30 8.5 -44z
M329 147v94h-39q-54 0 -80.5 -19t-26.5 -59q0 -32 16.5 -49.5t45.5 -17.5q54 0 84 51zM372 829q38 -38 38 -93t-38 -93t-101 -38t-101 38t-38 93t38 93t101 38t101 -38zM238 773q-12 -13 -12 -37t12 -37t33 -13q20 0 32.5 13t12.5 37t-12 37t-33 13t-33 -13z" />
    <glyph glyph-name="ae" unicode="&#xe6;" horiz-adv-x="855" 
d="M825 219h-329q7 -67 37.5 -94t83.5 -27q32 0 62 11.5t65 35.5l65 -88q-93 -74 -207 -74q-70 0 -123.5 24t-87.5 67q-64 -91 -188 -91q-81 0 -129 46t-48 120q0 87 65.5 133t189.5 46h54v22q0 46 -20.5 64t-69.5 18q-26 0 -63 -7.5t-76 -20.5l-36 105q50 19 102.5 29
t97.5 10q111 0 163 -67q64 67 162 67q70 0 122.5 -32.5t81.5 -93.5t29 -146q0 -33 -3 -57zM672 321q0 122 -86 122q-40 0 -62.5 -30t-27.5 -99h176v7zM304 112q22 16 44 48q-9 31 -11 74v4h-40q-53 0 -78.5 -18.5t-25.5 -59.5q0 -30 15.5 -47t44.5 -17t51 16z" />
    <glyph glyph-name="ccedilla" unicode="&#xe7;" horiz-adv-x="479" 
d="M323 -16v-32q53 -6 78.5 -31.5t25.5 -67.5q0 -51 -40.5 -83t-108.5 -32q-34 0 -63 8.5t-49 21.5l36 73q34 -17 64 -17q47 0 47 30q0 18 -22 26t-70 8l12 101q-94 19 -147.5 91t-53.5 181q0 84 32 149t91 101.5t137 36.5q55 0 99 -16t83 -49l-68 -94q-50 38 -101 38
q-53 0 -80 -39t-27 -126q0 -84 27 -119t78 -35q27 0 49 8.5t53 27.5l69 -98q-68 -54 -151 -62z" />
    <glyph glyph-name="egrave" unicode="&#xe8;" horiz-adv-x="552" 
d="M522 219h-329q8 -67 38 -94t83 -27q32 0 62 11.5t65 35.5l65 -88q-93 -74 -207 -74q-129 0 -198 76t-69 204q0 81 29 145.5t85 102t134 37.5q115 0 180 -72t65 -200q0 -33 -3 -57zM370 321q-2 122 -86 122q-41 0 -63.5 -30t-27.5 -99h177v7zM215 835l218 -132l-44 -81
l-236 95z" />
    <glyph glyph-name="eacute" unicode="&#xe9;" horiz-adv-x="552" 
d="M522 219h-329q8 -67 38 -94t83 -27q32 0 62 11.5t65 35.5l65 -88q-93 -74 -207 -74q-129 0 -198 76t-69 204q0 81 29 145.5t85 102t134 37.5q115 0 180 -72t65 -200q0 -33 -3 -57zM370 321q-2 122 -86 122q-41 0 -63.5 -30t-27.5 -99h177v7zM355 835l62 -118l-236 -95
l-44 81z" />
    <glyph glyph-name="ecircumflex" unicode="&#xea;" horiz-adv-x="552" 
d="M522 219h-329q8 -67 38 -94t83 -27q32 0 62 11.5t65 35.5l65 -88q-93 -74 -207 -74q-129 0 -198 76t-69 204q0 81 29 145.5t85 102t134 37.5q115 0 180 -72t65 -200q0 -33 -3 -57zM370 321q-2 122 -86 122q-41 0 -63.5 -30t-27.5 -99h177v7zM149 620l-56 65l141 137h97
l141 -137l-56 -65l-133 92z" />
    <glyph glyph-name="edieresis" unicode="&#xeb;" horiz-adv-x="552" 
d="M522 219h-329q8 -67 38 -94t83 -27q32 0 62 11.5t65 35.5l65 -88q-93 -74 -207 -74q-129 0 -198 76t-69 204q0 81 29 145.5t85 102t134 37.5q115 0 180 -72t65 -200q0 -33 -3 -57zM370 321q-2 122 -86 122q-41 0 -63.5 -30t-27.5 -99h177v7zM224.5 776q23.5 -23 23.5 -56
t-23.5 -56t-57.5 -23t-57.5 23t-23.5 56t23.5 56t57.5 23t57.5 -23zM456 776q23 -23 23 -56t-23 -56t-58 -23q-33 0 -56.5 23t-23.5 56t23.5 56t56.5 23q35 0 58 -23z" />
    <glyph glyph-name="igrave" unicode="&#xec;" horiz-adv-x="282" 
d="M220 531v-531h-158v531h158zM73 835l218 -132l-44 -81l-236 95z" />
    <glyph glyph-name="iacute" unicode="&#xed;" horiz-adv-x="282" 
d="M220 531v-531h-158v531h158zM213 835l62 -118l-236 -95l-44 81z" />
    <glyph glyph-name="icircumflex" unicode="&#xee;" horiz-adv-x="282" 
d="M220 531v-531h-158v531h158zM7 620l-56 65l141 137h97l141 -137l-56 -65l-133 92z" />
    <glyph glyph-name="idieresis" unicode="&#xef;" horiz-adv-x="282" 
d="M220 531v-531h-158v531h158zM82.5 776q23.5 -23 23.5 -56t-23.5 -56t-57.5 -23t-57.5 23t-23.5 56t23.5 56t57.5 23t57.5 -23zM314 776q23 -23 23 -56t-23 -56t-58 -23q-33 0 -56.5 23t-23.5 56t23.5 56t56.5 23q35 0 58 -23z" />
    <glyph glyph-name="eth" unicode="&#xf0;" horiz-adv-x="579" 
d="M499 504q43 -96 43 -227q0 -83 -31 -150t-89.5 -105.5t-138.5 -38.5q-72 0 -129 30t-89.5 86.5t-32.5 134.5q0 67 27 123.5t74.5 89t106.5 32.5q79 0 132 -47q-14 47 -37.5 82.5t-64.5 67.5l-55 -55l-99 46l57 59q-48 15 -92 22l32 104q80 -14 146 -38l73 78l80 -71
l-55 -57q99 -70 142 -166zM357.5 137q23.5 39 23.5 119l-1 71q-39 42 -97 42q-90 0 -90 -132q0 -71 24 -105t68 -34q49 0 72.5 39z" />
    <glyph glyph-name="ntilde" unicode="&#xf1;" horiz-adv-x="577" 
d="M481 506q39 -42 39 -118v-388h-158v361q0 40 -12.5 55.5t-37.5 15.5q-48 0 -92 -69v-363h-158v531h138l11 -63q34 40 73.5 60t88.5 20q69 0 108 -42zM314 642q-16 7 -35 20q-25 18 -41 18q-17 0 -28.5 -10.5t-24.5 -33.5l-79 38q20 52 53.5 85t75.5 33q23 0 39.5 -7.5
t36.5 -20.5q14 -9 22.5 -13t17.5 -4q16 0 27.5 10.5t24.5 33.5l79 -39q-21 -53 -54.5 -85t-75.5 -32q-22 0 -38 7z" />
    <glyph glyph-name="ograve" unicode="&#xf2;" horiz-adv-x="584" 
d="M483 473.5q69 -74.5 69 -208.5q0 -85 -31.5 -148.5t-90 -98.5t-138.5 -35q-121 0 -190.5 74.5t-69.5 208.5q0 85 31.5 148.5t90 98.5t138.5 35q122 0 191 -74.5zM220 391.5q-24 -40.5 -24 -125.5q0 -87 23.5 -127t72.5 -40q48 0 72 40.5t24 125.5q0 87 -23.5 127
t-72.5 40q-48 0 -72 -40.5zM224 835l218 -132l-44 -81l-236 95z" />
    <glyph glyph-name="oacute" unicode="&#xf3;" horiz-adv-x="584" 
d="M483 473.5q69 -74.5 69 -208.5q0 -85 -31.5 -148.5t-90 -98.5t-138.5 -35q-121 0 -190.5 74.5t-69.5 208.5q0 85 31.5 148.5t90 98.5t138.5 35q122 0 191 -74.5zM220 391.5q-24 -40.5 -24 -125.5q0 -87 23.5 -127t72.5 -40q48 0 72 40.5t24 125.5q0 87 -23.5 127
t-72.5 40q-48 0 -72 -40.5zM364 835l62 -118l-236 -95l-44 81z" />
    <glyph glyph-name="ocircumflex" unicode="&#xf4;" horiz-adv-x="584" 
d="M483 473.5q69 -74.5 69 -208.5q0 -85 -31.5 -148.5t-90 -98.5t-138.5 -35q-121 0 -190.5 74.5t-69.5 208.5q0 85 31.5 148.5t90 98.5t138.5 35q122 0 191 -74.5zM220 391.5q-24 -40.5 -24 -125.5q0 -87 23.5 -127t72.5 -40q48 0 72 40.5t24 125.5q0 87 -23.5 127
t-72.5 40q-48 0 -72 -40.5zM158 620l-56 65l141 137h97l141 -137l-56 -65l-133 92z" />
    <glyph glyph-name="otilde" unicode="&#xf5;" horiz-adv-x="584" 
d="M483 473.5q69 -74.5 69 -208.5q0 -85 -31.5 -148.5t-90 -98.5t-138.5 -35q-121 0 -190.5 74.5t-69.5 208.5q0 85 31.5 148.5t90 98.5t138.5 35q122 0 191 -74.5zM220 391.5q-24 -40.5 -24 -125.5q0 -87 23.5 -127t72.5 -40q48 0 72 40.5t24 125.5q0 87 -23.5 127
t-72.5 40q-48 0 -72 -40.5zM312 642q-16 7 -35 20q-25 18 -41 18q-17 0 -28.5 -10.5t-24.5 -33.5l-79 38q20 52 53.5 85t75.5 33q23 0 39.5 -7.5t36.5 -20.5q14 -9 22.5 -13t17.5 -4q16 0 27.5 10.5t24.5 33.5l79 -39q-21 -53 -54.5 -85t-75.5 -32q-22 0 -38 7z" />
    <glyph glyph-name="odieresis" unicode="&#xf6;" horiz-adv-x="584" 
d="M483 473.5q69 -74.5 69 -208.5q0 -85 -31.5 -148.5t-90 -98.5t-138.5 -35q-121 0 -190.5 74.5t-69.5 208.5q0 85 31.5 148.5t90 98.5t138.5 35q122 0 191 -74.5zM220 391.5q-24 -40.5 -24 -125.5q0 -87 23.5 -127t72.5 -40q48 0 72 40.5t24 125.5q0 87 -23.5 127
t-72.5 40q-48 0 -72 -40.5zM233.5 776q23.5 -23 23.5 -56t-23.5 -56t-57.5 -23t-57.5 23t-23.5 56t23.5 56t57.5 23t57.5 -23zM465 776q23 -23 23 -56t-23 -56t-58 -23q-33 0 -56.5 23t-23.5 56t23.5 56t56.5 23q35 0 58 -23z" />
    <glyph glyph-name="divide" unicode="&#xf7;" horiz-adv-x="519" 
d="M323.5 155.5q26.5 -26.5 26.5 -63.5q0 -38 -26.5 -64.5t-63.5 -26.5q-38 0 -64.5 26.5t-26.5 64.5q0 37 26.5 63.5t64.5 26.5q37 0 63.5 -26.5zM323.5 637.5q26.5 -26.5 26.5 -63.5q0 -38 -26.5 -64.5t-63.5 -26.5q-38 0 -64.5 26.5t-26.5 64.5q0 37 26.5 63.5t64.5 26.5
q37 0 63.5 -26.5zM48 271v122h422v-122h-422z" />
    <glyph glyph-name="oslash" unicode="&#xf8;" horiz-adv-x="584" 
d="M522.5 413.5q29.5 -62.5 29.5 -148.5q0 -85 -31.5 -148.5t-90 -98.5t-138.5 -35q-12 0 -34 2l-37 -120l-115 34l39 122q-55 35 -84 97.5t-29 147.5t31.5 148.5t90 98.5t138.5 35q11 0 33 -2l39 121l116 -34l-42 -123q55 -34 84.5 -96.5zM183 266q0 -96 25 -134l100 300
h-16q-109 0 -109 -166zM373.5 139.5q27.5 40.5 27.5 125.5q0 97 -26 134l-99 -300h16q54 0 81.5 40.5z" />
    <glyph glyph-name="ugrave" unicode="&#xf9;" horiz-adv-x="572" 
d="M510 0h-137l-7 67q-58 -84 -161 -84q-73 0 -110.5 44t-37.5 123v381h158v-361q0 -39 12.5 -54.5t38.5 -15.5q50 0 86 62v369h158v-531zM216 835l218 -132l-44 -81l-236 95z" />
    <glyph glyph-name="uacute" unicode="&#xfa;" horiz-adv-x="572" 
d="M510 0h-137l-7 67q-58 -84 -161 -84q-73 0 -110.5 44t-37.5 123v381h158v-361q0 -39 12.5 -54.5t38.5 -15.5q50 0 86 62v369h158v-531zM356 835l62 -118l-236 -95l-44 81z" />
    <glyph glyph-name="ucircumflex" unicode="&#xfb;" horiz-adv-x="572" 
d="M510 0h-137l-7 67q-58 -84 -161 -84q-73 0 -110.5 44t-37.5 123v381h158v-361q0 -39 12.5 -54.5t38.5 -15.5q50 0 86 62v369h158v-531zM150 620l-56 65l141 137h97l141 -137l-56 -65l-133 92z" />
    <glyph glyph-name="udieresis" unicode="&#xfc;" horiz-adv-x="572" 
d="M510 0h-137l-7 67q-58 -84 -161 -84q-73 0 -110.5 44t-37.5 123v381h158v-361q0 -39 12.5 -54.5t38.5 -15.5q50 0 86 62v369h158v-531zM225.5 776q23.5 -23 23.5 -56t-23.5 -56t-57.5 -23t-57.5 23t-23.5 56t23.5 56t57.5 23t57.5 -23zM457 776q23 -23 23 -56t-23 -56
t-58 -23q-33 0 -56.5 23t-23.5 56t23.5 56t56.5 23q35 0 58 -23z" />
    <glyph glyph-name="yacute" unicode="&#xfd;" horiz-adv-x="518" 
d="M355 -1q-32 -103 -104.5 -158.5t-194.5 -62.5l-17 111q76 10 112.5 34t58.5 77h-54l-162 531h168l95 -430l104 430h163zM331 835l62 -118l-236 -95l-44 81z" />
    <glyph glyph-name="thorn" unicode="&#xfe;" horiz-adv-x="597" 
d="M510.5 474.5q49.5 -73.5 49.5 -207.5q0 -82 -25.5 -146.5t-73.5 -101t-112 -36.5q-80 0 -129 55v-242l-158 -18v964l158 17v-278q30 35 66 51t73 16q102 0 151.5 -73.5zM396 265q0 94 -21.5 130.5t-65.5 36.5q-26 0 -48.5 -16t-40.5 -46v-224q32 -47 81 -47q95 0 95 166z
" />
    <glyph glyph-name="ydieresis" unicode="&#xff;" horiz-adv-x="518" 
d="M355 -1q-32 -103 -104.5 -158.5t-194.5 -62.5l-17 111q76 10 112.5 34t58.5 77h-54l-162 531h168l95 -430l104 430h163zM200.5 776q23.5 -23 23.5 -56t-23.5 -56t-57.5 -23t-57.5 23t-23.5 56t23.5 56t57.5 23t57.5 -23zM432 776q23 -23 23 -56t-23 -56t-58 -23
q-33 0 -56.5 23t-23.5 56t23.5 56t56.5 23q35 0 58 -23z" />
    <glyph glyph-name="Amacron" unicode="&#x100;" horiz-adv-x="590" 
d="M430 0l-36 149h-202l-35 -149h-170l209 693h199l209 -693h-174zM220 268h146l-73 306zM448 781h-305v110h305v-110z" />
    <glyph glyph-name="amacron" unicode="&#x101;" horiz-adv-x="548" 
d="M492.5 110q8.5 -14 27.5 -21l-33 -103q-49 4 -80 21.5t-48 55.5q-52 -80 -160 -80q-79 0 -126 46t-47 120q0 87 64 133t185 46h54v23q0 47 -20 64.5t-70 17.5q-26 0 -63 -7.5t-76 -20.5l-36 104q50 19 102.5 29t97.5 10q114 0 167 -47t53 -141v-206q0 -30 8.5 -44z
M329 147v94h-39q-54 0 -80.5 -19t-26.5 -59q0 -32 16.5 -49.5t45.5 -17.5q54 0 84 51zM423 655h-305v110h305v-110z" />
    <glyph glyph-name="Abreve" unicode="&#x102;" horiz-adv-x="590" 
d="M430 0l-36 149h-202l-35 -149h-170l209 693h199l209 -693h-174zM220 268h146l-73 306zM174.5 798q-45.5 47 -51.5 115l87 15q10 -31 31 -49.5t54 -18.5t54 18.5t32 49.5l87 -15q-6 -68 -52 -115t-121 -47t-120.5 47z" />
    <glyph glyph-name="abreve" unicode="&#x103;" horiz-adv-x="548" 
d="M492.5 110q8.5 -14 27.5 -21l-33 -103q-49 4 -80 21.5t-48 55.5q-52 -80 -160 -80q-79 0 -126 46t-47 120q0 87 64 133t185 46h54v23q0 47 -20 64.5t-70 17.5q-26 0 -63 -7.5t-76 -20.5l-36 104q50 19 102.5 29t97.5 10q114 0 167 -47t53 -141v-206q0 -30 8.5 -44z
M329 147v94h-39q-54 0 -80.5 -19t-26.5 -59q0 -32 16.5 -49.5t45.5 -17.5q54 0 84 51zM149 680.5q-45 48.5 -51 124.5l87 15q19 -78 85 -78q65 0 86 78l87 -15q-6 -75 -51.5 -124t-121.5 -49t-121 48.5z" />
    <glyph glyph-name="Aogonek" unicode="&#x104;" horiz-adv-x="590" 
d="M402 -102q0 -46 53 -46q24 0 61 8l-11 -98q-35 -8 -70 -8q-65 0 -106 32t-41 85t35 91t101 64l-30 123h-202l-35 -149h-170l209 693h199l209 -693h-84q-118 -44 -118 -102zM220 268h146l-73 306z" />
    <glyph glyph-name="aogonek" unicode="&#x105;" horiz-adv-x="548" 
d="M369 -116q0 -46 53 -46q24 0 61 8l-11 -98q-35 -8 -70 -8q-65 0 -106 32t-41 85q0 102 141 158q-22 16 -37 48q-52 -80 -160 -80q-79 0 -126 46t-47 120q0 87 64 133t185 46h54v23q0 47 -20 64.5t-70 17.5q-26 0 -63 -7.5t-76 -20.5l-36 104q50 19 102.5 29t97.5 10
q114 0 167 -47t53 -141v-206q0 -30 8.5 -44t27.5 -21l-33 -103q-118 -44 -118 -102zM329 147v94h-39q-54 0 -80.5 -19t-26.5 -59q0 -32 16.5 -49.5t45.5 -17.5q54 0 84 51z" />
    <glyph glyph-name="Cacute" unicode="&#x106;" horiz-adv-x="575" 
d="M463.5 691q50.5 -19 95.5 -57l-78 -93q-31 24 -61 36t-64 12q-70 0 -110.5 -59t-40.5 -182q0 -121 40.5 -179.5t112.5 -58.5q38 0 69 14.5t67 41.5l73 -94q-39 -39 -94.5 -64t-122.5 -25q-96 0 -167 42t-110.5 124.5t-39.5 198.5q0 113 40.5 195t112 124.5t162.5 42.5
q65 0 115.5 -19zM435 956l59 -118l-240 -87l-40 80z" />
    <glyph glyph-name="cacute" unicode="&#x107;" horiz-adv-x="479" 
d="M391 532q44 -16 83 -49l-68 -94q-50 38 -101 38q-53 0 -80 -39t-27 -126q0 -84 27 -119t78 -35q27 0 49 8.5t53 27.5l69 -98q-79 -63 -179 -63q-81 0 -140 34.5t-91 97t-32 146.5t32 149t91 101.5t137 36.5q55 0 99 -16zM363 835l62 -118l-236 -95l-44 81z" />
    <glyph glyph-name="Ccircumflex" unicode="&#x108;" horiz-adv-x="575" 
d="M463.5 691q50.5 -19 95.5 -57l-78 -93q-31 24 -61 36t-64 12q-70 0 -110.5 -59t-40.5 -182q0 -121 40.5 -179.5t112.5 -58.5q38 0 69 14.5t67 41.5l73 -94q-39 -39 -94.5 -64t-122.5 -25q-96 0 -167 42t-110.5 124.5t-39.5 198.5q0 113 40.5 195t112 124.5t162.5 42.5
q65 0 115.5 -19zM221 755l-57 65l142 129h96l141 -129l-56 -65l-133 84z" />
    <glyph glyph-name="ccircumflex" unicode="&#x109;" horiz-adv-x="479" 
d="M391 532q44 -16 83 -49l-68 -94q-50 38 -101 38q-53 0 -80 -39t-27 -126q0 -84 27 -119t78 -35q27 0 49 8.5t53 27.5l69 -98q-79 -63 -179 -63q-81 0 -140 34.5t-91 97t-32 146.5t32 149t91 101.5t137 36.5q55 0 99 -16zM157 620l-56 65l141 137h97l141 -137l-56 -65
l-133 92z" />
    <glyph glyph-name="Cdotaccent" unicode="&#x10a;" horiz-adv-x="575" 
d="M463.5 691q50.5 -19 95.5 -57l-78 -93q-31 24 -61 36t-64 12q-70 0 -110.5 -59t-40.5 -182q0 -121 40.5 -179.5t112.5 -58.5q38 0 69 14.5t67 41.5l73 -94q-39 -39 -94.5 -64t-122.5 -25q-96 0 -167 42t-110.5 124.5t-39.5 198.5q0 113 40.5 195t112 124.5t162.5 42.5
q65 0 115.5 -19zM420.5 911.5q26.5 -25.5 26.5 -64.5t-26.5 -64.5t-67.5 -25.5t-67 25.5t-26 64.5t26 64.5t67 25.5t67.5 -25.5z" />
    <glyph glyph-name="cdotaccent" unicode="&#x10b;" horiz-adv-x="479" 
d="M391 532q44 -16 83 -49l-68 -94q-50 38 -101 38q-53 0 -80 -39t-27 -126q0 -84 27 -119t78 -35q27 0 49 8.5t53 27.5l69 -98q-79 -63 -179 -63q-81 0 -140 34.5t-91 97t-32 146.5t32 149t91 101.5t137 36.5q55 0 99 -16zM357.5 785.5q26.5 -25.5 26.5 -64.5t-26.5 -64.5
t-67.5 -25.5t-67 25.5t-26 64.5t26 64.5t67 25.5t67.5 -25.5z" />
    <glyph glyph-name="Ccaron" unicode="&#x10c;" horiz-adv-x="575" 
d="M463.5 691q50.5 -19 95.5 -57l-78 -93q-31 24 -61 36t-64 12q-70 0 -110.5 -59t-40.5 -182q0 -121 40.5 -179.5t112.5 -58.5q38 0 69 14.5t67 41.5l73 -94q-39 -39 -94.5 -64t-122.5 -25q-96 0 -167 42t-110.5 124.5t-39.5 198.5q0 113 40.5 195t112 124.5t162.5 42.5
q65 0 115.5 -19zM487 944l56 -65l-141 -129h-96l-142 129l57 65l133 -84z" />
    <glyph glyph-name="ccaron" unicode="&#x10d;" horiz-adv-x="479" 
d="M391 532q44 -16 83 -49l-68 -94q-50 38 -101 38q-53 0 -80 -39t-27 -126q0 -84 27 -119t78 -35q27 0 49 8.5t53 27.5l69 -98q-79 -63 -179 -63q-81 0 -140 34.5t-91 97t-32 146.5t32 149t91 101.5t137 36.5q55 0 99 -16zM424 813l56 -65l-141 -137h-96l-142 137l57 65
l133 -91z" />
    <glyph glyph-name="Dcaron" unicode="&#x10e;" horiz-adv-x="651" 
d="M519.5 619.5q98.5 -73.5 98.5 -269.5q0 -193 -96 -271.5t-249 -78.5h-208v693h193q163 0 261.5 -73.5zM229 574v-455h54q81 0 123 50.5t42 180.5q0 89 -21 138t-57 67.5t-89 18.5h-52zM429 944l56 -65l-141 -129h-96l-142 129l57 65l133 -84z" />
    <glyph glyph-name="dcaron" unicode="&#x10f;" horiz-adv-x="686" 
d="M538 742v-742h-140l-8 62q-56 -79 -151 -79q-99 0 -150.5 76t-51.5 208q0 81 27 145t76.5 100t113.5 36q76 0 126 -50v261zM380 159v229q-19 23 -38.5 34t-44.5 11q-44 0 -70 -41t-26 -126q0 -93 22.5 -130t64.5 -37q55 0 92 60zM664 527l55 215l-120 17l-23 -219z" />
    <glyph glyph-name="Dcroat" unicode="&#x110;" horiz-adv-x="665" 
d="M533.5 619.5q98.5 -73.5 98.5 -269.5q0 -193 -96 -271.5t-249 -78.5h-208v304h-65v98h65v291h193q163 0 261.5 -73.5zM420 169.5q42 50.5 42 180.5q0 89 -21 138t-57 67.5t-89 18.5h-52v-172h134v-98h-134v-185h54q81 0 123 50.5z" />
    <glyph glyph-name="dcroat" unicode="&#x111;" horiz-adv-x="608" 
d="M600 688v-92h-62v-596h-140l-8 62q-56 -79 -151 -79q-99 0 -150.5 76t-51.5 208q0 81 27 145t76.5 100t113.5 36q76 0 126 -50v98h-137v92h137v71l158 -17v-54h62zM380 159v229q-19 23 -38.5 34t-44.5 11q-44 0 -70 -41t-26 -126q0 -93 22.5 -130t64.5 -37q55 0 92 60z
" />
    <glyph glyph-name="Emacron" unicode="&#x112;" horiz-adv-x="526" 
d="M490 693l-17 -117h-244v-166h213v-115h-213v-177h261v-118h-425v693h425zM431 781h-305v110h305v-110z" />
    <glyph glyph-name="emacron" unicode="&#x113;" horiz-adv-x="552" 
d="M522 219h-329q8 -67 38 -94t83 -27q32 0 62 11.5t65 35.5l65 -88q-93 -74 -207 -74q-129 0 -198 76t-69 204q0 81 29 145.5t85 102t134 37.5q115 0 180 -72t65 -200q0 -33 -3 -57zM370 321q-2 122 -86 122q-41 0 -63.5 -30t-27.5 -99h177v7zM435 655h-305v110h305v-110z
" />
    <glyph glyph-name="Ebreve" unicode="&#x114;" horiz-adv-x="526" 
d="M490 693l-17 -117h-244v-166h213v-115h-213v-177h261v-118h-425v693h425zM157.5 798q-45.5 47 -51.5 115l87 15q10 -31 31 -49.5t54 -18.5t54 18.5t32 49.5l87 -15q-6 -68 -52 -115t-121 -47t-120.5 47z" />
    <glyph glyph-name="ebreve" unicode="&#x115;" horiz-adv-x="552" 
d="M522 219h-329q8 -67 38 -94t83 -27q32 0 62 11.5t65 35.5l65 -88q-93 -74 -207 -74q-129 0 -198 76t-69 204q0 81 29 145.5t85 102t134 37.5q115 0 180 -72t65 -200q0 -33 -3 -57zM370 321q-2 122 -86 122q-41 0 -63.5 -30t-27.5 -99h177v7zM161 680.5
q-45 48.5 -51 124.5l87 15q19 -78 85 -78q65 0 86 78l87 -15q-6 -75 -51.5 -124t-121.5 -49t-121 48.5z" />
    <glyph glyph-name="Edotaccent" unicode="&#x116;" horiz-adv-x="526" 
d="M490 693l-17 -117h-244v-166h213v-115h-213v-177h261v-118h-425v693h425zM345.5 911.5q26.5 -25.5 26.5 -64.5t-26.5 -64.5t-67.5 -25.5t-67 25.5t-26 64.5t26 64.5t67 25.5t67.5 -25.5z" />
    <glyph glyph-name="edotaccent" unicode="&#x117;" horiz-adv-x="552" 
d="M522 219h-329q8 -67 38 -94t83 -27q32 0 62 11.5t65 35.5l65 -88q-93 -74 -207 -74q-129 0 -198 76t-69 204q0 81 29 145.5t85 102t134 37.5q115 0 180 -72t65 -200q0 -33 -3 -57zM370 321q-2 122 -86 122q-41 0 -63.5 -30t-27.5 -99h177v7zM349.5 785.5
q26.5 -25.5 26.5 -64.5t-26.5 -64.5t-67.5 -25.5t-67 25.5t-26 64.5t26 64.5t67 25.5t67.5 -25.5z" />
    <glyph glyph-name="Eogonek" unicode="&#x118;" horiz-adv-x="526" 
d="M229 118h261v-118h-40q-118 -44 -118 -102q0 -46 53 -46q24 0 61 8l-11 -98q-35 -8 -70 -8q-65 0 -106 32t-41 85q0 80 82 129h-235v693h425l-17 -117h-244v-166h213v-115h-213v-177z" />
    <glyph glyph-name="eogonek" unicode="&#x119;" horiz-adv-x="552" 
d="M522 219h-329q8 -67 38 -94t83 -27q32 0 62 11.5t65 35.5l65 -88q-51 -41 -109 -59q-91 -40 -91 -91q0 -46 53 -46q24 0 61 8l-11 -98q-34 -8 -70 -8q-65 0 -106 32t-41 85q0 66 68 105q-111 12 -169.5 86t-58.5 192q0 81 29 145.5t85 102t134 37.5q115 0 180 -72
t65 -200q0 -33 -3 -57zM370 321q-2 122 -86 122q-41 0 -63.5 -30t-27.5 -99h177v7z" />
    <glyph glyph-name="Ecaron" unicode="&#x11a;" horiz-adv-x="526" 
d="M490 693l-17 -117h-244v-166h213v-115h-213v-177h261v-118h-425v693h425zM412 944l56 -65l-141 -129h-96l-142 129l57 65l133 -84z" />
    <glyph glyph-name="ecaron" unicode="&#x11b;" horiz-adv-x="552" 
d="M522 219h-329q8 -67 38 -94t83 -27q32 0 62 11.5t65 35.5l65 -88q-93 -74 -207 -74q-129 0 -198 76t-69 204q0 81 29 145.5t85 102t134 37.5q115 0 180 -72t65 -200q0 -33 -3 -57zM370 321q-2 122 -86 122q-41 0 -63.5 -30t-27.5 -99h177v7zM416 813l56 -65l-141 -137
h-96l-142 137l57 65l133 -91z" />
    <glyph glyph-name="Gcircumflex" unicode="&#x11c;" horiz-adv-x="645" 
d="M596 625l-83 -87q-37 28 -68.5 40.5t-72.5 12.5q-77 0 -123 -60.5t-46 -183.5q0 -133 35 -188.5t109 -55.5q52 0 94 23v157h-90l-16 116h265v-343q-54 -35 -119 -54t-130 -19q-158 0 -238 92.5t-80 271.5q0 114 43.5 196t119 124.5t169.5 42.5q134 0 231 -85zM219 755
l-57 65l142 129h96l141 -129l-56 -65l-133 84z" />
    <glyph glyph-name="gcircumflex" unicode="&#x11d;" horiz-adv-x="551" 
d="M551 500q-52 -21 -153 -21q52 -22 76 -54t24 -83t-27 -91.5t-77.5 -63.5t-118.5 -23q-32 0 -61 6q-8 -4 -12.5 -12.5t-4.5 -17.5q0 -15 11.5 -23.5t46.5 -8.5h80q61 0 107 -20t71 -55t25 -79q0 -83 -71.5 -129.5t-206.5 -46.5q-97 0 -153 20.5t-78.5 57.5t-22.5 93h142
q0 -24 9.5 -38t34.5 -21t72 -7q65 0 90 15.5t25 44.5q0 24 -19 38t-57 14h-77q-82 0 -122.5 29.5t-40.5 75.5q0 29 17 56.5t46 45.5q-50 27 -72.5 63.5t-22.5 88.5q0 89 64 141.5t169 52.5q80 -2 135.5 16t114.5 53zM209.5 420.5q-21.5 -23.5 -21.5 -64.5q0 -43 21.5 -66.5
t58.5 -23.5q39 0 59.5 23t20.5 69q0 86 -80 86q-37 0 -58.5 -23.5zM142 620l-56 65l141 137h97l141 -137l-56 -65l-133 92z" />
    <glyph glyph-name="Gbreve" unicode="&#x11e;" horiz-adv-x="645" 
d="M596 625l-83 -87q-37 28 -68.5 40.5t-72.5 12.5q-77 0 -123 -60.5t-46 -183.5q0 -133 35 -188.5t109 -55.5q52 0 94 23v157h-90l-16 116h265v-343q-54 -35 -119 -54t-130 -19q-158 0 -238 92.5t-80 271.5q0 114 43.5 196t119 124.5t169.5 42.5q134 0 231 -85zM230.5 798
q-45.5 47 -51.5 115l87 15q10 -31 31 -49.5t54 -18.5t54 18.5t32 49.5l87 -15q-6 -68 -52 -115t-121 -47t-120.5 47z" />
    <glyph glyph-name="gbreve" unicode="&#x11f;" horiz-adv-x="551" 
d="M551 500q-52 -21 -153 -21q52 -22 76 -54t24 -83t-27 -91.5t-77.5 -63.5t-118.5 -23q-32 0 -61 6q-8 -4 -12.5 -12.5t-4.5 -17.5q0 -15 11.5 -23.5t46.5 -8.5h80q61 0 107 -20t71 -55t25 -79q0 -83 -71.5 -129.5t-206.5 -46.5q-97 0 -153 20.5t-78.5 57.5t-22.5 93h142
q0 -24 9.5 -38t34.5 -21t72 -7q65 0 90 15.5t25 44.5q0 24 -19 38t-57 14h-77q-82 0 -122.5 29.5t-40.5 75.5q0 29 17 56.5t46 45.5q-50 27 -72.5 63.5t-22.5 88.5q0 89 64 141.5t169 52.5q80 -2 135.5 16t114.5 53zM209.5 420.5q-21.5 -23.5 -21.5 -64.5q0 -43 21.5 -66.5
t58.5 -23.5q39 0 59.5 23t20.5 69q0 86 -80 86q-37 0 -58.5 -23.5zM154 680.5q-45 48.5 -51 124.5l87 15q19 -78 85 -78q65 0 86 78l87 -15q-6 -75 -51.5 -124t-121.5 -49t-121 48.5z" />
    <glyph glyph-name="Gdotaccent" unicode="&#x120;" horiz-adv-x="645" 
d="M596 625l-83 -87q-37 28 -68.5 40.5t-72.5 12.5q-77 0 -123 -60.5t-46 -183.5q0 -133 35 -188.5t109 -55.5q52 0 94 23v157h-90l-16 116h265v-343q-54 -35 -119 -54t-130 -19q-158 0 -238 92.5t-80 271.5q0 114 43.5 196t119 124.5t169.5 42.5q134 0 231 -85z
M418.5 911.5q26.5 -25.5 26.5 -64.5t-26.5 -64.5t-67.5 -25.5t-67 25.5t-26 64.5t26 64.5t67 25.5t67.5 -25.5z" />
    <glyph glyph-name="gdotaccent" unicode="&#x121;" horiz-adv-x="551" 
d="M551 500q-52 -21 -153 -21q52 -22 76 -54t24 -83t-27 -91.5t-77.5 -63.5t-118.5 -23q-32 0 -61 6q-8 -4 -12.5 -12.5t-4.5 -17.5q0 -15 11.5 -23.5t46.5 -8.5h80q61 0 107 -20t71 -55t25 -79q0 -83 -71.5 -129.5t-206.5 -46.5q-97 0 -153 20.5t-78.5 57.5t-22.5 93h142
q0 -24 9.5 -38t34.5 -21t72 -7q65 0 90 15.5t25 44.5q0 24 -19 38t-57 14h-77q-82 0 -122.5 29.5t-40.5 75.5q0 29 17 56.5t46 45.5q-50 27 -72.5 63.5t-22.5 88.5q0 89 64 141.5t169 52.5q80 -2 135.5 16t114.5 53zM209.5 420.5q-21.5 -23.5 -21.5 -64.5q0 -43 21.5 -66.5
t58.5 -23.5q39 0 59.5 23t20.5 69q0 86 -80 86q-37 0 -58.5 -23.5zM342.5 785.5q26.5 -25.5 26.5 -64.5t-26.5 -64.5t-67.5 -25.5t-67 25.5t-26 64.5t26 64.5t67 25.5t67.5 -25.5z" />
    <glyph glyph-name="Gcommaaccent" unicode="&#x122;" horiz-adv-x="645" 
d="M596 625l-83 -87q-37 28 -68.5 40.5t-72.5 12.5q-77 0 -123 -60.5t-46 -183.5q0 -133 35 -188.5t109 -55.5q52 0 94 23v157h-90l-16 116h265v-343q-54 -35 -119 -54t-130 -19q-158 0 -238 92.5t-80 271.5q0 114 43.5 196t119 124.5t169.5 42.5q134 0 231 -85zM404.5 -90
q22.5 -22 22.5 -55q0 -19 -6 -36.5t-21 -47.5l-46 -96h-79l27 115q-33 26 -33 65q0 32 22.5 54.5t56.5 22.5t56.5 -22z" />
    <glyph glyph-name="gcommaaccent" unicode="&#x123;" horiz-adv-x="551" 
d="M551 500q-52 -21 -153 -21q52 -22 76 -54t24 -83t-27 -91.5t-77.5 -63.5t-118.5 -23q-32 0 -61 6q-8 -4 -12.5 -12.5t-4.5 -17.5q0 -15 11.5 -23.5t46.5 -8.5h80q61 0 107 -20t71 -55t25 -79q0 -83 -71.5 -129.5t-206.5 -46.5q-97 0 -153 20.5t-78.5 57.5t-22.5 93h142
q0 -24 9.5 -38t34.5 -21t72 -7q65 0 90 15.5t25 44.5q0 24 -19 38t-57 14h-77q-82 0 -122.5 29.5t-40.5 75.5q0 29 17 56.5t46 45.5q-50 27 -72.5 63.5t-22.5 88.5q0 89 64 141.5t169 52.5q80 -2 135.5 16t114.5 53zM209.5 420.5q-21.5 -23.5 -21.5 -64.5q0 -43 21.5 -66.5
t58.5 -23.5q39 0 59.5 23t20.5 69q0 86 -80 86q-37 0 -58.5 -23.5zM216.5 599q-22.5 22 -22.5 55q0 19 6 36.5t21 47.5l46 96h79l-27 -115q33 -26 33 -65q0 -32 -22.5 -54.5t-56.5 -22.5t-56.5 22z" />
    <glyph glyph-name="Hcircumflex" unicode="&#x124;" horiz-adv-x="666" 
d="M437 0v297h-208v-297h-164v693h164v-268h208v268h164v-693h-164zM200 755l-57 65l142 129h96l141 -129l-56 -65l-133 84z" />
    <glyph glyph-name="hcircumflex" unicode="&#x125;" horiz-adv-x="577" 
d="M481 506q39 -42 39 -118v-388h-158v361q0 40 -13 55.5t-37 15.5q-48 0 -92 -68v-364h-158v742l158 16v-284q33 37 70 55.5t83 18.5q69 0 108 -42zM155 804l-57 65l142 129h96l141 -129l-56 -65l-133 84z" />
    <glyph glyph-name="Hbar" unicode="&#x126;" horiz-adv-x="677" 
d="M664 592v-92h-57v-500h-164v297h-208v-297h-164v500h-58v92h58v101h164v-101h208v101h164v-101h57zM443 425v75h-208v-75h208z" />
    <glyph glyph-name="hbar" unicode="&#x127;" horiz-adv-x="586" 
d="M489 506q39 -42 39 -118v-388h-158v361q0 40 -13 55.5t-37 15.5q-48 0 -92 -68v-364h-158v596h-62v92h62v54l158 16v-70h132v-92h-132v-122q33 37 70 55.5t83 18.5q69 0 108 -42z" />
    <glyph glyph-name="Itilde" unicode="&#x128;" horiz-adv-x="293" 
d="M229 693v-693h-164v693h164zM166 768q-16 7 -35 20q-25 18 -41 18q-17 0 -28.5 -10.5t-24.5 -33.5l-79 38q20 52 53.5 85t75.5 33q23 0 39.5 -7.5t36.5 -20.5q14 -9 22.5 -13t17.5 -4q16 0 27.5 10.5t24.5 33.5l79 -39q-21 -53 -54.5 -85t-75.5 -32q-22 0 -38 7z" />
    <glyph glyph-name="itilde" unicode="&#x129;" horiz-adv-x="282" 
d="M220 531v-531h-158v531h158zM161 642q-16 7 -35 20q-25 18 -41 18q-17 0 -28.5 -10.5t-24.5 -33.5l-79 38q20 52 53.5 85t75.5 33q23 0 39.5 -7.5t36.5 -20.5q14 -9 22.5 -13t17.5 -4q16 0 27.5 10.5t24.5 33.5l79 -39q-21 -53 -54.5 -85t-75.5 -32q-22 0 -38 7z" />
    <glyph glyph-name="Imacron" unicode="&#x12a;" horiz-adv-x="293" 
d="M229 693v-693h-164v693h164zM298 781h-305v110h305v-110z" />
    <glyph glyph-name="imacron" unicode="&#x12b;" horiz-adv-x="282" 
d="M220 531v-531h-158v531h158zM293 655h-305v110h305v-110z" />
    <glyph glyph-name="Ibreve" unicode="&#x12c;" horiz-adv-x="293" 
d="M229 693v-693h-164v693h164zM24.5 798q-45.5 47 -51.5 115l87 15q10 -31 31 -49.5t54 -18.5t54 18.5t32 49.5l87 -15q-6 -68 -52 -115t-121 -47t-120.5 47z" />
    <glyph glyph-name="ibreve" unicode="&#x12d;" horiz-adv-x="282" 
d="M220 531v-531h-158v531h158zM19 680.5q-45 48.5 -51 124.5l87 15q19 -78 85 -78q65 0 86 78l87 -15q-6 -75 -51.5 -124t-121.5 -49t-121 48.5z" />
    <glyph glyph-name="Iogonek" unicode="&#x12e;" horiz-adv-x="293" 
d="M229 693v-693h-29q-118 -44 -118 -102q0 -46 53 -46q24 0 61 8l-11 -98q-35 -8 -70 -8q-65 0 -106 32t-41 85q0 86 97 137v685h164z" />
    <glyph glyph-name="iogonek" unicode="&#x12f;" horiz-adv-x="282" 
d="M73 656.5q-26 25.5 -26 64.5t26 64.5t67 25.5t67.5 -25.5t26.5 -64.5t-26.5 -64.5t-67.5 -25.5t-67 25.5zM62 531h158v-531h-25q-118 -44 -118 -102q0 -46 53 -46q24 0 61 8l-11 -98q-35 -8 -70 -8q-65 0 -106 32t-41 85q0 86 99 139v521z" />
    <glyph glyph-name="Idotaccent" unicode="&#x130;" horiz-adv-x="293" 
d="M229 693v-693h-164v693h164zM212.5 911.5q26.5 -25.5 26.5 -64.5t-26.5 -64.5t-67.5 -25.5t-67 25.5t-26 64.5t26 64.5t67 25.5t67.5 -25.5z" />
    <glyph glyph-name="dotlessi" unicode="&#x131;" horiz-adv-x="282" 
d="M220 531v-531h-158v531h158z" />
    <glyph glyph-name="IJ" unicode="&#x132;" horiz-adv-x="610" 
d="M229 693v-693h-164v693h164zM549 105q0 -83 -29.5 -137t-78 -84.5t-115.5 -52.5l-44 116q44 17 66 39t29.5 51t7.5 74v582h164v-588z" />
    <glyph glyph-name="ij" unicode="&#x133;" horiz-adv-x="563" 
d="M220 531v-531h-158v531h158zM207.5 785.5q26.5 -25.5 26.5 -64.5t-26.5 -64.5t-67.5 -25.5t-67 25.5t-26 64.5t26 64.5t67 25.5t67.5 -25.5zM501 60q0 -83 -26.5 -137t-72 -86.5t-114.5 -57.5l-53 115q39 18 61 35t34.5 45.5t12.5 75.5v481h158v-471zM489.5 785.5
q26.5 -25.5 26.5 -64.5t-26.5 -64.5t-67.5 -25.5t-67 25.5t-26 64.5t26 64.5t67 25.5t67.5 -25.5z" />
    <glyph glyph-name="Jcircumflex" unicode="&#x134;" horiz-adv-x="317" 
d="M256 105q0 -83 -29.5 -137t-78 -84.5t-115.5 -52.5l-44 116q44 17 66 39t29.5 51t7.5 74v582h164v-588zM41 755l-57 65l142 129h96l141 -129l-56 -65l-133 84z" />
    <glyph glyph-name="jcircumflex" unicode="&#x135;" horiz-adv-x="281" 
d="M219 60q0 -83 -26.5 -137t-72 -86.5t-114.5 -57.5l-53 115q39 18 61 35t34.5 45.5t12.5 75.5v481h158v-471zM7 620l-56 65l141 137h97l141 -137l-56 -65l-133 92z" />
    <glyph glyph-name="Kcommaaccent" unicode="&#x136;" horiz-adv-x="633" 
d="M229 693v-693h-164v693h164zM627 693l-221 -311l239 -382h-190l-221 370l220 323h173zM381.5 -90q22.5 -22 22.5 -55q0 -19 -6 -36.5t-21 -47.5l-46 -96h-79l27 115q-33 26 -33 65q0 32 22.5 54.5t56.5 22.5t56.5 -22z" />
    <glyph glyph-name="kcommaaccent" unicode="&#x137;" horiz-adv-x="552" 
d="M220 759v-759h-158v742zM548 531l-161 -233l174 -298h-178l-158 290l162 241h161zM333.5 -90q22.5 -22 22.5 -55q0 -19 -6 -36.5t-21 -47.5l-46 -96h-79l27 115q-33 26 -33 65q0 32 22.5 54.5t56.5 22.5t56.5 -22z" />
    <glyph glyph-name="kgreenlandic" unicode="&#x138;" horiz-adv-x="551" 
d="M220 531v-531h-158v531h158zM547 531l-161 -243l174 -288h-178l-158 280l162 251h161z" />
    <glyph glyph-name="Lacute" unicode="&#x139;" horiz-adv-x="513" 
d="M229 693v-563h270l-17 -130h-417v693h164zM228 956l59 -118l-240 -87l-40 80z" />
    <glyph glyph-name="lacute" unicode="&#x13a;" horiz-adv-x="297" 
d="M95.5 22.5q-38.5 39.5 -38.5 112.5v607l158 17v-618q0 -33 27 -33q14 0 26 5l31 -112q-43 -18 -96 -18q-69 0 -107.5 39.5zM217 1005l59 -118l-240 -87l-40 80z" />
    <glyph glyph-name="Lcommaaccent" unicode="&#x13b;" horiz-adv-x="513" 
d="M229 693v-563h270l-17 -130h-417v693h164zM330.5 -90q22.5 -22 22.5 -55q0 -19 -6 -36.5t-21 -47.5l-46 -96h-79l27 115q-33 26 -33 65q0 32 22.5 54.5t56.5 22.5t56.5 -22z" />
    <glyph glyph-name="lcommaaccent" unicode="&#x13c;" horiz-adv-x="297" 
d="M95.5 22.5q-38.5 39.5 -38.5 112.5v607l158 17v-618q0 -33 27 -33q14 0 26 5l31 -112q-43 -18 -96 -18q-69 0 -107.5 39.5zM240.5 -90q22.5 -22 22.5 -55q0 -19 -6 -36.5t-21 -47.5l-46 -96h-79l27 115q-33 26 -33 65q0 32 22.5 54.5t56.5 22.5t56.5 -22z" />
    <glyph glyph-name="Lcaron" unicode="&#x13d;" horiz-adv-x="513" 
d="M229 693v-563h270l-17 -130h-417v693h164zM358 478l55 215l-120 17l-23 -219z" />
    <glyph glyph-name="lcaron" unicode="&#x13e;" horiz-adv-x="369" 
d="M95.5 22.5q-38.5 39.5 -38.5 112.5v607l158 17v-618q0 -33 27 -33q14 0 26 5l31 -112q-43 -18 -96 -18q-69 0 -107.5 39.5zM341 527l55 215l-120 17l-23 -219z" />
    <glyph glyph-name="Ldot" unicode="&#x13f;" horiz-adv-x="513" 
d="M229 693v-563h270l-17 -130h-417v693h164zM466.5 464.5q26.5 -25.5 26.5 -64.5t-26.5 -64.5t-67.5 -25.5t-67 25.5t-26 64.5t26 64.5t67 25.5t67.5 -25.5z" />
    <glyph glyph-name="ldot" unicode="&#x140;" horiz-adv-x="442" 
d="M95.5 22.5q-38.5 39.5 -38.5 112.5v607l158 17v-618q0 -33 27 -33q14 0 26 5l31 -112q-43 -18 -96 -18q-69 0 -107.5 39.5zM422.5 441.5q26.5 -25.5 26.5 -64.5t-26.5 -64.5t-67.5 -25.5t-67 25.5t-26 64.5t26 64.5t67 25.5t67.5 -25.5z" />
    <glyph glyph-name="Lslash" unicode="&#x141;" horiz-adv-x="553" 
d="M269 130h270l-17 -130h-417v225l-43 -27l-54 87l96 59l1 1v348h164v-247l127 79l54 -86l-181 -112v-197z" />
    <glyph glyph-name="lslash" unicode="&#x142;" horiz-adv-x="358" 
d="M296 113l31 -112q-43 -18 -96 -18q-69 0 -107.5 39.5t-38.5 112.5v133l-41 -25l-53 86l94 59v354l158 17v-276l67 40l52 -86l-119 -73v-223q0 -33 27 -33q14 0 26 5z" />
    <glyph glyph-name="Nacute" unicode="&#x143;" horiz-adv-x="663" 
d="M599 0h-209l-200 537q10 -79 15.5 -139.5t5.5 -143.5v-254h-146v693h204l205 -538q-22 137 -22 258v280h147v-693zM417 956l59 -118l-240 -87l-40 80z" />
    <glyph glyph-name="nacute" unicode="&#x144;" horiz-adv-x="577" 
d="M481 506q39 -42 39 -118v-388h-158v361q0 40 -12.5 55.5t-37.5 15.5q-48 0 -92 -69v-363h-158v531h138l11 -63q34 40 73.5 60t88.5 20q69 0 108 -42zM366 835l62 -118l-236 -95l-44 81z" />
    <glyph glyph-name="Ncommaaccent" unicode="&#x145;" horiz-adv-x="663" 
d="M599 0h-209l-200 537q10 -79 15.5 -139.5t5.5 -143.5v-254h-146v693h204l205 -538q-22 137 -22 258v280h147v-693zM389.5 -90q22.5 -22 22.5 -55q0 -19 -6 -36.5t-21 -47.5l-46 -96h-79l27 115q-33 26 -33 65q0 32 22.5 54.5t56.5 22.5t56.5 -22z" />
    <glyph glyph-name="ncommaaccent" unicode="&#x146;" horiz-adv-x="577" 
d="M481 506q39 -42 39 -118v-388h-158v361q0 40 -12.5 55.5t-37.5 15.5q-48 0 -92 -69v-363h-158v531h138l11 -63q34 40 73.5 60t88.5 20q69 0 108 -42zM346.5 -90q22.5 -22 22.5 -55q0 -19 -6 -36.5t-21 -47.5l-46 -96h-79l27 115q-33 26 -33 65q0 32 22.5 54.5t56.5 22.5
t56.5 -22z" />
    <glyph glyph-name="Ncaron" unicode="&#x147;" horiz-adv-x="663" 
d="M599 0h-209l-200 537q10 -79 15.5 -139.5t5.5 -143.5v-254h-146v693h204l205 -538q-22 137 -22 258v280h147v-693zM469 944l56 -65l-141 -129h-96l-142 129l57 65l133 -84z" />
    <glyph glyph-name="ncaron" unicode="&#x148;" horiz-adv-x="577" 
d="M481 506q39 -42 39 -118v-388h-158v361q0 40 -12.5 55.5t-37.5 15.5q-48 0 -92 -69v-363h-158v531h138l11 -63q34 40 73.5 60t88.5 20q69 0 108 -42zM427 813l56 -65l-141 -137h-96l-142 137l57 65l133 -91z" />
    <glyph glyph-name="napostrophe" unicode="&#x149;" horiz-adv-x="702" 
d="M152 740.5q20 -19.5 20 -48.5q0 -16 -5 -31.5t-19 -43.5l-41 -82h-69l24 100q-29 22 -29 57q0 28 20 48t49 20q30 0 50 -19.5zM606 506q39 -42 39 -118v-388h-158v361q0 40 -12.5 55.5t-37.5 15.5q-48 0 -92 -69v-363h-158v531h138l11 -63q34 40 73.5 60t88.5 20
q69 0 108 -42z" />
    <glyph glyph-name="Eng" unicode="&#x14a;" horiz-adv-x="663" 
d="M599 693v-724q0 -94 -54 -142.5t-147 -48.5q-84 0 -141 43l54 97q22 -11 36 -16t34 -5q26 0 40 15.5t14 45.5v42h-45l-200 537q10 -79 15.5 -139.5t5.5 -143.5v-254h-146v693h204l205 -538q-22 137 -22 258v280h147z" />
    <glyph glyph-name="eng" unicode="&#x14b;" horiz-adv-x="577" 
d="M481 506q39 -42 39 -118v-419q0 -93 -53 -142t-143 -49q-85 0 -142 43l53 92q22 -11 36 -15.5t34 -4.5q27 0 42 15.5t15 45.5v407q0 40 -12.5 55.5t-37.5 15.5q-48 0 -92 -69v-363h-158v531h138l11 -63q34 40 73.5 60t88.5 20q69 0 108 -42z" />
    <glyph glyph-name="Omacron" unicode="&#x14c;" horiz-adv-x="691" 
d="M575.5 615q82.5 -95 82.5 -268q0 -113 -37.5 -195t-108 -125.5t-167.5 -43.5t-167 43t-107.5 124.5t-37.5 196.5q0 112 37.5 194t107.5 125.5t167 43.5q148 0 230.5 -95zM239.5 532.5q-34.5 -57.5 -34.5 -185.5t35 -186t105 -58q72 0 106.5 57.5t34.5 186.5t-35 186
t-106 57t-105.5 -57.5zM497 781h-305v110h305v-110z" />
    <glyph glyph-name="omacron" unicode="&#x14d;" horiz-adv-x="584" 
d="M483 473.5q69 -74.5 69 -208.5q0 -85 -31.5 -148.5t-90 -98.5t-138.5 -35q-121 0 -190.5 74.5t-69.5 208.5q0 85 31.5 148.5t90 98.5t138.5 35q122 0 191 -74.5zM220 391.5q-24 -40.5 -24 -125.5q0 -87 23.5 -127t72.5 -40q48 0 72 40.5t24 125.5q0 87 -23.5 127
t-72.5 40q-48 0 -72 -40.5zM444 655h-305v110h305v-110z" />
    <glyph glyph-name="Obreve" unicode="&#x14e;" horiz-adv-x="691" 
d="M575.5 615q82.5 -95 82.5 -268q0 -113 -37.5 -195t-108 -125.5t-167.5 -43.5t-167 43t-107.5 124.5t-37.5 196.5q0 112 37.5 194t107.5 125.5t167 43.5q148 0 230.5 -95zM239.5 532.5q-34.5 -57.5 -34.5 -185.5t35 -186t105 -58q72 0 106.5 57.5t34.5 186.5t-35 186
t-106 57t-105.5 -57.5zM223.5 798q-45.5 47 -51.5 115l87 15q10 -31 31 -49.5t54 -18.5t54 18.5t32 49.5l87 -15q-6 -68 -52 -115t-121 -47t-120.5 47z" />
    <glyph glyph-name="obreve" unicode="&#x14f;" horiz-adv-x="584" 
d="M483 473.5q69 -74.5 69 -208.5q0 -85 -31.5 -148.5t-90 -98.5t-138.5 -35q-121 0 -190.5 74.5t-69.5 208.5q0 85 31.5 148.5t90 98.5t138.5 35q122 0 191 -74.5zM220 391.5q-24 -40.5 -24 -125.5q0 -87 23.5 -127t72.5 -40q48 0 72 40.5t24 125.5q0 87 -23.5 127
t-72.5 40q-48 0 -72 -40.5zM170 680.5q-45 48.5 -51 124.5l87 15q19 -78 85 -78q65 0 86 78l87 -15q-6 -75 -51.5 -124t-121.5 -49t-121 48.5z" />
    <glyph glyph-name="Ohungarumlaut" unicode="&#x150;" horiz-adv-x="691" 
d="M575.5 615q82.5 -95 82.5 -268q0 -113 -37.5 -195t-108 -125.5t-167.5 -43.5t-167 43t-107.5 124.5t-37.5 196.5q0 112 37.5 194t107.5 125.5t167 43.5q148 0 230.5 -95zM239.5 532.5q-34.5 -57.5 -34.5 -185.5t35 -186t105 -58q72 0 106.5 57.5t34.5 186.5t-35 186
t-106 57t-105.5 -57.5zM300 986l108 -50l-113 -180l-83 33zM476 986l106 -53l-121 -182l-82 38z" />
    <glyph glyph-name="ohungarumlaut" unicode="&#x151;" horiz-adv-x="584" 
d="M483 473.5q69 -74.5 69 -208.5q0 -85 -31.5 -148.5t-90 -98.5t-138.5 -35q-121 0 -190.5 74.5t-69.5 208.5q0 85 31.5 148.5t90 98.5t138.5 35q122 0 191 -74.5zM220 391.5q-24 -40.5 -24 -125.5q0 -87 23.5 -127t72.5 -40q48 0 72 40.5t24 125.5q0 87 -23.5 127
t-72.5 40q-48 0 -72 -40.5zM243 860l108 -50l-113 -180l-83 33zM419 860l106 -53l-121 -182l-82 38z" />
    <glyph glyph-name="OE" unicode="&#x152;" horiz-adv-x="905" 
d="M566 118h303v-118h-445q-43 -17 -95 -17q-90 0 -156.5 43t-103 125t-36.5 196q0 112 36.5 194t103.5 125.5t156 43.5q54 0 99 -17h441l-17 -117h-282q52 -68 64 -166h187v-115h-186q-13 -106 -69 -177zM433 161q33 58 33 186q0 127 -33.5 185t-97.5 58t-97 -58t-33 -185
q0 -244 130 -244q65 0 98 58z" />
    <glyph glyph-name="oe" unicode="&#x153;" horiz-adv-x="907" 
d="M877 219h-329q7 -67 37.5 -94t83.5 -27q32 0 62 11.5t65 35.5l65 -88q-93 -74 -207 -74q-119 0 -185 82q-67 -82 -178 -82q-121 0 -190 74.5t-69 208.5q0 84 31.5 148t90 99t138.5 35q109 0 177 -79q64 79 168 79q113 0 178 -72t65 -200q0 -33 -3 -57zM724 321
q0 122 -84 122q-42 0 -64.5 -30t-27.5 -99h176v7zM363.5 139q23.5 40 23.5 127q0 85 -23.5 125.5t-71.5 40.5t-72 -40.5t-24 -125.5q0 -87 23.5 -127t71.5 -40q49 0 72.5 40z" />
    <glyph glyph-name="Racute" unicode="&#x154;" horiz-adv-x="617" 
d="M293 265h-64v-265h-164v693h227q142 0 213.5 -52t71.5 -159q0 -67 -32 -111.5t-101 -75.5l176 -295h-185zM229 378h69q55 0 82.5 25t27.5 79q0 50 -29.5 73t-90.5 23h-59v-200zM382 956l59 -118l-240 -87l-40 80z" />
    <glyph glyph-name="racute" unicode="&#x155;" horiz-adv-x="401" 
d="M403 539l-25 -153q-30 7 -48 7q-47 0 -71.5 -32.5t-38.5 -97.5v-263h-158v531h138l13 -103q18 55 54.5 86.5t82.5 31.5q29 0 53 -7zM306 835l62 -118l-236 -95l-44 81z" />
    <glyph glyph-name="Rcommaaccent" unicode="&#x156;" horiz-adv-x="617" 
d="M293 265h-64v-265h-164v693h227q142 0 213.5 -52t71.5 -159q0 -67 -32 -111.5t-101 -75.5l176 -295h-185zM229 378h69q55 0 82.5 25t27.5 79q0 50 -29.5 73t-90.5 23h-59v-200zM368.5 -90q22.5 -22 22.5 -55q0 -19 -6 -36.5t-21 -47.5l-46 -96h-79l27 115q-33 26 -33 65
q0 32 22.5 54.5t56.5 22.5t56.5 -22z" />
    <glyph glyph-name="rcommaaccent" unicode="&#x157;" horiz-adv-x="401" 
d="M403 539l-25 -153q-30 7 -48 7q-47 0 -71.5 -32.5t-38.5 -97.5v-263h-158v531h138l13 -103q18 55 54.5 86.5t82.5 31.5q29 0 53 -7zM198.5 -90q22.5 -22 22.5 -55q0 -19 -6 -36.5t-21 -47.5l-46 -96h-79l27 115q-33 26 -33 65q0 32 22.5 54.5t56.5 22.5t56.5 -22z" />
    <glyph glyph-name="Rcaron" unicode="&#x158;" horiz-adv-x="617" 
d="M293 265h-64v-265h-164v693h227q142 0 213.5 -52t71.5 -159q0 -67 -32 -111.5t-101 -75.5l176 -295h-185zM229 378h69q55 0 82.5 25t27.5 79q0 50 -29.5 73t-90.5 23h-59v-200zM434 944l56 -65l-141 -129h-96l-142 129l57 65l133 -84z" />
    <glyph glyph-name="rcaron" unicode="&#x159;" horiz-adv-x="401" 
d="M403 539l-25 -153q-30 7 -48 7q-47 0 -71.5 -32.5t-38.5 -97.5v-263h-158v531h138l13 -103q18 55 54.5 86.5t82.5 31.5q29 0 53 -7zM367 813l56 -65l-141 -137h-96l-142 137l57 65l133 -91z" />
    <glyph glyph-name="Sacute" unicode="&#x15a;" horiz-adv-x="572" 
d="M423.5 688q57.5 -22 104.5 -67l-76 -89q-71 58 -152 58q-43 0 -68 -17.5t-25 -50.5q0 -23 11 -37.5t39 -27.5t84 -31q106 -34 156 -83.5t50 -140.5q0 -65 -33 -114.5t-95 -77t-147 -27.5t-150.5 27t-112.5 72l83 91q40 -34 82.5 -51t92.5 -17q51 0 80.5 22.5t29.5 62.5
q0 26 -11 43.5t-38 31.5t-78 30q-115 35 -163.5 86t-48.5 129q0 60 32 105.5t89 70t129 24.5q78 0 135.5 -22zM376 956l59 -118l-240 -87l-40 80z" />
    <glyph glyph-name="sacute" unicode="&#x15b;" horiz-adv-x="483" 
d="M356 531q50 -17 88 -48l-58 -89q-65 41 -131 41q-31 0 -47.5 -10.5t-16.5 -29.5q0 -15 7.5 -24.5t30.5 -19.5t71 -24q83 -24 123.5 -62.5t40.5 -106.5q0 -54 -31 -93.5t-85 -60.5t-120 -21q-67 0 -124.5 21t-97.5 58l77 86q67 -52 141 -52q36 0 56.5 13t20.5 37
q0 19 -8 30t-31 20.5t-73 23.5q-79 23 -118 64t-39 102q0 46 26.5 82.5t76 58t114.5 21.5q57 0 107 -17zM321 835l62 -118l-236 -95l-44 81z" />
    <glyph glyph-name="Scircumflex" unicode="&#x15c;" horiz-adv-x="572" 
d="M423.5 688q57.5 -22 104.5 -67l-76 -89q-71 58 -152 58q-43 0 -68 -17.5t-25 -50.5q0 -23 11 -37.5t39 -27.5t84 -31q106 -34 156 -83.5t50 -140.5q0 -65 -33 -114.5t-95 -77t-147 -27.5t-150.5 27t-112.5 72l83 91q40 -34 82.5 -51t92.5 -17q51 0 80.5 22.5t29.5 62.5
q0 26 -11 43.5t-38 31.5t-78 30q-115 35 -163.5 86t-48.5 129q0 60 32 105.5t89 70t129 24.5q78 0 135.5 -22zM162 755l-57 65l142 129h96l141 -129l-56 -65l-133 84z" />
    <glyph glyph-name="scircumflex" unicode="&#x15d;" horiz-adv-x="483" 
d="M356 531q50 -17 88 -48l-58 -89q-65 41 -131 41q-31 0 -47.5 -10.5t-16.5 -29.5q0 -15 7.5 -24.5t30.5 -19.5t71 -24q83 -24 123.5 -62.5t40.5 -106.5q0 -54 -31 -93.5t-85 -60.5t-120 -21q-67 0 -124.5 21t-97.5 58l77 86q67 -52 141 -52q36 0 56.5 13t20.5 37
q0 19 -8 30t-31 20.5t-73 23.5q-79 23 -118 64t-39 102q0 46 26.5 82.5t76 58t114.5 21.5q57 0 107 -17zM115 620l-56 65l141 137h97l141 -137l-56 -65l-133 92z" />
    <glyph glyph-name="Scedilla" unicode="&#x15e;" horiz-adv-x="572" 
d="M488 56.5q-59 -58.5 -164 -70.5v-34q53 -6 78.5 -31.5t25.5 -67.5q0 -51 -40.5 -83t-108.5 -32q-34 0 -63 8.5t-49 21.5l36 73q34 -17 64 -17q47 0 47 30q0 18 -22 26t-70 8l11 97q-134 11 -224 97l83 91q40 -34 82.5 -51t92.5 -17q51 0 80.5 22.5t29.5 62.5
q0 26 -11 43.5t-38 31.5t-78 30q-115 35 -163.5 86t-48.5 129q0 60 32 105.5t89 70t129 24.5q78 0 135.5 -22t104.5 -67l-76 -89q-71 58 -152 58q-43 0 -68 -17.5t-25 -50.5q0 -23 11 -37.5t39 -27.5t84 -31q106 -34 156 -83.5t50 -140.5q0 -87 -59 -145.5z" />
    <glyph glyph-name="scedilla" unicode="&#x15f;" horiz-adv-x="483" 
d="M414.5 44q-49.5 -45 -129.5 -57v-35q53 -6 78.5 -31.5t25.5 -67.5q0 -51 -40.5 -83t-108.5 -32q-34 0 -63 8.5t-49 21.5l36 73q34 -17 64 -17q47 0 47 30q0 18 -22 26t-70 8l11 96q-56 5 -104 25.5t-84 52.5l77 86q67 -52 141 -52q36 0 56.5 13t20.5 37q0 19 -8 30
t-31 20.5t-73 23.5q-79 23 -118 64t-39 102q0 46 26.5 82.5t76 58t114.5 21.5q57 0 107 -17t88 -48l-58 -89q-65 41 -131 41q-31 0 -47.5 -10.5t-16.5 -29.5q0 -15 7.5 -24.5t30.5 -19.5t71 -24q83 -24 123.5 -62.5t40.5 -106.5q0 -69 -49.5 -114z" />
    <glyph glyph-name="Scaron" unicode="&#x160;" horiz-adv-x="572" 
d="M423.5 688q57.5 -22 104.5 -67l-76 -89q-71 58 -152 58q-43 0 -68 -17.5t-25 -50.5q0 -23 11 -37.5t39 -27.5t84 -31q106 -34 156 -83.5t50 -140.5q0 -65 -33 -114.5t-95 -77t-147 -27.5t-150.5 27t-112.5 72l83 91q40 -34 82.5 -51t92.5 -17q51 0 80.5 22.5t29.5 62.5
q0 26 -11 43.5t-38 31.5t-78 30q-115 35 -163.5 86t-48.5 129q0 60 32 105.5t89 70t129 24.5q78 0 135.5 -22zM428 944l56 -65l-141 -129h-96l-142 129l57 65l133 -84z" />
    <glyph glyph-name="scaron" unicode="&#x161;" horiz-adv-x="483" 
d="M356 531q50 -17 88 -48l-58 -89q-65 41 -131 41q-31 0 -47.5 -10.5t-16.5 -29.5q0 -15 7.5 -24.5t30.5 -19.5t71 -24q83 -24 123.5 -62.5t40.5 -106.5q0 -54 -31 -93.5t-85 -60.5t-120 -21q-67 0 -124.5 21t-97.5 58l77 86q67 -52 141 -52q36 0 56.5 13t20.5 37
q0 19 -8 30t-31 20.5t-73 23.5q-79 23 -118 64t-39 102q0 46 26.5 82.5t76 58t114.5 21.5q57 0 107 -17zM382 813l56 -65l-141 -137h-96l-142 137l57 65l133 -91z" />
    <glyph glyph-name="uni0162" unicode="&#x162;" horiz-adv-x="540" 
d="M430.5 -80q26.5 -26 26.5 -67q0 -51 -41 -83t-109 -32q-33 0 -62.5 8.5t-48.5 21.5l36 73q34 -17 61 -17q50 0 50 31q0 17 -22 25t-70 8l13 112h-76v567h-179v126h530l-16 -126h-171v-615q52 -6 78.5 -32z" />
    <glyph glyph-name="uni0163" unicode="&#x163;" horiz-adv-x="386" 
d="M355.5 -79.5q25.5 -25.5 25.5 -67.5q0 -51 -40.5 -83t-108.5 -32q-34 0 -63 8.5t-49 21.5l36 73q34 -17 64 -17q47 0 47 30q0 18 -22 26t-70 8l12 104q-110 31 -110 183v246h-75v110h75v115l158 18v-133h122l-17 -110h-105v-244q0 -37 12 -53t38 -16q27 0 57 17l53 -100
q-24 -17 -55 -27.5t-63 -13.5v-32q53 -6 78.5 -31.5z" />
    <glyph glyph-name="Tcaron" unicode="&#x164;" horiz-adv-x="540" 
d="M539 693l-16 -126h-171v-567h-164v567h-179v126h530zM403 944l56 -65l-141 -129h-96l-142 129l57 65l133 -84z" />
    <glyph glyph-name="tcaron" unicode="&#x165;" horiz-adv-x="386" 
d="M400 780l-55 -215l-88 13l23 219zM342 125l53 -100q-29 -20 -67.5 -31t-76.5 -11q-174 1 -174 192v246h-75v110h75v115l158 18v-133h122l-17 -110h-105v-244q0 -37 12 -53t38 -16q27 0 57 17z" />
    <glyph glyph-name="Tbar" unicode="&#x166;" horiz-adv-x="540" 
d="M523 566h-171v-177h115v-92h-115v-298h-164v298h-115v92h115v177h-179v126h530z" />
    <glyph glyph-name="tbar" unicode="&#x167;" horiz-adv-x="386" 
d="M395 25q-29 -20 -67.5 -31t-76.5 -11q-174 1 -174 192v82h-66v104h66v60h-75v110h75v115l158 18v-133h122l-17 -110h-105v-60h103v-104h-103v-80q0 -37 12 -53t38 -16q27 0 57 17z" />
    <glyph glyph-name="Utilde" unicode="&#x168;" horiz-adv-x="651" 
d="M596 230q0 -71 -30.5 -127t-91.5 -88t-149 -32q-132 0 -201 67t-69 180v463h164v-456q0 -67 25.5 -99.5t80.5 -32.5q56 0 81.5 32.5t25.5 99.5v456h164v-463zM345 768q-16 7 -35 20q-25 18 -41 18q-17 0 -28.5 -10.5t-24.5 -33.5l-79 38q20 52 53.5 85t75.5 33
q23 0 39.5 -7.5t36.5 -20.5q14 -9 22.5 -13t17.5 -4q16 0 27.5 10.5t24.5 33.5l79 -39q-21 -53 -54.5 -85t-75.5 -32q-22 0 -38 7z" />
    <glyph glyph-name="utilde" unicode="&#x169;" horiz-adv-x="572" 
d="M510 0h-137l-7 67q-58 -84 -161 -84q-73 0 -110.5 44t-37.5 123v381h158v-361q0 -39 12.5 -54.5t38.5 -15.5q50 0 86 62v369h158v-531zM304 642q-16 7 -35 20q-25 18 -41 18q-17 0 -28.5 -10.5t-24.5 -33.5l-79 38q20 52 53.5 85t75.5 33q23 0 39.5 -7.5t36.5 -20.5
q14 -9 22.5 -13t17.5 -4q16 0 27.5 10.5t24.5 33.5l79 -39q-21 -53 -54.5 -85t-75.5 -32q-22 0 -38 7z" />
    <glyph glyph-name="Umacron" unicode="&#x16a;" horiz-adv-x="651" 
d="M596 230q0 -71 -30.5 -127t-91.5 -88t-149 -32q-132 0 -201 67t-69 180v463h164v-456q0 -67 25.5 -99.5t80.5 -32.5q56 0 81.5 32.5t25.5 99.5v456h164v-463zM477 781h-305v110h305v-110z" />
    <glyph glyph-name="umacron" unicode="&#x16b;" horiz-adv-x="572" 
d="M510 0h-137l-7 67q-58 -84 -161 -84q-73 0 -110.5 44t-37.5 123v381h158v-361q0 -39 12.5 -54.5t38.5 -15.5q50 0 86 62v369h158v-531zM436 655h-305v110h305v-110z" />
    <glyph glyph-name="Ubreve" unicode="&#x16c;" horiz-adv-x="651" 
d="M596 230q0 -71 -30.5 -127t-91.5 -88t-149 -32q-132 0 -201 67t-69 180v463h164v-456q0 -67 25.5 -99.5t80.5 -32.5q56 0 81.5 32.5t25.5 99.5v456h164v-463zM203.5 798q-45.5 47 -51.5 115l87 15q10 -31 31 -49.5t54 -18.5t54 18.5t32 49.5l87 -15q-6 -68 -52 -115
t-121 -47t-120.5 47z" />
    <glyph glyph-name="ubreve" unicode="&#x16d;" horiz-adv-x="572" 
d="M510 0h-137l-7 67q-58 -84 -161 -84q-73 0 -110.5 44t-37.5 123v381h158v-361q0 -39 12.5 -54.5t38.5 -15.5q50 0 86 62v369h158v-531zM162 680.5q-45 48.5 -51 124.5l87 15q19 -78 85 -78q65 0 86 78l87 -15q-6 -75 -51.5 -124t-121.5 -49t-121 48.5z" />
    <glyph glyph-name="Uring" unicode="&#x16e;" horiz-adv-x="651" 
d="M596 230q0 -71 -30.5 -127t-91.5 -88t-149 -32q-132 0 -201 67t-69 180v463h164v-456q0 -67 25.5 -99.5t80.5 -32.5q56 0 81.5 32.5t25.5 99.5v456h164v-463zM426 955q38 -38 38 -93t-38 -93t-101 -38t-101 38t-38 93t38 93t101 38t101 -38zM292 899q-12 -13 -12 -37
t12 -37t33 -13q20 0 32.5 13t12.5 37t-12 37t-33 13t-33 -13z" />
    <glyph glyph-name="uring" unicode="&#x16f;" horiz-adv-x="572" 
d="M510 0h-137l-7 67q-58 -84 -161 -84q-73 0 -110.5 44t-37.5 123v381h158v-361q0 -39 12.5 -54.5t38.5 -15.5q50 0 86 62v369h158v-531zM385 829q38 -38 38 -93t-38 -93t-101 -38t-101 38t-38 93t38 93t101 38t101 -38zM251 773q-12 -13 -12 -37t12 -37t33 -13
q20 0 32.5 13t12.5 37t-12 37t-33 13t-33 -13z" />
    <glyph glyph-name="Uhungarumlaut" unicode="&#x170;" horiz-adv-x="651" 
d="M596 230q0 -71 -30.5 -127t-91.5 -88t-149 -32q-132 0 -201 67t-69 180v463h164v-456q0 -67 25.5 -99.5t80.5 -32.5q56 0 81.5 32.5t25.5 99.5v456h164v-463zM280 986l108 -50l-113 -180l-83 33zM456 986l106 -53l-121 -182l-82 38z" />
    <glyph glyph-name="uhungarumlaut" unicode="&#x171;" horiz-adv-x="572" 
d="M510 0h-137l-7 67q-58 -84 -161 -84q-73 0 -110.5 44t-37.5 123v381h158v-361q0 -39 12.5 -54.5t38.5 -15.5q50 0 86 62v369h158v-531zM235 860l108 -50l-113 -180l-83 33zM411 860l106 -53l-121 -182l-82 38z" />
    <glyph glyph-name="Uogonek" unicode="&#x172;" horiz-adv-x="651" 
d="M596 693v-463q0 -83 -41 -144t-119 -87q-116 -44 -116 -101q0 -46 53 -46q24 0 61 8l-11 -98q-34 -8 -70 -8q-65 0 -106 32t-41 85q0 73 84 113q-115 10 -175 75.5t-60 170.5v463h164v-456q0 -67 25.5 -99.5t80.5 -32.5q56 0 81.5 32.5t25.5 99.5v456h164z" />
    <glyph glyph-name="uogonek" unicode="&#x173;" horiz-adv-x="572" 
d="M392 -102q0 -46 53 -46q24 0 61 8l-11 -98q-35 -8 -70 -8q-65 0 -106 32t-41 85q0 85 94 136l-6 60q-58 -84 -161 -84q-73 0 -110.5 44t-37.5 123v381h158v-361q0 -39 12.5 -54.5t38.5 -15.5q50 0 86 62v369h158v-531q-118 -44 -118 -102z" />
    <glyph glyph-name="Wcircumflex" unicode="&#x174;" horiz-adv-x="847" 
d="M837 693l-116 -693h-213l-86 529l-91 -529h-208l-114 693h164l69 -569l96 569h172l90 -569l81 569h156zM292 755l-57 65l142 129h96l141 -129l-56 -65l-133 84z" />
    <glyph glyph-name="wcircumflex" unicode="&#x175;" horiz-adv-x="749" 
d="M744 531l-110 -531h-189l-71 390l-70 -390h-187l-113 531h160l55 -413l83 413h154l73 -413l64 413h151zM241 620l-56 65l141 137h97l141 -137l-56 -65l-133 92z" />
    <glyph glyph-name="Ycircumflex" unicode="&#x176;" horiz-adv-x="594" 
d="M601 693l-222 -433v-260h-164v259l-222 434h179l128 -305l128 305h173zM164 755l-57 65l142 129h96l141 -129l-56 -65l-133 84z" />
    <glyph glyph-name="ycircumflex" unicode="&#x177;" horiz-adv-x="518" 
d="M355 -1q-32 -103 -104.5 -158.5t-194.5 -62.5l-17 111q76 10 112.5 34t58.5 77h-54l-162 531h168l95 -430l104 430h163zM125 620l-56 65l141 137h97l141 -137l-56 -65l-133 92z" />
    <glyph glyph-name="Ydieresis" unicode="&#x178;" horiz-adv-x="594" 
d="M601 693l-222 -433v-260h-164v259l-222 434h179l128 -305l128 305h173zM237.5 902q23.5 -23 23.5 -56t-23.5 -56t-57.5 -23t-57.5 23t-23.5 56t23.5 56t57.5 23t57.5 -23zM469 902q23 -23 23 -56t-23 -56t-58 -23q-33 0 -56.5 23t-23.5 56t23.5 56t56.5 23q35 0 58 -23z
" />
    <glyph glyph-name="Zacute" unicode="&#x179;" horiz-adv-x="544" 
d="M512 693v-124l-301 -438h306l-16 -131h-483v123l307 443h-276v127h463zM357 956l59 -118l-240 -87l-40 80z" />
    <glyph glyph-name="zacute" unicode="&#x17a;" horiz-adv-x="459" 
d="M436 531v-111l-240 -300h245l-14 -120h-414v112l241 300h-220v119h402zM305 835l62 -118l-236 -95l-44 81z" />
    <glyph glyph-name="Zdotaccent" unicode="&#x17b;" horiz-adv-x="544" 
d="M512 693v-124l-301 -438h306l-16 -131h-483v123l307 443h-276v127h463zM342.5 911.5q26.5 -25.5 26.5 -64.5t-26.5 -64.5t-67.5 -25.5t-67 25.5t-26 64.5t26 64.5t67 25.5t67.5 -25.5z" />
    <glyph glyph-name="zdotaccent" unicode="&#x17c;" horiz-adv-x="459" 
d="M436 531v-111l-240 -300h245l-14 -120h-414v112l241 300h-220v119h402zM299.5 785.5q26.5 -25.5 26.5 -64.5t-26.5 -64.5t-67.5 -25.5t-67 25.5t-26 64.5t26 64.5t67 25.5t67.5 -25.5z" />
    <glyph glyph-name="Zcaron" unicode="&#x17d;" horiz-adv-x="544" 
d="M512 693v-124l-301 -438h306l-16 -131h-483v123l307 443h-276v127h463zM409 944l56 -65l-141 -129h-96l-142 129l57 65l133 -84z" />
    <glyph glyph-name="zcaron" unicode="&#x17e;" horiz-adv-x="459" 
d="M436 531v-111l-240 -300h245l-14 -120h-414v112l241 300h-220v119h402zM366 813l56 -65l-141 -137h-96l-142 137l57 65l133 -91z" />
    <glyph glyph-name="longs" unicode="&#x17f;" horiz-adv-x="356" 
d="M431 725l-43 -103q-40 20 -83 20q-34 0 -49 -16t-15 -54v-572h-158v421h-80v110h80v47q0 80 52.5 130.5t150.5 50.5q79 0 145 -34z" />
    <glyph glyph-name="uni0180" unicode="&#x180;" horiz-adv-x="606" 
d="M517 473.5q51 -74.5 51 -208.5q0 -82 -25.5 -146t-73 -100t-112.5 -36q-43 0 -78.5 18t-60.5 50l-8 -51h-140v596h-62v92h62v54l158 17v-71h132v-92h-132v-119q24 33 61.5 52t81.5 19q95 0 146 -74.5zM404 265q0 95 -22 131t-64 36q-53 0 -90 -62v-221q15 -24 36.5 -37.5
t46.5 -13.5q93 0 93 167z" />
    <glyph glyph-name="uni0181" unicode="&#x181;" horiz-adv-x="758" 
d="M688.5 316q43.5 -38 43.5 -114q0 -111 -79.5 -156.5t-222.5 -45.5h-223v576h-29q-22 0 -34 -11t-12 -31q0 -26 17 -65l-101 -45q-20 30 -32 59t-12 61q0 69 49.5 109t133.5 40h216q146 0 223 -41.5t77 -135.5q0 -61 -36.5 -98.5t-90.5 -50.5q69 -13 112.5 -51zM371 577
v-161h61q104 0 104 84q0 42 -28 59.5t-89 17.5h-48zM529.5 138.5q33.5 19.5 33.5 72.5q0 96 -120 96h-72v-188h60q65 0 98.5 19.5z" />
    <glyph glyph-name="uni0182" unicode="&#x182;" horiz-adv-x="596" 
d="M506.5 391q71.5 -55 71.5 -162q0 -113 -74 -171t-198 -58h-241v693h432l-17 -124h-251v-123h74q132 0 203.5 -55zM407 227q0 105 -118 105h-60v-213h63q115 0 115 108z" />
    <glyph glyph-name="uni0183" unicode="&#x183;" horiz-adv-x="597" 
d="M508.5 463q51.5 -73 51.5 -204q0 -79 -25.5 -142t-73 -98.5t-112.5 -35.5q-43 0 -78.5 18t-60.5 50l-8 -51h-140v742h376l-17 -113h-201v-164q24 32 62 51.5t78 19.5q97 0 148.5 -73zM396 259q0 90 -22 125.5t-63 35.5q-54 0 -91 -62v-209q15 -24 37 -37.5t47 -13.5
q92 0 92 161z" />
    <glyph glyph-name="uni0184" unicode="&#x184;" horiz-adv-x="615" 
d="M528 401.5q72 -55.5 72 -166.5q0 -117 -74 -176t-198 -59h-242v492l-75 50q60 62 101 151h138v-236h74q132 0 204 -55.5zM428 233q0 56 -29 83t-89 27h-60v-224h64q114 0 114 114z" />
    <glyph glyph-name="uni0185" unicode="&#x185;" horiz-adv-x="541" 
d="M464.5 319.5q59.5 -46.5 59.5 -137.5q0 -89 -62 -135.5t-163 -46.5h-219v339l-75 51q60 61 101 141h132v-165h38q129 0 188.5 -46.5zM363 185q0 41 -20 60.5t-69 19.5h-36v-161h44q81 0 81 81z" />
    <glyph glyph-name="uni0186" unicode="&#x186;" horiz-adv-x="575" 
d="M399.5 667.5q67.5 -42.5 105 -124t37.5 -195.5q0 -116 -39 -198.5t-110 -124.5t-165 -42q-69 0 -124 25t-96 64l73 93q37 -27 68 -41t71 -14q71 0 110.5 57t39.5 181q0 241 -138 241q-39 0 -71.5 -12.5t-65.5 -37.5l-79 95q47 38 101.5 57t124.5 19q90 0 157.5 -42.5z
" />
    <glyph glyph-name="uni0187" unicode="&#x187;" horiz-adv-x="575" 
d="M725 814l-46 -98q-19 10 -34.5 14.5t-33.5 4.5q-52 0 -52 -62v-39l-70 -84q-32 19 -64 29t-70 10q-69 0 -109.5 -59.5t-40.5 -181.5q0 -121 40.5 -179.5t112.5 -58.5q37 0 67.5 15t67.5 43l74 -96q-38 -38 -94 -63.5t-123 -25.5q-96 0 -167 42t-110.5 124.5t-39.5 198.5
q0 112 40 194t108 125t148 43q51 0 91 -16q4 75 46.5 116t123.5 41q76 0 135 -37z" />
    <glyph glyph-name="uni0188" unicode="&#x188;" horiz-adv-x="479" 
d="M639 721l-46 -98q-19 10 -34.5 14.5t-33.5 4.5q-26 0 -38.5 -14.5t-12.5 -46.5v-98l-59 -82q-50 26 -108 26q-54 0 -81.5 -39t-27.5 -126q0 -84 27 -119t78 -35q27 0 49 8.5t53 27.5l69 -98q-79 -63 -179 -63q-81 0 -140 34.5t-91 97t-32 146.5q0 83 31 148.5t86 102
t124 36.5q34 0 61 -9v49q0 82 43 126.5t127 44.5q76 0 135 -38z" />
    <glyph glyph-name="uni0189" unicode="&#x189;" horiz-adv-x="665" 
d="M533.5 619.5q98.5 -73.5 98.5 -269.5q0 -193 -96 -271.5t-249 -78.5h-208v304h-65v98h65v291h193q163 0 261.5 -73.5zM420 169.5q42 50.5 42 180.5q0 89 -21 138t-57 67.5t-89 18.5h-52v-172h134v-98h-134v-185h54q81 0 123 50.5z" />
    <glyph glyph-name="uni018A" unicode="&#x18a;" horiz-adv-x="793" 
d="M661.5 619.5q98.5 -73.5 98.5 -269.5q0 -193 -96 -271.5t-249 -78.5h-208v576h-29q-22 0 -34 -11t-12 -31q0 -26 17 -65l-101 -45q-20 30 -32 59t-12 61q0 69 49.5 109t133.5 40h213q163 0 261.5 -73.5zM548 169.5q42 50.5 42 180.5q0 89 -21 138t-57 67.5t-89 18.5h-52
v-455h54q81 0 123 50.5z" />
    <glyph glyph-name="uni018B" unicode="&#x18b;" horiz-adv-x="596" 
d="M531 0h-247q-122 0 -194 55.5t-72 167.5q0 107 72.5 165t202.5 58h74v123h-262v124h426v-693zM367 119v213h-60q-118 0 -118 -109q0 -104 114 -104h64z" />
    <glyph glyph-name="uni018C" unicode="&#x18c;" horiz-adv-x="600" 
d="M538 0h-140l-8 62q-56 -79 -151 -79q-99 0 -150.5 74.5t-51.5 202.5q0 79 26.5 142t76.5 98.5t117 35.5q36 0 67.5 -13.5t55.5 -37.5v144h-209v113h367v-742zM380 159v217q-19 23 -38 34t-44 11q-45 0 -71 -40t-26 -121q0 -89 23 -125t65 -36q54 0 91 60z" />
    <glyph glyph-name="uni018D" unicode="&#x18d;" horiz-adv-x="577" 
d="M470.5 9q20.5 -33 20.5 -77q0 -67 -54 -111t-160 -44q-112 0 -191 61l72 84q26 -18 51.5 -26.5t56.5 -8.5q38 0 56 13t18 35q0 17 -7 28.5t-28.5 23.5t-65.5 30q-109 45 -158 105t-49 161q0 79 31.5 139t89.5 93t136 33q119 0 187.5 -68.5t68.5 -189.5q0 -72 -39 -126.5
t-114 -89.5q58 -32 78.5 -65zM205 207q9 -28 33 -49.5t73 -45.5q39 33 55.5 73.5t16.5 98.5q0 76 -23 112t-71 36q-46 0 -69.5 -36.5t-23.5 -112.5q0 -48 9 -76z" />
    <glyph glyph-name="uni018E" unicode="&#x18e;" horiz-adv-x="526" 
d="M41 693h420v-693h-425v118h261v177h-213v115h213v166h-256v117z" />
    <glyph glyph-name="uni018F" unicode="&#x18f;" horiz-adv-x="640" 
d="M528.5 619q77.5 -91 77.5 -267q0 -180 -78.5 -274.5t-215.5 -94.5q-145 0 -217 93.5t-72 261.5q0 37 6 67h411q-4 95 -41 140t-105 45q-47 0 -84 -15t-74 -42l-74 89q52 44 112 66t135 22q142 0 219.5 -91zM404.5 147q32.5 44 36.5 145h-260q1 -189 130 -189
q61 0 93.5 44z" />
    <glyph glyph-name="uni0190" unicode="&#x190;" horiz-adv-x="541" 
d="M417.5 687q56.5 -23 105.5 -69l-79 -83q-63 56 -134 56q-49 0 -71.5 -22t-22.5 -59q0 -41 27 -63.5t76 -22.5h76l-20 -118h-53q-62 0 -93 -26.5t-31 -74.5t31 -74.5t86 -26.5q41 0 74.5 15t66.5 47l87 -86q-91 -97 -244 -97q-79 0 -141 26t-97 74.5t-35 111.5
q0 76 46.5 120t129.5 53q-76 15 -115.5 57t-39.5 103q0 52 30.5 93.5t85.5 65t128 23.5q70 0 126.5 -23z" />
    <glyph glyph-name="uni0191" unicode="&#x191;" horiz-adv-x="487" 
d="M229 576v-184h202v-117h-202v-306q0 -94 -54 -142.5t-147 -48.5q-84 0 -141 43l54 97q22 -11 36 -16t34 -5q26 0 40 15.5t14 45.5v735h413l-17 -117h-232z" />
    <glyph glyph-name="florin" unicode="&#x192;" horiz-adv-x="372" 
d="M261 626q-15 -16 -15 -54v-41h126l-18 -110h-108v-361q0 -83 -26.5 -137t-72 -86.5t-114.5 -57.5l-53 115q39 18 61 35t34.5 45.5t12.5 75.5v371h-81v110h81v47q0 80 52.5 130.5t150.5 50.5q84 0 155 -34l-43 -103q-45 20 -87 20q-40 0 -55 -16z" />
    <glyph glyph-name="uni0193" unicode="&#x193;" horiz-adv-x="612" 
d="M762 814l-46 -98q-19 10 -34.5 14.5t-33.5 4.5q-52 0 -52 -62v-48l-77 -80q-38 23 -72.5 34.5t-74.5 11.5q-77 0 -123 -60.5t-46 -183.5q0 -133 35 -188.5t109 -55.5q52 0 94 23v157h-90l-16 116h265v-343q-54 -35 -119 -54t-133 -19q-156 0 -235.5 92.5t-79.5 271.5
q0 113 43 195.5t115 125t155 42.5q63 0 111 -21q2 77 45 119.5t125 42.5q78 0 135 -37z" />
    <glyph glyph-name="uni0194" unicode="&#x194;" horiz-adv-x="570" 
d="M372 92q35 -57 50.5 -100.5t15.5 -88.5q0 -58 -36.5 -91.5t-114.5 -33.5q-76 0 -113.5 33t-37.5 91q0 41 15.5 83t52.5 107l-217 601h173l128 -494l127 494h168zM309 -48.5q-7 20.5 -22 54.5q-29 -63 -29 -93q0 -16 7.5 -24t21.5 -8t21.5 8.5t7.5 23.5q0 18 -7 38.5z" />
    <glyph glyph-name="uni0195" unicode="&#x195;" horiz-adv-x="870" 
d="M820.5 391q7.5 -67 7.5 -143q0 -90 -37 -149.5t-96 -87.5t-126 -28q-90 0 -148.5 49.5t-58.5 147.5v181q0 40 -13 55.5t-37 15.5q-48 0 -92 -68v-364h-158v742l158 16v-284q33 37 70 55.5t83 18.5q69 0 108 -42t39 -118v-205q0 -84 60 -84q38 0 64 38.5t26 123.5
q0 122 -27 270h156q14 -73 21.5 -140z" />
    <glyph glyph-name="uni0196" unicode="&#x196;" horiz-adv-x="391" 
d="M396 26q-57 -43 -141 -43q-93 0 -147 48.5t-54 142.5v32h1v487h164v-488h-1v-42q0 -30 14 -45.5t40 -15.5q20 0 34 5t36 16z" />
    <glyph glyph-name="uni0197" unicode="&#x197;" horiz-adv-x="330" 
d="M324 420v-120h-77v-300h-164v300h-78v120h78v273h164v-273h77z" />
    <glyph glyph-name="uni0198" unicode="&#x198;" horiz-adv-x="653" 
d="M234 370l139 221q40 66 79 92.5t101 26.5t113 -37l-44 -94q-22 14 -46 14q-21 0 -35.5 -10t-34.5 -42l-101 -159l240 -382h-190zM229 693v-693h-164v693h164z" />
    <glyph glyph-name="uni0199" unicode="&#x199;" horiz-adv-x="552" 
d="M235 626q-15 -16 -15 -54v-572h-158v578q0 80 52.5 130.5t150.5 50.5q79 0 145 -34l-43 -101q-42 18 -83 18q-34 0 -49 -16zM387 298l174 -298h-178l-158 290l162 241h161z" />
    <glyph glyph-name="uni019A" unicode="&#x19a;" horiz-adv-x="336" 
d="M329 1q-43 -18 -96 -18q-69 0 -107.5 39.5t-38.5 112.5v182h-82v110h82v315l158 17v-332h79v-110h-79v-176q0 -33 27 -33q14 0 26 5z" />
    <glyph glyph-name="uni019B" unicode="&#x19b;" horiz-adv-x="529" 
d="M463 191.5q32 -88.5 84 -158.5l-152 -50q-48 78 -77 163t-57 235l-97 -398l-156 36l158 470h78q-13 51 -26 79l-57 -48l-86 52l73 64q-32 12 -86 20l19 102q53 -8 91.5 -19t69.5 -29l72 60l65 -74l-64 -52q46 -65 75 -187q41 -177 73 -265.5z" />
    <glyph glyph-name="uni019C" unicode="&#x19c;" horiz-adv-x="915" 
d="M850 693v-693h-143l-12 64q-35 -42 -72.5 -61.5t-84.5 -19.5q-52 0 -89.5 24t-57.5 68q-41 -49 -80 -70.5t-89 -21.5q-78 0 -122.5 53.5t-44.5 140.5v516h164v-508q0 -38 15 -59t43 -21q24 0 45 16.5t48 50.5v5v516h165v-508q0 -38 15 -59t42 -21q28 0 49 16t45 52v520
h164z" />
    <glyph glyph-name="uni019D" unicode="&#x19d;" horiz-adv-x="663" 
d="M599 693v-693h-209l-200 537q10 -79 15.5 -139.5t5.5 -143.5v-286q0 -93 -50 -141.5t-136 -48.5q-84 0 -141 43l54 94q21 -12 35.5 -17t34.5 -5q27 0 42 15.5t15 45.5v739h204l205 -538q-22 137 -22 258v280h147z" />
    <glyph glyph-name="uni019E" unicode="&#x19e;" horiz-adv-x="577" 
d="M481 506q39 -42 39 -118v-610l-158 17v566q0 40 -12.5 55.5t-37.5 15.5q-48 0 -92 -69v-363h-158v531h138l11 -63q34 40 73.5 60t88.5 20q69 0 108 -42z" />
    <glyph glyph-name="uni019F" unicode="&#x19f;" horiz-adv-x="691" 
d="M575.5 615q82.5 -95 82.5 -268q0 -113 -37.5 -195t-108 -125.5t-167.5 -43.5t-167 43t-107.5 124.5t-37.5 196.5q0 112 37.5 194t107.5 125.5t167 43.5q148 0 230.5 -95zM245 544q-36 -46 -43 -147h287q-7 101 -43 147t-101 46q-64 0 -100 -46zM447.5 151
q36.5 48 42.5 154h-289q11 -202 144 -202q66 0 102.5 48z" />
    <glyph glyph-name="Ohorn" unicode="&#x1a0;" horiz-adv-x="715" 
d="M686.5 603.5q-26.5 -30.5 -75.5 -40.5q47 -86 47 -216q0 -113 -37.5 -195t-108 -125.5t-167.5 -43.5t-167 43t-107.5 124.5t-37.5 196.5q0 112 37.5 194t107.5 125.5t167 43.5q131 0 212 -76q26 3 37 16.5t11 39.5q0 20 -3 34.5t-10 33.5l102 15q19 -36 19 -88
q0 -51 -26.5 -81.5zM451.5 160.5q34.5 57.5 34.5 186.5t-35 186t-106 57t-105.5 -57.5t-34.5 -185.5t35 -186t105 -58q72 0 106.5 57.5z" />
    <glyph glyph-name="ohorn" unicode="&#x1a1;" horiz-adv-x="625" 
d="M608 438q-28 -31 -79 -39q23 -58 23 -134q0 -85 -31.5 -148.5t-90 -98.5t-138.5 -35q-121 0 -190.5 74.5t-69.5 208.5q0 85 31.5 148.5t90 98.5t138.5 35q122 0 192 -76q24 4 34 17t10 38q0 20 -3 34t-10 33l102 15q19 -36 19 -88t-28 -83zM364 139.5q24 40.5 24 125.5
q0 87 -23.5 127t-72.5 40q-48 0 -72 -40.5t-24 -125.5q0 -87 23.5 -127t72.5 -40q48 0 72 40.5z" />
    <glyph glyph-name="uni01A2" unicode="&#x1a2;" horiz-adv-x="960" 
d="M842 662q54 -49 54 -143v-729h-164v735q0 71 -60 71q-34 0 -73 -17q59 -92 59 -232q0 -113 -37.5 -195t-108 -125.5t-167.5 -43.5t-167 43t-107.5 124.5t-37.5 196.5q0 112 37.5 194t107.5 125.5t167 43.5q105 0 179 -53q39 27 79.5 40.5t88.5 13.5q96 0 150 -49z
M451.5 160.5q34.5 57.5 34.5 186.5t-35 186t-106 57t-105.5 -57.5t-34.5 -185.5t35 -186t105 -58q72 0 106.5 57.5z" />
    <glyph glyph-name="uni01A3" unicode="&#x1a3;" horiz-adv-x="829" 
d="M716 499q51 -49 51 -142v-579l-158 17v574q0 34 -14 49t-43 15q-16 0 -39 -5q39 -69 39 -163q0 -85 -31.5 -148.5t-90 -98.5t-138.5 -35q-121 0 -190.5 74.5t-69.5 208.5q0 85 31.5 148.5t90 98.5t138.5 35t140 -37q34 19 67.5 28t75.5 9q90 0 141 -49zM364 139.5
q24 40.5 24 125.5q0 87 -23.5 127t-72.5 40q-48 0 -72 -40.5t-24 -125.5q0 -87 23.5 -127t72.5 -40q48 0 72 40.5z" />
    <glyph glyph-name="uni01A4" unicode="&#x1a4;" horiz-adv-x="741" 
d="M644 636q76 -57 76 -169q0 -117 -74.5 -176.5t-199.5 -59.5h-75v-231h-164v576h-29q-22 0 -34 -11t-12 -31q0 -26 17 -65l-101 -45q-20 30 -32 59t-12 61q0 69 49.5 109t133.5 40h244q137 0 213 -57zM520.5 376.5q30.5 27.5 30.5 90.5q0 109 -122 109h-58v-227h61
q58 0 88.5 27.5z" />
    <glyph glyph-name="uni01A5" unicode="&#x1a5;" horiz-adv-x="597" 
d="M510.5 474.5q49.5 -73.5 49.5 -207.5q0 -82 -25.5 -146.5t-73.5 -101t-112 -36.5q-80 0 -129 55v-243l-158 -17v800q0 80 52.5 130.5t150.5 50.5q79 0 145 -34l-43 -101q-42 18 -83 18q-34 0 -49 -16t-15 -54v-92q30 35 66 51.5t73 16.5q102 0 151.5 -73.5zM396 265
q0 94 -21.5 130.5t-65.5 36.5q-26 0 -48.5 -16t-40.5 -46v-224q32 -47 81 -47q95 0 95 166z" />
    <glyph glyph-name="uni01A6" unicode="&#x1a6;" horiz-adv-x="617" 
d="M293 150h-64v-150h-164v693h164v-114h63q142 0 213.5 -52t71.5 -159q0 -68 -32 -112t-101 -76l176 -295h-185zM229 264h69q55 0 82.5 25t27.5 79q0 49 -29.5 72t-90.5 23h-59v-199z" />
    <glyph glyph-name="uni01A7" unicode="&#x1a7;" horiz-adv-x="563" 
d="M420 686q56 -24 86.5 -68.5t30.5 -103.5q0 -79 -50.5 -127.5t-164.5 -84.5q-73 -22 -100 -47.5t-27 -64.5q0 -41 27.5 -62.5t75.5 -21.5q91 0 173 67l82 -91q-48 -45 -115 -72t-151 -27q-79 0 -138.5 27.5t-92 76.5t-32.5 112q0 87 51 136.5t155 82.5q55 18 84 32.5
t41 31.5t12 41q0 33 -23 50t-64 17q-45 0 -82.5 -14t-74.5 -43l-77 88q101 89 246 89q72 0 128 -24z" />
    <glyph glyph-name="uni01A8" unicode="&#x1a8;" horiz-adv-x="474" 
d="M355.5 527q46.5 -21 71 -58t24.5 -83q0 -64 -39 -100t-121 -60q-46 -13 -69 -24.5t-31 -23.5t-8 -30q0 -25 18.5 -38.5t50.5 -13.5q71 0 139 51l76 -85q-40 -37 -97 -58t-124 -21q-64 0 -115.5 21t-81.5 60t-30 91q0 68 41 105.5t126 61.5q45 13 68 23.5t30.5 21.5
t7.5 27q0 19 -15.5 30t-46.5 11q-67 0 -133 -40l-58 88q91 65 207 65q63 0 109.5 -21z" />
    <glyph glyph-name="uni01A9" unicode="&#x1a9;" horiz-adv-x="503" 
d="M482 693v-119h-280l168 -200v-65l-169 -187h281v-122h-461v119l192 221l-192 234v119h461z" />
    <glyph glyph-name="uni01AA" unicode="&#x1aa;" horiz-adv-x="403" 
d="M521 -179q-57 -43 -142 -43q-90 0 -143 49t-53 142v460q-31 -11 -62 -11q-70 0 -114 46.5t-44 122.5t50 124t134 48q91 0 142.5 -50.5t51.5 -135.5v-619q0 -30 15 -45.5t42 -15.5q20 0 34 4.5t36 15.5zM183 532v64q0 53 -41 53q-42 0 -42 -59q0 -63 50 -63q15 0 33 5z
" />
    <glyph glyph-name="uni01AB" unicode="&#x1ab;" horiz-adv-x="386" 
d="M395 25v-56q0 -94 -50.5 -142t-142.5 -48q-87 0 -145 42l53 94q21 -11 39 -16t43 -5q65 0 65 61v29q-3 -1 -10 -1q-84 1 -127 49.5t-43 142.5v246h-75v110h75v115l158 18v-133h122l-17 -110h-105v-255q0 -35 13 -50.5t42 -15.5q24 0 60 10z" />
    <glyph glyph-name="uni01AC" unicode="&#x1ac;" horiz-adv-x="595" 
d="M577 567h-170v-567h-164v567h-64q-22 0 -34 -10.5t-12 -29.5q0 -15 4 -27.5t12 -29.5l-108 -46q-37 62 -37 119q0 70 50.5 110t139.5 40h400z" />
    <glyph glyph-name="uni01AD" unicode="&#x1ad;" horiz-adv-x="386" 
d="M395 25q-29 -20 -67.5 -31t-76.5 -11q-174 1 -174 192v246h-75v110h75v45q0 83 48 133t137 50q73 0 132 -38l-46 -92q-19 10 -34 15t-31 5q-48 0 -48 -62v-56h122l-17 -110h-105v-244q0 -37 12 -53t38 -16q28 0 57 18z" />
    <glyph glyph-name="uni01AE" unicode="&#x1ae;" horiz-adv-x="542" 
d="M440 -98q14 5 36 16l54 -97q-57 -43 -141 -43q-93 0 -147 48.5t-54 142.5v598h-179v126h530l-16 -126h-171v-609q0 -30 14 -45.5t40 -15.5q20 0 34 5z" />
    <glyph glyph-name="Uhorn" unicode="&#x1af;" horiz-adv-x="725" 
d="M745 685q0 -62 -39.5 -94t-109.5 -33v-328q0 -71 -30.5 -127t-91.5 -88t-149 -32q-132 0 -201 67t-69 180v463h164v-456q0 -67 25.5 -99.5t80.5 -32.5q56 0 81.5 32.5t25.5 99.5v456h164v-58q22 4 31.5 17.5t9.5 37.5q0 20 -3 34.5t-10 33.5l102 15q19 -36 19 -88z" />
    <glyph glyph-name="uhorn" unicode="&#x1b0;" horiz-adv-x="643" 
d="M659 521q0 -62 -39 -93.5t-110 -32.5v-395h-137l-7 67q-58 -84 -161 -84q-73 0 -110.5 44t-37.5 123v381h158v-361q0 -39 12.5 -54.5t38.5 -15.5q50 0 86 62v369h158v-58q22 4 31.5 17t9.5 37q0 20 -3 34t-10 33l102 15q19 -36 19 -88z" />
    <glyph glyph-name="uni01B1" unicode="&#x1b1;" horiz-adv-x="691" 
d="M178.5 24.5q-70.5 41.5 -108 113.5t-37.5 164q0 98 34.5 163.5t97.5 110.5h-110v117h235v-111q-45 -50 -65 -112t-20 -168q0 -98 35 -148.5t105 -50.5q69 0 105 50.5t36 148.5q0 104 -21 166t-64 114v111h236v-117h-111q63 -42 97.5 -108t34.5 -166q0 -90 -38 -163
t-109 -114.5t-166 -41.5q-96 0 -166.5 41.5z" />
    <glyph glyph-name="uni01B2" unicode="&#x1b2;" horiz-adv-x="651" 
d="M596 544v-252q0 -96 -36 -165.5t-102 -106.5t-153 -37q-77 0 -133.5 29.5t-86.5 82t-30 119.5v479h164v-478q0 -52 23 -81t67 -29q58 0 90.5 45t32.5 140v262q0 21 -7 30t-24 9q-14 0 -27 -5l-26 107q42 17 96 17q152 0 152 -166z" />
    <glyph glyph-name="uni01B3" unicode="&#x1b3;" horiz-adv-x="633" 
d="M215 259l-222 434h179l128 -305l70 178q29 78 70.5 111t111.5 33q66 0 120 -37l-45 -94q-28 16 -54 16q-23 0 -37.5 -12t-28.5 -43l-128 -280v-260h-164v259z" />
    <glyph glyph-name="uni01B4" unicode="&#x1b4;" horiz-adv-x="525" 
d="M39 -111q76 10 112.5 34t58.5 77h-54l-162 531h168l95 -430l72 336q15 77 49 112t100 35q43 0 83 -15l-27 -105q-13 5 -27 5q-17 0 -27 -9t-16 -32l-98 -402q-29 -122 -105.5 -181.5t-204.5 -66.5z" />
    <glyph glyph-name="uni01B5" unicode="&#x1b5;" horiz-adv-x="544" 
d="M197 131h320l-16 -131h-483v116l128 179h-81v104h155l119 167h-290v127h463v-118l-125 -176h80v-104h-154z" />
    <glyph glyph-name="uni01B6" unicode="&#x1b6;" horiz-adv-x="459" 
d="M188 114h253l-14 -114h-414v106l95 119h-68v95h144l78 98h-228v113h402v-105l-84 -106h59v-95h-135z" />
    <glyph glyph-name="uni01B7" unicode="&#x1b7;" horiz-adv-x="547" 
d="M465 347q55 -52 55 -142q0 -63 -33 -113.5t-95.5 -79.5t-148.5 -29q-81 0 -139 26t-100 76l84 82q35 -33 68.5 -47.5t78.5 -14.5q55 0 85.5 28t30.5 79q0 96 -125 96h-99v92l177 174h-261v119h442v-115l-178 -175q103 -4 158 -56z" />
    <glyph glyph-name="uni01B8" unicode="&#x1b8;" horiz-adv-x="547" 
d="M543 85q-44 -50 -103.5 -76t-143.5 -26q-82 0 -143.5 28.5t-94 78t-32.5 113.5q0 87 57.5 141.5t156.5 58.5l-178 175v115h441v-119h-258l175 -176v-90h-100q-61 0 -92.5 -26.5t-31.5 -76.5q0 -47 29 -73.5t80 -26.5q48 0 83.5 14.5t69.5 47.5z" />
    <glyph glyph-name="uni01B9" unicode="&#x1b9;" horiz-adv-x="510" 
d="M522 -119q-42 -50 -100 -76.5t-138 -26.5q-81 0 -141.5 29.5t-92.5 80.5t-32 115q0 95 56.5 149t159.5 60l-184 211v108h432v-118h-256l173 -204v-89h-93q-63 0 -94 -26.5t-31 -81.5t30.5 -84t82.5 -29q42 0 76 14t71 47z" />
    <glyph glyph-name="uni01BA" unicode="&#x1ba;" horiz-adv-x="509" 
d="M69 -160.5q-42 38.5 -42 90.5q0 55 42 87t130 48q68 12 96.5 27.5t28.5 46.5q0 26 -19.5 37.5t-60.5 11.5h-132v86l157 145h-247v112h431v-102l-172 -149h26q84 0 132 -39t48 -107q0 -77 -53.5 -117t-145.5 -55q-69 -12 -91.5 -22.5t-22.5 -27.5q0 -13 12.5 -24t38.5 -23
l-38 -87q-76 23 -118 61.5z" />
    <glyph glyph-name="uni01BB" unicode="&#x1bb;" horiz-adv-x="517" 
d="M485 121l-16 -121h-440v112q76 74 128 128h-96v104h189q33 42 46 73t13 64q0 41 -23.5 64.5t-63.5 23.5q-36 0 -64 -16.5t-59 -53.5l-93 74q42 55 100.5 86t131.5 31t125.5 -26t80 -70t27.5 -97q0 -40 -11.5 -76t-39.5 -77h56v-104h-144q-46 -49 -124 -119h277z" />
    <glyph glyph-name="uni01BC" unicode="&#x1bc;" horiz-adv-x="543" 
d="M461 580h-251v-150q49 24 106 24q56 0 100 -26.5t69 -77.5t25 -122q0 -74 -33 -129t-93.5 -85.5t-142.5 -30.5q-72 0 -129 27.5t-99 74.5l88 82q55 -65 135 -65q53 0 82.5 32t29.5 94q0 118 -95 118q-21 0 -41 -5.5t-46 -18.5h-108v371h421z" />
    <glyph glyph-name="uni01BD" unicode="&#x1bd;" horiz-adv-x="479" 
d="M397 416h-197v-83q33 15 82 15q47 0 85.5 -20.5t61.5 -60t23 -93.5q0 -57 -29 -100t-82 -67t-121 -24q-67 0 -114 20.5t-88 60.5l79 85q36 -27 60 -37.5t58 -10.5q37 0 58 19.5t21 54.5q0 34 -17.5 50.5t-45.5 16.5q-19 0 -34 -3.5t-34 -10.5h-103v303h359z" />
    <glyph glyph-name="uni01BE" unicode="&#x1be;" horiz-adv-x="512" 
d="M480 222q0 -71 -31 -125.5t-87 -84t-130 -29.5q-68 0 -123.5 23t-103.5 69l78 80q32 -28 62.5 -41.5t65.5 -13.5q51 0 79 32t28 91q0 64 -29 101t-92 53l-56 12v140h-70v93h70v120l158 16v-136h97v-93h-97v-89l32 -7q149 -45 149 -211z" />
    <glyph glyph-name="uni01BF" unicode="&#x1bf;" horiz-adv-x="592" 
d="M472 524q41 -24 64.5 -68t23.5 -104q0 -86 -34 -146t-92 -101.5t-149 -86.5l-65 -33v-190l-158 -17v753h139l9 -64q66 81 169 81q52 0 93 -24zM361 222.5q35 54.5 35 127.5q0 84 -70 84q-58 0 -106 -51v-283l38 24q68 44 103 98.5z" />
    <glyph glyph-name="uni01C0" unicode="&#x1c0;" horiz-adv-x="266" 
d="M202 756v-756h-137v742z" />
    <glyph glyph-name="uni01C1" unicode="&#x1c1;" horiz-adv-x="469" 
d="M202 756v-756h-137v742zM405 756v-756h-137v742z" />
    <glyph glyph-name="uni01C2" unicode="&#x1c2;" horiz-adv-x="330" 
d="M324 397h-90v-59h90v-90h-90v-248h-137v248h-92v90h92v59h-92v90h92v255l137 14v-269h90v-90z" />
    <glyph glyph-name="uni01C3" unicode="&#x1c3;" horiz-adv-x="310" 
d="M223 756v-521h-137v507zM218.5 137.5q26.5 -26.5 26.5 -63.5q0 -38 -26.5 -64.5t-63.5 -26.5q-38 0 -64 26.5t-26 64.5q0 37 26 63.5t64 26.5q37 0 63.5 -26.5z" />
    <glyph glyph-name="uni01C4" unicode="&#x1c4;" horiz-adv-x="1170" 
d="M519.5 619.5q98.5 -73.5 98.5 -269.5q0 -193 -96 -271.5t-249 -78.5h-208v693h193q163 0 261.5 -73.5zM229 574v-455h54q81 0 123 50.5t42 180.5q0 89 -21 138t-57 67.5t-89 18.5h-52zM1138 693v-124l-301 -438h306l-16 -131h-483v123l307 443h-276v127h463zM1035 944
l56 -65l-141 -129h-96l-142 129l57 65l133 -84z" />
    <glyph glyph-name="uni01C5" unicode="&#x1c5;" horiz-adv-x="1100" 
d="M519.5 619.5q98.5 -73.5 98.5 -269.5q0 -193 -96 -271.5t-249 -78.5h-208v693h193q163 0 261.5 -73.5zM229 574v-455h54q81 0 123 50.5t42 180.5q0 89 -21 138t-57 67.5t-89 18.5h-52zM1077 531v-111l-240 -300h245l-14 -120h-414v112l241 300h-220v119h402zM1007 813
l56 -65l-141 -137h-96l-142 137l57 65l133 -91z" />
    <glyph glyph-name="uni01C6" unicode="&#x1c6;" horiz-adv-x="1059" 
d="M538 742v-742h-140l-8 62q-56 -79 -151 -79q-99 0 -150.5 76t-51.5 208q0 81 27 145t76.5 100t113.5 36q76 0 126 -50v261zM380 159v229q-19 23 -38.5 34t-44.5 11q-44 0 -70 -41t-26 -126q0 -93 22.5 -130t64.5 -37q55 0 92 60zM1036 531v-111l-240 -300h245l-14 -120
h-414v112l241 300h-220v119h402zM966 813l56 -65l-141 -137h-96l-142 137l57 65l133 -91z" />
    <glyph glyph-name="uni01C7" unicode="&#x1c7;" horiz-adv-x="807" 
d="M229 693v-563h270l-17 -130h-417v693h164zM746 105q0 -83 -29.5 -137t-78 -84.5t-115.5 -52.5l-44 116q44 17 66 39t29.5 51t7.5 74v582h164v-588z" />
    <glyph glyph-name="uni01C8" unicode="&#x1c8;" horiz-adv-x="779" 
d="M229 693v-563h270l-17 -130h-417v693h164zM717 60q0 -83 -26.5 -137t-72 -86.5t-114.5 -57.5l-53 115q39 18 61 35t34.5 45.5t12.5 75.5v481h158v-471zM705.5 785.5q26.5 -25.5 26.5 -64.5t-26.5 -64.5t-67.5 -25.5t-67 25.5t-26 64.5t26 64.5t67 25.5t67.5 -25.5z" />
    <glyph glyph-name="uni01C9" unicode="&#x1c9;" horiz-adv-x="578" 
d="M95.5 22.5q-38.5 39.5 -38.5 112.5v607l158 17v-618q0 -33 27 -33q14 0 26 5l31 -112q-43 -18 -96 -18q-69 0 -107.5 39.5zM516 60q0 -83 -26.5 -137t-72 -86.5t-114.5 -57.5l-53 115q39 18 61 35t34.5 45.5t12.5 75.5v481h158v-471zM504.5 785.5q26.5 -25.5 26.5 -64.5
t-26.5 -64.5t-67.5 -25.5t-67 25.5t-26 64.5t26 64.5t67 25.5t67.5 -25.5z" />
    <glyph glyph-name="uni01CA" unicode="&#x1ca;" horiz-adv-x="980" 
d="M599 0h-209l-200 537q10 -79 15.5 -139.5t5.5 -143.5v-254h-146v693h204l205 -538q-22 137 -22 258v280h147v-693zM919 105q0 -83 -29.5 -137t-78 -84.5t-115.5 -52.5l-44 116q44 17 66 39t29.5 51t7.5 74v582h164v-588z" />
    <glyph glyph-name="uni01CB" unicode="&#x1cb;" horiz-adv-x="944" 
d="M599 0h-209l-200 537q10 -79 15.5 -139.5t5.5 -143.5v-254h-146v693h204l205 -538q-22 137 -22 258v280h147v-693zM882 60q0 -83 -26.5 -137t-72 -86.5t-114.5 -57.5l-53 115q39 18 61 35t34.5 45.5t12.5 75.5v481h158v-471zM870.5 785.5q26.5 -25.5 26.5 -64.5
t-26.5 -64.5t-67.5 -25.5t-67 25.5t-26 64.5t26 64.5t67 25.5t67.5 -25.5z" />
    <glyph glyph-name="uni01CC" unicode="&#x1cc;" horiz-adv-x="858" 
d="M481 506q39 -42 39 -118v-388h-158v361q0 40 -12.5 55.5t-37.5 15.5q-48 0 -92 -69v-363h-158v531h138l11 -63q34 40 73.5 60t88.5 20q69 0 108 -42zM796 60q0 -83 -26.5 -137t-72 -86.5t-114.5 -57.5l-53 115q39 18 61 35t34.5 45.5t12.5 75.5v481h158v-471z
M784.5 785.5q26.5 -25.5 26.5 -64.5t-26.5 -64.5t-67.5 -25.5t-67 25.5t-26 64.5t26 64.5t67 25.5t67.5 -25.5z" />
    <glyph glyph-name="uni01CD" unicode="&#x1cd;" horiz-adv-x="590" 
d="M430 0l-36 149h-202l-35 -149h-170l209 693h199l209 -693h-174zM220 268h146l-73 306zM429 944l56 -65l-141 -129h-96l-142 129l57 65l133 -84z" />
    <glyph glyph-name="uni01CE" unicode="&#x1ce;" horiz-adv-x="548" 
d="M492.5 110q8.5 -14 27.5 -21l-33 -103q-49 4 -80 21.5t-48 55.5q-52 -80 -160 -80q-79 0 -126 46t-47 120q0 87 64 133t185 46h54v23q0 47 -20 64.5t-70 17.5q-26 0 -63 -7.5t-76 -20.5l-36 104q50 19 102.5 29t97.5 10q114 0 167 -47t53 -141v-206q0 -30 8.5 -44z
M329 147v94h-39q-54 0 -80.5 -19t-26.5 -59q0 -32 16.5 -49.5t45.5 -17.5q54 0 84 51zM404 813l56 -65l-141 -137h-96l-142 137l57 65l133 -91z" />
    <glyph glyph-name="uni01CF" unicode="&#x1cf;" horiz-adv-x="293" 
d="M229 693v-693h-164v693h164zM279 944l56 -65l-141 -129h-96l-142 129l57 65l133 -84z" />
    <glyph glyph-name="uni01D0" unicode="&#x1d0;" horiz-adv-x="282" 
d="M220 531v-531h-158v531h158zM274 813l56 -65l-141 -137h-96l-142 137l57 65l133 -91z" />
    <glyph glyph-name="uni01D1" unicode="&#x1d1;" horiz-adv-x="691" 
d="M575.5 615q82.5 -95 82.5 -268q0 -113 -37.5 -195t-108 -125.5t-167.5 -43.5t-167 43t-107.5 124.5t-37.5 196.5q0 112 37.5 194t107.5 125.5t167 43.5q148 0 230.5 -95zM239.5 532.5q-34.5 -57.5 -34.5 -185.5t35 -186t105 -58q72 0 106.5 57.5t34.5 186.5t-35 186
t-106 57t-105.5 -57.5zM478 944l56 -65l-141 -129h-96l-142 129l57 65l133 -84z" />
    <glyph glyph-name="uni01D2" unicode="&#x1d2;" horiz-adv-x="584" 
d="M483 473.5q69 -74.5 69 -208.5q0 -85 -31.5 -148.5t-90 -98.5t-138.5 -35q-121 0 -190.5 74.5t-69.5 208.5q0 85 31.5 148.5t90 98.5t138.5 35q122 0 191 -74.5zM220 391.5q-24 -40.5 -24 -125.5q0 -87 23.5 -127t72.5 -40q48 0 72 40.5t24 125.5q0 87 -23.5 127
t-72.5 40q-48 0 -72 -40.5zM425 813l56 -65l-141 -137h-96l-142 137l57 65l133 -91z" />
    <glyph glyph-name="uni01D3" unicode="&#x1d3;" horiz-adv-x="651" 
d="M596 230q0 -71 -30.5 -127t-91.5 -88t-149 -32q-132 0 -201 67t-69 180v463h164v-456q0 -67 25.5 -99.5t80.5 -32.5q56 0 81.5 32.5t25.5 99.5v456h164v-463zM458 944l56 -65l-141 -129h-96l-142 129l57 65l133 -84z" />
    <glyph glyph-name="uni01D4" unicode="&#x1d4;" horiz-adv-x="572" 
d="M510 0h-137l-7 67q-58 -84 -161 -84q-73 0 -110.5 44t-37.5 123v381h158v-361q0 -39 12.5 -54.5t38.5 -15.5q50 0 86 62v369h158v-531zM417 813l56 -65l-141 -137h-96l-142 137l57 65l133 -91z" />
    <glyph glyph-name="uni01D5" unicode="&#x1d5;" horiz-adv-x="651" 
d="M596 230q0 -71 -30.5 -127t-91.5 -88t-149 -32q-132 0 -201 67t-69 180v463h164v-456q0 -67 25.5 -99.5t80.5 -32.5q56 0 81.5 32.5t25.5 99.5v456h164v-463zM266.5 880q23.5 -23 23.5 -56t-23.5 -56t-57.5 -23t-57.5 23t-23.5 56t23.5 56t57.5 23t57.5 -23zM498 880
q23 -23 23 -56t-23 -56t-58 -23q-33 0 -56.5 23t-23.5 56t23.5 56t56.5 23q35 0 58 -23zM480 940h-305v110h305v-110z" />
    <glyph glyph-name="uni01D6" unicode="&#x1d6;" horiz-adv-x="572" 
d="M510 0h-137l-7 67q-58 -84 -161 -84q-73 0 -110.5 44t-37.5 123v381h158v-361q0 -39 12.5 -54.5t38.5 -15.5q50 0 86 62v369h158v-531zM224.5 737q23.5 -23 23.5 -56t-23.5 -56t-57.5 -23t-57.5 23t-23.5 56t23.5 56t57.5 23t57.5 -23zM456 737q23 -23 23 -56t-23 -56
t-58 -23q-33 0 -56.5 23t-23.5 56t23.5 56t56.5 23q35 0 58 -23zM435 801h-305v110h305v-110z" />
    <glyph glyph-name="uni01D7" unicode="&#x1d7;" horiz-adv-x="651" 
d="M596 230q0 -71 -30.5 -127t-91.5 -88t-149 -32q-132 0 -201 67t-69 180v463h164v-456q0 -67 25.5 -99.5t80.5 -32.5q56 0 81.5 32.5t25.5 99.5v456h164v-463zM397 1097l86 -84l-158 -141l-60 54zM260 883q24 -23 24 -56t-24 -56t-57 -23q-34 0 -57.5 23t-23.5 56t23.5 56
t57.5 23q33 0 57 -23zM504.5 883q23.5 -23 23.5 -56t-23.5 -56t-57.5 -23t-57.5 23t-23.5 56t23.5 56t57.5 23t57.5 -23z" />
    <glyph glyph-name="uni01D8" unicode="&#x1d8;" horiz-adv-x="572" 
d="M510 0h-137l-7 67q-58 -84 -161 -84q-73 0 -110.5 44t-37.5 123v381h158v-361q0 -39 12.5 -54.5t38.5 -15.5q50 0 86 62v369h158v-531zM356 950l86 -84l-158 -141l-60 54zM219 736q24 -23 24 -56t-24 -56t-57 -23q-34 0 -57.5 23t-23.5 56t23.5 56t57.5 23q33 0 57 -23z
M463.5 736q23.5 -23 23.5 -56t-23.5 -56t-57.5 -23t-57.5 23t-23.5 56t23.5 56t57.5 23t57.5 -23z" />
    <glyph glyph-name="uni01D9" unicode="&#x1d9;" horiz-adv-x="651" 
d="M596 230q0 -71 -30.5 -127t-91.5 -88t-149 -32q-132 0 -201 67t-69 180v463h164v-456q0 -67 25.5 -99.5t80.5 -32.5q56 0 81.5 32.5t25.5 99.5v456h164v-463zM456 1100l56 -65l-141 -129h-96l-142 129l57 65l133 -84zM259.5 883q23.5 -23 23.5 -56t-23.5 -56t-57.5 -23
t-57.5 23t-23.5 56t23.5 56t57.5 23t57.5 -23zM503.5 883q23.5 -23 23.5 -56t-23.5 -56t-57.5 -23t-57 23t-23 56t23 56t57 23t57.5 -23z" />
    <glyph glyph-name="uni01DA" unicode="&#x1da;" horiz-adv-x="572" 
d="M510 0h-137l-7 67q-58 -84 -161 -84q-73 0 -110.5 44t-37.5 123v381h158v-361q0 -39 12.5 -54.5t38.5 -15.5q50 0 86 62v369h158v-531zM417 953l56 -65l-141 -129h-96l-142 129l57 65l133 -84zM219 736q23 -23 23 -56t-23 -56t-57 -23t-57.5 23t-23.5 56t23.5 56t57.5 23
t57 -23zM462.5 736q23.5 -23 23.5 -56t-23.5 -56t-57.5 -23q-33 0 -56.5 23t-23.5 56t23.5 56t56.5 23q34 0 57.5 -23z" />
    <glyph glyph-name="uni01DB" unicode="&#x1db;" horiz-adv-x="651" 
d="M596 230q0 -71 -30.5 -127t-91.5 -88t-149 -32q-132 0 -201 67t-69 180v463h164v-456q0 -67 25.5 -99.5t80.5 -32.5q56 0 81.5 32.5t25.5 99.5v456h164v-463zM256 1097l131 -171l-59 -54l-158 141zM260.5 883q23.5 -23 23.5 -56t-23.5 -56t-57.5 -23t-57.5 23t-23.5 56
t23.5 56t57.5 23t57.5 -23zM504.5 883q23.5 -23 23.5 -56t-23.5 -56t-57.5 -23t-57.5 23t-23.5 56t23.5 56t57.5 23t57.5 -23z" />
    <glyph glyph-name="uni01DC" unicode="&#x1dc;" horiz-adv-x="572" 
d="M510 0h-137l-7 67q-58 -84 -161 -84q-73 0 -110.5 44t-37.5 123v381h158v-361q0 -39 12.5 -54.5t38.5 -15.5q50 0 86 62v369h158v-531zM215 950l131 -171l-59 -54l-158 141zM219.5 736q23.5 -23 23.5 -56t-23.5 -56t-57.5 -23t-57.5 23t-23.5 56t23.5 56t57.5 23
t57.5 -23zM463.5 736q23.5 -23 23.5 -56t-23.5 -56t-57.5 -23t-57.5 23t-23.5 56t23.5 56t57.5 23t57.5 -23z" />
    <glyph glyph-name="uni01DD" unicode="&#x1dd;" horiz-adv-x="556" 
d="M460.5 472.5q63.5 -75.5 63.5 -206.5q0 -81 -29.5 -145.5t-86 -101t-135.5 -36.5q-74 0 -129.5 32.5t-86 93.5t-30.5 146q0 32 3 57h341q-4 64 -31 94t-77 30q-37 0 -68.5 -10t-65.5 -34l-66 88q86 68 206 68q128 0 191.5 -75.5zM342.5 123.5q24.5 28.5 28.5 93.5h-195
v-7q1 -54 26 -84.5t71 -30.5q45 0 69.5 28.5z" />
    <glyph glyph-name="uni01DE" unicode="&#x1de;" horiz-adv-x="590" 
d="M430 0l-36 149h-202l-35 -149h-170l209 693h199l209 -693h-174zM220 268h146l-73 306zM237.5 880q23.5 -23 23.5 -56t-23.5 -56t-57.5 -23t-57.5 23t-23.5 56t23.5 56t57.5 23t57.5 -23zM469 880q23 -23 23 -56t-23 -56t-58 -23q-33 0 -56.5 23t-23.5 56t23.5 56t56.5 23
q35 0 58 -23zM451 940h-305v110h305v-110z" />
    <glyph glyph-name="uni01DF" unicode="&#x1df;" horiz-adv-x="548" 
d="M492.5 110q8.5 -14 27.5 -21l-33 -103q-49 4 -80 21.5t-48 55.5q-52 -80 -160 -80q-79 0 -126 46t-47 120q0 87 64 133t185 46h54v23q0 47 -20 64.5t-70 17.5q-26 0 -63 -7.5t-76 -20.5l-36 104q50 19 102.5 29t97.5 10q114 0 167 -47t53 -141v-206q0 -30 8.5 -44z
M329 147v94h-39q-54 0 -80.5 -19t-26.5 -59q0 -32 16.5 -49.5t45.5 -17.5q54 0 84 51zM211.5 737q23.5 -23 23.5 -56t-23.5 -56t-57.5 -23t-57.5 23t-23.5 56t23.5 56t57.5 23t57.5 -23zM443 737q23 -23 23 -56t-23 -56t-58 -23q-33 0 -56.5 23t-23.5 56t23.5 56t56.5 23
q35 0 58 -23zM422 801h-305v110h305v-110z" />
    <glyph glyph-name="uni01E0" unicode="&#x1e0;" horiz-adv-x="590" 
d="M430 0l-36 149h-202l-35 -149h-170l209 693h199l209 -693h-174zM220 268h146l-73 306zM361.5 890.5q26.5 -25.5 26.5 -64.5t-26.5 -64.5t-67.5 -25.5t-67 25.5t-26 64.5t26 64.5t67 25.5t67.5 -25.5zM448 941h-305v110h305v-110z" />
    <glyph glyph-name="uni01E1" unicode="&#x1e1;" horiz-adv-x="548" 
d="M492.5 110q8.5 -14 27.5 -21l-33 -103q-49 4 -80 21.5t-48 55.5q-52 -80 -160 -80q-79 0 -126 46t-47 120q0 87 64 133t185 46h54v23q0 47 -20 64.5t-70 17.5q-26 0 -63 -7.5t-76 -20.5l-36 104q50 19 102.5 29t97.5 10q114 0 167 -47t53 -141v-206q0 -30 8.5 -44z
M329 147v94h-39q-54 0 -80.5 -19t-26.5 -59q0 -32 16.5 -49.5t45.5 -17.5q54 0 84 51zM337.5 747.5q26.5 -25.5 26.5 -64.5t-26.5 -64.5t-67.5 -25.5t-67 25.5t-26 64.5t26 64.5t67 25.5t67.5 -25.5zM423 803h-305v110h305v-110z" />
    <glyph glyph-name="uni01E2" unicode="&#x1e2;" horiz-adv-x="845" 
d="M582 118h230v-118h-368l-26 149h-215l-50 -149h-176l272 693h526l-17 -117h-270l34 -168h244v-115h-220zM243 268h155l-53 305zM635 781h-305v110h305v-110z" />
    <glyph glyph-name="uni01E3" unicode="&#x1e3;" horiz-adv-x="855" 
d="M825 219h-329q7 -67 37.5 -94t83.5 -27q32 0 62 11.5t65 35.5l65 -88q-93 -74 -207 -74q-70 0 -123.5 24t-87.5 67q-64 -91 -188 -91q-81 0 -129 46t-48 120q0 87 65.5 133t189.5 46h54v22q0 46 -20.5 64t-69.5 18q-26 0 -63 -7.5t-76 -20.5l-36 105q50 19 102.5 29
t97.5 10q111 0 163 -67q64 67 162 67q70 0 122.5 -32.5t81.5 -93.5t29 -146q0 -33 -3 -57zM672 321q0 122 -86 122q-40 0 -62.5 -30t-27.5 -99h176v7zM304 112q22 16 44 48q-9 31 -11 74v4h-40q-53 0 -78.5 -18.5t-25.5 -59.5q0 -30 15.5 -47t44.5 -17t51 16zM581 655h-305
v110h305v-110z" />
    <glyph glyph-name="uni01E4" unicode="&#x1e4;" horiz-adv-x="665" 
d="M663 176h-63v-120q-54 -35 -119 -54t-131 -19q-157 0 -237 92.5t-80 271.5q0 114 43.5 196t119 124.5t168.5 42.5q72 0 128.5 -22t103.5 -63l-82 -87q-38 28 -69.5 40.5t-72.5 12.5q-77 0 -123 -60.5t-46 -183.5q0 -133 35 -188.5t109 -55.5q53 0 106 22v51h-108v95h108
v43h-104l-14 100h265v-143h63v-95z" />
    <glyph glyph-name="uni01E5" unicode="&#x1e5;" horiz-adv-x="551" 
d="M587 -87h-54q-17 -65 -86.5 -100t-186.5 -35q-97 0 -153 20.5t-78.5 57.5t-22.5 93h142q0 -28 9.5 -43t34 -22t72.5 -7q55 0 85.5 8.5t42.5 27.5h-124v67h123q-21 30 -88 30h-77q-82 0 -122.5 26.5t-40.5 68.5q0 57 63 97q-50 27 -72.5 63.5t-22.5 88.5q0 89 64 141.5
t169 52.5q80 -2 135.5 16t114.5 53l37 -117q-52 -21 -153 -21q52 -22 76 -54t24 -83t-27 -91.5t-77.5 -63.5t-118.5 -23q-32 0 -61 6q-8 -4 -12.5 -12.5t-4.5 -17.5q0 -14 11.5 -21.5t46.5 -7.5h80q83 0 136.5 -35.5t64.5 -95.5h51v-67zM209.5 420.5
q-21.5 -23.5 -21.5 -64.5q0 -43 21.5 -66.5t58.5 -23.5q39 0 59.5 23t20.5 69q0 86 -80 86q-37 0 -58.5 -23.5z" />
    <glyph glyph-name="Gcaron" unicode="&#x1e6;" horiz-adv-x="645" 
d="M596 625l-83 -87q-37 28 -68.5 40.5t-72.5 12.5q-77 0 -123 -60.5t-46 -183.5q0 -133 35 -188.5t109 -55.5q52 0 94 23v157h-90l-16 116h265v-343q-54 -35 -119 -54t-130 -19q-158 0 -238 92.5t-80 271.5q0 114 43.5 196t119 124.5t169.5 42.5q134 0 231 -85zM485 944
l56 -65l-141 -129h-96l-142 129l57 65l133 -84z" />
    <glyph glyph-name="gcaron" unicode="&#x1e7;" horiz-adv-x="551" 
d="M551 500q-52 -21 -153 -21q52 -22 76 -54t24 -83t-27 -91.5t-77.5 -63.5t-118.5 -23q-32 0 -61 6q-8 -4 -12.5 -12.5t-4.5 -17.5q0 -15 11.5 -23.5t46.5 -8.5h80q61 0 107 -20t71 -55t25 -79q0 -83 -71.5 -129.5t-206.5 -46.5q-97 0 -153 20.5t-78.5 57.5t-22.5 93h142
q0 -24 9.5 -38t34.5 -21t72 -7q65 0 90 15.5t25 44.5q0 24 -19 38t-57 14h-77q-82 0 -122.5 29.5t-40.5 75.5q0 29 17 56.5t46 45.5q-50 27 -72.5 63.5t-22.5 88.5q0 89 64 141.5t169 52.5q80 -2 135.5 16t114.5 53zM209.5 420.5q-21.5 -23.5 -21.5 -64.5q0 -43 21.5 -66.5
t58.5 -23.5q39 0 59.5 23t20.5 69q0 86 -80 86q-37 0 -58.5 -23.5zM409 813l56 -65l-141 -137h-96l-142 137l57 65l133 -91z" />
    <glyph glyph-name="uni01E8" unicode="&#x1e8;" horiz-adv-x="633" 
d="M229 693v-693h-164v693h164zM627 693l-221 -311l239 -382h-190l-221 370l220 323h173zM462 944l56 -65l-141 -129h-96l-142 129l57 65l133 -84z" />
    <glyph glyph-name="uni01E9" unicode="&#x1e9;" horiz-adv-x="552" 
d="M220 759v-759h-158v742zM548 531l-161 -233l174 -298h-178l-158 290l162 241h161zM430 993l56 -65l-141 -129h-96l-142 129l57 65l133 -84z" />
    <glyph glyph-name="uni01EA" unicode="&#x1ea;" horiz-adv-x="691" 
d="M605 122.5q-53 -90.5 -149 -122.5q-118 -44 -118 -102q0 -46 53 -46q24 0 61 8l-11 -98q-35 -8 -70 -8q-65 0 -106 32t-41 85q0 70 63 116q-121 19 -187.5 112.5t-66.5 247.5q0 112 37.5 194t107.5 125.5t167 43.5q148 0 230.5 -95t82.5 -268q0 -134 -53 -224.5z
M451.5 160.5q34.5 57.5 34.5 186.5t-35 186t-106 57t-105.5 -57.5t-34.5 -185.5t35 -186t105 -58q72 0 106.5 57.5z" />
    <glyph glyph-name="uni01EB" unicode="&#x1eb;" horiz-adv-x="584" 
d="M273 -102q0 -46 53 -46q24 0 61 8l-11 -98q-35 -8 -70 -8q-65 0 -106 32t-41 85q0 72 66 119q-92 19 -142.5 90.5t-50.5 185.5q0 85 31.5 148.5t90 98.5t138.5 35q122 0 191 -74.5t69 -208.5q0 -103 -46 -174t-128 -96q-105 -42 -105 -97zM220 391.5
q-24 -40.5 -24 -125.5q0 -87 23.5 -127t72.5 -40q48 0 72 40.5t24 125.5q0 87 -23.5 127t-72.5 40q-48 0 -72 -40.5z" />
    <glyph glyph-name="uni01EC" unicode="&#x1ec;" horiz-adv-x="691" 
d="M497 891v-110h-305v110h305zM605 122.5q-53 -90.5 -149 -122.5q-118 -44 -118 -102q0 -46 53 -46q24 0 61 8l-11 -98q-35 -8 -70 -8q-65 0 -106 32t-41 85q0 70 63 116q-121 19 -187.5 112.5t-66.5 247.5q0 112 37.5 194t107.5 125.5t167 43.5q148 0 230.5 -95t82.5 -268
q0 -134 -53 -224.5zM451.5 160.5q34.5 57.5 34.5 186.5t-35 186t-106 57t-105.5 -57.5t-34.5 -185.5t35 -186t105 -58q72 0 106.5 57.5z" />
    <glyph glyph-name="uni01ED" unicode="&#x1ed;" horiz-adv-x="584" 
d="M444 765v-110h-305v110h305zM273 -102q0 -46 53 -46q24 0 61 8l-11 -98q-35 -8 -70 -8q-65 0 -106 32t-41 85q0 72 66 119q-92 19 -142.5 90.5t-50.5 185.5q0 85 31.5 148.5t90 98.5t138.5 35q122 0 191 -74.5t69 -208.5q0 -103 -46 -174t-128 -96q-105 -42 -105 -97z
M220 391.5q-24 -40.5 -24 -125.5q0 -87 23.5 -127t72.5 -40q48 0 72 40.5t24 125.5q0 87 -23.5 127t-72.5 40q-48 0 -72 -40.5z" />
    <glyph glyph-name="uni01EE" unicode="&#x1ee;" horiz-adv-x="547" 
d="M465 347q55 -52 55 -142q0 -63 -33 -113.5t-95.5 -79.5t-148.5 -29q-81 0 -139 26t-100 76l84 82q35 -33 68.5 -47.5t78.5 -14.5q55 0 85.5 28t30.5 79q0 96 -125 96h-99v92l177 174h-261v119h442v-115l-178 -175q103 -4 158 -56zM398 944l56 -65l-141 -129h-96l-142 129
l57 65l133 -84z" />
    <glyph glyph-name="uni01EF" unicode="&#x1ef;" horiz-adv-x="510" 
d="M436.5 155.5q55.5 -50.5 55.5 -146.5q0 -66 -32.5 -118.5t-93 -82.5t-143.5 -30q-150 0 -235 103l83 80q36 -33 69 -47.5t74 -14.5q54 0 84.5 30t30.5 90q0 54 -31 77.5t-95 23.5h-92v92l171 201h-255v118h433v-108l-184 -210q105 -7 160.5 -57.5zM377 813l56 -65
l-141 -137h-96l-142 137l57 65l133 -91z" />
    <glyph glyph-name="uni01F0" unicode="&#x1f0;" horiz-adv-x="281" 
d="M219 60q0 -83 -26.5 -137t-72 -86.5t-114.5 -57.5l-53 115q39 18 61 35t34.5 45.5t12.5 75.5v481h158v-471zM274 813l56 -65l-141 -137h-96l-142 137l57 65l133 -91z" />
    <glyph glyph-name="uni01F1" unicode="&#x1f1;" horiz-adv-x="1170" 
d="M519.5 619.5q98.5 -73.5 98.5 -269.5q0 -193 -96 -271.5t-249 -78.5h-208v693h193q163 0 261.5 -73.5zM229 574v-455h54q81 0 123 50.5t42 180.5q0 89 -21 138t-57 67.5t-89 18.5h-52zM1138 693v-124l-301 -438h306l-16 -131h-483v123l307 443h-276v127h463z" />
    <glyph glyph-name="uni01F2" unicode="&#x1f2;" horiz-adv-x="1100" 
d="M519.5 619.5q98.5 -73.5 98.5 -269.5q0 -193 -96 -271.5t-249 -78.5h-208v693h193q163 0 261.5 -73.5zM229 574v-455h54q81 0 123 50.5t42 180.5q0 89 -21 138t-57 67.5t-89 18.5h-52zM1077 531v-111l-240 -300h245l-14 -120h-414v112l241 300h-220v119h402z" />
    <glyph glyph-name="uni01F3" unicode="&#x1f3;" horiz-adv-x="1059" 
d="M538 742v-742h-140l-8 62q-56 -79 -151 -79q-99 0 -150.5 76t-51.5 208q0 81 27 145t76.5 100t113.5 36q76 0 126 -50v261zM380 159v229q-19 23 -38.5 34t-44.5 11q-44 0 -70 -41t-26 -126q0 -93 22.5 -130t64.5 -37q55 0 92 60zM1036 531v-111l-240 -300h245l-14 -120
h-414v112l241 300h-220v119h402z" />
    <glyph glyph-name="uni01F4" unicode="&#x1f4;" horiz-adv-x="645" 
d="M596 625l-83 -87q-37 28 -68.5 40.5t-72.5 12.5q-77 0 -123 -60.5t-46 -183.5q0 -133 35 -188.5t109 -55.5q52 0 94 23v157h-90l-16 116h265v-343q-54 -35 -119 -54t-130 -19q-158 0 -238 92.5t-80 271.5q0 114 43.5 196t119 124.5t169.5 42.5q134 0 231 -85zM433 956
l59 -118l-240 -87l-40 80z" />
    <glyph glyph-name="uni01F5" unicode="&#x1f5;" horiz-adv-x="551" 
d="M551 500q-52 -21 -153 -21q52 -22 76 -54t24 -83t-27 -91.5t-77.5 -63.5t-118.5 -23q-32 0 -61 6q-8 -4 -12.5 -12.5t-4.5 -17.5q0 -15 11.5 -23.5t46.5 -8.5h80q61 0 107 -20t71 -55t25 -79q0 -83 -71.5 -129.5t-206.5 -46.5q-97 0 -153 20.5t-78.5 57.5t-22.5 93h142
q0 -24 9.5 -38t34.5 -21t72 -7q65 0 90 15.5t25 44.5q0 24 -19 38t-57 14h-77q-82 0 -122.5 29.5t-40.5 75.5q0 29 17 56.5t46 45.5q-50 27 -72.5 63.5t-22.5 88.5q0 89 64 141.5t169 52.5q80 -2 135.5 16t114.5 53zM209.5 420.5q-21.5 -23.5 -21.5 -64.5q0 -43 21.5 -66.5
t58.5 -23.5q39 0 59.5 23t20.5 69q0 86 -80 86q-37 0 -58.5 -23.5zM348 835l62 -118l-236 -95l-44 81z" />
    <glyph glyph-name="uni01F6" unicode="&#x1f6;" horiz-adv-x="951" 
d="M901.5 391q7.5 -67 7.5 -143q0 -90 -37 -149.5t-96 -87.5t-126 -28q-93 0 -153 49.5t-60 147.5v117h-208v-297h-164v693h164v-268h208v268h164v-510q0 -84 60 -84q37 0 63.5 38.5t26.5 123.5q0 113 -27 270h156q14 -73 21.5 -140z" />
    <glyph glyph-name="uni01F7" unicode="&#x1f7;" horiz-adv-x="600" 
d="M483 686.5q44 -23.5 69.5 -67.5t25.5 -102q0 -78 -35 -131.5t-93.5 -88.5t-145.5 -67l-75 -28v-202h-164v693h164v-43q60 60 158 60q52 0 96 -23.5zM374.5 407.5q34.5 42.5 34.5 100.5q0 41 -21 62.5t-59 21.5q-56 0 -100 -39v-236l41 17q70 31 104.5 73.5z" />
    <glyph glyph-name="uni01F8" unicode="&#x1f8;" horiz-adv-x="663" 
d="M599 0h-209l-200 537q10 -79 15.5 -139.5t5.5 -143.5v-254h-146v693h204l205 -538q-22 137 -22 258v280h147v-693zM251 956l221 -125l-40 -80l-240 87z" />
    <glyph glyph-name="uni01F9" unicode="&#x1f9;" horiz-adv-x="577" 
d="M481 506q39 -42 39 -118v-388h-158v361q0 40 -12.5 55.5t-37.5 15.5q-48 0 -92 -69v-363h-158v531h138l11 -63q34 40 73.5 60t88.5 20q69 0 108 -42zM226 835l218 -132l-44 -81l-236 95z" />
    <glyph glyph-name="Aringacute" unicode="&#x1fa;" horiz-adv-x="590" 
d="M430 0l-36 149h-202l-35 -149h-170l209 693h199l209 -693h-174zM220 268h146l-73 306zM397 944q38 -38 38 -93t-38 -93t-101 -38t-101 38t-38 93t38 93t101 38t101 -38zM263 888q-12 -13 -12 -37t12 -37t33 -13q20 0 32.5 13t12.5 37t-12 37t-33 13t-33 -13zM378 1191
l59 -118l-240 -87l-40 80z" />
    <glyph glyph-name="aringacute" unicode="&#x1fb;" horiz-adv-x="548" 
d="M411 930l-240 -87l-40 80l221 125zM169 615q-38 38 -38 93t38 93t101 38t101 -38t38 -93t-38 -93t-101 -38t-101 38zM237 745q-12 -13 -12 -37t12 -37t33 -13q20 0 32.5 13t12.5 37t-12 37t-33 13t-33 -13zM492.5 110q8.5 -14 27.5 -21l-33 -103q-49 4 -80 21.5t-48 55.5
q-52 -80 -160 -80q-79 0 -126 46t-47 120q0 87 64 133t185 46h54v23q0 47 -20 64.5t-70 17.5q-26 0 -63 -7.5t-76 -20.5l-36 104q50 19 102.5 29t97.5 10q114 0 167 -47t53 -141v-206q0 -30 8.5 -44zM329 147v94h-39q-54 0 -80.5 -19t-26.5 -59q0 -32 16.5 -49.5t45.5 -17.5
q54 0 84 51z" />
    <glyph glyph-name="AEacute" unicode="&#x1fc;" horiz-adv-x="845" 
d="M582 118h230v-118h-368l-26 149h-215l-50 -149h-176l272 693h526l-17 -117h-270l34 -168h244v-115h-220zM243 268h155l-53 305zM564 956l59 -118l-240 -87l-40 80z" />
    <glyph glyph-name="aeacute" unicode="&#x1fd;" horiz-adv-x="855" 
d="M825 219h-329q7 -67 37.5 -94t83.5 -27q32 0 62 11.5t65 35.5l65 -88q-93 -74 -207 -74q-70 0 -123.5 24t-87.5 67q-64 -91 -188 -91q-81 0 -129 46t-48 120q0 87 65.5 133t189.5 46h54v22q0 46 -20.5 64t-69.5 18q-26 0 -63 -7.5t-76 -20.5l-36 105q50 19 102.5 29
t97.5 10q111 0 163 -67q64 67 162 67q70 0 122.5 -32.5t81.5 -93.5t29 -146q0 -33 -3 -57zM672 321q0 122 -86 122q-40 0 -62.5 -30t-27.5 -99h176v7zM304 112q22 16 44 48q-9 31 -11 74v4h-40q-53 0 -78.5 -18.5t-25.5 -59.5q0 -30 15.5 -47t44.5 -17t51 16zM501 835
l62 -118l-236 -95l-44 81z" />
    <glyph glyph-name="Oslashacute" unicode="&#x1fe;" horiz-adv-x="691" 
d="M621 543q37 -82 37 -196q0 -113 -37.5 -195t-108 -125.5t-167.5 -43.5q-25 0 -49 3l-36 -120l-124 32l40 129q-69 43 -106 124.5t-37 195.5q0 112 37.5 194t107.5 125.5t167 43.5q26 0 50 -3l37 121l123 -33l-41 -128q70 -42 107 -124zM239.5 532.5
q-34.5 -57.5 -34.5 -185.5q0 -144 38 -199l132 440q-18 2 -30 2q-71 0 -105.5 -57.5zM451.5 160.5q34.5 57.5 34.5 186.5q0 146 -38 199l-133 -441q20 -2 30 -2q72 0 106.5 57.5zM424 990l59 -118l-240 -87l-40 80z" />
    <glyph glyph-name="oslashacute" unicode="&#x1ff;" horiz-adv-x="584" 
d="M522.5 413.5q29.5 -62.5 29.5 -148.5q0 -85 -31.5 -148.5t-90 -98.5t-138.5 -35q-12 0 -34 2l-37 -120l-115 34l39 122q-55 35 -84 97.5t-29 147.5t31.5 148.5t90 98.5t138.5 35q11 0 33 -2l39 121l116 -34l-42 -123q55 -34 84.5 -96.5zM183 266q0 -96 25 -134l100 300
h-16q-109 0 -109 -166zM373.5 139.5q27.5 40.5 27.5 125.5q0 97 -26 134l-99 -300h16q54 0 81.5 40.5zM364 835l62 -118l-236 -95l-44 81z" />
    <glyph glyph-name="uni0200" unicode="&#x200;" horiz-adv-x="590" 
d="M430 0l-36 149h-202l-35 -149h-170l209 693h199l209 -693h-174zM220 268h146l-73 306zM165 986l97 -197l-81 -38l-122 182zM341 986l88 -197l-83 -33l-113 180z" />
    <glyph glyph-name="uni0201" unicode="&#x201;" horiz-adv-x="548" 
d="M492.5 110q8.5 -14 27.5 -21l-33 -103q-49 4 -80 21.5t-48 55.5q-52 -80 -160 -80q-79 0 -126 46t-47 120q0 87 64 133t185 46h54v23q0 47 -20 64.5t-70 17.5q-26 0 -63 -7.5t-76 -20.5l-36 104q50 19 102.5 29t97.5 10q114 0 167 -47t53 -141v-206q0 -30 8.5 -44z
M329 147v94h-39q-54 0 -80.5 -19t-26.5 -59q0 -32 16.5 -49.5t45.5 -17.5q54 0 84 51zM152 860l97 -197l-81 -38l-122 182zM328 860l88 -197l-83 -33l-113 180z" />
    <glyph glyph-name="uni0202" unicode="&#x202;" horiz-adv-x="590" 
d="M430 0l-36 149h-202l-35 -149h-170l209 693h199l209 -693h-174zM220 268h146l-73 306zM416.5 903q45.5 -49 51.5 -124l-87 -15q-21 78 -86 78q-66 0 -85 -78l-87 15q6 76 51 124.5t121 48.5t121.5 -49z" />
    <glyph glyph-name="uni0203" unicode="&#x203;" horiz-adv-x="548" 
d="M492.5 110q8.5 -14 27.5 -21l-33 -103q-49 4 -80 21.5t-48 55.5q-52 -80 -160 -80q-79 0 -126 46t-47 120q0 87 64 133t185 46h54v23q0 47 -20 64.5t-70 17.5q-26 0 -63 -7.5t-76 -20.5l-36 104q50 19 102.5 29t97.5 10q114 0 167 -47t53 -141v-206q0 -30 8.5 -44z
M329 147v94h-39q-54 0 -80.5 -19t-26.5 -59q0 -32 16.5 -49.5t45.5 -17.5q54 0 84 51zM391.5 741q45.5 -49 51.5 -124l-87 -15q-21 78 -86 78q-66 0 -85 -78l-87 15q6 76 51 124.5t121 48.5t121.5 -49z" />
    <glyph glyph-name="uni0204" unicode="&#x204;" horiz-adv-x="526" 
d="M490 693l-17 -117h-244v-166h213v-115h-213v-177h261v-118h-425v693h425zM148 986l97 -197l-81 -38l-122 182zM324 986l88 -197l-83 -33l-113 180z" />
    <glyph glyph-name="uni0205" unicode="&#x205;" horiz-adv-x="552" 
d="M522 219h-329q8 -67 38 -94t83 -27q32 0 62 11.5t65 35.5l65 -88q-93 -74 -207 -74q-129 0 -198 76t-69 204q0 81 29 145.5t85 102t134 37.5q115 0 180 -72t65 -200q0 -33 -3 -57zM370 321q-2 122 -86 122q-41 0 -63.5 -30t-27.5 -99h177v7zM164 860l97 -197l-81 -38
l-122 182zM340 860l88 -197l-83 -33l-113 180z" />
    <glyph glyph-name="uni0206" unicode="&#x206;" horiz-adv-x="526" 
d="M490 693l-17 -117h-244v-166h213v-115h-213v-177h261v-118h-425v693h425zM399.5 903q45.5 -49 51.5 -124l-87 -15q-21 78 -86 78q-66 0 -85 -78l-87 15q6 76 51 124.5t121 48.5t121.5 -49z" />
    <glyph glyph-name="uni0207" unicode="&#x207;" horiz-adv-x="552" 
d="M522 219h-329q8 -67 38 -94t83 -27q32 0 62 11.5t65 35.5l65 -88q-93 -74 -207 -74q-129 0 -198 76t-69 204q0 81 29 145.5t85 102t134 37.5q115 0 180 -72t65 -200q0 -33 -3 -57zM370 321q-2 122 -86 122q-41 0 -63.5 -30t-27.5 -99h177v7zM403.5 741
q45.5 -49 51.5 -124l-87 -15q-21 78 -86 78q-66 0 -85 -78l-87 15q6 76 51 124.5t121 48.5t121.5 -49z" />
    <glyph glyph-name="uni0208" unicode="&#x208;" horiz-adv-x="293" 
d="M229 693v-693h-164v693h164zM15 986l97 -197l-81 -38l-122 182zM191 986l88 -197l-83 -33l-113 180z" />
    <glyph glyph-name="uni0209" unicode="&#x209;" horiz-adv-x="282" 
d="M220 531v-531h-158v531h158zM22 860l97 -197l-81 -38l-122 182zM198 860l88 -197l-83 -33l-113 180z" />
    <glyph glyph-name="uni020A" unicode="&#x20a;" horiz-adv-x="293" 
d="M229 693v-693h-164v693h164zM266.5 903q45.5 -49 51.5 -124l-87 -15q-21 78 -86 78q-66 0 -85 -78l-87 15q6 76 51 124.5t121 48.5t121.5 -49z" />
    <glyph glyph-name="uni020B" unicode="&#x20b;" horiz-adv-x="282" 
d="M220 531v-531h-158v531h158zM261.5 741q45.5 -49 51.5 -124l-87 -15q-21 78 -86 78q-66 0 -85 -78l-87 15q6 76 51 124.5t121 48.5t121.5 -49z" />
    <glyph glyph-name="uni020C" unicode="&#x20c;" horiz-adv-x="691" 
d="M575.5 615q82.5 -95 82.5 -268q0 -113 -37.5 -195t-108 -125.5t-167.5 -43.5t-167 43t-107.5 124.5t-37.5 196.5q0 112 37.5 194t107.5 125.5t167 43.5q148 0 230.5 -95zM239.5 532.5q-34.5 -57.5 -34.5 -185.5t35 -186t105 -58q72 0 106.5 57.5t34.5 186.5t-35 186
t-106 57t-105.5 -57.5zM214 986l97 -197l-81 -38l-122 182zM390 986l88 -197l-83 -33l-113 180z" />
    <glyph glyph-name="uni020D" unicode="&#x20d;" horiz-adv-x="584" 
d="M483 473.5q69 -74.5 69 -208.5q0 -85 -31.5 -148.5t-90 -98.5t-138.5 -35q-121 0 -190.5 74.5t-69.5 208.5q0 85 31.5 148.5t90 98.5t138.5 35q122 0 191 -74.5zM220 391.5q-24 -40.5 -24 -125.5q0 -87 23.5 -127t72.5 -40q48 0 72 40.5t24 125.5q0 87 -23.5 127
t-72.5 40q-48 0 -72 -40.5zM173 860l97 -197l-81 -38l-122 182zM349 860l88 -197l-83 -33l-113 180z" />
    <glyph glyph-name="uni020E" unicode="&#x20e;" horiz-adv-x="691" 
d="M575.5 615q82.5 -95 82.5 -268q0 -113 -37.5 -195t-108 -125.5t-167.5 -43.5t-167 43t-107.5 124.5t-37.5 196.5q0 112 37.5 194t107.5 125.5t167 43.5q148 0 230.5 -95zM239.5 532.5q-34.5 -57.5 -34.5 -185.5t35 -186t105 -58q72 0 106.5 57.5t34.5 186.5t-35 186
t-106 57t-105.5 -57.5zM465.5 903q45.5 -49 51.5 -124l-87 -15q-21 78 -86 78q-66 0 -85 -78l-87 15q6 76 51 124.5t121 48.5t121.5 -49z" />
    <glyph glyph-name="uni020F" unicode="&#x20f;" horiz-adv-x="584" 
d="M483 473.5q69 -74.5 69 -208.5q0 -85 -31.5 -148.5t-90 -98.5t-138.5 -35q-121 0 -190.5 74.5t-69.5 208.5q0 85 31.5 148.5t90 98.5t138.5 35q122 0 191 -74.5zM220 391.5q-24 -40.5 -24 -125.5q0 -87 23.5 -127t72.5 -40q48 0 72 40.5t24 125.5q0 87 -23.5 127
t-72.5 40q-48 0 -72 -40.5zM412.5 741q45.5 -49 51.5 -124l-87 -15q-21 78 -86 78q-66 0 -85 -78l-87 15q6 76 51 124.5t121 48.5t121.5 -49z" />
    <glyph glyph-name="uni0210" unicode="&#x210;" horiz-adv-x="617" 
d="M293 265h-64v-265h-164v693h227q142 0 213.5 -52t71.5 -159q0 -67 -32 -111.5t-101 -75.5l176 -295h-185zM229 378h69q55 0 82.5 25t27.5 79q0 50 -29.5 73t-90.5 23h-59v-200zM170 986l97 -197l-81 -38l-122 182zM346 986l88 -197l-83 -33l-113 180z" />
    <glyph glyph-name="uni0211" unicode="&#x211;" horiz-adv-x="401" 
d="M403 539l-25 -153q-30 7 -48 7q-47 0 -71.5 -32.5t-38.5 -97.5v-263h-158v531h138l13 -103q18 55 54.5 86.5t82.5 31.5q29 0 53 -7zM115 860l97 -197l-81 -38l-122 182zM291 860l88 -197l-83 -33l-113 180z" />
    <glyph glyph-name="uni0212" unicode="&#x212;" horiz-adv-x="617" 
d="M293 265h-64v-265h-164v693h227q142 0 213.5 -52t71.5 -159q0 -67 -32 -111.5t-101 -75.5l176 -295h-185zM229 378h69q55 0 82.5 25t27.5 79q0 50 -29.5 73t-90.5 23h-59v-200zM421.5 903q45.5 -49 51.5 -124l-87 -15q-21 78 -86 78q-66 0 -85 -78l-87 15q6 76 51 124.5
t121 48.5t121.5 -49z" />
    <glyph glyph-name="uni0213" unicode="&#x213;" horiz-adv-x="401" 
d="M403 539l-25 -153q-30 7 -48 7q-47 0 -71.5 -32.5t-38.5 -97.5v-263h-158v531h138l13 -103q18 55 54.5 86.5t82.5 31.5q29 0 53 -7zM354.5 741q45.5 -49 51.5 -124l-87 -15q-21 78 -86 78q-66 0 -85 -78l-87 15q6 76 51 124.5t121 48.5t121.5 -49z" />
    <glyph glyph-name="uni0214" unicode="&#x214;" horiz-adv-x="651" 
d="M596 230q0 -71 -30.5 -127t-91.5 -88t-149 -32q-132 0 -201 67t-69 180v463h164v-456q0 -67 25.5 -99.5t80.5 -32.5q56 0 81.5 32.5t25.5 99.5v456h164v-463zM194 986l97 -197l-81 -38l-122 182zM370 986l88 -197l-83 -33l-113 180z" />
    <glyph glyph-name="uni0215" unicode="&#x215;" horiz-adv-x="572" 
d="M510 0h-137l-7 67q-58 -84 -161 -84q-73 0 -110.5 44t-37.5 123v381h158v-361q0 -39 12.5 -54.5t38.5 -15.5q50 0 86 62v369h158v-531zM165 860l97 -197l-81 -38l-122 182zM341 860l88 -197l-83 -33l-113 180z" />
    <glyph glyph-name="uni0216" unicode="&#x216;" horiz-adv-x="651" 
d="M596 230q0 -71 -30.5 -127t-91.5 -88t-149 -32q-132 0 -201 67t-69 180v463h164v-456q0 -67 25.5 -99.5t80.5 -32.5q56 0 81.5 32.5t25.5 99.5v456h164v-463zM445.5 903q45.5 -49 51.5 -124l-87 -15q-21 78 -86 78q-66 0 -85 -78l-87 15q6 76 51 124.5t121 48.5
t121.5 -49z" />
    <glyph glyph-name="uni0217" unicode="&#x217;" horiz-adv-x="572" 
d="M510 0h-137l-7 67q-58 -84 -161 -84q-73 0 -110.5 44t-37.5 123v381h158v-361q0 -39 12.5 -54.5t38.5 -15.5q50 0 86 62v369h158v-531zM404.5 741q45.5 -49 51.5 -124l-87 -15q-21 78 -86 78q-66 0 -85 -78l-87 15q6 76 51 124.5t121 48.5t121.5 -49z" />
    <glyph glyph-name="Scommaaccent" unicode="&#x218;" horiz-adv-x="572" 
d="M423.5 688q57.5 -22 104.5 -67l-76 -89q-71 58 -152 58q-43 0 -68 -17.5t-25 -50.5q0 -23 11 -37.5t39 -27.5t84 -31q106 -34 156 -83.5t50 -140.5q0 -65 -33 -114.5t-95 -77t-147 -27.5t-150.5 27t-112.5 72l83 91q40 -34 82.5 -51t92.5 -17q51 0 80.5 22.5t29.5 62.5
q0 26 -11 43.5t-38 31.5t-78 30q-115 35 -163.5 86t-48.5 129q0 60 32 105.5t89 70t129 24.5q78 0 135.5 -22zM340.5 -90q22.5 -22 22.5 -55q0 -19 -6 -36.5t-21 -47.5l-46 -96h-79l27 115q-33 26 -33 65q0 32 22.5 54.5t56.5 22.5t56.5 -22z" />
    <glyph glyph-name="scommaaccent" unicode="&#x219;" horiz-adv-x="483" 
d="M356 531q50 -17 88 -48l-58 -89q-65 41 -131 41q-31 0 -47.5 -10.5t-16.5 -29.5q0 -15 7.5 -24.5t30.5 -19.5t71 -24q83 -24 123.5 -62.5t40.5 -106.5q0 -54 -31 -93.5t-85 -60.5t-120 -21q-67 0 -124.5 21t-97.5 58l77 86q67 -52 141 -52q36 0 56.5 13t20.5 37
q0 19 -8 30t-31 20.5t-73 23.5q-79 23 -118 64t-39 102q0 46 26.5 82.5t76 58t114.5 21.5q57 0 107 -17zM299.5 -90q22.5 -22 22.5 -55q0 -19 -6 -36.5t-21 -47.5l-46 -96h-79l27 115q-33 26 -33 65q0 32 22.5 54.5t56.5 22.5t56.5 -22z" />
    <glyph glyph-name="uni021A" unicode="&#x21a;" horiz-adv-x="540" 
d="M539 693l-16 -126h-171v-567h-164v567h-179v126h530zM327.5 -90q22.5 -22 22.5 -55q0 -19 -6 -36.5t-21 -47.5l-46 -96h-79l27 115q-33 26 -33 65q0 32 22.5 54.5t56.5 22.5t56.5 -22z" />
    <glyph glyph-name="uni021B" unicode="&#x21b;" horiz-adv-x="386" 
d="M395 25q-29 -20 -67.5 -31t-76.5 -11q-174 1 -174 192v246h-75v110h75v115l158 18v-133h122l-17 -110h-105v-244q0 -37 12 -53t38 -16q27 0 57 17zM291.5 -90q22.5 -22 22.5 -55q0 -19 -6 -36.5t-21 -47.5l-46 -96h-79l27 115q-33 26 -33 65q0 32 22.5 54.5t56.5 22.5
t56.5 -22z" />
    <glyph glyph-name="uni021C" unicode="&#x21c;" horiz-adv-x="520" 
d="M362.5 686q53.5 -24 82 -66t28.5 -97q0 -65 -39 -107t-116 -58q176 -20 176 -163q0 -106 -103 -187t-322 -121l-13 121q105 27 163.5 56.5t80.5 62.5t22 75q0 94 -124 94h-73l20 118h56q50 0 77 23.5t27 67.5q0 40 -22 63t-69 23q-69 0 -140 -56l-76 83q97 92 238 92
q73 0 126.5 -24z" />
    <glyph glyph-name="uni021D" unicode="&#x21d;" horiz-adv-x="481" 
d="M363 507.5q59 -40.5 59 -111.5q0 -48 -28.5 -78t-87.5 -45q69 -4 106 -34.5t37 -83.5q0 -87 -101.5 -156t-288.5 -106l-15 104q129 39 184.5 75.5t56.5 86.5q0 53 -70 53h-95l10 102h51q82 0 82 66q0 30 -19 44.5t-52 14.5q-34 0 -61 -8.5t-56 -26.5l-72 82q88 62 211 62
q90 0 149 -40.5z" />
    <glyph glyph-name="uni021E" unicode="&#x21e;" horiz-adv-x="666" 
d="M437 0v297h-208v-297h-164v693h164v-268h208v268h164v-693h-164zM466 944l56 -65l-141 -129h-96l-142 129l57 65l133 -84z" />
    <glyph glyph-name="uni021F" unicode="&#x21f;" horiz-adv-x="577" 
d="M481 506q39 -42 39 -118v-388h-158v361q0 40 -13 55.5t-37 15.5q-48 0 -92 -68v-364h-158v742l158 16v-284q33 37 70 55.5t83 18.5q69 0 108 -42zM421 993l56 -65l-141 -129h-96l-142 129l57 65l133 -84z" />
    <glyph glyph-name="uni0220" unicode="&#x220;" horiz-adv-x="654" 
d="M549.5 659q45.5 -51 45.5 -134v-735h-164v709q0 45 -17.5 67t-55.5 22t-67 -16t-62 -52v-520h-164v693h143l13 -66q44 43 89 63t105 20q89 0 134.5 -51z" />
    <glyph glyph-name="uni0221" unicode="&#x221;" horiz-adv-x="788" 
d="M761.5 214q34.5 -31 34.5 -83q0 -72 -53.5 -110t-138.5 -38q-27 0 -50 4l-31 -71l-78 30l31 66q-48 26 -71 70q-62 -99 -166 -99q-99 0 -150.5 76t-51.5 208q0 82 26.5 145.5t76.5 99.5t117 36q36 0 67.5 -13t55.5 -37v261l158 -17v-552q0 -28 4 -43q24 52 55 75t78 23
q52 0 86.5 -31zM339.5 114.5q22.5 15.5 42.5 46.5q-2 22 -2 33v194q-19 23 -38 34t-44 11q-45 0 -71 -40.5t-26 -126.5q0 -93 22.5 -130t65.5 -37q28 0 50.5 15.5zM686 133q0 13 -7 20t-20 7q-17 0 -28.5 -13t-27.5 -49q7 -1 24 -1q59 0 59 36z" />
    <glyph glyph-name="uni0222" unicode="&#x222;" horiz-adv-x="651" 
d="M584.5 329.5q33.5 -46.5 33.5 -111.5q0 -63 -35.5 -117t-102 -86t-155.5 -32t-155 31t-101.5 84.5t-35.5 118.5q0 63 33.5 109.5t96.5 71.5q-89 48 -89 153v142h164v-149q0 -47 20 -71t68 -24q88 0 88 95v149h164v-142q0 -50 -23.5 -88.5t-67.5 -62.5q64 -24 97.5 -70.5z
M416 133.5q30 30.5 30 86.5q0 53 -31 83.5t-90 30.5q-58 0 -89 -30.5t-31 -84.5q0 -55 31 -85.5t89 -30.5q61 0 91 30.5z" />
    <glyph glyph-name="uni0223" unicode="&#x223;" horiz-adv-x="578" 
d="M546 225q0 -67 -30.5 -122.5t-88.5 -87.5t-138 -32t-138.5 31.5t-88.5 86.5t-30 124t30 117.5t87 72.5q-79 43 -79 140v187h156v-212q0 -71 63 -71q35 0 49.5 17.5t14.5 53.5v212h156v-187q0 -92 -82 -138q119 -48 119 -192zM361 130q22 31 22 97q0 64 -22.5 96t-71.5 32
q-94 0 -94 -129q0 -64 23 -95.5t71 -31.5q50 0 72 31z" />
    <glyph glyph-name="uni0224" unicode="&#x224;" horiz-adv-x="538" 
d="M512 569l-301 -438h299v-162q0 -94 -54 -142.5t-147 -48.5q-85 0 -141 43l53 97q23 -12 37 -16.5t37 -4.5q58 0 58 61v42h-335v123l307 443h-276v127h463v-124z" />
    <glyph glyph-name="uni0225" unicode="&#x225;" horiz-adv-x="453" 
d="M436 420l-240 -300h239v-151q0 -93 -53 -142t-145 -49q-83 0 -140 43l53 93q23 -11 37.5 -16t37.5 -5q28 0 43.5 15.5t15.5 45.5v46h-271v112l241 300h-220v119h402v-111z" />
    <glyph glyph-name="uni0226" unicode="&#x226;" horiz-adv-x="590" 
d="M430 0l-36 149h-202l-35 -149h-170l209 693h199l209 -693h-174zM220 268h146l-73 306zM362.5 911.5q26.5 -25.5 26.5 -64.5t-26.5 -64.5t-67.5 -25.5t-67 25.5t-26 64.5t26 64.5t67 25.5t67.5 -25.5z" />
    <glyph glyph-name="uni0227" unicode="&#x227;" horiz-adv-x="548" 
d="M492.5 110q8.5 -14 27.5 -21l-33 -103q-49 4 -80 21.5t-48 55.5q-52 -80 -160 -80q-79 0 -126 46t-47 120q0 87 64 133t185 46h54v23q0 47 -20 64.5t-70 17.5q-26 0 -63 -7.5t-76 -20.5l-36 104q50 19 102.5 29t97.5 10q114 0 167 -47t53 -141v-206q0 -30 8.5 -44z
M329 147v94h-39q-54 0 -80.5 -19t-26.5 -59q0 -32 16.5 -49.5t45.5 -17.5q54 0 84 51zM337.5 785.5q26.5 -25.5 26.5 -64.5t-26.5 -64.5t-67.5 -25.5t-67 25.5t-26 64.5t26 64.5t67 25.5t67.5 -25.5z" />
    <glyph glyph-name="uni0228" unicode="&#x228;" horiz-adv-x="526" 
d="M229 118h261v-118h-172v-48q53 -6 78.5 -31.5t25.5 -67.5q0 -51 -40.5 -83t-108.5 -32q-34 0 -63 8.5t-49 21.5l36 73q34 -17 64 -17q47 0 47 30q0 18 -22 26t-70 8l13 112h-164v693h425l-17 -117h-244v-166h213v-115h-213v-177z" />
    <glyph glyph-name="uni0229" unicode="&#x229;" horiz-adv-x="552" 
d="M522 219h-329q8 -67 38 -94t83 -27q32 0 62 11.5t65 35.5l65 -88q-76 -61 -169 -72v-33q53 -6 78.5 -31.5t25.5 -67.5q0 -51 -40.5 -83t-108.5 -32q-34 0 -63 8.5t-49 21.5l36 73q34 -17 64 -17q47 0 47 30q0 18 -22 26t-70 8l12 99q-105 15 -160 88.5t-55 187.5
q0 81 29 145.5t85 102t134 37.5q115 0 180 -72t65 -200q0 -33 -3 -57zM370 321q-2 122 -86 122q-41 0 -63.5 -30t-27.5 -99h177v7z" />
    <glyph glyph-name="uni022A" unicode="&#x22a;" horiz-adv-x="691" 
d="M575.5 615q82.5 -95 82.5 -268q0 -113 -37.5 -195t-108 -125.5t-167.5 -43.5t-167 43t-107.5 124.5t-37.5 196.5q0 112 37.5 194t107.5 125.5t167 43.5q148 0 230.5 -95zM239.5 532.5q-34.5 -57.5 -34.5 -185.5t35 -186t105 -58q72 0 106.5 57.5t34.5 186.5t-35 186
t-106 57t-105.5 -57.5zM286.5 880q23.5 -23 23.5 -56t-23.5 -56t-57.5 -23t-57.5 23t-23.5 56t23.5 56t57.5 23t57.5 -23zM518 880q23 -23 23 -56t-23 -56t-58 -23q-33 0 -56.5 23t-23.5 56t23.5 56t56.5 23q35 0 58 -23zM500 940h-305v110h305v-110z" />
    <glyph glyph-name="uni022B" unicode="&#x22b;" horiz-adv-x="584" 
d="M483 473.5q69 -74.5 69 -208.5q0 -85 -31.5 -148.5t-90 -98.5t-138.5 -35q-121 0 -190.5 74.5t-69.5 208.5q0 85 31.5 148.5t90 98.5t138.5 35q122 0 191 -74.5zM220 391.5q-24 -40.5 -24 -125.5q0 -87 23.5 -127t72.5 -40q48 0 72 40.5t24 125.5q0 87 -23.5 127
t-72.5 40q-48 0 -72 -40.5zM232.5 737q23.5 -23 23.5 -56t-23.5 -56t-57.5 -23t-57.5 23t-23.5 56t23.5 56t57.5 23t57.5 -23zM464 737q23 -23 23 -56t-23 -56t-58 -23q-33 0 -56.5 23t-23.5 56t23.5 56t56.5 23q35 0 58 -23zM443 801h-305v110h305v-110z" />
    <glyph glyph-name="uni022C" unicode="&#x22c;" horiz-adv-x="691" 
d="M575.5 615q82.5 -95 82.5 -268q0 -113 -37.5 -195t-108 -125.5t-167.5 -43.5t-167 43t-107.5 124.5t-37.5 196.5q0 112 37.5 194t107.5 125.5t167 43.5q148 0 230.5 -95zM239.5 532.5q-34.5 -57.5 -34.5 -185.5t35 -186t105 -58q72 0 106.5 57.5t34.5 186.5t-35 186
t-106 57t-105.5 -57.5zM365 763q-16 7 -35 20q-25 18 -41 18q-17 0 -28.5 -10.5t-24.5 -33.5l-79 38q20 52 53.5 85t75.5 33q23 0 39.5 -7.5t36.5 -20.5q14 -9 22.5 -13t17.5 -4q16 0 27.5 10.5t24.5 33.5l79 -39q-21 -53 -54.5 -85t-75.5 -32q-22 0 -38 7zM497 943h-305
v110h305v-110z" />
    <glyph glyph-name="uni022D" unicode="&#x22d;" horiz-adv-x="584" 
d="M483 473.5q69 -74.5 69 -208.5q0 -85 -31.5 -148.5t-90 -98.5t-138.5 -35q-121 0 -190.5 74.5t-69.5 208.5q0 85 31.5 148.5t90 98.5t138.5 35q122 0 191 -74.5zM220 391.5q-24 -40.5 -24 -125.5q0 -87 23.5 -127t72.5 -40q48 0 72 40.5t24 125.5q0 87 -23.5 127
t-72.5 40q-48 0 -72 -40.5zM312 601q-16 7 -35 20q-25 18 -41 18q-17 0 -28.5 -10.5t-24.5 -33.5l-79 38q20 52 53.5 85t75.5 33q23 0 39.5 -7.5t36.5 -20.5q14 -9 22.5 -13t17.5 -4q16 0 27.5 10.5t24.5 33.5l79 -39q-21 -53 -54.5 -85t-75.5 -32q-22 0 -38 7zM444 832
h-305v110h305v-110z" />
    <glyph glyph-name="uni022E" unicode="&#x22e;" horiz-adv-x="691" 
d="M575.5 615q82.5 -95 82.5 -268q0 -113 -37.5 -195t-108 -125.5t-167.5 -43.5t-167 43t-107.5 124.5t-37.5 196.5q0 112 37.5 194t107.5 125.5t167 43.5q148 0 230.5 -95zM239.5 532.5q-34.5 -57.5 -34.5 -185.5t35 -186t105 -58q72 0 106.5 57.5t34.5 186.5t-35 186
t-106 57t-105.5 -57.5zM411.5 911.5q26.5 -25.5 26.5 -64.5t-26.5 -64.5t-67.5 -25.5t-67 25.5t-26 64.5t26 64.5t67 25.5t67.5 -25.5z" />
    <glyph glyph-name="uni022F" unicode="&#x22f;" horiz-adv-x="584" 
d="M483 473.5q69 -74.5 69 -208.5q0 -85 -31.5 -148.5t-90 -98.5t-138.5 -35q-121 0 -190.5 74.5t-69.5 208.5q0 85 31.5 148.5t90 98.5t138.5 35q122 0 191 -74.5zM220 391.5q-24 -40.5 -24 -125.5q0 -87 23.5 -127t72.5 -40q48 0 72 40.5t24 125.5q0 87 -23.5 127
t-72.5 40q-48 0 -72 -40.5zM358.5 785.5q26.5 -25.5 26.5 -64.5t-26.5 -64.5t-67.5 -25.5t-67 25.5t-26 64.5t26 64.5t67 25.5t67.5 -25.5z" />
    <glyph glyph-name="uni0230" unicode="&#x230;" horiz-adv-x="691" 
d="M575.5 615q82.5 -95 82.5 -268q0 -113 -37.5 -195t-108 -125.5t-167.5 -43.5t-167 43t-107.5 124.5t-37.5 196.5q0 112 37.5 194t107.5 125.5t167 43.5q148 0 230.5 -95zM239.5 532.5q-34.5 -57.5 -34.5 -185.5t35 -186t105 -58q72 0 106.5 57.5t34.5 186.5t-35 186
t-106 57t-105.5 -57.5zM410.5 890.5q26.5 -25.5 26.5 -64.5t-26.5 -64.5t-67.5 -25.5t-67 25.5t-26 64.5t26 64.5t67 25.5t67.5 -25.5zM497 941h-305v110h305v-110z" />
    <glyph glyph-name="uni0231" unicode="&#x231;" horiz-adv-x="584" 
d="M483 473.5q69 -74.5 69 -208.5q0 -85 -31.5 -148.5t-90 -98.5t-138.5 -35q-121 0 -190.5 74.5t-69.5 208.5q0 85 31.5 148.5t90 98.5t138.5 35q122 0 191 -74.5zM220 391.5q-24 -40.5 -24 -125.5q0 -87 23.5 -127t72.5 -40q48 0 72 40.5t24 125.5q0 87 -23.5 127
t-72.5 40q-48 0 -72 -40.5zM358.5 747.5q26.5 -25.5 26.5 -64.5t-26.5 -64.5t-67.5 -25.5t-67 25.5t-26 64.5t26 64.5t67 25.5t67.5 -25.5zM444 803h-305v110h305v-110z" />
    <glyph glyph-name="uni0232" unicode="&#x232;" horiz-adv-x="594" 
d="M601 693l-222 -433v-260h-164v259l-222 434h179l128 -305l128 305h173zM449 781h-305v110h305v-110z" />
    <glyph glyph-name="uni0233" unicode="&#x233;" horiz-adv-x="518" 
d="M355 -1q-32 -103 -104.5 -158.5t-194.5 -62.5l-17 111q76 10 112.5 34t58.5 77h-54l-162 531h168l95 -430l104 430h163zM411 655h-305v110h305v-110z" />
    <glyph glyph-name="uni0234" unicode="&#x234;" horiz-adv-x="466" 
d="M438.5 214q34.5 -31 34.5 -83q0 -72 -53.5 -110t-137.5 -38q-27 0 -50 4l-32 -71l-78 30l32 66q-45 23 -71 68.5t-26 113.5v548l158 17v-569q0 -28 4 -43q24 52 55 75t78 23q52 0 86.5 -31zM363 133q0 13 -7 20t-20 7q-16 0 -27.5 -13t-28.5 -49q7 -1 25 -1q58 0 58 36z
" />
    <glyph glyph-name="uni0235" unicode="&#x235;" horiz-adv-x="771" 
d="M744 214q34 -31 34 -83q0 -72 -53 -110t-138 -38q-27 0 -50 4l-32 -71l-77 30l31 66q-45 23 -71 68.5t-26 113.5v167q0 40 -12.5 55.5t-37.5 15.5q-48 0 -92 -69v-363h-158v531h138l11 -63q34 40 73.5 60t88.5 20q69 0 108 -42t39 -118v-198q0 -29 4 -45q24 53 54.5 76.5
t79.5 23.5q52 0 86 -31zM668 133q0 27 -27 27q-16 0 -27.5 -13t-27.5 -49q7 -1 24 -1q58 0 58 36z" />
    <glyph glyph-name="uni0236" unicode="&#x236;" horiz-adv-x="485" 
d="M458.5 214q34.5 -31 34.5 -83q0 -72 -53.5 -110t-138.5 -38q-24 0 -50 3l-31 -70l-78 30l31 65q-96 50 -96 183v227h-75v110h75v115l158 18v-133h122l-17 -110h-105v-231q0 -28 4 -43q24 52 55 75t78 23q52 0 86.5 -31zM383 133q0 13 -7 20t-20 7q-17 0 -28.5 -13
t-27.5 -49q7 -1 24 -1q59 0 59 36z" />
    <glyph glyph-name="uni0237" unicode="&#x237;" horiz-adv-x="281" 
d="M219 60q0 -83 -26.5 -137t-72 -86.5t-114.5 -57.5l-53 115q39 18 61 35t34.5 45.5t12.5 75.5v481h158v-471z" />
    <glyph glyph-name="uni0238" unicode="&#x238;" horiz-adv-x="875" 
d="M789.5 473q48.5 -75 48.5 -208q0 -81 -25 -145.5t-70.5 -100.5t-105.5 -36q-40 0 -73 20t-55 56l-9 -59h-122l-8 61q-25 -35 -61 -56.5t-80 -21.5q-92 0 -142 76.5t-50 207.5q0 81 25.5 145t71.5 100t106 36q34 0 65 -16t55 -48v258l158 17v-283q24 34 59 53t78 19
q86 0 134.5 -75zM360 158v224q-34 51 -77 51q-37 0 -59.5 -41t-22.5 -126q0 -167 78 -167q43 0 81 59zM651.5 138q22.5 40 22.5 127q0 94 -20 130.5t-55 36.5q-44 0 -81 -56v-219q32 -59 77 -59q34 0 56.5 40z" />
    <glyph glyph-name="uni0239" unicode="&#x239;" horiz-adv-x="875" 
d="M790.5 473.5q47.5 -74.5 47.5 -206.5q0 -81 -25 -146t-69.5 -101.5t-102.5 -36.5q-36 0 -68 17t-55 51v-256l-158 -17v270q-52 -65 -133 -65q-91 0 -140.5 76.5t-49.5 207.5q0 81 26 145t73 100t108 36q77 0 128 -76l7 59h120l8 -63q30 43 65 61.5t78 18.5
q93 0 140.5 -74.5zM360 158v217q-18 31 -36 44.5t-41 13.5q-37 0 -59.5 -41t-22.5 -126q0 -167 76 -167q45 0 83 59zM651.5 140q22.5 41 22.5 125q0 93 -18.5 130t-54.5 37q-22 0 -43.5 -15.5t-39.5 -42.5v-220q31 -55 75 -55q36 0 58.5 41z" />
    <glyph glyph-name="uni023A" unicode="&#x23a;" horiz-adv-x="590" 
d="M444 0l-38 149h-114l-59 -223l-58 13l56 210h-50l-38 -149h-156l209 693h178l17 63l57 -14l-32 -120l188 -622h-160zM209 261h51l60 225l-27 104zM321 261h56l-27 108z" />
    <glyph glyph-name="uni023B" unicode="&#x23b;" horiz-adv-x="575" 
d="M472.5 8q-55.5 -25 -122.5 -25q-41 0 -75 7l-17 -64l-58 13l18 69q-87 36 -136 123t-49 217q0 113 40.5 195t112 124.5t162.5 42.5q32 0 56 -4l13 50l57 -14l-13 -50q53 -19 98 -58l-78 -93q-28 21 -52 32l-120 -455q24 -8 49 -8q38 0 69 14.5t67 41.5l73 -94
q-39 -39 -94.5 -64zM257 154l115 434q-5 1 -16 1q-70 0 -110.5 -59t-40.5 -182q0 -136 52 -194z" />
    <glyph glyph-name="uni023C" unicode="&#x23c;" horiz-adv-x="479" 
d="M352 116.5q22 8.5 53 27.5l69 -98q-79 -63 -179 -63q-25 0 -48 3l-16 -60l-56 13l16 61q-75 29 -117 97t-42 164q0 84 32 149t91 101.5t137 36.5q24 0 45 -3l15 56l55 -14l-15 -56q41 -14 82 -48l-68 -94q-18 14 -45 27l-81 -306q14 -2 23 -2q27 0 49 8.5zM228 139
l77 288q-53 0 -80 -39t-27 -126t30 -123z" />
    <glyph glyph-name="uni023D" unicode="&#x23d;" horiz-adv-x="530" 
d="M246 130h270l-17 -130h-417v302h-77v122h77v269h164v-269h78v-122h-78v-172z" />
    <glyph glyph-name="uni023E" unicode="&#x23e;" horiz-adv-x="540" 
d="M523 573h-88l-93 -200v-373h-144v64l-64 -138l-50 23l114 245v379h-189v120h421l30 65l50 -24l-19 -41h48zM342 504l32 69h-32v-69z" />
    <glyph glyph-name="uni023F" unicode="&#x23f;" horiz-adv-x="484" 
d="M429 -95l32 -96q-41 -30 -104 -30q-46 0 -80 16.5t-58 42.5t-58 71q-35 46 -62.5 77t-65.5 59l-25 17l67 86q76 -52 151 -52q35 0 55 12.5t20 36.5q0 19 -8 30.5t-31 21t-73 23.5q-79 23 -118 64t-39 102q0 46 26.5 82.5t76 58t114.5 21.5q57 0 107 -17t88 -48l-58 -89
q-65 41 -131 41q-31 0 -47.5 -10.5t-16.5 -29.5q0 -15 7.5 -24.5t30.5 -19.5t71 -24q83 -24 123.5 -62.5t40.5 -106.5q0 -53 -30 -92t-80.5 -60.5t-111.5 -22.5q18 -10 32.5 -23.5t26.5 -25.5q21 -21 36.5 -30.5t39.5 -9.5q25 0 52 11z" />
    <glyph glyph-name="uni0240" unicode="&#x240;" horiz-adv-x="437" 
d="M309 -207.5q-31 13.5 -51.5 33.5t-48.5 55q-28 36 -51 58.5t-58.5 39.5t-86.5 21v112l241 300h-220v119h402v-111l-275 -334q52 -19 83.5 -48.5t63.5 -73.5q27 -37 45.5 -53.5t47.5 -16.5q17 0 28 2.5t26 8.5l32 -96q-41 -30 -104 -30q-43 0 -74 13.5z" />
    <glyph glyph-name="uni0241" unicode="&#x241;" horiz-adv-x="509" 
d="M147 330l55 15q62 18 89.5 49.5t27.5 90.5q0 49 -26 77.5t-74 28.5q-36 0 -68.5 -13.5t-67.5 -42.5l-79 83q98 92 237 92q76 0 132 -27t86 -76.5t30 -113.5q0 -83 -38.5 -130t-114.5 -75l-25 -9v-279h-164v330z" />
    <glyph glyph-name="uni0242" unicode="&#x242;" horiz-adv-x="463" 
d="M111 203l52 14q53 15 80.5 43t27.5 75q0 43 -23.5 69t-63.5 26q-34 0 -58.5 -11t-53.5 -35l-76 80q43 42 92 63t112 21q70 0 123.5 -27t82.5 -74.5t29 -109.5q0 -72 -36 -114t-102 -64l-28 -9v-150h-158v203z" />
    <glyph glyph-name="uni0243" unicode="&#x243;" horiz-adv-x="631" 
d="M560.5 316q43.5 -38 43.5 -114q0 -111 -79.5 -156.5t-222.5 -45.5h-223v175h-65v80h65v438h196q146 0 223 -41.5t77 -135.5q0 -61 -36.5 -98.5t-90.5 -50.5q69 -13 112.5 -51zM243 577v-161h61q104 0 104 84q0 42 -28 59.5t-89 17.5h-48zM401.5 138.5
q33.5 19.5 33.5 72.5q0 96 -120 96h-72v-52h115v-80h-115v-56h60q65 0 98.5 19.5z" />
    <glyph glyph-name="uni0244" unicode="&#x244;" horiz-adv-x="681" 
d="M668 500h-57v-270q0 -71 -30.5 -127t-91.5 -88t-149 -32q-132 0 -201 67t-69 180v270h-57v92h57v101h164v-101h213v101h164v-101h57v-92zM447 500h-213v-263q0 -67 25.5 -99.5t80.5 -32.5q56 0 81.5 32.5t25.5 99.5v263z" />
    <glyph glyph-name="uni0245" unicode="&#x245;" horiz-adv-x="590" 
d="M395 693l209 -693h-174l-136 574l-137 -574h-170l209 693h199z" />
    <glyph glyph-name="uni0246" unicode="&#x246;" horiz-adv-x="526" 
d="M337 295l-47 -177h200v-118h-231l-20 -74l-58 13l16 61h-132v693h315l17 63l58 -14l-13 -49h48l-17 -117h-62l-44 -166h75v-115h-105zM229 576v-166h77l43 166h-120zM229 295v-174l46 174h-46z" />
    <glyph glyph-name="uni0247" unicode="&#x247;" horiz-adv-x="552" 
d="M292 222l-31 -118q23 -6 53 -6q32 0 62 11.5t65 35.5l65 -88q-93 -74 -207 -74q-37 0 -69 6l-17 -63l-53 13l18 66q-72 30 -109 97.5t-37 160.5q0 81 29 145.5t85 102t134 37.5q23 0 42 -3l15 56l53 -14l-15 -55q72 -26 111 -92t39 -164q0 -30 -3 -54h-230zM210.5 415
q-24.5 -31 -29.5 -104h78l36 135h-11q-49 0 -73.5 -31zM347 428l-31 -117h69v7q0 80 -38 110zM236 222h-55q6 -58 31 -88z" />
    <glyph glyph-name="uni0248" unicode="&#x248;" horiz-adv-x="337" 
d="M333 282h-77v-177q0 -83 -29.5 -137t-78 -84.5t-115.5 -52.5l-44 116q44 17 66 39t29.5 51t7.5 74v171h-78v122h78v289h164v-289h77v-122z" />
    <glyph glyph-name="uni0249" unicode="&#x249;" horiz-adv-x="331" 
d="M325 203h-79v-143q0 -83 -26.5 -137t-72 -86.5t-114.5 -57.5l-53 115q39 18 61 35t34.5 45.5t12.5 75.5v153h-81v110h81v218h158v-218h79v-110zM234.5 785.5q26.5 -25.5 26.5 -64.5t-26.5 -64.5t-67.5 -25.5t-67 25.5t-26 64.5t26 64.5t67 25.5t67.5 -25.5z" />
    <glyph glyph-name="uni024A" unicode="&#x24a;" horiz-adv-x="673" 
d="M786 -179q-57 -43 -141 -43q-93 0 -147 48.5t-54 142.5v67q-55 -53 -138 -53q-81 0 -142.5 41.5t-96 121t-34.5 189.5q0 116 35.5 201t98 129.5t142.5 44.5q85 0 147 -57l6 40h146v-735q0 -30 14 -45.5t40 -15.5q20 0 34 5t36 16zM444 141v408q-44 41 -102 41
q-68 0 -102.5 -60t-34.5 -195q0 -126 34.5 -180.5t99.5 -54.5q61 0 105 41z" />
    <glyph glyph-name="uni024B" unicode="&#x24b;" horiz-adv-x="600" 
d="M622 -204q-17 -8 -43 -13t-53 -5q-69 0 -107.5 39.5t-38.5 112.5v121q-53 -68 -141 -68q-99 0 -150.5 76t-51.5 208q0 82 26.5 145.5t76.5 99.5t117 36q79 0 135 -63l8 46h138v-596q0 -32 27 -32q12 0 26 4zM380 159v229q-19 23 -38 34t-44 11q-45 0 -71 -40.5
t-26 -126.5q0 -93 22.5 -130t65.5 -37q54 0 91 60z" />
    <glyph glyph-name="uni024C" unicode="&#x24c;" horiz-adv-x="631" 
d="M449 0l-142 265h-64v-265h-164v265h-65v113h65v315h227q142 0 213.5 -52t71.5 -159q0 -67 -32 -111.5t-101 -75.5l176 -295h-185zM312 378q55 0 82.5 25t27.5 79q0 50 -29.5 73t-90.5 23h-59v-200h69z" />
    <glyph glyph-name="uni024D" unicode="&#x24d;" horiz-adv-x="424" 
d="M426 539l-25 -153q-30 7 -48 7q-44 0 -68.5 -29.5t-38.5 -88.5h78v-110h-81v-165h-158v165h-80v110h80v256h138l13 -103q18 55 54.5 86.5t82.5 31.5q29 0 53 -7z" />
    <glyph glyph-name="uni024E" unicode="&#x24e;" horiz-adv-x="594" 
d="M602 693l-40 -78h40v-92h-87l-135 -263v-260h-165v259l-135 264h-86v92h39l-40 78h174l33 -78h202l33 78h167zM300 375l63 148h-125z" />
    <glyph glyph-name="uni024F" unicode="&#x24f;" horiz-adv-x="541" 
d="M491 394h42v-90h-70l-97 -305q-32 -103 -104.5 -158.5t-194.5 -62.5l-17 111q76 10 112.5 34t58.5 77h-54l-93 304h-68v90h41l-42 137h168l30 -137h136l33 137h163zM268 101l49 203h-94z" />
    <glyph glyph-name="uni0250" unicode="&#x250;" horiz-adv-x="548" 
d="M372 105.5q37 7.5 76 20.5l36 -104q-50 -19 -102.5 -29t-97.5 -10q-114 0 -167 47t-53 141v206q0 30 -8.5 44t-27.5 21l33 103q49 -4 80 -21.5t48 -55.5q52 80 160 80q79 0 126 -46t47 -120q0 -87 -64 -133t-185 -46h-54v-23q0 -47 20 -64.5t70 -17.5q26 0 63 7.5z
M219 384v-94h39q54 0 80.5 19t26.5 59q0 32 -16.5 49.5t-45.5 17.5q-54 0 -84 -51z" />
    <glyph glyph-name="uni0251" unicode="&#x251;" horiz-adv-x="597" 
d="M539.5 126q9.5 -17 33.5 -29l-46 -114q-53 10 -85.5 29.5t-49.5 51.5q-27 -37 -67.5 -59t-87.5 -22q-99 0 -152 76t-53 208q0 82 27 145.5t77 99.5t117 36q81 0 131 -62l9 45h137v-353q0 -35 9.5 -52zM372 157v232q-19 22 -39 33t-45 11q-43 0 -67.5 -40.5t-24.5 -126.5
q0 -93 22 -130t63 -37q54 0 91 58z" />
    <glyph glyph-name="uni0252" unicode="&#x252;" horiz-adv-x="597" 
d="M512 472q53 -76 53 -208q0 -82 -27 -145.5t-77 -99.5t-117 -36q-81 0 -131 62l-9 -45h-137v353q0 35 -9.5 52t-33.5 29l46 114q53 -10 85.5 -29.5t49.5 -51.5q27 37 67.5 59t87.5 22q99 0 152 -76zM376.5 138.5q24.5 40.5 24.5 126.5q0 93 -22 130t-63 37q-54 0 -91 -58
v-232q19 -22 39 -33t45 -11q43 0 67.5 40.5z" />
    <glyph glyph-name="uni0253" unicode="&#x253;" horiz-adv-x="597" 
d="M508.5 474q51.5 -74 51.5 -209q0 -82 -25.5 -146t-73 -100t-112.5 -36q-43 0 -78.5 18t-60.5 50l-8 -51h-140v578q0 80 52.5 130.5t150.5 50.5q79 0 145 -34l-43 -101q-42 18 -83 18q-34 0 -49 -16t-15 -54v-95q24 33 61.5 52t78.5 19q97 0 148.5 -74zM396 265
q0 94 -22 130.5t-63 36.5q-54 0 -91 -62v-221q15 -24 37 -37.5t47 -13.5q92 0 92 167z" />
    <glyph glyph-name="uni0254" unicode="&#x254;" horiz-adv-x="476" 
d="M5 43l71 92q26 -18 48.5 -26.5t51.5 -9.5q52 0 78 40.5t26 125.5q0 87 -24 127t-74 40q-54 0 -105 -35l-67 89q73 62 181 62q119 0 186 -74t67 -209q0 -85 -31 -148.5t-90 -98.5t-139 -35q-105 0 -179 60z" />
    <glyph glyph-name="uni0255" unicode="&#x255;" horiz-adv-x="501" 
d="M459 223q36 -32 36 -88q0 -74 -54 -113t-137 -39q-37 0 -70 7l-34 -74l-77 30l34 73q-60 32 -92.5 95t-32.5 147t32 149t91 101.5t137 36.5q55 0 99 -16t83 -49l-69 -95q-48 39 -100 39q-53 0 -80 -39t-27 -126q0 -72 21 -114q25 57 60 82t88 25q56 0 92 -32zM384 139
q0 30 -31 30q-21 0 -37 -15t-33 -52q22 -5 41 -5q60 0 60 42z" />
    <glyph glyph-name="uni0256" unicode="&#x256;" horiz-adv-x="600" 
d="M718 -179q-57 -43 -142 -43q-90 0 -143 49t-53 142v80q-54 -66 -141 -66q-99 0 -150.5 76t-51.5 208q0 82 26.5 145.5t76.5 99.5t117 36q36 0 67.5 -13t55.5 -37v261l158 -17v-788q0 -30 15 -45.5t42 -15.5q20 0 34 4.5t36 15.5zM380 159v229q-19 23 -38 34t-44 11
q-45 0 -71 -40.5t-26 -126.5q0 -93 22.5 -130t65.5 -37q54 0 91 60z" />
    <glyph glyph-name="uni0257" unicode="&#x257;" horiz-adv-x="600" 
d="M703 721l-46 -98q-19 10 -34 14.5t-33 4.5q-26 0 -39 -14.5t-13 -46.5v-581h-140l-8 62q-56 -79 -151 -79q-99 0 -150.5 76t-51.5 208q0 82 26.5 145.5t76.5 99.5t117 36q36 0 67.5 -13t55.5 -37v78q0 83 49 133t139 50q76 0 135 -38zM380 159v229q-19 23 -38 34t-44 11
q-45 0 -71 -40.5t-26 -126.5q0 -93 22.5 -130t65.5 -37q54 0 91 60z" />
    <glyph glyph-name="uni0258" unicode="&#x258;" horiz-adv-x="552" 
d="M458 471q62 -77 62 -208q0 -128 -69 -204t-198 -76q-114 0 -206 74l65 88q35 -25 65.5 -36t64.5 -11q53 0 82 26.5t35 94.5h-329q-3 48 -3 57q0 128 66 200t179 72q124 0 186 -77zM183 314h177q-4 73 -24.5 101t-64.5 28q-88 0 -88 -122v-7z" />
    <glyph glyph-name="uni0259" unicode="&#x259;" horiz-adv-x="556" 
d="M460.5 472.5q63.5 -75.5 63.5 -206.5q0 -81 -29.5 -145.5t-86 -101t-135.5 -36.5q-74 0 -129.5 32.5t-86 93.5t-30.5 146q0 32 3 57h341q-4 64 -31 94t-77 30q-37 0 -68.5 -10t-65.5 -34l-66 88q86 68 206 68q128 0 191.5 -75.5zM342.5 123.5q24.5 28.5 28.5 93.5h-195
v-7q1 -54 26 -84.5t71 -30.5q45 0 69.5 28.5z" />
    <glyph glyph-name="uni025A" unicode="&#x25a;" horiz-adv-x="826" 
d="M839 344q-55 -37 -125 -37t-109.5 32t-47.5 89l-1 6l-55 -32q23 -56 23 -136q0 -81 -29.5 -145.5t-86 -101t-135.5 -36.5q-74 0 -129.5 32.5t-86 93.5t-30.5 146q0 32 3 57h341q-4 64 -31 94t-77 30q-37 0 -68.5 -10t-65.5 -34l-66 88q86 68 206 68q117 0 184 -67l96 50
h131v-59q0 -55 52 -55q18 0 31 4t32 12zM342.5 123.5q24.5 28.5 28.5 93.5h-195v-7q1 -54 26 -84.5t71 -30.5q45 0 69.5 28.5z" />
    <glyph glyph-name="uni025B" unicode="&#x25b;" horiz-adv-x="480" 
d="M462 488l-65 -82q-30 17 -56 25t-57 8q-33 0 -52.5 -14.5t-19.5 -41.5t19.5 -43t55.5 -16h67l-16 -102h-58q-44 0 -64 -15.5t-20 -46.5q0 -30 22 -47t66 -17q32 0 62.5 9.5t65.5 30.5l66 -89q-40 -31 -95.5 -47.5t-120.5 -16.5q-103 0 -166.5 42.5t-63.5 121.5
q0 119 142 136q-122 24 -122 119q0 67 58 106.5t154 39.5q116 0 198 -60z" />
    <glyph glyph-name="uni025C" unicode="&#x25c;" horiz-adv-x="498" 
d="M379.5 508.5q59.5 -39.5 59.5 -107.5q0 -88 -116 -118q71 -10 106.5 -41.5t35.5 -88.5q0 -83 -67.5 -126.5t-178.5 -43.5q-129 0 -216 64l74 88q36 -22 67 -30.5t70 -8.5q88 0 88 66q0 60 -92 60h-83l9 102h62q39 0 60.5 15.5t21.5 45.5q0 27 -19.5 40.5t-51.5 13.5
q-34 0 -61 -9t-56 -27l-73 83q45 31 96.5 46.5t115.5 15.5q89 0 148.5 -39.5z" />
    <glyph glyph-name="uni025D" unicode="&#x25d;" horiz-adv-x="758" 
d="M771 344q-55 -37 -125 -37t-109.5 32t-47.5 89l-1 6l-49 -28v-5q0 -88 -116 -118q71 -10 106.5 -41.5t35.5 -88.5q0 -83 -67.5 -126.5t-178.5 -43.5q-129 0 -216 64l74 88q36 -22 67 -30.5t70 -8.5q88 0 88 66q0 60 -92 60h-83l9 102h62q39 0 60.5 15.5t21.5 45.5
q0 27 -19.5 40.5t-51.5 13.5q-34 0 -61 -9t-56 -27l-73 83q45 31 96.5 46.5t115.5 15.5q53 0 98 -15t73 -43l79 41h131v-59q0 -55 52 -55q18 0 31 4t32 12z" />
    <glyph glyph-name="uni025E" unicode="&#x25e;" horiz-adv-x="573" 
d="M100.5 57q-68.5 74 -68.5 209q0 85 31.5 148.5t91 98.5t142.5 35q97 0 157.5 -40t60.5 -108q0 -87 -116 -117q71 -10 106.5 -41.5t35.5 -88.5q0 -81 -66 -125.5t-177 -44.5q-129 0 -197.5 74zM381 163q0 32 -22.5 45.5t-65.5 13.5h-34l9 102h13q37 0 57.5 15.5t20.5 44.5
q0 26 -18 40.5t-48 14.5q-53 0 -78 -41.5t-25 -131.5q0 -92 23.5 -131t83.5 -39q84 0 84 67z" />
    <glyph glyph-name="uni025F" unicode="&#x25f;" horiz-adv-x="331" 
d="M325 203h-79v-143q0 -83 -26.5 -137t-72 -86.5t-114.5 -57.5l-53 115q39 18 61 35t34.5 45.5t12.5 75.5v153h-81v110h81v218h158v-218h79v-110z" />
    <glyph glyph-name="uni0260" unicode="&#x260;" horiz-adv-x="600" 
d="M703 721l-46 -98q-19 10 -34 14.5t-33 4.5q-26 0 -39 -14.5t-13 -46.5v-565q0 -120 -66 -179t-191 -59q-116 0 -193 50l48 97q30 -15 61.5 -23.5t70.5 -8.5q60 0 86 25t26 78v73q-54 -66 -141 -66q-98 0 -150 74.5t-52 199.5q0 77 26.5 139t76.5 97t117 35q69 0 123 -51
v79q0 83 49 133t139 50q76 0 135 -38zM380 179v209q-19 23 -38 34t-44 11q-45 0 -71 -39t-26 -118q0 -86 23 -121.5t65 -35.5q54 0 91 60z" />
    <glyph glyph-name="uni0261" unicode="&#x261;" horiz-adv-x="600" 
d="M538 531v-515q0 -120 -66 -179t-191 -59q-116 0 -193 50l48 97q30 -15 61.5 -23.5t70.5 -8.5q60 0 86 25t26 78v73q-54 -66 -141 -66q-98 0 -150 74.5t-52 199.5q0 77 26.5 139t76.5 97t117 35q76 0 135 -62l8 45h138zM380 179v209q-19 23 -38 34t-44 11q-45 0 -71 -39
t-26 -118q0 -86 23 -121.5t65 -35.5q54 0 91 60z" />
    <glyph glyph-name="uni0262" unicode="&#x262;" 
d="M422 529.5q49 -18.5 91 -53.5l-76 -83q-31 22 -59 32.5t-62 10.5q-57 0 -89 -43.5t-32 -124.5q0 -94 25.5 -132.5t76.5 -38.5q42 0 73 14v96h-68l-15 104h231v-263q-46 -28 -103 -45.5t-120 -17.5q-263 0 -263 283q0 85 36 148.5t98 97.5t140 34q67 0 116 -18.5z" />
    <glyph glyph-name="uni0263" unicode="&#x263;" horiz-adv-x="518" 
d="M338 82q37 -58 53.5 -98.5t16.5 -83.5q0 -57 -36.5 -89.5t-109.5 -32.5q-74 0 -110.5 32t-36.5 89q0 39 16 80t54 102l-191 450h168l100 -348l99 348h163zM284 -56q-7 19 -22 51q-15 -31 -22 -50.5t-7 -37.5q0 -31 29 -31q14 0 21.5 8.5t7.5 22.5q0 18 -7 37z" />
    <glyph glyph-name="uni0264" unicode="&#x264;" 
d="M522 540.5q23 -7.5 47 -22.5l-45 -91q-20 10 -40 10q-15 0 -25 -8.5t-21 -29.5l-82 -157q32 -48 45 -79.5t13 -67.5q0 -50 -34 -81t-100 -31q-65 0 -100 31t-35 81q0 33 13 64.5t45 83.5l-81 156q-11 22 -21 30t-25 8q-13 0 -21 -2.5t-19 -7.5l-45 91q23 15 46.5 22.5
t54.5 7.5q56 0 88 -29t60 -96l40 -92l40 92q29 67 60.5 96t87.5 29q31 0 54 -7.5zM298.5 130q-5.5 13 -18.5 38q-15 -27 -20 -39t-5 -26q0 -25 25 -25q24 0 24 25q0 14 -5.5 27z" />
    <glyph glyph-name="uni0265" unicode="&#x265;" horiz-adv-x="577" 
d="M515 531v-753l-158 17v262q-33 -38 -70 -56t-83 -18q-68 0 -107.5 42.5t-39.5 117.5v388h158v-360q0 -40 13 -55.5t37 -15.5q50 0 92 68v363h158z" />
    <glyph glyph-name="uni0266" unicode="&#x266;" horiz-adv-x="577" 
d="M481 506q39 -42 39 -118v-388h-158v361q0 40 -13 55.5t-37 15.5q-48 0 -92 -68v-364h-158v578q0 80 52.5 130.5t150.5 50.5q79 0 145 -34l-43 -101q-42 18 -83 18q-34 0 -49 -16t-15 -54v-98q33 37 70 55.5t83 18.5q69 0 108 -42z" />
    <glyph glyph-name="uni0267" unicode="&#x267;" horiz-adv-x="577" 
d="M481 506q39 -42 39 -118v-419q0 -93 -53 -142t-143 -49q-85 0 -142 43l53 92q22 -11 36 -15.5t34 -4.5q27 0 42 15.5t15 45.5v407q0 40 -13 55.5t-37 15.5q-48 0 -92 -68v-364h-158v578q0 80 52.5 130.5t150.5 50.5q79 0 145 -34l-43 -101q-42 18 -83 18q-34 0 -49 -16
t-15 -54v-98q33 37 70 55.5t83 18.5q69 0 108 -42z" />
    <glyph glyph-name="uni0268" unicode="&#x268;" horiz-adv-x="330" 
d="M97 656.5q-26 25.5 -26 64.5t26 64.5t67 25.5t67.5 -25.5t26.5 -64.5t-26.5 -64.5t-67.5 -25.5t-67 25.5zM324 337v-110h-80v-227h-158v227h-81v110h81v194h158v-194h80z" />
    <glyph glyph-name="uni0269" unicode="&#x269;" horiz-adv-x="297" 
d="M95.5 22.5q-38.5 39.5 -38.5 112.5v396h158v-390q0 -33 27 -33q10 0 26 4l31 -111q-43 -18 -96 -18q-69 0 -107.5 39.5z" />
    <glyph glyph-name="uni026A" unicode="&#x26a;" horiz-adv-x="337" 
d="M322 418h-75v-304h75v-114h-306v114h73v304h-73v113h306v-113z" />
    <glyph glyph-name="uni026B" unicode="&#x26b;" horiz-adv-x="458" 
d="M307 276v-135q0 -33 27 -33q14 0 26 5l31 -112q-43 -18 -96 -18q-69 0 -107.5 39.5t-38.5 112.5v201q-3 1 -8 1q-23 0 -36.5 -12.5t-32.5 -39.5l-84 42q28 57 66 92t95 35v288l158 17v-364q4 -1 11 -1q23 0 37.5 12t31.5 36l83 -41q-28 -57 -65.5 -91t-94.5 -34h-3z" />
    <glyph glyph-name="uni026C" unicode="&#x26c;" horiz-adv-x="427" 
d="M400 1q-43 -18 -96 -18q-69 0 -107.5 39.5t-38.5 112.5v106q-81 2 -121.5 35.5t-40.5 90.5q0 54 35 84.5t90 30.5q17 0 37 -4v264l158 17v-430q36 3 71 10l12 -80q-38 -11 -83 -14v-104q0 -33 27 -33q14 0 26 5zM158 327v71q-12 3 -25 3q-16 0 -24.5 -8.5t-8.5 -24.5
q0 -41 58 -41z" />
    <glyph glyph-name="uni026D" unicode="&#x26d;" horiz-adv-x="282" 
d="M400 -179q-57 -43 -142 -43q-90 0 -143 49t-53 142v773l158 17v-805q0 -30 15 -45.5t42 -15.5q20 0 34 4.5t36 15.5z" />
    <glyph glyph-name="uni026E" unicode="&#x26e;" horiz-adv-x="708" 
d="M634 155q56 -51 56 -147q0 -66 -32.5 -118t-93 -82t-142.5 -30q-128 0 -209 75l74 92q30 -24 59.5 -35t65.5 -11q53 0 84 30t31 89q0 55 -30.5 78.5t-94.5 23.5h-93v92l171 201h-265v-272q0 -33 27 -33q14 0 26 5l31 -112q-43 -18 -96 -18q-69 0 -107.5 39.5t-38.5 112.5
v607l158 17v-228h443v-108l-184 -211q104 -6 160 -57z" />
    <glyph glyph-name="uni026F" unicode="&#x26f;" horiz-adv-x="845" 
d="M783 531v-531h-138l-11 62q-31 -40 -68.5 -59.5t-85.5 -19.5q-44 0 -77 22t-48 62q-32 -43 -70.5 -63.5t-88.5 -20.5q-63 0 -101 42.5t-38 117.5v388h158v-361q0 -71 45 -71q25 0 44 17t37 52v363h158v-361q0 -71 45 -71q24 0 43.5 17.5t37.5 51.5v363h158z" />
    <glyph glyph-name="uni0270" unicode="&#x270;" horiz-adv-x="845" 
d="M783 531v-753l-158 17v256q-30 -34 -65 -51t-80 -17q-44 0 -77 22t-48 62q-32 -43 -70.5 -63.5t-88.5 -20.5q-63 0 -101 42.5t-38 117.5v388h158v-361q0 -71 45 -71q25 0 44 17t37 52v363h158v-361q0 -71 45 -71q24 0 43.5 17.5t37.5 51.5v363h158z" />
    <glyph glyph-name="uni0271" unicode="&#x271;" horiz-adv-x="845" 
d="M750 505.5q38 -42.5 38 -117.5v-419q0 -93 -53.5 -142t-144.5 -49q-84 0 -141 43l54 93q22 -11 36 -16t34 -5q27 0 42 15.5t15 45.5v407q0 71 -45 71q-25 0 -44 -17t-37 -52v-363h-158v361q0 71 -45 71q-24 0 -43.5 -17.5t-37.5 -51.5v-363h-158v531h138l11 -62
q31 40 68.5 59.5t85.5 19.5q45 0 77.5 -22t47.5 -62q32 43 70.5 63.5t88.5 20.5q63 0 101 -42.5z" />
    <glyph glyph-name="uni0272" unicode="&#x272;" horiz-adv-x="577" 
d="M481 506q39 -42 39 -118v-388h-158v361q0 40 -12.5 55.5t-37.5 15.5q-48 0 -92 -69v-394q0 -93 -53 -142t-143 -49q-85 0 -142 43l53 92q22 -11 36 -15.5t34 -4.5q27 0 42 15.5t15 45.5v577h138l11 -63q34 40 73.5 60t88.5 20q69 0 108 -42z" />
    <glyph glyph-name="uni0273" unicode="&#x273;" horiz-adv-x="577" 
d="M700 -179q-57 -43 -142 -43q-90 0 -143 49t-53 142v392q0 40 -12.5 55.5t-37.5 15.5q-48 0 -92 -69v-363h-158v531h138l11 -63q34 40 73.5 60t88.5 20q69 0 108 -42t39 -118v-434q0 -30 15 -45.5t42 -15.5q20 0 34 4.5t36 15.5z" />
    <glyph glyph-name="uni0274" unicode="&#x274;" horiz-adv-x="588" 
d="M526 0h-190l-158 394q11 -66 17.5 -120t6.5 -124v-150h-140v531h188l159 -394q-13 72 -18 113t-5 106v175h140v-531z" />
    <glyph glyph-name="uni0275" unicode="&#x275;" horiz-adv-x="584" 
d="M483 473.5q69 -74.5 69 -208.5q0 -85 -31.5 -148.5t-90 -98.5t-138.5 -35q-121 0 -190.5 74.5t-69.5 208.5q0 85 31.5 148.5t90 98.5t138.5 35q122 0 191 -74.5zM224 405q-24 -29 -31 -91h198q-7 63 -31 91.5t-68 28.5t-68 -29zM362 128.5q25 31.5 30 97.5h-200
q5 -67 29.5 -98t70.5 -31q45 0 70 31.5z" />
    <glyph glyph-name="uni0276" unicode="&#x276;" horiz-adv-x="768" 
d="M495 110h248v-110h-355q-46 -17 -96 -17q-121 0 -190.5 74.5t-69.5 208.5q0 85 31.5 148.5t90 98.5t138.5 35q52 0 100 -17h353l-16 -109h-232q31 -42 44 -100h163v-106h-161q-12 -62 -48 -106zM388 266q0 166 -96 166q-48 0 -72 -40.5t-24 -125.5q0 -87 23.5 -127
t72.5 -40q96 0 96 167z" />
    <glyph glyph-name="uni0277" unicode="&#x277;" horiz-adv-x="764" 
d="M640.5 469.5q91.5 -78.5 91.5 -227.5q0 -129 -54 -194t-143 -65q-64 0 -101.5 28.5t-51.5 89.5q-16 -63 -52.5 -90.5t-100.5 -27.5q-91 0 -144 64.5t-53 194.5q0 149 92.5 227.5t258.5 78.5t257.5 -78.5zM578 250q0 90 -45.5 139.5t-149.5 49.5q-105 0 -150.5 -49
t-45.5 -141q0 -79 17 -114.5t50 -35.5q27 0 41 18t14 70v112l147 19v-131q0 -49 14 -68.5t41 -19.5q67 0 67 151z" />
    <glyph glyph-name="uni0278" unicode="&#x278;" horiz-adv-x="663" 
d="M574 81q-63 -66 -164 -76l-1 -210l-158 -17l1 227q-101 10 -163.5 74.5t-62.5 184.5t62.5 186t162.5 76v216l158 16v-232q102 -10 165 -74t63 -184q0 -121 -63 -187zM461 151.5q21 39.5 21 116.5q0 78 -21.5 115t-64.5 42v-319q44 6 65 45.5zM265 106v319
q-43 -6 -64 -44.5t-21 -116.5q0 -144 85 -158z" />
    <glyph glyph-name="uni0279" unicode="&#x279;" horiz-adv-x="401" 
d="M339 531v-531h-138l-13 103q-18 -55 -54.5 -86.5t-82.5 -31.5q-29 0 -53 7l25 153q30 -7 48 -7q47 0 71.5 32.5t38.5 97.5v263h158z" />
    <glyph glyph-name="uni027A" unicode="&#x27a;" horiz-adv-x="401" 
d="M339 742v-742h-138l-13 103q-18 -55 -54.5 -86.5t-82.5 -31.5q-29 0 -53 7l25 153q30 -7 48 -7q47 0 71.5 32.5t38.5 97.5v491z" />
    <glyph glyph-name="uni027B" unicode="&#x27b;" horiz-adv-x="401" 
d="M519 -179q-57 -43 -142 -43q-90 0 -143 49t-53 142v116q-20 -47 -54 -73.5t-76 -26.5q-26 0 -53 8l25 153q27 -8 48 -8q47 0 71.5 32.5t38.5 97.5v263h158v-577q0 -30 15 -45.5t42 -15.5q20 0 34 4.5t36 15.5z" />
    <glyph glyph-name="uni027C" unicode="&#x27c;" horiz-adv-x="401" 
d="M403 539l-25 -153q-30 7 -48 7q-47 0 -71.5 -32.5t-38.5 -97.5v-468l-158 -17v753h138l13 -103q18 55 54.5 86.5t82.5 31.5q29 0 53 -7z" />
    <glyph glyph-name="uni027D" unicode="&#x27d;" horiz-adv-x="401" 
d="M311 -102.5q14 4.5 36 15.5l53 -92q-57 -43 -142 -43q-90 0 -143 49t-53 142v562h138l13 -103q18 55 54.5 86.5t82.5 31.5q29 0 53 -7l-25 -153q-30 7 -48 7q-47 0 -71.5 -32.5t-38.5 -97.5v-309q0 -30 15 -45.5t42 -15.5q20 0 34 4.5z" />
    <glyph glyph-name="uni027E" unicode="&#x27e;" horiz-adv-x="392" 
d="M395 506l-53 -92q-22 11 -36 15.5t-34 4.5q-27 0 -42 -15.5t-15 -45.5v-373h-158v358q0 93 53 142t143 49q85 0 142 -43z" />
    <glyph glyph-name="uni027F" unicode="&#x27f;" horiz-adv-x="392" 
d="M282 500q53 -49 53 -142v-358h-158v373q0 30 -15 45.5t-42 15.5q-20 0 -34 -4.5t-36 -15.5l-53 92q57 43 142 43q90 0 143 -49z" />
    <glyph glyph-name="uni0280" unicode="&#x280;" horiz-adv-x="530" 
d="M257 183h-43v-183h-152v531h191q114 0 174 -43.5t60 -131.5q0 -50 -23 -89.5t-68 -60.5l130 -206h-166zM214 279h41q40 0 59 17.5t19 60.5q0 40 -20.5 56.5t-63.5 16.5h-35v-151z" />
    <glyph glyph-name="uni0281" unicode="&#x281;" horiz-adv-x="530" 
d="M464.5 267.5q22.5 -37.5 22.5 -88.5q0 -91 -60 -135t-174 -44h-191v531h152v-183h43l103 183h166l-129 -205q45 -21 67.5 -58.5zM312.5 118.5q20.5 16.5 20.5 59.5q0 40 -19.5 57.5t-58.5 17.5h-41v-151h35q43 0 63.5 16.5z" />
    <glyph glyph-name="uni0282" unicode="&#x282;" horiz-adv-x="483" 
d="M145 -1v-44q0 -61 65 -61q24 0 42 5t39 16l54 -94q-26 -19 -63 -30.5t-82 -11.5q-92 0 -143 48t-51 142v93l65 73q68 -39 152 -39q37 0 57.5 13t20.5 36q0 19 -8 30.5t-31 21t-73 23.5q-79 23 -118 64t-39 102q0 46 26.5 82.5t76 58t114.5 21.5q57 0 107 -17t88 -48
l-58 -90q-64 42 -126 42q-35 0 -52 -10.5t-17 -29.5q0 -15 7.5 -24.5t30.5 -19.5t71 -24q83 -24 123.5 -62.5t40.5 -106.5q0 -53 -29.5 -93t-80 -61t-110.5 -21q-58 0 -99 16z" />
    <glyph glyph-name="uni0283" unicode="&#x283;" horiz-adv-x="282" 
d="M385 721l-46 -98q-19 10 -34 14.5t-33 4.5q-26 0 -39 -14.5t-13 -46.5v-612q0 -93 -53 -142t-143 -49q-85 0 -142 43l53 92q22 -11 36 -15.5t34 -4.5q27 0 42 15.5t15 45.5v622q0 83 49 133t139 50q76 0 135 -38z" />
    <glyph glyph-name="uni0284" unicode="&#x284;" horiz-adv-x="331" 
d="M323 110v-110h-81q-13 -89 -65.5 -138.5t-143.5 -82.5l-51 107q49 21 74 46t30 68h-82v110h84v466q0 83 49 133t139 50q76 0 135 -38l-46 -98q-19 10 -34 14.5t-33 4.5q-26 0 -39 -14.5t-13 -46.5v-471h77z" />
    <glyph glyph-name="uni0285" unicode="&#x285;" horiz-adv-x="485" 
d="M494 26q-57 -43 -142 -43q-90 0 -143 49t-53 142v197q0 32 -13 46.5t-39 14.5q-18 0 -33 -4.5t-34 -14.5l-46 98q59 38 135 38q90 0 139 -50t49 -133v-207q0 -30 15 -45.5t42 -15.5q20 0 34 4.5t36 15.5z" />
    <glyph glyph-name="uni0286" unicode="&#x286;" horiz-adv-x="339" 
d="M276 -4q53 -15 101 -40l-28 -66q-34 15 -84 31q-19 -73 -68 -108t-130 -35q-71 0 -109.5 31.5t-38.5 86.5q0 61 42.5 95t114.5 34q17 0 43 -2v553q0 83 49 133t139 50q76 0 135 -38l-46 -98q-19 10 -34 14.5t-33 4.5q-26 0 -39 -14.5t-13 -46.5v-551q0 -23 -1 -34z
M101.5 -119q14.5 20 16.5 66q-22 2 -42 2q-63 0 -63 -48q0 -40 44 -40q30 0 44.5 20z" />
    <glyph glyph-name="uni0287" unicode="&#x287;" horiz-adv-x="386" 
d="M384 0h-75v-115l-158 -18v133h-122l17 110h105v244q0 37 -12 53t-38 16q-27 0 -57 -17l-53 100q29 20 67.5 31t76.5 11q174 -1 174 -192v-246h75v-110z" />
    <glyph glyph-name="uni0288" unicode="&#x288;" horiz-adv-x="386" 
d="M415 -179q-57 -43 -142 -43q-90 0 -143 49t-53 142v452h-75v110h75v115l158 18v-133h122l-17 -110h-105v-467q0 -30 15 -45.5t42 -15.5q20 0 34 4.5t36 15.5z" />
    <glyph glyph-name="uni0289" unicode="&#x289;" horiz-adv-x="616" 
d="M607 296h-76v-296h-137l-7 67q-58 -84 -161 -84q-73 0 -110.5 44t-37.5 123v146h-75v98h75v137h158v-137h137v137h158v-137h76v-98zM373 296h-137v-126q0 -39 12.5 -54.5t38.5 -15.5q50 0 86 62v134z" />
    <glyph glyph-name="uni028A" unicode="&#x28a;" horiz-adv-x="583" 
d="M153 15q-59 32 -90 87t-31 123q0 125 103 197h-88v109h203v-101q-56 -70 -56 -189q0 -145 98 -145q97 0 97 146q0 119 -57 188v101h204v-109h-87q102 -72 102 -197q0 -67 -31 -122.5t-89.5 -87.5t-138.5 -32t-139 32z" />
    <glyph glyph-name="uni028B" unicode="&#x28b;" horiz-adv-x="568" 
d="M116 31.5q-59 48.5 -59 142.5v357h158v-348q0 -44 15.5 -64t46.5 -20q40 0 65 34t25 113v151q0 32 -27 32q-14 0 -23 -3l-25 107q38 15 86 15q70 0 108.5 -39.5t38.5 -118.5v-138q0 -136 -73 -202.5t-186 -66.5q-91 0 -150 48.5z" />
    <glyph glyph-name="uni028C" unicode="&#x28c;" horiz-adv-x="513" 
d="M-6 0l167 531h187l171 -531h-172l-94 411l-98 -411h-161z" />
    <glyph glyph-name="uni028D" unicode="&#x28d;" horiz-adv-x="749" 
d="M5 0l110 531h189l71 -390l70 390h187l113 -531h-160l-55 413l-83 -413h-154l-73 413l-64 -413h-151z" />
    <glyph glyph-name="uni028E" unicode="&#x28e;" horiz-adv-x="518" 
d="M163 532q34 108 105.5 163.5t193.5 62.5l14 -107q-78 -9 -114.5 -36t-56.5 -84h57l162 -531h-168l-95 431l-104 -431h-163z" />
    <glyph glyph-name="uni028F" unicode="&#x28f;" horiz-adv-x="498" 
d="M510 531l-182 -339v-192h-158v191l-182 340h168l96 -238l95 238h163z" />
    <glyph glyph-name="uni0290" unicode="&#x290;" horiz-adv-x="459" 
d="M621 -179q-56 -43 -140 -43q-88 0 -139 49t-51 142v31h-278v112l241 300h-220v119h402v-111l-240 -300h245v-166q0 -30 15 -45.5t42 -15.5q20 0 33 4.5t37 16.5z" />
    <glyph glyph-name="uni0291" unicode="&#x291;" horiz-adv-x="544" 
d="M525.5 234.5q34.5 -31.5 34.5 -86.5q0 -73 -52 -111t-158 -37q-5 -35 -5 -93v-35h-91q0 80 5 128h-246v112l241 300h-220v119h402v-105l-247 -306h87q21 77 61.5 111.5t98.5 34.5q55 0 89.5 -31.5zM433 128q19 8 19 28q0 13 -7.5 20t-20.5 7q-41 0 -56 -63h5q41 0 60 8z
M356 38l-1 -2l-1 -6z" />
    <glyph glyph-name="uni0292" unicode="&#x292;" horiz-adv-x="510" 
d="M436.5 155.5q55.5 -50.5 55.5 -146.5q0 -66 -32.5 -118.5t-93 -82.5t-143.5 -30q-150 0 -235 103l83 80q36 -33 69 -47.5t74 -14.5q54 0 84.5 30t30.5 90q0 54 -31 77.5t-95 23.5h-92v92l171 201h-255v118h433v-108l-184 -210q105 -7 160.5 -57.5z" />
    <glyph glyph-name="uni0293" unicode="&#x293;" horiz-adv-x="510" 
d="M449 -123q-43 -57 -127 -82l25 -55l-79 -30l-32 70q-28 -2 -43 -2q-103 0 -160.5 40.5t-57.5 114.5q0 57 35.5 90t91.5 33t91.5 -30.5t68.5 -107.5l4 -8q33 13 48 40t15 71q0 57 -30.5 81t-95.5 24h-92v92l172 195h-256v118h433v-108l-184 -205q105 -6 160.5 -57
t55.5 -149q0 -78 -43 -135zM106 -92q22 -9 79 -9q-19 41 -34 56.5t-35 15.5q-15 0 -23.5 -8.5t-8.5 -22.5q0 -23 22 -32z" />
    <glyph glyph-name="uni0294" unicode="&#x294;" horiz-adv-x="478" 
d="M130 354l43 13q62 19 92.5 54.5t30.5 97.5q0 59 -28 91t-79 32q-35 0 -65.5 -13.5t-61.5 -41.5l-78 80q48 46 103.5 69t124.5 23q74 0 130 -29t86.5 -83t30.5 -125q0 -87 -40 -135.5t-112 -76.5l-19 -8v-302h-158v354z" />
    <glyph glyph-name="uni0295" unicode="&#x295;" horiz-adv-x="478" 
d="M190 0v302l-19 8q-72 28 -112 76.5t-40 135.5q0 71 32 124.5t89.5 83t130.5 29.5q67 0 121 -23t102 -69l-78 -80q-31 28 -60 41.5t-65 13.5q-50 0 -79.5 -32.5t-29.5 -91.5q0 -62 30.5 -97t92.5 -54l43 -13v-354h-158z" />
    <glyph glyph-name="uni0296" unicode="&#x296;" horiz-adv-x="512" 
d="M299 758v-318l32 -7q149 -45 149 -211q0 -71 -31 -125.5t-87 -84t-130 -29.5q-68 0 -123.5 23t-103.5 69l78 80q32 -28 62.5 -41.5t65.5 -13.5q51 0 79 32t28 91q0 64 -29 101t-92 53l-56 12v353z" />
    <glyph glyph-name="uni0297" unicode="&#x297;" horiz-adv-x="488" 
d="M483 483l-65 -91q-26 18 -48.5 26.5t-47.5 8.5q-57 0 -86 -62.5t-29 -204.5q0 -139 28 -197.5t82 -58.5q26 0 47.5 8.5t49.5 27.5l69 -98q-78 -63 -171 -63q-130 0 -200 99t-70 282q0 121 32 208.5t93.5 133.5t146.5 46q98 0 169 -65z" />
    <glyph glyph-name="uni0298" unicode="&#x298;" horiz-adv-x="798" 
d="M589.5 666q82.5 -44 128.5 -126.5t46 -192.5q0 -107 -46 -189.5t-129 -128.5t-190 -46q-108 0 -191 44.5t-129 127t-46 192.5q0 106 46 188.5t129.5 128.5t190.5 46q108 0 190.5 -44zM243.5 537.5q-55.5 -62.5 -55.5 -190.5q0 -129 55.5 -191.5t155.5 -62.5
q101 0 156 62.5t55 191.5q0 127 -57 190t-154 63q-100 0 -155.5 -62.5zM460 403.5q23 -22.5 23 -56.5q0 -33 -23 -56t-59 -23t-59 23t-23 56q0 34 23 56.5t59 22.5t59 -22.5z" />
    <glyph glyph-name="uni0299" unicode="&#x299;" horiz-adv-x="557" 
d="M524 161q0 -81 -63.5 -121t-173.5 -40h-225v526q119 22 210 22q108 0 168.5 -36.5t60.5 -107.5q0 -45 -28.5 -73.5t-83.5 -38.5q135 -16 135 -131zM220 445v-122h56q33 0 51 15.5t18 47.5q0 61 -76 61q-31 0 -49 -2zM362 175q0 33 -19 49t-60 16h-63v-136h62q80 0 80 71z
" />
    <glyph glyph-name="uni029A" unicode="&#x29a;" horiz-adv-x="573" 
d="M98 27.5q-66 44.5 -66 125.5q0 57 35.5 88.5t106.5 41.5q-116 30 -116 117q0 68 60.5 108t157.5 40q83 0 142.5 -35t91 -98.5t31.5 -148.5q0 -135 -68.5 -209t-197.5 -74q-111 0 -177 44.5zM359.5 135q23.5 39 23.5 131q0 90 -25 131.5t-78 41.5q-30 0 -48 -14.5
t-18 -40.5q0 -29 20.5 -44.5t57.5 -15.5h13l9 -102h-34q-43 0 -65.5 -13.5t-22.5 -45.5q0 -67 84 -67q60 0 83.5 39z" />
    <glyph glyph-name="uni029B" unicode="&#x29b;" 
d="M678 721l-46 -98q-19 10 -34 14.5t-33 4.5q-26 0 -39 -14.5t-13 -46.5v-105l-68 -75q-35 18 -63 26.5t-64 8.5q-59 0 -91 -43t-32 -125q0 -94 25.5 -132.5t76.5 -38.5q42 0 73 14v96h-68l-15 104h231v-263q-43 -29 -99.5 -46t-121.5 -17q-265 0 -265 283q0 84 35 148
t94.5 98t130.5 34q47 0 82 -13v53q0 82 42.5 126.5t126.5 44.5q76 0 135 -38z" />
    <glyph glyph-name="uni029C" unicode="&#x29c;" horiz-adv-x="586" 
d="M366 0v211h-146v-211h-158v531h158v-203h146v203h158v-531h-158z" />
    <glyph glyph-name="uni029D" unicode="&#x29d;" horiz-adv-x="341" 
d="M349 -110q-34 15 -84 31q-19 -73 -68 -108t-130 -35q-71 0 -109.5 31.5t-38.5 86.5q0 61 42.5 95t114.5 34q17 0 43 -2v508h158v-500q0 -24 -1 -35q53 -15 101 -40zM101.5 -119q14.5 20 16.5 65q-17 3 -42 3q-63 0 -63 -48q0 -40 44 -40q30 0 44.5 20zM264.5 785.5
q26.5 -25.5 26.5 -64.5t-26.5 -64.5t-67.5 -25.5t-67 25.5t-26 64.5t26 64.5t67 25.5t67.5 -25.5z" />
    <glyph glyph-name="uni029E" unicode="&#x29e;" horiz-adv-x="552" 
d="M4 0l161 234l-174 297h178l158 -290l-162 -241h-161zM332 -205v736h158v-753z" />
    <glyph glyph-name="uni029F" unicode="&#x29f;" horiz-adv-x="450" 
d="M220 531v-409h222l-17 -122h-363v531h158z" />
    <glyph glyph-name="uni02A0" unicode="&#x2a0;" horiz-adv-x="600" 
d="M703 721l-46 -98q-19 10 -34 14.5t-33 4.5q-26 0 -39 -14.5t-13 -46.5v-803l-158 17v256q-53 -68 -141 -68q-99 0 -150.5 76t-51.5 208q0 82 26.5 145.5t75 99.5t112.5 36q42 0 74.5 -16t54.5 -44v88q0 83 49 133t139 50q76 0 135 -38zM380 159v229q-19 23 -38 34t-44 11
q-45 0 -71 -40.5t-26 -126.5q0 -93 22.5 -130t65.5 -37q54 0 91 60z" />
    <glyph glyph-name="uni02A1" unicode="&#x2a1;" horiz-adv-x="478" 
d="M288 302v-80h97v-93h-97v-129h-158v129h-67v93h67v132l43 13q62 19 92.5 54.5t30.5 97.5q0 59 -28 91t-79 32q-35 0 -65.5 -13.5t-61.5 -41.5l-78 80q48 46 103.5 69t124.5 23q74 0 130 -29t86.5 -83t30.5 -125q0 -87 -40 -135.5t-112 -76.5z" />
    <glyph glyph-name="uni02A2" unicode="&#x2a2;" horiz-adv-x="478" 
d="M211.5 609.5q-29.5 -32.5 -29.5 -91.5q0 -62 30.5 -97t92.5 -54l43 -13v-132h67v-93h-67v-129h-158v129h-97v93h97v80l-19 8q-72 28 -112 76.5t-40 135.5q0 71 32 124.5t89.5 83t130.5 29.5q67 0 121 -23t102 -69l-78 -80q-31 28 -60 41.5t-65 13.5q-50 0 -79.5 -32.5z
" />
    <glyph glyph-name="uni02A3" unicode="&#x2a3;" horiz-adv-x="982" 
d="M964 120l-15 -120h-551l-8 62q-56 -79 -151 -79q-99 0 -150.5 76t-51.5 208q0 81 27 145t76.5 100t113.5 36q76 0 126 -50v261l158 -17v-211h421v-111l-249 -300h254zM380 159v229q-19 23 -38.5 34t-44.5 11q-44 0 -70 -41t-26 -126q0 -93 22.5 -130t64.5 -37q55 0 92 60
zM538 412v-299l247 299h-247z" />
    <glyph glyph-name="uni02A4" unicode="&#x2a4;" horiz-adv-x="1019" 
d="M946.5 155.5q55.5 -50.5 55.5 -146.5q0 -66 -32.5 -118.5t-93 -82.5t-143.5 -30q-150 0 -235 103l83 80q36 -33 69 -47.5t74 -14.5q54 0 84.5 30t30.5 90q0 54 -31 77.5t-95 23.5h-92v92l171 201h-254v-413h-140l-8 62q-56 -79 -151 -79q-99 0 -150.5 76t-51.5 208
q0 81 27 145t76.5 100t113.5 36q76 0 126 -50v261l158 -17v-211h432v-108l-184 -210q105 -7 160.5 -57.5zM380 159v229q-19 23 -38.5 34t-44.5 11q-44 0 -70 -41t-26 -126q0 -93 22.5 -130t64.5 -37q55 0 92 60z" />
    <glyph glyph-name="uni02A5" unicode="&#x2a5;" horiz-adv-x="1066" 
d="M1048 234.5q35 -31.5 35 -86.5q0 -73 -52.5 -111t-158.5 -37q-5 -35 -5 -93v-35h-91q0 71 6 128h-384l-8 62q-56 -79 -151 -79q-99 0 -150.5 76t-51.5 208q0 81 27 145t76.5 100t113.5 36q76 0 126 -50v261l158 -17v-211h420v-105l-252 -306h93q20 77 60.5 111.5
t99.5 34.5q54 0 89 -31.5zM380 159v229q-19 23 -38.5 34t-44.5 11q-44 0 -70 -41t-26 -126q0 -93 22.5 -130t64.5 -37q55 0 92 60zM538 412v-296l245 296h-245zM955.5 128q18.5 8 18.5 28q0 27 -28 27q-41 0 -56 -63h5q42 0 60.5 8zM877 33v-1l-1 -2z" />
    <glyph glyph-name="uni02A6" unicode="&#x2a6;" horiz-adv-x="745" 
d="M691 264q35 -38 35 -98q0 -89 -82 -136t-236 -47q-172 0 -251.5 60t-79.5 186v192h-75v110h75v115l158 18v-133h95l-16 -110h-79v-190q0 -72 40.5 -103.5t133.5 -31.5q82 0 118 14t36 44q0 23 -16.5 38t-69.5 32q-79 25 -111.5 61t-32.5 99q0 47 24.5 84t69.5 58.5
t105 21.5q105 0 180 -63l-54 -86q-60 36 -118 36q-29 0 -44.5 -11.5t-15.5 -30.5q0 -20 20 -33.5t79 -32.5q77 -25 112 -63z" />
    <glyph glyph-name="uni02A7" unicode="&#x2a7;" horiz-adv-x="591" 
d="M694 721l-46 -98q-19 10 -34 14.5t-33 4.5q-26 0 -39 -14.5t-13 -46.5v-612q0 -93 -53 -142t-143 -49q-85 0 -142 43l53 92q22 -11 36 -15.5t34 -4.5q27 0 42 15.5t15 45.5v47q-51 -18 -102 -18q-192 1 -192 196v242h-75v110h75v115l158 18v-133h136v45q0 83 49 133
t139 50q76 0 135 -38zM371 114v307h-136v-242q0 -39 16.5 -55t52.5 -16q25 0 67 6z" />
    <glyph glyph-name="uni02A8" unicode="&#x2a8;" horiz-adv-x="819" 
d="M776.5 223q35.5 -32 35.5 -88q0 -74 -53.5 -113t-136.5 -39q-110 0 -181 59q-56 -31 -100.5 -45t-85.5 -14q-178 1 -178 192v246h-75v110h75v115l158 18v-133h122l-17 -110h-105v-244q0 -38 13.5 -53.5t46.5 -15.5q38 0 83 15q-28 61 -28 138q0 84 31.5 149t90.5 101.5
t137 36.5q55 0 99.5 -16t82.5 -49l-68 -95q-25 20 -49 29.5t-52 9.5q-52 0 -79.5 -39.5t-27.5 -125.5q0 -43 7 -71q40 34 79.5 49t83.5 15q56 0 91.5 -32zM702 139q0 30 -31 30q-22 0 -46.5 -11.5t-61.5 -39.5q29 -21 78 -21q61 0 61 42z" />
    <glyph glyph-name="uni02A9" unicode="&#x2a9;" horiz-adv-x="882" 
d="M786 506q39 -42 39 -118v-419q0 -93 -53 -142t-143 -49q-85 0 -142 43l53 92q22 -11 36 -15.5t34 -4.5q27 0 42 15.5t15 45.5v407q0 40 -12.5 55.5t-37.5 15.5q-48 0 -92 -69v-363h-158v421h-126v-421h-158v421h-80v110h80v47q0 80 52.5 130.5t150.5 50.5q79 0 145 -34
l-43 -103q-40 20 -83 20q-34 0 -49 -16t-15 -54v-41h264l11 -63q34 40 73.5 60t88.5 20q69 0 108 -42z" />
    <glyph glyph-name="uni02AA" unicode="&#x2aa;" horiz-adv-x="690" 
d="M126 42.5q-69 59.5 -69 170.5v529l158 17v-552q0 -60 34 -85.5t111 -25.5q84 0 122 14t38 44q0 15 -7 25t-27.5 20.5t-63.5 24.5q-79 25 -111.5 61t-32.5 99q0 47 24.5 84t69.5 58.5t105 21.5q105 0 180 -63l-54 -86q-60 36 -118 36q-29 0 -44.5 -11.5t-15.5 -30.5
q0 -20 20 -33.5t79 -32.5q77 -25 112 -63t35 -98q0 -89 -80.5 -136t-230.5 -47q-165 0 -234 59.5z" />
    <glyph glyph-name="uni02AB" unicode="&#x2ab;" horiz-adv-x="714" 
d="M681 0h-387q-42 -17 -91 -17q-69 0 -107.5 39.5t-38.5 112.5v607l158 17v-618q0 -33 27 -33q14 0 26 5l241 299h-221v119h403v-111l-243 -300h248z" />
    <glyph glyph-name="uni02AC" unicode="&#x2ac;" horiz-adv-x="469" 
d="M439 667l-61 -267h-104l-36 194l-39 -194h-103l-65 267h80l40 -206l41 206h95l38 -207l38 207h76zM439 267l-61 -267h-104l-36 194l-39 -194h-103l-65 267h80l40 -206l41 206h95l38 -207l38 207h76z" />
    <glyph glyph-name="uni02AD" unicode="&#x2ad;" horiz-adv-x="365" 
d="M30 399v165h305v-165h-94v84h-117v-84h-94zM30 -1v165h305v-165h-94v84h-117v-84h-94z" />
    <glyph glyph-name="uni02AE" unicode="&#x2ae;" horiz-adv-x="698" 
d="M636 531v-753l-158 17v262q-33 -37 -70 -55.5t-83 -18.5q-69 0 -108.5 42.5t-39.5 117.5v231q0 30 -15 45.5t-42 15.5q-20 0 -34 -4.5t-36 -15.5l-53 92q57 43 142 43q90 0 143 -49t53 -142v-188q0 -39 13 -55t38 -16q49 0 92 68v363h158z" />
    <glyph glyph-name="uni02AF" unicode="&#x2af;" horiz-adv-x="698" 
d="M816 -179q-57 -43 -142 -43q-90 0 -143 49t-53 142v88q-33 -37 -70 -55.5t-83 -18.5q-69 0 -108.5 42.5t-39.5 117.5v231q0 30 -15 45.5t-42 15.5q-20 0 -34 -4.5t-36 -15.5l-53 92q57 43 142 43q90 0 143 -49t53 -142v-188q0 -39 13 -55t38 -16q49 0 92 68v363h158v-577
q0 -30 15 -45.5t42 -15.5q20 0 34 4.5t36 15.5z" />
    <glyph glyph-name="uni02B0" unicode="&#x2b0;" horiz-adv-x="312" 
d="M259.5 652.5q22.5 -20.5 22.5 -59.5v-193h-83v176q0 20 -7.5 27.5t-21.5 7.5q-15 0 -27 -6.5t-30 -20.5v-184h-83v372l83 9v-141q36 33 84 33q40 0 62.5 -20.5z" />
    <glyph glyph-name="uni02B1" unicode="&#x2b1;" horiz-adv-x="312" 
d="M259.5 652.5q22.5 -20.5 22.5 -59.5v-193h-83v176q0 20 -7.5 27.5t-21.5 7.5q-15 0 -27 -6.5t-30 -20.5v-184h-83v293q0 38 28.5 62t79.5 24q19 0 41.5 -4.5t39.5 -11.5l-23 -54q-27 8 -50 8q-17 0 -25 -6.5t-8 -22.5v-48q36 33 84 33q40 0 62.5 -20.5z" />
    <glyph glyph-name="uni02B2" unicode="&#x2b2;" horiz-adv-x="211" 
d="M167 794q14 -14 14 -34t-14 -34t-37 -14t-38 14t-15 34t15 34t38 14t37 -14zM171 426q0 -61 -28.5 -89t-89.5 -46l-23 54q33 16 45.5 31t12.5 49v240h83v-239z" />
    <glyph glyph-name="uni02B4" unicode="&#x2b4;" horiz-adv-x="248" 
d="M218 666v-266h-63l-15 56q-10 -30 -29.5 -46.5t-47.5 -16.5q-21 0 -33 5l13 76q11 -4 27 -4q26 0 40.5 19t24.5 57v120h83z" />
    <glyph glyph-name="uni02B7" unicode="&#x2b7;" horiz-adv-x="469" 
d="M439 667l-61 -267h-104l-36 194l-39 -194h-103l-65 267h80l40 -206l41 206h95l38 -207l38 207h76z" />
    <glyph glyph-name="uni02B8" unicode="&#x2b8;" horiz-adv-x="357" 
d="M222 396q-20 -52 -55.5 -79t-100.5 -34l-10 56q42 8 61 20.5t33 40.5h-25l-95 267h84l62 -215l69 215h82z" />
    <glyph glyph-name="uni02B9" unicode="&#x2b9;" horiz-adv-x="319" 
d="M48 414l80 279h143l-119 -279h-104z" />
    <glyph glyph-name="uni02BA" unicode="&#x2ba;" horiz-adv-x="513" 
d="M48 414l80 279h143l-119 -279h-104zM242 414l80 279h143l-119 -279h-104z" />
    <glyph glyph-name="uni02BB" unicode="&#x2bb;" horiz-adv-x="234" 
d="M54 609q-24 23 -24 58q0 19 6.5 39t22.5 54l64 131h81l-42 -156q37 -26 37 -69q0 -34 -24.5 -57t-60.5 -23t-60 23z" />
    <glyph glyph-name="uni02BC" unicode="&#x2bc;" horiz-adv-x="243" 
d="M181 743q24 -23 24 -58q0 -19 -6.5 -39t-22.5 -54l-64 -131h-81l42 156q-37 26 -37 69q0 34 24.5 57t60.5 23t60 -23z" />
    <glyph glyph-name="uni02BF" unicode="&#x2bf;" horiz-adv-x="199" 
d="M169 686q-21 0 -33 13t-12 37q0 50 45 50v81q-63 0 -101 -38t-38 -93t38 -93t101 -38v81z" />
    <glyph glyph-name="uni02C0" unicode="&#x2c0;" horiz-adv-x="293" 
d="M85 704q38 2 54.5 10.5t16.5 27.5q0 15 -10.5 23t-29.5 8q-27 0 -60 -13l-26 66q45 26 109 26q59 0 91.5 -27.5t32.5 -73.5q0 -39 -21.5 -62.5t-62.5 -31.5v-52h-94v99z" />
    <glyph glyph-name="circumflex" unicode="&#x2c6;" horiz-adv-x="439" 
d="M86 620l-56 65l141 137h97l141 -137l-56 -65l-133 92z" />
    <glyph glyph-name="caron" unicode="&#x2c7;" horiz-adv-x="439" 
d="M353 813l56 -65l-141 -137h-96l-142 137l57 65l133 -91z" />
    <glyph glyph-name="uni02C8" unicode="&#x2c8;" horiz-adv-x="199" 
d="M30 620v262h139v-262h-139z" />
    <glyph glyph-name="uni02CA" unicode="&#x2ca;" horiz-adv-x="340" 
d="M248 835l62 -118l-236 -95l-44 81z" />
    <glyph glyph-name="uni02CB" unicode="&#x2cb;" horiz-adv-x="340" 
d="M92 835l218 -132l-44 -81l-236 95z" />
    <glyph glyph-name="uni02CC" unicode="&#x2cc;" horiz-adv-x="199" 
d="M30 -329v262h139v-262h-139z" />
    <glyph glyph-name="uni02CE" unicode="&#x2ce;" horiz-adv-x="340" 
d="M89 -41l221 -125l-40 -80l-240 87z" />
    </font>
</defs>
</svg>
