<?xml version="1.0" standalone="no"?>
<!DOCTYPE svg PUBLIC "-//W3C//DTD SVG 1.1//EN" "http://www.w3.org/Graphics/SVG/1.1/DTD/svg11.dtd" >
<svg xmlns="http://www.w3.org/2000/svg" xmlns:xlink="http://www.w3.org/1999/xlink" version="1.1">
<metadata>
Created by FontForge 20170731 at Fri Dec  2 11:32:35 2016
 By Aleksey,,,
Digitized data copyright 2012-2016, The Mozilla Foundation and Telefonica S.A.
</metadata>
<defs>
<font id="FiraSans-BlackItalic" horiz-adv-x="560" >
  <font-face 
    font-family="Fira Sans Black"
    font-weight="900"
    font-style="italic"
    font-stretch="normal"
    units-per-em="1000"
    panose-1="2 11 10 3 5 0 0 2 0 4"
    ascent="800"
    descent="-200"
    x-height="534"
    cap-height="696"
    bbox="-790 -356 1416 1246"
    underline-thickness="50"
    underline-position="-150"
    slope="-8"
    unicode-range="U+000D-FEFF"
  />
<missing-glyph horiz-adv-x="654" 
d="M643 1050l-197 -1400h-412l197 1400h412zM584 998h-305l-183 -1296h305zM416 426q23 -25 23 -66q0 -9 -2 -27q-7 -52 -32.5 -80t-75.5 -35l-7 -46q-1 -11 -9 -17t-17 -6q-10 0 -17.5 7t-5.5 18l11 83q52 3 73.5 20.5t26.5 59.5q2 14 2 21q0 45 -50 45q-26 0 -53 -12
q-6 -2 -12 -2q-12 0 -18 7t-5 19q3 17 32.5 26.5t61.5 9.5q51 0 74 -25zM313 109.5q9 -10.5 7 -27.5q-2 -14 -13.5 -24t-25.5 -10q-13 0 -21.5 9.5t-8.5 24.5q0 16 11 27t26 11q16 0 25 -10.5z" />
    <glyph glyph-name="fi" unicode="fi" horiz-adv-x="590" 
d="M512 0h-194l55 400h-94l-45 -324q-18 -130 -89.5 -198t-188.5 -105l-47 141q61 21 91 55t39 97l46 334h-70l18 134h71l4 32q8 56 40.5 101t88 71t127.5 26q56 0 101.5 -10t91.5 -33l-66 -124q-60 25 -107 25q-39 0 -58.5 -15.5t-24.5 -52.5l-3 -20h288z" />
    <glyph glyph-name="fl" unicode="fl" horiz-adv-x="621" 
d="M587 139l18 -138q-22 -10 -53.5 -15.5t-62.5 -5.5q-67 0 -103.5 34.5t-36.5 99.5q0 19 3 38l66 473q-20 4 -42 4q-37 0 -53 -17.5t-22 -57.5l-3 -20h82l-40 -134h-61l-45 -324q-18 -130 -89.5 -198t-188.5 -105l-47 141q61 21 91 55t39 97l46 334h-70l18 134h71l4 32
q12 87 74.5 142.5t167.5 55.5q67 0 121 -16l160 16l-83 -593q-1 -4 -1 -12q0 -24 20 -24q6 0 20 4z" />
    <glyph glyph-name=".notdef" horiz-adv-x="654" 
d="M643 1050l-197 -1400h-412l197 1400h412zM584 998h-305l-183 -1296h305zM416 426q23 -25 23 -66q0 -9 -2 -27q-7 -52 -32.5 -80t-75.5 -35l-7 -46q-1 -11 -9 -17t-17 -6q-10 0 -17.5 7t-5.5 18l11 83q52 3 73.5 20.5t26.5 59.5q2 14 2 21q0 45 -50 45q-26 0 -53 -12
q-6 -2 -12 -2q-12 0 -18 7t-5 19q3 17 32.5 26.5t61.5 9.5q51 0 74 -25zM313 109.5q9 -10.5 7 -27.5q-2 -14 -13.5 -24t-25.5 -10q-13 0 -21.5 9.5t-8.5 24.5q0 16 11 27t26 11q16 0 25 -10.5z" />
    <glyph glyph-name=".null" horiz-adv-x="0" 
 />
    <glyph glyph-name="nonmarkingreturn" unicode="&#xd;" horiz-adv-x="208" 
 />
    <glyph glyph-name="space" unicode=" " horiz-adv-x="208" 
 />
    <glyph glyph-name="exclam" unicode="!" horiz-adv-x="228" 
d="M38 270l34 426h204l-86 -426h-152zM17 6q-25 26 -25 67q0 46 33.5 79.5t81.5 33.5q39 0 64 -25.5t25 -65.5q0 -47 -33 -81t-81 -34q-40 0 -65 26z" />
    <glyph glyph-name="quotedbl" unicode="&#x22;" horiz-adv-x="452" 
d="M77 406l19 290h166l-61 -290h-124zM291 406l19 290h166l-61 -290h-124z" />
    <glyph glyph-name="numbersign" unicode="#" horiz-adv-x="568" 
d="M578 436h-65l-48 -179h51l-18 -126h-67l-35 -131h-160l35 131h-66l-35 -131h-160l35 131h-50l18 126h66l48 179h-52l17 126h68l32 118h161l-32 -118h65l32 118h161l-32 -118h48zM305 257l48 179h-66l-48 -179h66z" />
    <glyph glyph-name="dollar" unicode="$" horiz-adv-x="548" 
d="M527 227q0 -51 -22.5 -98.5t-71.5 -82.5t-124 -48l-23 -163h-133l23 159q-65 8 -116.5 35t-83.5 65l109 103q32 -32 71.5 -48.5t77.5 -16.5q42 0 66 19t24 47q0 27 -18 43t-66 35q-92 34 -132 81t-40 111q0 79 56 139.5t159 77.5l20 149h133l-22 -150q95 -17 164 -86
l-96 -99q-68 52 -129 52q-39 0 -60 -14.5t-21 -37.5t19 -38t75 -37q161 -60 161 -197z" />
    <glyph glyph-name="percent" unicode="%" horiz-adv-x="867" 
d="M668 725l-550 -697l104 -73l552 697zM99.5 367q-45.5 43 -45.5 115q0 51 23.5 100.5t71 81.5t115.5 32q71 0 116 -43t45 -115q0 -51 -23 -100.5t-70.5 -81.5t-115.5 -32q-71 0 -116.5 43zM279.5 466.5q15.5 28.5 15.5 67.5q0 48 -43 48q-39 0 -53.5 -30t-14.5 -66
q0 -48 44 -48q36 0 51.5 28.5zM507.5 23q-45.5 43 -45.5 115q0 51 23.5 100.5t71 81.5t115.5 32q71 0 116 -43t45 -115q0 -51 -23 -100.5t-70.5 -81.5t-115.5 -32q-71 0 -116.5 43zM687.5 122.5q15.5 28.5 15.5 67.5q0 48 -43 48q-39 0 -53.5 -30t-14.5 -66q0 -48 44 -48
q36 0 51.5 28.5z" />
    <glyph glyph-name="ampersand" unicode="&#x26;" horiz-adv-x="775" 
d="M484 695.5q49 -20.5 74.5 -56.5t25.5 -81q0 -52 -33 -98.5t-118 -102.5l92 -102q30 49 56 116l151 -49q-45 -86 -115 -168l98 -102l-167 -72l-57 64q-52 -33 -105.5 -48.5t-115.5 -15.5q-70 0 -123 23t-81.5 63.5t-28.5 92.5q0 70 36.5 119t120.5 97q-40 46 -55.5 79.5
t-15.5 74.5q0 43 23.5 85.5t78 72t141.5 29.5q69 0 118 -20.5zM320.5 578q-15.5 -16 -15.5 -44q0 -18 7.5 -33.5t26.5 -39.5q37 26 50.5 47.5t13.5 45.5q0 19 -11.5 29.5t-30.5 10.5q-25 0 -40.5 -16zM256 223.5q-11 -21.5 -11 -48.5q0 -28 17.5 -43.5t51.5 -15.5
q42 0 91 20l-115 129q-23 -20 -34 -41.5z" />
    <glyph glyph-name="quotesingle" unicode="'" horiz-adv-x="238" 
d="M77 406l19 290h166l-61 -290h-124z" />
    <glyph glyph-name="parenleft" unicode="(" horiz-adv-x="313" 
d="M394 781q-99 -118 -148 -263t-49 -301q0 -88 17.5 -162t56.5 -143l-135 -78q-42 73 -68.5 128.5t-44 124.5t-17.5 151q0 128 31 233t89 197.5t150 199.5z" />
    <glyph glyph-name="parenright" unicode=")" horiz-adv-x="313" 
d="M268.5 737.5q26.5 -56.5 44 -126t17.5 -152.5q0 -126 -31.5 -231.5t-90 -198.5t-149.5 -197l-117 87q99 119 147.5 262t48.5 299q0 90 -17.5 164.5t-56.5 143.5l136 78q42 -72 68.5 -128.5z" />
    <glyph glyph-name="asterisk" unicode="*" horiz-adv-x="443" 
d="M480 520l-135 -18l85 -93l-143 -97l-42 122l-73 -123l-117 97l108 94l-130 17l69 151l111 -62l-9 136h170l-46 -135l123 64z" />
    <glyph glyph-name="plus" unicode="+" horiz-adv-x="536" 
d="M388 567l-22 -160h152l-21 -150h-152l-23 -160h-156l23 160h-152l21 150h152l21 160h157z" />
    <glyph glyph-name="comma" unicode="," horiz-adv-x="240" 
d="M171 161q25 -25 25 -64q0 -28 -11 -54t-46 -88l-81 -139h-101l71 184q-35 24 -35 69q0 49 33 83t81 34q39 0 64 -25z" />
    <glyph glyph-name="hyphen" unicode="-" horiz-adv-x="399" 
d="M29 238l20 150h334l-20 -150h-334z" />
    <glyph glyph-name="period" unicode="." horiz-adv-x="240" 
d="M17 6q-25 26 -25 67q0 46 33.5 79.5t81.5 33.5q39 0 64 -25.5t25 -65.5q0 -47 -33 -81t-81 -34q-40 0 -65 26z" />
    <glyph glyph-name="slash" unicode="/" horiz-adv-x="508" 
d="M362 822l166 -40l-357 -899l-167 40z" />
    <glyph glyph-name="zero" unicode="0" horiz-adv-x="590" 
d="M162 626q-72 -70 -102.5 -172t-30.5 -206q0 -129 59.5 -198.5t170.5 -69.5q117 0 189 71.5t102.5 174.5t30.5 206q0 128 -59.5 196t-170.5 68q-117 0 -189 -70zM376.5 536q12.5 -17 12.5 -62q0 -73 -12 -154.5t-39 -138.5t-67 -57q-24 0 -36.5 19t-12.5 64q0 74 12 154
t38.5 136t67.5 56q24 0 36.5 -17z" />
    <glyph glyph-name="one" unicode="1" horiz-adv-x="470" 
d="M465 680l-95 -680h-188l68 483l-149 -85l-66 138l256 144h174z" />
    <glyph glyph-name="two" unicode="2" horiz-adv-x="518" 
d="M416.5 671.5q51.5 -24.5 77 -66t25.5 -93.5q0 -50 -19 -97t-83.5 -113t-191.5 -155l258 1l-41 -148h-457l17 137q142 121 206.5 182t86.5 97t22 73q0 27 -17 43t-46 16q-31 0 -58.5 -16t-62.5 -51l-102 98q53 57 116.5 87t143.5 30q74 0 125.5 -24.5z" />
    <glyph glyph-name="three" unicode="3" horiz-adv-x="520" 
d="M459 650.5q56 -45.5 56 -117.5q0 -57 -35.5 -104t-119.5 -71q58 -6 95 -41t37 -98q0 -54 -30.5 -109t-98 -92.5t-171.5 -37.5q-81 0 -138.5 29.5t-93.5 81.5l117 96q26 -31 53.5 -45t64.5 -14q43 0 71.5 26t28.5 73q0 32 -20 47t-63 15h-60l39 132h40q51 0 72 24t21 56
q0 26 -17 39t-48 13q-69 0 -135 -58l-83 109q58 46 120.5 69t137.5 23q104 0 160 -45.5z" />
    <glyph glyph-name="four" unicode="4" horiz-adv-x="573" 
d="M560 280l-20 -146h-68l-19 -134h-190l18 134h-281l18 129l239 438l161 -60l-188 -361h73l43 148h167l-21 -148h68z" />
    <glyph glyph-name="five" unicode="5" horiz-adv-x="545" 
d="M504 542h-230l-16 -109q46 21 97 21q74 0 119 -49.5t45 -139.5q0 -65 -32.5 -130.5t-103 -110t-178.5 -44.5q-146 0 -227 110l116 98q49 -62 117 -62q49 0 79.5 33t30.5 93q0 71 -63 71q-20 0 -38 -5t-40 -19h-128l53 381h439z" />
    <glyph glyph-name="six" unicode="6" horiz-adv-x="572" 
d="M511 414.5q45 -49.5 45 -136.5q0 -63 -29 -132t-93.5 -117.5t-164.5 -48.5q-122 0 -182.5 66t-60.5 184q0 123 46 230t131 171.5t196 64.5q49 0 88.5 -13.5t66.5 -35.5l-85 -111q-35 24 -79 24q-47 0 -82.5 -35t-54.5 -105q32 22 67 33t68 11q78 0 123 -49.5zM341.5 166
q19.5 48 19.5 105q0 34 -11.5 48t-34.5 14q-39 0 -80 -32q-9 -64 -9 -104q0 -43 12 -61t39 -18q45 0 64.5 48z" />
    <glyph glyph-name="seven" unicode="7" horiz-adv-x="470" 
d="M519 680l-18 -130l-318 -570l-171 60l283 494h-254l20 146h458z" />
    <glyph glyph-name="eight" unicode="8" horiz-adv-x="587" 
d="M559 205q0 -61 -36 -112t-105.5 -82t-164.5 -31q-79 0 -135 25t-84.5 67.5t-28.5 95.5t36.5 101.5t111.5 78.5q-76 54 -76 136q0 50 28.5 99t90 81t153.5 32q106 0 168.5 -44.5t62.5 -118.5q0 -47 -30 -91.5t-97 -78.5q106 -61 106 -158zM281.5 544.5
q-17.5 -22.5 -17.5 -51.5q0 -22 10.5 -38.5t34.5 -29.5l21 -9q62 43 62 102q0 23 -14 36t-39 13q-40 0 -57.5 -22.5zM341.5 143.5q23.5 25.5 23.5 62.5q0 24 -15 40.5t-50 31.5l-35 13q-35 -21 -49.5 -50t-14.5 -58q0 -30 19 -47.5t53 -17.5q45 0 68.5 25.5z" />
    <glyph glyph-name="nine" unicode="9" horiz-adv-x="570" 
d="M514 636q64 -60 64 -159q0 -110 -45 -213.5t-160.5 -185t-312.5 -110.5l-23 137q88 18 144 39.5t93.5 53.5t63.5 81q-30 -26 -61 -38t-72 -12q-47 0 -84.5 22.5t-59 64.5t-21.5 100q0 66 31 130t97 107t165 43q117 0 181 -60zM248 377.5q13 -14.5 36 -14.5q22 0 45 11.5
t42 35.5q8 53 8 81q0 37 -13 53t-43 16q-47 0 -67.5 -41t-20.5 -91q0 -36 13 -50.5z" />
    <glyph glyph-name="colon" unicode=":" horiz-adv-x="240" 
d="M17 6q-25 26 -25 67q0 46 33.5 79.5t81.5 33.5q39 0 64 -25.5t25 -65.5q0 -47 -33 -81t-81 -34q-40 0 -65 26zM63 338q-25 26 -25 67q0 46 33.5 79.5t81.5 33.5q39 0 64 -25.5t25 -65.5q0 -47 -33 -81t-81 -34q-40 0 -65 26z" />
    <glyph glyph-name="semicolon" unicode=";" horiz-adv-x="242" 
d="M173 161q25 -25 25 -64q0 -28 -11 -54t-46 -88l-81 -139h-101l71 184q-35 24 -35 69q0 49 33 83t81 34q39 0 64 -25zM65 338q-25 26 -25 67q0 46 33.5 79.5t81.5 33.5q39 0 64 -25.5t25 -65.5q0 -47 -33 -81t-81 -34q-40 0 -65 26z" />
    <glyph glyph-name="less" unicode="&#x3c;" horiz-adv-x="520" 
d="M481 591l47 -142l-327 -116l287 -118l-79 -140l-387 174l23 167z" />
    <glyph glyph-name="equal" unicode="=" horiz-adv-x="518" 
d="M52 367l21 150h442l-21 -150h-442zM21 147l21 150h442l-21 -150h-442z" />
    <glyph glyph-name="greater" unicode="&#x3e;" horiz-adv-x="518" 
d="M128 591l387 -175l-24 -167l-435 -174l-44 150l324 110l-285 124z" />
    <glyph glyph-name="question" unicode="?" horiz-adv-x="483" 
d="M465 670.5q54 -45.5 54 -115.5q0 -51 -19.5 -85.5t-47 -54.5t-69.5 -43q-44 -24 -64 -42t-20 -46q0 -8 2 -18l-171 -25q-6 24 -6 48q0 47 17.5 79t41.5 50.5t61 39.5q35 20 51.5 35t16.5 37q0 32 -41 32q-52 0 -113 -55l-107 98q108 111 258 111q102 0 156 -45.5zM132 6
q-25 26 -25 67q0 46 33.5 79.5t81.5 33.5q39 0 64 -25.5t25 -65.5q0 -47 -33 -81t-81 -34q-40 0 -65 26z" />
    <glyph glyph-name="at" unicode="@" horiz-adv-x="1008" 
d="M790.5 667.5q92.5 -48.5 141.5 -132t49 -186.5q0 -83 -29.5 -163.5t-87.5 -132.5t-138 -52q-55 0 -93 28.5t-47 70.5q-53 -94 -151 -94q-78 0 -119 47.5t-41 125.5q0 73 27 148.5t89 128.5t162 53q42 0 90.5 -13.5t84.5 -35.5l-39 -299q-1 -5 -1 -13q0 -32 28 -32
t50.5 35.5t34.5 90t12 108.5q0 112 -64 169.5t-193 57.5t-208.5 -60.5t-113.5 -150t-34 -184.5q0 -125 73.5 -196.5t213.5 -71.5q40 0 92.5 10t91.5 25l28 -133q-48 -19 -113 -31t-116 -12q-136 0 -236 52t-153 144.5t-53 212.5q0 121 59.5 244.5t182.5 206.5t302 83
q126 0 218.5 -48.5zM523 154l33 230q-11 5 -26 5q-45 0 -65 -67.5t-20 -146.5q0 -50 32 -50q27 0 46 29z" />
    <glyph glyph-name="A" unicode="A" horiz-adv-x="589" 
d="M362 0l-7 135h-163l-44 -135h-211l296 696h242l101 -696h-214zM238 279h109l-16 288z" />
    <glyph glyph-name="B" unicode="B" horiz-adv-x="610" 
d="M552 323q37 -33 37 -102q0 -100 -80.5 -160.5t-262.5 -60.5h-240l97 696h211q141 0 215.5 -37t74.5 -124q0 -70 -43 -110t-108 -57q62 -12 99 -45zM376.5 450.5q18.5 23.5 18.5 58.5q0 24 -18.5 35t-61.5 11h-31l-18 -128h35q57 0 75.5 23.5zM357.5 169.5
q24.5 24.5 24.5 69.5q0 58 -85 58h-49l-21 -152h39q67 0 91.5 24.5z" />
    <glyph glyph-name="C" unicode="C" horiz-adv-x="571" 
d="M613 626l-107 -103q-25 22 -51 33.5t-58 11.5q-59 0 -95.5 -48.5t-52 -116.5t-15.5 -129q0 -139 103 -139q33 0 63.5 15t68.5 43l76 -117q-48 -43 -109.5 -69.5t-134.5 -26.5q-83 0 -145 33.5t-96.5 98.5t-34.5 158q0 107 38 209t121 169.5t211 67.5q142 0 218 -90z" />
    <glyph glyph-name="D" unicode="D" horiz-adv-x="644" 
d="M554 637.5q88 -58.5 88 -205.5q0 -193 -94 -312.5t-311 -119.5h-231l97 696h217q146 0 234 -58.5zM285 551l-57 -406h39q94 0 130.5 85.5t36.5 199.5q0 68 -26 94.5t-81 26.5h-42z" />
    <glyph glyph-name="E" unicode="E" horiz-adv-x="510" 
d="M552 696l-41 -143h-226l-18 -130h197l-18 -139h-198l-20 -140h242l-20 -144h-444l97 696h449z" />
    <glyph glyph-name="F" unicode="F" horiz-adv-x="475" 
d="M537 696l-41 -143h-211l-21 -152h186l-20 -143h-186l-36 -258h-202l97 696h434z" />
    <glyph glyph-name="G" unicode="G" horiz-adv-x="640" 
d="M557.5 690q58.5 -26 96.5 -68l-110 -99q-32 26 -59.5 37.5t-63.5 11.5q-104 0 -147 -98.5t-43 -230.5q0 -65 21.5 -91t66.5 -26q37 0 75 16l18 128h-69l2 139h281l-48 -351q-59 -37 -131 -57.5t-137 -20.5q-286 0 -286 279q0 115 41 219t131 171t229 67q74 0 132.5 -26z
" />
    <glyph glyph-name="H" unicode="H" horiz-adv-x="645" 
d="M207 0h-202l98 696h202l-36 -257h154l36 257h202l-97 -696h-202l38 281h-153z" />
    <glyph glyph-name="I" unicode="I" horiz-adv-x="289" 
d="M305 696l-97 -696h-202l97 696h202z" />
    <glyph glyph-name="J" unicode="J" horiz-adv-x="317" 
d="M254 110q-13 -91 -55.5 -150t-99.5 -92t-131 -57l-36 145q44 16 68 39t35 51.5t17 72.5l81 577h202z" />
    <glyph glyph-name="K" unicode="K" horiz-adv-x="647" 
d="M6 0l97 696h202l-97 -696h-202zM402 0l-136 371l233 325h210l-238 -319l159 -377h-228z" />
    <glyph glyph-name="L" unicode="L" horiz-adv-x="514" 
d="M305 696l-75 -538h257l-42 -158h-439l97 696h202z" />
    <glyph glyph-name="M" unicode="M" horiz-adv-x="777" 
d="M724 0h-199l29 248q15 131 48 304l-146 -482h-194l-23 480q-1 -101 -6.5 -166.5t-17.5 -136.5l-39 -247h-199l146 696h244l13 -470l136 470h256z" />
    <glyph glyph-name="N" unicode="N" horiz-adv-x="640" 
d="M559 0h-254l-85 527l1 -27q4 -62 4 -101q0 -88 -14 -194l-29 -205h-176l97 696h250l89 -527q-6 92 -6 132q0 81 14 183l30 212h176z" />
    <glyph glyph-name="O" unicode="O" horiz-adv-x="678" 
d="M605 640.5q71 -75.5 71 -211.5q0 -107 -36 -209t-120 -171t-219 -69q-133 0 -204.5 76t-71.5 212q0 107 36 209t120.5 170.5t218.5 68.5t205 -75.5zM291.5 515q-33.5 -55 -46 -127.5t-12.5 -136.5q0 -67 20.5 -96t63.5 -29q59 0 92.5 54.5t46 127.5t12.5 139t-20.5 94.5
t-63.5 28.5q-59 0 -92.5 -55z" />
    <glyph glyph-name="P" unicode="P" horiz-adv-x="600" 
d="M546.5 644.5q70.5 -51.5 70.5 -149.5q0 -68 -32 -131.5t-102 -105t-177 -41.5h-68l-30 -217h-202l97 696h246q127 0 197.5 -51.5zM385 400q24 38 24 83q0 70 -81 70h-43l-27 -191h46q57 0 81 38z" />
    <glyph glyph-name="Q" unicode="Q" horiz-adv-x="678" 
d="M599.5 27.5q45.5 -15.5 82.5 -47.5l-139 -156q-43 69 -99 112.5t-143 43.5q-133 0 -204.5 76t-71.5 212q0 107 36 209t120.5 170.5t218.5 68.5t205 -75.5t71 -211.5q0 -118 -46.5 -223t-150.5 -160q75 -3 120.5 -18.5zM253.5 154.5q20.5 -28.5 63.5 -28.5q85 0 118 104.5
t33 221.5q0 62 -20.5 90t-63.5 28q-59 0 -92.5 -55t-46 -128.5t-12.5 -140.5q0 -63 20.5 -91.5z" />
    <glyph glyph-name="R" unicode="R" horiz-adv-x="612" 
d="M587.5 378.5q-30.5 -53.5 -117.5 -97.5l125 -281h-220l-92 248h-41l-34 -248h-202l97 696h251q128 0 196 -52t68 -140q0 -72 -30.5 -125.5zM262 386h52q49 0 72.5 31t23.5 74q0 64 -81 64h-44z" />
    <glyph glyph-name="S" unicode="S" horiz-adv-x="576" 
d="M594 620l-102 -105q-61 55 -138 55q-40 0 -61.5 -15.5t-21.5 -40.5q0 -17 9.5 -28t32 -21t67.5 -25q91 -31 133.5 -79.5t42.5 -122.5q0 -66 -31 -124.5t-101 -96t-180 -37.5q-89 0 -156 29.5t-113 76.5l113 115q67 -67 161 -67q45 0 69 17t24 49q0 28 -21.5 47t-76.5 38
q-100 33 -143 82.5t-43 118.5q0 61 31 113t96 84.5t161 32.5q154 0 248 -96z" />
    <glyph glyph-name="T" unicode="T" horiz-adv-x="542" 
d="M608 696l-42 -154h-155l-76 -542h-202l76 542h-166l21 154h544z" />
    <glyph glyph-name="U" unicode="U" horiz-adv-x="632" 
d="M595 235q-10 -73 -49.5 -130.5t-107.5 -91t-160 -33.5q-126 0 -189 56t-63 154q0 23 3 47l64 459h202l-64 -455q-3 -22 -3 -40q0 -38 15.5 -55.5t50.5 -17.5q44 0 67.5 28t31.5 87l64 453h202z" />
    <glyph glyph-name="V" unicode="V" horiz-adv-x="567" 
d="M652 696l-270 -696h-260l-87 696h211l27 -553l170 553h209z" />
    <glyph glyph-name="W" unicode="W" horiz-adv-x="847" 
d="M905 696l-196 -696h-263l9 500l-138 -500h-256l1 696h200l-33 -547l149 547h212l-16 -547l135 547h196z" />
    <glyph glyph-name="X" unicode="X" horiz-adv-x="594" 
d="M649 696l-221 -321l138 -375h-216l-60 249l-122 -249h-216l234 369l-124 327h215l45 -210l112 210h215z" />
    <glyph glyph-name="Y" unicode="Y" horiz-adv-x="608" 
d="M683 696l-279 -439l-36 -257h-202l36 256l-157 440h217l63 -284l142 284h216z" />
    <glyph glyph-name="Z" unicode="Z" horiz-adv-x="545" 
d="M-28 0l20 151l334 389h-250l21 156h485l-21 -153l-329 -382h284l-42 -161h-502z" />
    <glyph glyph-name="bracketleft" unicode="[" horiz-adv-x="313" 
d="M385 827l-20 -143h-110l-94 -669h110l-20 -142h-295l135 954h294z" />
    <glyph glyph-name="backslash" unicode="\" horiz-adv-x="508" 
d="M300 822l108 -899l-177 -40l-107 899z" />
    <glyph glyph-name="bracketright" unicode="]" horiz-adv-x="313" 
d="M381 827l-134 -954h-295l21 143h110l94 669h-110l20 142h294z" />
    <glyph glyph-name="asciicircum" unicode="^" horiz-adv-x="558" 
d="M449 847l141 -320h-185l-65 178l-109 -178h-191l231 320h178z" />
    <glyph glyph-name="underscore" unicode="_" horiz-adv-x="508" 
d="M-60 -188l21 150h500l-21 -150h-500z" />
    <glyph glyph-name="grave" unicode="`" horiz-adv-x="357" 
d="M173 856l212 -147l-53 -93l-239 96z" />
    <glyph glyph-name="a" unicode="a" horiz-adv-x="574" 
d="M451 538.5q62 -15.5 115 -47.5l-46 -319q-2 -20 -2 -25q0 -14 5 -22.5t19 -14.5l-56 -126q-50 3 -88 25t-53 63q-29 -43 -67 -67.5t-92 -24.5q-84 0 -129.5 58t-45.5 159q0 86 32.5 167.5t104 135.5t182.5 54q59 0 121 -15.5zM237 350.5q-27 -67.5 -27 -152.5
q0 -45 11.5 -60.5t31.5 -15.5q42 0 77 60l34 230q-22 6 -42 6q-58 0 -85 -67.5z" />
    <glyph glyph-name="b" unicode="b" horiz-adv-x="583" 
d="M530 500.5q41 -53.5 41 -153.5q0 -148 -72.5 -257.5t-254.5 -109.5q-124 0 -237 50l100 714l196 20l-38 -271q26 28 65 44.5t77 16.5q82 0 123 -53.5zM247 359l-32 -228q26 -10 51 -10q54 0 80 68t26 149q0 43 -12 58.5t-34 15.5q-43 0 -79 -53z" />
    <glyph glyph-name="c" unicode="c" horiz-adv-x="469" 
d="M427 535q46 -19 80 -55l-93 -111q-39 36 -86 36q-62 0 -87.5 -58.5t-25.5 -134.5q0 -45 18 -62t51 -17q23 0 44 8t51 27l70 -124q-89 -64 -193 -64q-115 0 -179.5 64t-64.5 173q0 76 33 154t104 130.5t178 52.5q54 0 100 -19z" />
    <glyph glyph-name="d" unicode="d" horiz-adv-x="585" 
d="M611 744l-104 -744h-173l1 69q-65 -89 -157 -89q-83 0 -125 56.5t-42 160.5q0 81 28.5 164t87 138t144.5 55q35 0 64 -11.5t49 -31.5l35 253zM235.5 345q-24.5 -68 -24.5 -146q0 -45 10.5 -61t29.5 -16q39 0 90 83l26 186q-22 22 -52 22q-55 0 -79.5 -68z" />
    <glyph glyph-name="e" unicode="e" horiz-adv-x="542" 
d="M447.5 252q-97.5 -48 -241.5 -61q7 -71 81 -71q32 0 62 12t70 37l67 -113q-104 -76 -225 -76q-124 0 -186.5 62.5t-62.5 168.5q0 80 32.5 159t104 131.5t182.5 52.5q101 0 157.5 -42.5t56.5 -110.5q0 -101 -97.5 -149zM322 335q29 28 29 57q0 37 -39 37t-63 -35.5
t-35 -91.5q79 5 108 33z" />
    <glyph glyph-name="f" unicode="f" horiz-adv-x="357" 
d="M323 606q-17 -16 -22 -52l-3 -20h122l-40 -134h-101l-45 -324q-18 -130 -89.5 -198t-188.5 -105l-47 141q61 21 91 55t39 97l46 334h-70l18 134h71l4 32q12 87 74.5 142.5t167.5 55.5q50 0 91.5 -13.5t70.5 -33.5l-66 -115q-35 20 -77 20q-29 0 -46 -16z" />
    <glyph glyph-name="g" unicode="g" horiz-adv-x="575" 
d="M456 538.5q62 -15.5 115 -47.5l-61 -433q-14 -101 -48.5 -163t-96 -92t-158.5 -30q-50 0 -107 17t-103 46l63 124q79 -42 146 -42q45 0 73.5 21.5t37.5 81.5l7 42q-56 -63 -135 -63q-86 0 -131.5 57.5t-45.5 153.5q0 79 32.5 157.5t105.5 132t185 53.5q59 0 121 -15.5z
M260 385.5q-26 -32.5 -37.5 -78.5t-11.5 -89q0 -74 46 -74q41 0 80 58l32 210q-23 6 -41 6q-42 0 -68 -32.5z" />
    <glyph glyph-name="h" unicode="h" horiz-adv-x="559" 
d="M512 521q31 -33 31 -93q0 -23 -2 -35l-55 -393h-194l48 341q2 18 2 23q0 29 -18 29q-34 0 -88 -115l-39 -278h-194l104 744l196 20l-43 -313q26 46 71.5 74.5t94.5 28.5q55 0 86 -33z" />
    <glyph glyph-name="i" unicode="i" horiz-adv-x="276" 
d="M272 534l-74 -534h-194l74 534h194zM118.5 643q-26.5 26 -26.5 67q0 51 35.5 85t87.5 34q44 0 70.5 -26t26.5 -67q0 -51 -35.5 -85t-87.5 -34q-44 0 -70.5 26z" />
    <glyph glyph-name="j" unicode="j" horiz-adv-x="274" 
d="M-117 -88q60 23 90 57t39 97l65 468h194l-64 -458q-18 -130 -89.5 -198t-188.5 -105zM117.5 643q-26.5 26 -26.5 67q0 51 35.5 85t87.5 34q44 0 70.5 -26t26.5 -67q0 -51 -35.5 -85t-87.5 -34q-44 0 -70.5 26z" />
    <glyph glyph-name="k" unicode="k" horiz-adv-x="579" 
d="M264 478q40 40 82 58t91 18q71 0 111.5 -36t40.5 -95q0 -123 -133 -185l86 -238h-212l-78 256q78 27 109.5 59t31.5 70q0 36 -38 36q-52 0 -111 -84l-46 -337h-195l104 744l197 20z" />
    <glyph glyph-name="l" unicode="l" horiz-adv-x="288" 
d="M215 167q-1 -4 -1 -10q0 -22 20 -22q6 0 20 4l18 -138q-22 -10 -53.5 -15.5t-62.5 -5.5q-67 0 -103.5 34.5t-36.5 99.5q0 19 3 38l83 592l196 20z" />
    <glyph glyph-name="m" unicode="m" horiz-adv-x="821" 
d="M773.5 521q31.5 -33 31.5 -93q0 -23 -2 -35l-55 -393h-194l49 341l2 24q0 28 -17 28q-35 0 -75 -107l-40 -286h-194l48 341q2 18 2 23q0 29 -18 29q-16 0 -36 -29.5t-37 -82.5l-40 -281h-194l74 534h169l1 -78q29 46 72 72t90 26q48 0 78.5 -23.5t38.5 -67.5
q31 42 73.5 66.5t85.5 24.5q56 0 87.5 -33z" />
    <glyph glyph-name="n" unicode="n" 
d="M513 521q31 -33 31 -93q0 -23 -2 -35l-55 -393h-194l48 341q2 18 2 23q0 29 -18 29t-39 -28.5t-48 -86.5l-40 -278h-194l74 534h169l1 -88q32 49 80 78.5t99 29.5q55 0 86 -33z" />
    <glyph glyph-name="o" unicode="o" horiz-adv-x="572" 
d="M75 41q-62 61 -62 170q0 87 30.5 165t100 128t179.5 50t172.5 -61.5t62.5 -167.5q0 -87 -30.5 -165t-100 -129t-180.5 -51q-110 0 -172 61zM340 190.5q20 68.5 20 147.5q0 39 -13 56.5t-40 17.5q-56 0 -76 -66.5t-20 -144.5q0 -42 12.5 -60.5t39.5 -18.5q57 0 77 68.5z
" />
    <glyph glyph-name="p" unicode="p" horiz-adv-x="583" 
d="M78 534h173l1 -55q37 39 77.5 57t76.5 18q83 0 124.5 -53.5t41.5 -153.5q0 -87 -28 -171t-91.5 -140t-163.5 -56q-58 0 -93 14l-30 -201l-194 -20zM347 189q26 68 26 149q0 43 -12 58.5t-34 15.5q-43 0 -79 -52l-32 -229q26 -10 51 -10q54 0 80 68z" />
    <glyph glyph-name="q" unicode="q" horiz-adv-x="574" 
d="M314 36q-12 -19 -48.5 -37.5t-80.5 -18.5q-84 0 -129 58t-45 159q0 90 33 171.5t105.5 133.5t183.5 52q59 0 121 -15.5t115 -47.5l-97 -698l-195 -20zM333 182l34 230q-22 6 -42 6q-58 0 -86.5 -68t-28.5 -152q0 -45 12.5 -60.5t33.5 -15.5q42 0 77 60z" />
    <glyph glyph-name="r" unicode="r" horiz-adv-x="399" 
d="M449 542l-55 -191q-27 8 -46 8q-44 0 -70 -35t-48 -99l-32 -225h-194l74 534h169l1 -95q26 54 65 83t83 29q28 0 53 -9z" />
    <glyph glyph-name="s" unicode="s" horiz-adv-x="481" 
d="M389 535q54 -19 93 -51l-83 -104q-28 17 -60.5 27t-61.5 10q-50 0 -50 -27q0 -10 7 -16t31 -15.5t62 -21.5q132 -44 132 -163q0 -49 -23 -92.5t-79 -72.5t-148 -29q-71 0 -135 26t-101 68l94 99q63 -56 142 -56q59 0 59 33q0 12 -7.5 19t-26 15t-67.5 25q-67 24 -99.5 62
t-32.5 99q0 52 28.5 94t83 66t128.5 24q60 0 114 -19z" />
    <glyph glyph-name="t" unicode="t" horiz-adv-x="389" 
d="M325 148l48 -126q-34 -20 -79 -31t-83 -11q-81 0 -123.5 43t-42.5 125q0 14 4 50l29 202h-63l18 134h72l32 115l172 20l-19 -135h120l-40 -134h-98l-28 -202q-2 -18 -2 -24q0 -21 8 -30t24 -9q22 0 51 13z" />
    <glyph glyph-name="u" unicode="u" horiz-adv-x="554" 
d="M48 15q-32 35 -32 97q0 18 3 39l54 383h194l-48 -345q-2 -14 -2 -19q0 -32 25 -32q14 0 32 16t35 43l47 337h194l-74 -534h-169l2 67q-34 -41 -76.5 -64t-88.5 -23q-64 0 -96 35z" />
    <glyph glyph-name="v" unicode="v" horiz-adv-x="514" 
d="M568 534l-227 -534h-233l-86 534h208l15 -391l121 391h202z" />
    <glyph glyph-name="w" unicode="w" horiz-adv-x="756" 
d="M797 534l-177 -534h-220l-7 358l-104 -358h-223l-31 534h196l-22 -383l122 383h181l2 -383l97 383h186z" />
    <glyph glyph-name="x" unicode="x" horiz-adv-x="518" 
d="M545 534l-166 -252l120 -282h-209l-44 178l-91 -178h-212l198 283l-111 251h211l29 -157l68 157h207z" />
    <glyph glyph-name="y" unicode="y" horiz-adv-x="520" 
d="M345 0q-95 -220 -362 -228l-4 135q77 7 117.5 27.5t68.5 65.5h-68l-75 534h202l11 -412l136 412h203z" />
    <glyph glyph-name="z" unicode="z" horiz-adv-x="460" 
d="M482 534l-18 -137l-235 -251h206l-37 -146h-432l18 138l238 252h-182l20 144h422z" />
    <glyph glyph-name="braceleft" unicode="{" horiz-adv-x="313" 
d="M363 708q-39 0 -52.5 -12t-18.5 -43l-21 -154q-10 -70 -43.5 -103t-95.5 -48q50 -8 75.5 -33t25.5 -78q0 -17 -3 -38l-22 -154q-2 -14 -2 -19q0 -19 11.5 -26.5t43.5 -7.5l-16 -134q-119 0 -170.5 35.5t-51.5 105.5q0 22 2 34l21 153q3 21 3 36q0 25 -12 36t-41 11
l23 162q36 0 52 19t22 66l21 153q9 60 33 97t79.5 56.5t154.5 19.5z" />
    <glyph glyph-name="bar" unicode="|" horiz-adv-x="348" 
d="M341 812l-128 -919h-182l128 919h182z" />
    <glyph glyph-name="braceright" unicode="}" horiz-adv-x="314" 
d="M-26 -8q39 0 52.5 12t18.5 43l21 154q10 70 43.5 103t95.5 48q-50 8 -75.5 33t-25.5 78q0 17 3 38l22 154q2 14 2 19q0 19 -11.5 26.5t-43.5 7.5l16 134q119 0 170.5 -35.5t51.5 -105.5q0 -22 -2 -34l-21 -153q-3 -21 -3 -36q0 -25 12 -36t41 -11l-23 -162q-36 0 -52 -19
t-22 -66l-21 -153q-9 -60 -33 -97t-79.5 -56.5t-154.5 -19.5z" />
    <glyph glyph-name="asciitilde" unicode="~" horiz-adv-x="518" 
d="M276.5 230.5q-23.5 9.5 -49.5 27.5q-19 12 -29.5 17.5t-25.5 5.5q-25 0 -39 -13t-33 -43l-94 57q40 66 85.5 105t105.5 39q37 0 59.5 -9.5t49.5 -27.5q17 -12 28 -17.5t26 -5.5q25 0 39.5 13t33.5 43l95 -57q-40 -66 -85.5 -105t-105.5 -39q-37 0 -60.5 9.5z" />
    <glyph glyph-name="uni00A0" unicode="&#xa0;" horiz-adv-x="208" 
 />
    <glyph glyph-name="exclamdown" unicode="&#xa1;" horiz-adv-x="225" 
d="M60 338q-25 26 -25 67q0 46 33.5 79.5t81.5 33.5q39 0 64 -25.5t25 -65.5q0 -47 -33 -81t-81 -34q-40 0 -65 26zM185 228l-36 -435h-204l88 435h152z" />
    <glyph glyph-name="cent" unicode="&#xa2;" horiz-adv-x="469" 
d="M449 44q-70 -51 -152 -62l-21 -147h-133l23 157q-74 22 -114 81.5t-40 143.5q0 65 24.5 132.5t76.5 121t130 73.5l22 152h131l-20 -146q77 -15 131 -70l-93 -111q-39 36 -86 36q-62 0 -87.5 -58.5t-25.5 -134.5q0 -45 18 -62t51 -17q23 0 44 8t51 27z" />
    <glyph glyph-name="sterling" unicode="&#xa3;" horiz-adv-x="539" 
d="M268.5 193q-16.5 -27 -57.5 -48h293l-42 -145h-480l19 139q39 10 59.5 25.5t27.5 35t11 51.5l7 53h-67l14 95h67l12 88q13 98 76 153.5t172 55.5q72 0 122.5 -27.5t81.5 -82.5l-124 -81q-13 27 -28.5 37t-39.5 10q-33 0 -49 -16.5t-21 -52.5l-11 -84h167l-14 -95h-166
l-6 -42q-7 -42 -23.5 -69z" />
    <glyph glyph-name="currency" unicode="&#xa4;" 
d="M476 226l75 -75l-79 -79l-78 76q-51 -28 -113 -28t-113 28l-79 -76l-79 79l76 75q-31 53 -31 116q0 62 31 115l-76 77l79 79l78 -77q51 28 114 28q64 0 114 -29l77 78l79 -79l-75 -76q31 -53 31 -116q0 -65 -31 -116zM341.5 271.5q20.5 24.5 20.5 70.5q0 45 -20.5 69
t-60.5 24q-41 0 -62 -24t-21 -69q0 -46 21 -70.5t62 -24.5q40 0 60.5 24.5z" />
    <glyph glyph-name="yen" unicode="&#xa5;" horiz-adv-x="576" 
d="M649 680l-211 -324h87l-13 -95h-127l-9 -60h128l-14 -95h-127l-15 -106h-192l15 106h-127l14 95h126l8 60h-126l13 95h85l-121 324h200l65 -273l138 273h203z" />
    <glyph glyph-name="brokenbar" unicode="&#xa6;" horiz-adv-x="348" 
d="M341 812l-51 -369h-183l52 369h182zM265 262l-52 -369h-182l51 369h183z" />
    <glyph glyph-name="section" unicode="&#xa7;" horiz-adv-x="548" 
d="M482.5 417q33.5 -32 33.5 -88q0 -52 -28 -87.5t-77 -60.5q25 -21 36.5 -44.5t11.5 -52.5q0 -75 -61 -125t-190 -50q-59 0 -110.5 17.5t-89.5 45.5l74 111q62 -42 120 -42q40 0 56 9.5t16 26.5q0 12 -7.5 20.5t-28.5 18t-66 24.5q-63 19 -96.5 51t-33.5 87q0 48 28.5 81
t76.5 60q-47 43 -47 103q0 79 64.5 126.5t177.5 47.5q56 0 111 -18t95 -46l-78 -106q-28 19 -59 28.5t-61 9.5q-65 0 -65 -37q0 -11 7.5 -19t28.5 -17t64 -23q64 -19 97.5 -51zM320 235q27 32 27 56q0 36 -70 59q-20 6 -45 17q-20 -27 -20 -52q0 -35 54 -57z" />
    <glyph glyph-name="dieresis" unicode="&#xa8;" horiz-adv-x="491" 
d="M117 656.5q-23 22.5 -23 58.5q0 44 31 73.5t76 29.5q39 0 62 -22.5t23 -58.5q0 -44 -31 -73.5t-76 -29.5q-39 0 -62 22.5zM357 656.5q-23 22.5 -23 58.5q0 44 31 73.5t76 29.5q39 0 62 -22.5t23 -58.5q0 -44 -31 -73.5t-76 -29.5q-39 0 -62 22.5z" />
    <glyph glyph-name="copyright" unicode="&#xa9;" horiz-adv-x="810" 
d="M607.5 733q80.5 -44 127 -123t46.5 -179t-46.5 -178.5t-127 -122.5t-178.5 -44t-179 44t-128 122.5t-47 178.5t47 179t128 123t179 44t178.5 -44zM304 649.5q-55 -31.5 -86.5 -88t-31.5 -130.5t31.5 -130.5t86.5 -87.5t125 -31q69 0 124 31t86.5 87.5t31.5 130.5
t-31.5 130.5t-86.5 88t-124 31.5q-70 0 -125 -31.5zM506 618q37 -15 64 -42l-56 -69q-18 14 -32.5 18.5t-34.5 4.5q-29 0 -47 -23t-18 -75q0 -99 62 -99q43 0 79 29l51 -75q-29 -27 -65.5 -42t-76.5 -15q-87 0 -136.5 52.5t-49.5 149.5q0 91 51 146t134 55q38 0 75 -15z" />
    <glyph glyph-name="ordfeminine" unicode="&#xaa;" horiz-adv-x="473" 
d="M80 295q-35 35 -35 86q0 65 53 107t173 42h25l1 9q2 20 -6 28.5t-33 8.5q-50 0 -121 -21l-23 108q41 16 90.5 24.5t92.5 8.5q82 0 123 -32t41 -105q0 -21 -3 -45l-13 -97q-2 -12 -2 -17q0 -20 20 -26l-48 -110q-41 2 -67.5 15t-44.5 39q-49 -58 -130 -58q-58 0 -93 35z
M277 395l7 47h-8q-29 0 -42.5 -9t-13.5 -31q0 -21 20 -21q21 0 37 14zM-12 0l20 150h420l-20 -150h-420z" />
    <glyph glyph-name="guillemotleft" unicode="&#xab;" horiz-adv-x="648" 
d="M258 569l110 -81l-151 -205l93 -205l-131 -81l-163 225l17 122zM547 569l110 -81l-151 -205l93 -205l-131 -81l-163 225l17 122z" />
    <glyph glyph-name="logicalnot" unicode="&#xac;" horiz-adv-x="536" 
d="M518 407l-44 -310h-166l23 160h-294l21 150h460z" />
    <glyph glyph-name="uni00AD" unicode="&#xad;" horiz-adv-x="399" 
d="M29 238l20 150h334l-20 -150h-334z" />
    <glyph glyph-name="registered" unicode="&#xae;" horiz-adv-x="635" 
d="M496 728q65 -36 102 -101t37 -148t-37 -147t-102 -100t-147 -36t-148 36t-103.5 100t-37.5 147t37.5 148t103.5 101t148 36t147 -36zM489.5 329.5q53.5 55.5 53.5 149.5q0 62 -24.5 109t-68.5 72.5t-101 25.5t-102 -25.5t-70 -72.5t-25 -109t25 -108.5t70 -71.5t102 -25
q87 0 140.5 55.5zM450.5 497q-14.5 -20 -39.5 -32l73 -118h-91l-56 101h-20v-101h-80v286h88q140 0 140 -90q0 -26 -14.5 -46zM317 514h29q16 0 26.5 8t10.5 24q0 14 -10 21t-28 7h-28v-60z" />
    <glyph glyph-name="macron" unicode="&#xaf;" horiz-adv-x="380" 
d="M403 648h-319l19 134h319z" />
    <glyph glyph-name="degree" unicode="&#xb0;" horiz-adv-x="507" 
d="M110.5 404q-45.5 42 -45.5 113q0 60 28 105t74.5 69.5t101.5 24.5q72 0 117.5 -42t45.5 -113q0 -60 -28 -105t-74.5 -69.5t-101.5 -24.5q-72 0 -117.5 42zM288 493q19 23 19 60q0 26 -12 40.5t-35 14.5q-32 0 -51 -23t-19 -60q0 -26 12 -40.5t35 -14.5q32 0 51 23z" />
    <glyph glyph-name="plusminus" unicode="&#xb1;" horiz-adv-x="536" 
d="M11 0l21 150h442l-21 -150h-442zM402 670l-22 -160h152l-21 -150h-152l-23 -160h-156l23 160h-152l21 150h152l21 160h157z" />
    <glyph glyph-name="uni00B2" unicode="&#xb2;" horiz-adv-x="388" 
d="M367.5 720.5q39.5 -34.5 39.5 -83.5q0 -41 -21 -74t-56 -61.5t-105 -75.5h162l-28 -106h-309l13 98l35 27q86 68 124.5 106t38.5 70q0 14 -9 22t-25 8q-20 0 -37 -9.5t-37 -31.5l-75 63q75 82 178 82q72 0 111.5 -34.5z" />
    <glyph glyph-name="uni00B3" unicode="&#xb3;" horiz-adv-x="388" 
d="M369.5 726.5q39.5 -28.5 39.5 -75.5q0 -41 -30 -68t-82 -40q45 -3 71 -25t26 -65q0 -67 -58 -107t-143 -40q-108 0 -158 73l81 69q33 -38 78 -38q25 0 41.5 13t16.5 38q0 33 -51 33h-41l29 94h26q53 0 53 38q0 26 -36 26q-45 0 -88 -35l-60 76q79 62 177 62
q69 0 108.5 -28.5z" />
    <glyph glyph-name="acute" unicode="&#xb4;" horiz-adv-x="358" 
d="M331 856l60 -144l-260 -99l-44 99z" />
    <glyph glyph-name="uni00B5" unicode="&#xb5;" horiz-adv-x="568" 
d="M498 76q0 -35 6 -77l-180 -18q-10 33 -11 77q-21 -37 -43 -52t-53 -15q-33 0 -53 18q1 -5 5 -24t4 -43t-6 -66l-12 -83l-183 -18l106 759h194l-51 -368q-1 -4 -1 -11q0 -28 25 -28q15 0 32.5 11t32.5 32l51 364h194l-49 -351q-8 -66 -8 -107z" />
    <glyph glyph-name="paragraph" unicode="&#xb6;" horiz-adv-x="808" 
d="M767 696l-127 -903l-170 -21l110 791h-77l-108 -770l-170 -21l67 480q-105 1 -160 52t-55 138q0 80 39 137t109 87t162 30h380z" />
    <glyph glyph-name="periodcentered" unicode="&#xb7;" horiz-adv-x="240" 
d="M48 229q-25 26 -25 67q0 46 33.5 79.5t81.5 33.5q39 0 64 -25.5t25 -65.5q0 -47 -33 -81t-81 -34q-40 0 -65 26z" />
    <glyph glyph-name="cedilla" unicode="&#xb8;" horiz-adv-x="344" 
d="M160 -43q47 -6 71.5 -30.5t24.5 -65.5q0 -31 -17 -62t-57 -52.5t-104 -21.5q-68 0 -119 35l53 84q29 -17 60 -17q49 0 49 28q0 14 -20.5 19.5t-67.5 5.5l34 136h103z" />
    <glyph glyph-name="uni00B9" unicode="&#xb9;" horiz-adv-x="388" 
d="M373 744l-59 -424h-137l41 294l-93 -56l-50 93l171 93h127z" />
    <glyph glyph-name="ordmasculine" unicode="&#xba;" horiz-adv-x="488" 
d="M446 650q52 -46 52 -133q0 -75 -31.5 -133.5t-88.5 -91t-132 -32.5q-92 0 -144 45.5t-52 131.5q0 76 31.5 135t88.5 91.5t132 32.5q92 0 144 -46zM238.5 532q-15.5 -42 -15.5 -97q0 -28 8.5 -40.5t27.5 -12.5q35 0 50.5 43t15.5 98q0 27 -9 39t-27 12q-35 0 -50.5 -42z
M-15 0l21 150h442l-21 -150h-442z" />
    <glyph glyph-name="guillemotright" unicode="&#xbb;" horiz-adv-x="648" 
d="M185 569l163 -225l-17 -122l-225 -225l-111 81l153 205l-95 205zM474 569l163 -225l-17 -122l-225 -225l-111 81l153 205l-95 205z" />
    <glyph glyph-name="onequarter" unicode="&#xbc;" horiz-adv-x="955" 
d="M366 696l-59 -424h-137l41 294l-93 -56l-50 93l171 93h127zM695 764l102 -55l-517 -799l-103 55zM930 179l-15 -102h-41l-11 -77h-130l10 77h-191l13 93l151 265l111 -43l-118 -213h50l41 88h100l-12 -88h42z" />
    <glyph glyph-name="onehalf" unicode="&#xbd;" horiz-adv-x="955" 
d="M366 696l-59 -424h-137l41 294l-93 -56l-50 93l171 93h127zM695 764l102 -55l-517 -799l-103 55zM889.5 400.5q39.5 -34.5 39.5 -83.5q0 -41 -21 -74t-56 -61.5t-105 -75.5h162l-28 -106h-309l13 98l35 27q86 68 124.5 106t38.5 70q0 14 -9 22t-25 8q-20 0 -37 -9.5
t-37 -31.5l-75 63q75 82 178 82q72 0 111.5 -34.5z" />
    <glyph glyph-name="threequarters" unicode="&#xbe;" horiz-adv-x="955" 
d="M362.5 678.5q39.5 -28.5 39.5 -75.5q0 -41 -30 -68t-82 -40q45 -3 71 -25t26 -65q0 -67 -58 -107t-143 -40q-108 0 -158 73l81 69q33 -38 78 -38q25 0 41.5 13t16.5 38q0 33 -51 33h-41l29 94h26q53 0 53 38q0 26 -36 26q-45 0 -88 -35l-60 76q79 62 177 62
q69 0 108.5 -28.5zM695 764l102 -55l-517 -799l-103 55zM930 179l-15 -102h-41l-11 -77h-130l10 77h-191l13 93l151 265l111 -43l-118 -213h50l41 88h100l-12 -88h42z" />
    <glyph glyph-name="questiondown" unicode="&#xbf;" horiz-adv-x="481" 
d="M344 483q25 -26 25 -67q0 -46 -33.5 -79.5t-81.5 -33.5q-39 0 -64 25.5t-25 65.5q0 47 33 81t81 34q40 0 65 -26zM11 -184.5q-54 42.5 -54 109.5q0 53 19 88t46 55.5t69 42.5q44 24 65 43t21 51q0 8 -2 18l171 25q6 -24 6 -48q0 -45 -17 -76.5t-41 -50.5t-60 -40
t-53 -36.5t-17 -39.5q0 -30 43 -30q50 0 111 55l107 -98q-108 -111 -258 -111q-102 0 -156 42.5z" />
    <glyph glyph-name="Agrave" unicode="&#xc0;" horiz-adv-x="589" 
d="M362 0l-7 135h-163l-44 -135h-211l296 696h242l101 -696h-214zM238 279h109l-16 288zM318 974l208 -136l-49 -94l-239 86z" />
    <glyph glyph-name="Aacute" unicode="&#xc1;" horiz-adv-x="589" 
d="M362 0l-7 135h-163l-44 -135h-211l296 696h242l101 -696h-214zM238 279h109l-16 288zM480 975l60 -144l-260 -89l-42 96z" />
    <glyph glyph-name="Acircumflex" unicode="&#xc2;" horiz-adv-x="589" 
d="M362 0l-7 135h-163l-44 -135h-211l296 696h242l101 -696h-214zM238 279h109l-16 288zM224 752l-59 77l162 141h116l122 -141l-73 -77l-122 87z" />
    <glyph glyph-name="Atilde" unicode="&#xc3;" horiz-adv-x="589" 
d="M362 0l-7 135h-163l-44 -135h-211l296 696h242l101 -696h-214zM238 279h109l-16 288zM357 773q-14 9 -23 13.5t-18 4.5q-18 0 -30.5 -10.5t-29.5 -33.5l-85 47q28 59 69 97t86 38q22 0 38 -7t34 -20q23 -16 36 -16q17 0 29.5 10.5t29.5 33.5l85 -47q-28 -59 -69 -97
t-86 -38q-29 0 -66 25z" />
    <glyph glyph-name="Adieresis" unicode="&#xc4;" horiz-adv-x="589" 
d="M362 0l-7 135h-163l-44 -135h-211l296 696h242l101 -696h-214zM238 279h109l-16 288zM179 782.5q-23 22.5 -23 58.5q0 44 31 73.5t76 29.5q39 0 62 -22.5t23 -58.5q0 -44 -31 -73.5t-76 -29.5q-39 0 -62 22.5zM419 782.5q-23 22.5 -23 58.5q0 44 31 73.5t76 29.5
q39 0 62 -22.5t23 -58.5q0 -44 -31 -73.5t-76 -29.5q-39 0 -62 22.5z" />
    <glyph glyph-name="Aring" unicode="&#xc5;" horiz-adv-x="589" 
d="M362 0l-7 135h-163l-44 -135h-211l296 696h242l101 -696h-214zM238 279h109l-16 288zM496 975.5q35 -36.5 35 -95.5q0 -42 -21 -79t-60.5 -59.5t-90.5 -22.5q-63 0 -98 36.5t-35 95.5q0 41 21.5 78t60.5 60t89 23q64 0 99 -36.5zM349 896q-14 -18 -14 -40q0 -19 9 -28
t25 -9q24 0 38 16.5t14 39.5q0 19 -9 29t-25 10q-24 0 -38 -18z" />
    <glyph glyph-name="AE" unicode="&#xc6;" horiz-adv-x="847" 
d="M814 553h-243l4 -132h231l-18 -139h-209l4 -138h228l-20 -144h-390l-1 135h-185l-60 -135h-219l352 696h566zM278 279h121l-2 270z" />
    <glyph glyph-name="Ccedilla" unicode="&#xc7;" horiz-adv-x="571" 
d="M348 -17l-4 -26q47 -6 71.5 -30.5t24.5 -65.5q0 -31 -17 -62t-57 -52.5t-104 -21.5q-68 0 -119 35l53 84q29 -17 60 -17q49 0 49 28q0 14 -20.5 19.5t-67.5 5.5l26 105q-101 16 -159.5 89.5t-58.5 195.5q0 107 38 209t121 169.5t211 67.5q142 0 218 -90l-107 -103
q-25 22 -51 33.5t-58 11.5q-59 0 -95.5 -48.5t-52 -116.5t-15.5 -129q0 -139 103 -139q33 0 63.5 15t68.5 43l76 -117q-88 -79 -197 -93z" />
    <glyph glyph-name="Egrave" unicode="&#xc8;" horiz-adv-x="510" 
d="M552 696l-41 -143h-226l-18 -130h197l-18 -139h-198l-20 -140h242l-20 -144h-444l97 696h449zM292 974l208 -136l-49 -94l-239 86z" />
    <glyph glyph-name="Eacute" unicode="&#xc9;" horiz-adv-x="510" 
d="M552 696l-41 -143h-226l-18 -130h197l-18 -139h-198l-20 -140h242l-20 -144h-444l97 696h449zM454 975l60 -144l-260 -89l-42 96z" />
    <glyph glyph-name="Ecircumflex" unicode="&#xca;" horiz-adv-x="510" 
d="M552 696l-41 -143h-226l-18 -130h197l-18 -139h-198l-20 -140h242l-20 -144h-444l97 696h449zM198 752l-59 77l162 141h116l122 -141l-73 -77l-122 87z" />
    <glyph glyph-name="Edieresis" unicode="&#xcb;" horiz-adv-x="510" 
d="M552 696l-41 -143h-226l-18 -130h197l-18 -139h-198l-20 -140h242l-20 -144h-444l97 696h449zM153 782.5q-23 22.5 -23 58.5q0 44 31 73.5t76 29.5q39 0 62 -22.5t23 -58.5q0 -44 -31 -73.5t-76 -29.5q-39 0 -62 22.5zM393 782.5q-23 22.5 -23 58.5q0 44 31 73.5t76 29.5
q39 0 62 -22.5t23 -58.5q0 -44 -31 -73.5t-76 -29.5q-39 0 -62 22.5z" />
    <glyph glyph-name="Igrave" unicode="&#xcc;" horiz-adv-x="289" 
d="M305 696l-97 -696h-202l97 696h202zM168 974l208 -136l-49 -94l-239 86z" />
    <glyph glyph-name="Iacute" unicode="&#xcd;" horiz-adv-x="289" 
d="M305 696l-97 -696h-202l97 696h202zM330 975l60 -144l-260 -89l-42 96z" />
    <glyph glyph-name="Icircumflex" unicode="&#xce;" horiz-adv-x="289" 
d="M305 696l-97 -696h-202l97 696h202zM74 752l-59 77l162 141h116l122 -141l-73 -77l-122 87z" />
    <glyph glyph-name="Idieresis" unicode="&#xcf;" horiz-adv-x="289" 
d="M305 696l-97 -696h-202l97 696h202zM29 782.5q-23 22.5 -23 58.5q0 44 31 73.5t76 29.5q39 0 62 -22.5t23 -58.5q0 -44 -31 -73.5t-76 -29.5q-39 0 -62 22.5zM269 782.5q-23 22.5 -23 58.5q0 44 31 73.5t76 29.5q39 0 62 -22.5t23 -58.5q0 -44 -31 -73.5t-76 -29.5
q-39 0 -62 22.5z" />
    <glyph glyph-name="Eth" unicode="&#xd0;" horiz-adv-x="653" 
d="M563 637.5q88 -58.5 88 -205.5q0 -193 -94 -312.5t-311 -119.5h-231l41 295h-48l16 116h48l40 285h217q146 0 234 -58.5zM406.5 230.5q36.5 85.5 36.5 199.5q0 68 -26 94.5t-81 26.5h-42l-20 -140h118l-16 -116h-118l-21 -150h39q94 0 130.5 85.5z" />
    <glyph glyph-name="Ntilde" unicode="&#xd1;" horiz-adv-x="640" 
d="M559 0h-254l-85 527l1 -27q4 -62 4 -101q0 -88 -14 -194l-29 -205h-176l97 696h250l89 -527q-6 92 -6 132q0 81 14 183l30 212h176zM383 773q-14 9 -23 13.5t-18 4.5q-18 0 -30.5 -10.5t-29.5 -33.5l-85 47q28 59 69 97t86 38q22 0 38 -7t34 -20q23 -16 36 -16
q17 0 29.5 10.5t29.5 33.5l85 -47q-28 -59 -69 -97t-86 -38q-29 0 -66 25z" />
    <glyph glyph-name="Ograve" unicode="&#xd2;" horiz-adv-x="678" 
d="M605 640.5q71 -75.5 71 -211.5q0 -107 -36 -209t-120 -171t-219 -69q-133 0 -204.5 76t-71.5 212q0 107 36 209t120.5 170.5t218.5 68.5t205 -75.5zM291.5 515q-33.5 -55 -46 -127.5t-12.5 -136.5q0 -67 20.5 -96t63.5 -29q59 0 92.5 54.5t46 127.5t12.5 139t-20.5 94.5
t-63.5 28.5q-59 0 -92.5 -55zM363 974l208 -136l-49 -94l-239 86z" />
    <glyph glyph-name="Oacute" unicode="&#xd3;" horiz-adv-x="678" 
d="M605 640.5q71 -75.5 71 -211.5q0 -107 -36 -209t-120 -171t-219 -69q-133 0 -204.5 76t-71.5 212q0 107 36 209t120.5 170.5t218.5 68.5t205 -75.5zM291.5 515q-33.5 -55 -46 -127.5t-12.5 -136.5q0 -67 20.5 -96t63.5 -29q59 0 92.5 54.5t46 127.5t12.5 139t-20.5 94.5
t-63.5 28.5q-59 0 -92.5 -55zM525 975l60 -144l-260 -89l-42 96z" />
    <glyph glyph-name="Ocircumflex" unicode="&#xd4;" horiz-adv-x="678" 
d="M605 640.5q71 -75.5 71 -211.5q0 -107 -36 -209t-120 -171t-219 -69q-133 0 -204.5 76t-71.5 212q0 107 36 209t120.5 170.5t218.5 68.5t205 -75.5zM291.5 515q-33.5 -55 -46 -127.5t-12.5 -136.5q0 -67 20.5 -96t63.5 -29q59 0 92.5 54.5t46 127.5t12.5 139t-20.5 94.5
t-63.5 28.5q-59 0 -92.5 -55zM269 752l-59 77l162 141h116l122 -141l-73 -77l-122 87z" />
    <glyph glyph-name="Otilde" unicode="&#xd5;" horiz-adv-x="678" 
d="M605 640.5q71 -75.5 71 -211.5q0 -107 -36 -209t-120 -171t-219 -69q-133 0 -204.5 76t-71.5 212q0 107 36 209t120.5 170.5t218.5 68.5t205 -75.5zM291.5 515q-33.5 -55 -46 -127.5t-12.5 -136.5q0 -67 20.5 -96t63.5 -29q59 0 92.5 54.5t46 127.5t12.5 139t-20.5 94.5
t-63.5 28.5q-59 0 -92.5 -55zM402 773q-14 9 -23 13.5t-18 4.5q-18 0 -30.5 -10.5t-29.5 -33.5l-85 47q28 59 69 97t86 38q22 0 38 -7t34 -20q23 -16 36 -16q17 0 29.5 10.5t29.5 33.5l85 -47q-28 -59 -69 -97t-86 -38q-29 0 -66 25z" />
    <glyph glyph-name="Odieresis" unicode="&#xd6;" horiz-adv-x="678" 
d="M605 640.5q71 -75.5 71 -211.5q0 -107 -36 -209t-120 -171t-219 -69q-133 0 -204.5 76t-71.5 212q0 107 36 209t120.5 170.5t218.5 68.5t205 -75.5zM291.5 515q-33.5 -55 -46 -127.5t-12.5 -136.5q0 -67 20.5 -96t63.5 -29q59 0 92.5 54.5t46 127.5t12.5 139t-20.5 94.5
t-63.5 28.5q-59 0 -92.5 -55zM224 782.5q-23 22.5 -23 58.5q0 44 31 73.5t76 29.5q39 0 62 -22.5t23 -58.5q0 -44 -31 -73.5t-76 -29.5q-39 0 -62 22.5zM464 782.5q-23 22.5 -23 58.5q0 44 31 73.5t76 29.5q39 0 62 -22.5t23 -58.5q0 -44 -31 -73.5t-76 -29.5
q-39 0 -62 22.5z" />
    <glyph glyph-name="multiply" unicode="&#xd7;" horiz-adv-x="519" 
d="M404 525l92 -106l-128 -110l97 -120l-116 -102l-93 119l-129 -119l-93 106l127 112l-96 118l117 102l92 -117z" />
    <glyph glyph-name="Oslash" unicode="&#xd8;" horiz-adv-x="678" 
d="M651 569q25 -60 25 -140q0 -107 -36 -209t-120 -171t-219 -69q-14 0 -40 2l-53 -121l-143 40l59 130q-49 37 -74 97t-25 140q0 107 36 209t120.5 170.5t218.5 68.5q14 0 38 -2l55 119l142 -40l-58 -127q49 -37 74 -97zM290 514.5q-35 -55.5 -48.5 -129.5t-13.5 -139
q0 -39 4 -59l166 383h-14q-59 0 -94 -55.5zM410.5 181q34.5 55 48 129.5t13.5 141.5q0 32 -3 54l-164 -380h12q59 0 93.5 55z" />
    <glyph glyph-name="Ugrave" unicode="&#xd9;" horiz-adv-x="632" 
d="M595 235q-10 -73 -49.5 -130.5t-107.5 -91t-160 -33.5q-126 0 -189 56t-63 154q0 23 3 47l64 459h202l-64 -455q-3 -22 -3 -40q0 -38 15.5 -55.5t50.5 -17.5q44 0 67.5 28t31.5 87l64 453h202zM340 974l208 -136l-49 -94l-239 86z" />
    <glyph glyph-name="Uacute" unicode="&#xda;" horiz-adv-x="632" 
d="M595 235q-10 -73 -49.5 -130.5t-107.5 -91t-160 -33.5q-126 0 -189 56t-63 154q0 23 3 47l64 459h202l-64 -455q-3 -22 -3 -40q0 -38 15.5 -55.5t50.5 -17.5q44 0 67.5 28t31.5 87l64 453h202zM502 975l60 -144l-260 -89l-42 96z" />
    <glyph glyph-name="Ucircumflex" unicode="&#xdb;" horiz-adv-x="632" 
d="M595 235q-10 -73 -49.5 -130.5t-107.5 -91t-160 -33.5q-126 0 -189 56t-63 154q0 23 3 47l64 459h202l-64 -455q-3 -22 -3 -40q0 -38 15.5 -55.5t50.5 -17.5q44 0 67.5 28t31.5 87l64 453h202zM246 752l-59 77l162 141h116l122 -141l-73 -77l-122 87z" />
    <glyph glyph-name="Udieresis" unicode="&#xdc;" horiz-adv-x="632" 
d="M595 235q-10 -73 -49.5 -130.5t-107.5 -91t-160 -33.5q-126 0 -189 56t-63 154q0 23 3 47l64 459h202l-64 -455q-3 -22 -3 -40q0 -38 15.5 -55.5t50.5 -17.5q44 0 67.5 28t31.5 87l64 453h202zM201 782.5q-23 22.5 -23 58.5q0 44 31 73.5t76 29.5q39 0 62 -22.5t23 -58.5
q0 -44 -31 -73.5t-76 -29.5q-39 0 -62 22.5zM441 782.5q-23 22.5 -23 58.5q0 44 31 73.5t76 29.5q39 0 62 -22.5t23 -58.5q0 -44 -31 -73.5t-76 -29.5q-39 0 -62 22.5z" />
    <glyph glyph-name="Yacute" unicode="&#xdd;" horiz-adv-x="608" 
d="M683 696l-279 -439l-36 -257h-202l36 256l-157 440h217l63 -284l142 284h216zM490 975l60 -144l-260 -89l-42 96z" />
    <glyph glyph-name="Thorn" unicode="&#xde;" horiz-adv-x="600" 
d="M532 541.5q70 -51.5 70 -155.5q0 -66 -29.5 -129.5t-99 -107t-183.5 -43.5h-67l-15 -106h-202l97 696h202l-14 -103h43q128 0 198 -51.5zM370 291.5q24 40.5 24 88.5q0 70 -81 70h-42l-28 -199h45q58 0 82 40.5z" />
    <glyph glyph-name="germandbls" unicode="&#xdf;" horiz-adv-x="599" 
d="M-117 -86q58 20 88.5 49t37.5 81l68 487q15 110 88 171.5t194 61.5q97 0 148.5 -42.5t51.5 -108.5q0 -40 -18 -65.5t-51 -53.5q-25 -22 -36.5 -36.5t-11.5 -33.5q0 -17 11.5 -30t36.5 -35q28 -23 47 -42.5t32.5 -50.5t13.5 -73q0 -52 -24.5 -101t-78 -80.5t-134.5 -31.5
q-34 0 -67 8.5t-58 21.5l73 129q17 -9 36 -9q29 0 40.5 16.5t11.5 34.5q0 25 -12 41.5t-38 39.5q-30 27 -46 51t-16 62q0 46 15 73.5t44 58.5q23 26 33.5 44t10.5 44q0 16 -8.5 25t-24.5 9q-29 0 -45.5 -23.5t-22.5 -69.5l-64 -460q-18 -130 -89.5 -198t-188.5 -105z" />
    <glyph glyph-name="agrave" unicode="&#xe0;" horiz-adv-x="574" 
d="M451 538.5q62 -15.5 115 -47.5l-46 -319q-2 -20 -2 -25q0 -14 5 -22.5t19 -14.5l-56 -126q-50 3 -88 25t-53 63q-29 -43 -67 -67.5t-92 -24.5q-84 0 -129.5 58t-45.5 159q0 86 32.5 167.5t104 135.5t182.5 54q59 0 121 -15.5zM237 350.5q-27 -67.5 -27 -152.5
q0 -45 11.5 -60.5t31.5 -15.5q42 0 77 60l34 230q-22 6 -42 6q-58 0 -85 -67.5zM317 856l212 -147l-53 -93l-239 96z" />
    <glyph glyph-name="aacute" unicode="&#xe1;" horiz-adv-x="574" 
d="M451 538.5q62 -15.5 115 -47.5l-46 -319q-2 -20 -2 -25q0 -14 5 -22.5t19 -14.5l-56 -126q-50 3 -88 25t-53 63q-29 -43 -67 -67.5t-92 -24.5q-84 0 -129.5 58t-45.5 159q0 86 32.5 167.5t104 135.5t182.5 54q59 0 121 -15.5zM237 350.5q-27 -67.5 -27 -152.5
q0 -45 11.5 -60.5t31.5 -15.5q42 0 77 60l34 230q-22 6 -42 6q-58 0 -85 -67.5zM464 856l60 -144l-260 -99l-44 99z" />
    <glyph glyph-name="acircumflex" unicode="&#xe2;" horiz-adv-x="574" 
d="M451 538.5q62 -15.5 115 -47.5l-46 -319q-2 -20 -2 -25q0 -14 5 -22.5t19 -14.5l-56 -126q-50 3 -88 25t-53 63q-29 -43 -67 -67.5t-92 -24.5q-84 0 -129.5 58t-45.5 159q0 86 32.5 167.5t104 135.5t182.5 54q59 0 121 -15.5zM237 350.5q-27 -67.5 -27 -152.5
q0 -45 11.5 -60.5t31.5 -15.5q42 0 77 60l34 230q-22 6 -42 6q-58 0 -85 -67.5zM224 612l-58 77l163 151h116l121 -151l-75 -77l-120 96z" />
    <glyph glyph-name="atilde" unicode="&#xe3;" horiz-adv-x="574" 
d="M451 538.5q62 -15.5 115 -47.5l-46 -319q-2 -20 -2 -25q0 -14 5 -22.5t19 -14.5l-56 -126q-50 3 -88 25t-53 63q-29 -43 -67 -67.5t-92 -24.5q-84 0 -129.5 58t-45.5 159q0 86 32.5 167.5t104 135.5t182.5 54q59 0 121 -15.5zM237 350.5q-27 -67.5 -27 -152.5
q0 -45 11.5 -60.5t31.5 -15.5q42 0 77 60l34 230q-22 6 -42 6q-58 0 -85 -67.5zM355 647q-14 9 -23 13.5t-18 4.5q-17 0 -30 -10.5t-30 -33.5l-85 47q28 59 69 97t86 38q22 0 38 -7t34 -20q23 -16 36 -16q17 0 29.5 10.5t29.5 33.5l85 -47q-28 -59 -69 -97t-86 -38
q-29 0 -66 25z" />
    <glyph glyph-name="adieresis" unicode="&#xe4;" horiz-adv-x="574" 
d="M451 538.5q62 -15.5 115 -47.5l-46 -319q-2 -20 -2 -25q0 -14 5 -22.5t19 -14.5l-56 -126q-50 3 -88 25t-53 63q-29 -43 -67 -67.5t-92 -24.5q-84 0 -129.5 58t-45.5 159q0 86 32.5 167.5t104 135.5t182.5 54q59 0 121 -15.5zM237 350.5q-27 -67.5 -27 -152.5
q0 -45 11.5 -60.5t31.5 -15.5q42 0 77 60l34 230q-22 6 -42 6q-58 0 -85 -67.5zM181 656.5q-23 22.5 -23 58.5q0 44 31 73.5t76 29.5q39 0 62 -22.5t23 -58.5q0 -44 -31 -73.5t-76 -29.5q-39 0 -62 22.5zM421 656.5q-23 22.5 -23 58.5q0 44 31 73.5t76 29.5q39 0 62 -22.5
t23 -58.5q0 -44 -31 -73.5t-76 -29.5q-39 0 -62 22.5z" />
    <glyph glyph-name="aring" unicode="&#xe5;" horiz-adv-x="574" 
d="M451 538.5q62 -15.5 115 -47.5l-46 -319q-2 -20 -2 -25q0 -14 5 -22.5t19 -14.5l-56 -126q-50 3 -88 25t-53 63q-29 -43 -67 -67.5t-92 -24.5q-84 0 -129.5 58t-45.5 159q0 86 32.5 167.5t104 135.5t182.5 54q59 0 121 -15.5zM237 350.5q-27 -67.5 -27 -152.5
q0 -45 11.5 -60.5t31.5 -15.5q42 0 77 60l34 230q-22 6 -42 6q-58 0 -85 -67.5zM493 849.5q35 -36.5 35 -95.5q0 -42 -21 -79t-60.5 -59.5t-90.5 -22.5q-63 0 -98 36.5t-35 95.5q0 41 21.5 78t60.5 60t89 23q64 0 99 -36.5zM346 770q-14 -18 -14 -40q0 -19 9 -28t25 -9
q24 0 38 16.5t14 39.5q0 19 -9 29t-25 10q-24 0 -38 -18z" />
    <glyph glyph-name="ae" unicode="&#xe6;" horiz-adv-x="843" 
d="M387.5 537.5q37.5 -16.5 64.5 -48.5q30 30 78.5 47.5t101.5 17.5q101 0 157.5 -42.5t56.5 -110.5q0 -101 -98 -149t-241 -61q3 -42 23.5 -56.5t57.5 -14.5q32 0 62 12t70 37l67 -113q-104 -76 -225 -76q-143 0 -203 85q-43 -46 -91 -65.5t-104 -19.5q-76 0 -121.5 40.5
t-45.5 106.5q0 87 65 145t223 58h46q4 14 16 40q-6 21 -28.5 31.5t-55.5 10.5q-69 0 -145 -25l-28 126q106 41 200 41q60 0 97.5 -16.5zM548.5 393q-23.5 -36 -33.5 -91q55 3 85.5 19.5t41 35.5t10.5 32q0 19 -10 29.5t-33 10.5q-37 0 -60.5 -36zM286 222q-40 0 -62.5 -16.5
t-22.5 -46.5q0 -18 9.5 -29t30.5 -11q19 0 36 10.5t42 32.5q-4 21 -4 60h-29z" />
    <glyph glyph-name="ccedilla" unicode="&#xe7;" horiz-adv-x="469" 
d="M286 -19l-4 -24q47 -6 71.5 -30.5t24.5 -65.5q0 -31 -17 -62t-57 -52.5t-104 -21.5q-68 0 -119 35l53 84q29 -17 60 -17q49 0 49 28q0 14 -20.5 19.5t-67.5 5.5l27 108q-81 19 -125.5 79.5t-44.5 149.5q0 76 33 154t104 130.5t178 52.5q54 0 100 -19t80 -55l-93 -111
q-39 36 -86 36q-62 0 -87.5 -58.5t-25.5 -134.5q0 -45 18 -62t51 -17q23 0 44 8t51 27l70 -124q-76 -55 -163 -63z" />
    <glyph glyph-name="egrave" unicode="&#xe8;" horiz-adv-x="542" 
d="M447.5 252q-97.5 -48 -241.5 -61q7 -71 81 -71q32 0 62 12t70 37l67 -113q-104 -76 -225 -76q-124 0 -186.5 62.5t-62.5 168.5q0 80 32.5 159t104 131.5t182.5 52.5q101 0 157.5 -42.5t56.5 -110.5q0 -101 -97.5 -149zM322 335q29 28 29 57q0 37 -39 37t-63 -35.5
t-35 -91.5q79 5 108 33zM286 856l212 -147l-53 -93l-239 96z" />
    <glyph glyph-name="eacute" unicode="&#xe9;" horiz-adv-x="542" 
d="M447.5 252q-97.5 -48 -241.5 -61q7 -71 81 -71q32 0 62 12t70 37l67 -113q-104 -76 -225 -76q-124 0 -186.5 62.5t-62.5 168.5q0 80 32.5 159t104 131.5t182.5 52.5q101 0 157.5 -42.5t56.5 -110.5q0 -101 -97.5 -149zM322 335q29 28 29 57q0 37 -39 37t-63 -35.5
t-35 -91.5q79 5 108 33zM433 856l60 -144l-260 -99l-44 99z" />
    <glyph glyph-name="ecircumflex" unicode="&#xea;" horiz-adv-x="542" 
d="M447.5 252q-97.5 -48 -241.5 -61q7 -71 81 -71q32 0 62 12t70 37l67 -113q-104 -76 -225 -76q-124 0 -186.5 62.5t-62.5 168.5q0 80 32.5 159t104 131.5t182.5 52.5q101 0 157.5 -42.5t56.5 -110.5q0 -101 -97.5 -149zM322 335q29 28 29 57q0 37 -39 37t-63 -35.5
t-35 -91.5q79 5 108 33zM193 612l-58 77l163 151h116l121 -151l-75 -77l-120 96z" />
    <glyph glyph-name="edieresis" unicode="&#xeb;" horiz-adv-x="542" 
d="M447.5 252q-97.5 -48 -241.5 -61q7 -71 81 -71q32 0 62 12t70 37l67 -113q-104 -76 -225 -76q-124 0 -186.5 62.5t-62.5 168.5q0 80 32.5 159t104 131.5t182.5 52.5q101 0 157.5 -42.5t56.5 -110.5q0 -101 -97.5 -149zM322 335q29 28 29 57q0 37 -39 37t-63 -35.5
t-35 -91.5q79 5 108 33zM150 656.5q-23 22.5 -23 58.5q0 44 31 73.5t76 29.5q39 0 62 -22.5t23 -58.5q0 -44 -31 -73.5t-76 -29.5q-39 0 -62 22.5zM390 656.5q-23 22.5 -23 58.5q0 44 31 73.5t76 29.5q39 0 62 -22.5t23 -58.5q0 -44 -31 -73.5t-76 -29.5q-39 0 -62 22.5z
" />
    <glyph glyph-name="igrave" unicode="&#xec;" horiz-adv-x="276" 
d="M272 534l-74 -534h-194l74 534h194zM145 856l212 -147l-53 -93l-239 96z" />
    <glyph glyph-name="iacute" unicode="&#xed;" horiz-adv-x="276" 
d="M272 534l-74 -534h-194l74 534h194zM292 856l60 -144l-260 -99l-44 99z" />
    <glyph glyph-name="icircumflex" unicode="&#xee;" horiz-adv-x="276" 
d="M272 534l-74 -534h-194l74 534h194zM52 612l-58 77l163 151h116l121 -151l-75 -77l-120 96z" />
    <glyph glyph-name="idieresis" unicode="&#xef;" horiz-adv-x="276" 
d="M272 534l-74 -534h-194l74 534h194zM9 656.5q-23 22.5 -23 58.5q0 44 31 73.5t76 29.5q39 0 62 -22.5t23 -58.5q0 -44 -31 -73.5t-76 -29.5q-39 0 -62 22.5zM249 656.5q-23 22.5 -23 58.5q0 44 31 73.5t76 29.5q39 0 62 -22.5t23 -58.5q0 -44 -31 -73.5t-76 -29.5
q-39 0 -62 22.5z" />
    <glyph glyph-name="eth" unicode="&#xf0;" horiz-adv-x="574" 
d="M526.5 539.5q34.5 -73.5 34.5 -166.5q0 -112 -37.5 -201.5t-108.5 -140.5t-168 -51q-69 0 -123 25.5t-84.5 74.5t-30.5 117q0 70 29 135.5t84.5 107.5t131.5 42q37 0 65.5 -9.5t53.5 -28.5q-9 38 -26 67.5t-47 56.5l-52 -47l-112 55l51 48q-39 10 -72 15l53 124
q67 -10 135 -33l86 81l85 -85l-58 -54q76 -59 110.5 -132.5zM318 145q19 24 27.5 63t18.5 118q-28 22 -67 22q-48 0 -69 -47.5t-21 -109.5q0 -37 14 -53.5t42 -16.5q36 0 55 24z" />
    <glyph glyph-name="ntilde" unicode="&#xf1;" 
d="M513 521q31 -33 31 -93q0 -23 -2 -35l-55 -393h-194l48 341q2 18 2 23q0 29 -18 29t-39 -28.5t-48 -86.5l-40 -278h-194l74 534h169l1 -88q32 49 80 78.5t99 29.5q55 0 86 -33zM330 647q-14 9 -23 13.5t-18 4.5q-17 0 -30 -10.5t-30 -33.5l-85 47q28 59 69 97t86 38
q22 0 38 -7t34 -20q23 -16 36 -16q17 0 29.5 10.5t29.5 33.5l85 -47q-28 -59 -69 -97t-86 -38q-29 0 -66 25z" />
    <glyph glyph-name="ograve" unicode="&#xf2;" horiz-adv-x="572" 
d="M75 41q-62 61 -62 170q0 87 30.5 165t100 128t179.5 50t172.5 -61.5t62.5 -167.5q0 -87 -30.5 -165t-100 -129t-180.5 -51q-110 0 -172 61zM340 190.5q20 68.5 20 147.5q0 39 -13 56.5t-40 17.5q-56 0 -76 -66.5t-20 -144.5q0 -42 12.5 -60.5t39.5 -18.5q57 0 77 68.5z
M284 856l212 -147l-53 -93l-239 96z" />
    <glyph glyph-name="oacute" unicode="&#xf3;" horiz-adv-x="572" 
d="M75 41q-62 61 -62 170q0 87 30.5 165t100 128t179.5 50t172.5 -61.5t62.5 -167.5q0 -87 -30.5 -165t-100 -129t-180.5 -51q-110 0 -172 61zM340 190.5q20 68.5 20 147.5q0 39 -13 56.5t-40 17.5q-56 0 -76 -66.5t-20 -144.5q0 -42 12.5 -60.5t39.5 -18.5q57 0 77 68.5z
M431 856l60 -144l-260 -99l-44 99z" />
    <glyph glyph-name="ocircumflex" unicode="&#xf4;" horiz-adv-x="572" 
d="M75 41q-62 61 -62 170q0 87 30.5 165t100 128t179.5 50t172.5 -61.5t62.5 -167.5q0 -87 -30.5 -165t-100 -129t-180.5 -51q-110 0 -172 61zM340 190.5q20 68.5 20 147.5q0 39 -13 56.5t-40 17.5q-56 0 -76 -66.5t-20 -144.5q0 -42 12.5 -60.5t39.5 -18.5q57 0 77 68.5z
M191 612l-58 77l163 151h116l121 -151l-75 -77l-120 96z" />
    <glyph glyph-name="otilde" unicode="&#xf5;" horiz-adv-x="572" 
d="M75 41q-62 61 -62 170q0 87 30.5 165t100 128t179.5 50t172.5 -61.5t62.5 -167.5q0 -87 -30.5 -165t-100 -129t-180.5 -51q-110 0 -172 61zM340 190.5q20 68.5 20 147.5q0 39 -13 56.5t-40 17.5q-56 0 -76 -66.5t-20 -144.5q0 -42 12.5 -60.5t39.5 -18.5q57 0 77 68.5z
M322 647q-14 9 -23 13.5t-18 4.5q-17 0 -30 -10.5t-30 -33.5l-85 47q28 59 69 97t86 38q22 0 38 -7t34 -20q23 -16 36 -16q17 0 29.5 10.5t29.5 33.5l85 -47q-28 -59 -69 -97t-86 -38q-29 0 -66 25z" />
    <glyph glyph-name="odieresis" unicode="&#xf6;" horiz-adv-x="572" 
d="M75 41q-62 61 -62 170q0 87 30.5 165t100 128t179.5 50t172.5 -61.5t62.5 -167.5q0 -87 -30.5 -165t-100 -129t-180.5 -51q-110 0 -172 61zM340 190.5q20 68.5 20 147.5q0 39 -13 56.5t-40 17.5q-56 0 -76 -66.5t-20 -144.5q0 -42 12.5 -60.5t39.5 -18.5q57 0 77 68.5z
M148 656.5q-23 22.5 -23 58.5q0 44 31 73.5t76 29.5q39 0 62 -22.5t23 -58.5q0 -44 -31 -73.5t-76 -29.5q-39 0 -62 22.5zM388 656.5q-23 22.5 -23 58.5q0 44 31 73.5t76 29.5q39 0 62 -22.5t23 -58.5q0 -44 -31 -73.5t-76 -29.5q-39 0 -62 22.5z" />
    <glyph glyph-name="divide" unicode="&#xf7;" horiz-adv-x="518" 
d="M160 6q-25 26 -25 67q0 46 33.5 79.5t81.5 33.5q39 0 64 -25.5t25 -65.5q0 -47 -33 -81t-81 -34q-40 0 -65 26zM229 504q-25 26 -25 67q0 46 33.5 79.5t81.5 33.5q39 0 64 -25.5t25 -65.5q0 -47 -33 -81t-81 -34q-40 0 -65 26zM37 257l21 150h442l-21 -150h-442z" />
    <glyph glyph-name="oslash" unicode="&#xf8;" horiz-adv-x="572" 
d="M536.5 429.5q21.5 -46.5 21.5 -102.5q0 -88 -30.5 -166.5t-100 -129.5t-180.5 -51q-16 0 -24 1l-51 -119l-132 41l56 124q-40 31 -61.5 78.5t-21.5 105.5q0 87 30.5 165t100 128t179.5 50q17 0 25 -1l54 120l133 -41l-60 -126q40 -30 61.5 -76.5zM238 376.5
q-27 -35.5 -38 -83t-11 -87.5q0 -24 5 -44l116 250q-45 0 -72 -35.5zM332.5 157.5q26.5 35.5 37.5 82t11 84.5q0 23 -5 41l-113 -243q43 0 69.5 35.5z" />
    <glyph glyph-name="ugrave" unicode="&#xf9;" horiz-adv-x="554" 
d="M48 15q-32 35 -32 97q0 18 3 39l54 383h194l-48 -345q-2 -14 -2 -19q0 -32 25 -32q14 0 32 16t35 43l47 337h194l-74 -534h-169l2 67q-34 -41 -76.5 -64t-88.5 -23q-64 0 -96 35zM282 856l212 -147l-53 -93l-239 96z" />
    <glyph glyph-name="uacute" unicode="&#xfa;" horiz-adv-x="554" 
d="M48 15q-32 35 -32 97q0 18 3 39l54 383h194l-48 -345q-2 -14 -2 -19q0 -32 25 -32q14 0 32 16t35 43l47 337h194l-74 -534h-169l2 67q-34 -41 -76.5 -64t-88.5 -23q-64 0 -96 35zM429 856l60 -144l-260 -99l-44 99z" />
    <glyph glyph-name="ucircumflex" unicode="&#xfb;" horiz-adv-x="554" 
d="M48 15q-32 35 -32 97q0 18 3 39l54 383h194l-48 -345q-2 -14 -2 -19q0 -32 25 -32q14 0 32 16t35 43l47 337h194l-74 -534h-169l2 67q-34 -41 -76.5 -64t-88.5 -23q-64 0 -96 35zM189 612l-58 77l163 151h116l121 -151l-75 -77l-120 96z" />
    <glyph glyph-name="udieresis" unicode="&#xfc;" horiz-adv-x="554" 
d="M48 15q-32 35 -32 97q0 18 3 39l54 383h194l-48 -345q-2 -14 -2 -19q0 -32 25 -32q14 0 32 16t35 43l47 337h194l-74 -534h-169l2 67q-34 -41 -76.5 -64t-88.5 -23q-64 0 -96 35zM146 656.5q-23 22.5 -23 58.5q0 44 31 73.5t76 29.5q39 0 62 -22.5t23 -58.5
q0 -44 -31 -73.5t-76 -29.5q-39 0 -62 22.5zM386 656.5q-23 22.5 -23 58.5q0 44 31 73.5t76 29.5q39 0 62 -22.5t23 -58.5q0 -44 -31 -73.5t-76 -29.5q-39 0 -62 22.5z" />
    <glyph glyph-name="yacute" unicode="&#xfd;" horiz-adv-x="520" 
d="M345 0q-95 -220 -362 -228l-4 135q77 7 117.5 27.5t68.5 65.5h-68l-75 534h202l11 -412l136 412h203zM415 856l60 -144l-260 -99l-44 99z" />
    <glyph glyph-name="thorn" unicode="&#xfe;" horiz-adv-x="583" 
d="M529.5 500.5q41.5 -53.5 41.5 -153.5q0 -89 -26.5 -172t-90.5 -139t-169 -56q-25 0 -50 4t-39 8l-29 -199l-196 -20l136 971l196 20l-38 -269q26 26 65.5 42.5t74.5 16.5q83 0 124.5 -53.5zM346 189q26 68 26 149q0 43 -12 58.5t-34 15.5q-43 0 -79 -53l-32 -228
q26 -10 51 -10q54 0 80 68z" />
    <glyph glyph-name="ydieresis" unicode="&#xff;" horiz-adv-x="520" 
d="M345 0q-95 -220 -362 -228l-4 135q77 7 117.5 27.5t68.5 65.5h-68l-75 534h202l11 -412l136 412h203zM132 656.5q-23 22.5 -23 58.5q0 44 31 73.5t76 29.5q39 0 62 -22.5t23 -58.5q0 -44 -31 -73.5t-76 -29.5q-39 0 -62 22.5zM372 656.5q-23 22.5 -23 58.5q0 44 31 73.5
t76 29.5q39 0 62 -22.5t23 -58.5q0 -44 -31 -73.5t-76 -29.5q-39 0 -62 22.5z" />
    <glyph glyph-name="Amacron" unicode="&#x100;" horiz-adv-x="589" 
d="M362 0l-7 135h-163l-44 -135h-211l296 696h242l101 -696h-214zM238 279h109l-16 288zM524 774h-319l19 134h319z" />
    <glyph glyph-name="amacron" unicode="&#x101;" horiz-adv-x="574" 
d="M451 538.5q62 -15.5 115 -47.5l-46 -319q-2 -20 -2 -25q0 -14 5 -22.5t19 -14.5l-56 -126q-50 3 -88 25t-53 63q-29 -43 -67 -67.5t-92 -24.5q-84 0 -129.5 58t-45.5 159q0 86 32.5 167.5t104 135.5t182.5 54q59 0 121 -15.5zM237 350.5q-27 -67.5 -27 -152.5
q0 -45 11.5 -60.5t31.5 -15.5q42 0 77 60l34 230q-22 6 -42 6q-58 0 -85 -67.5zM522 648h-319l19 134h319z" />
    <glyph glyph-name="Abreve" unicode="&#x102;" horiz-adv-x="589" 
d="M362 0l-7 135h-163l-44 -135h-211l296 696h242l101 -696h-214zM238 279h109l-16 288zM271 772.5q-36 26.5 -51.5 69t-12.5 91.5l100 15q3 -30 20.5 -49t48.5 -19q32 0 55 19.5t35 50.5l103 -19q-17 -77 -70 -131t-135 -54q-57 0 -93 26.5z" />
    <glyph glyph-name="abreve" unicode="&#x103;" horiz-adv-x="574" 
d="M451 538.5q62 -15.5 115 -47.5l-46 -319q-2 -20 -2 -25q0 -14 5 -22.5t19 -14.5l-56 -126q-50 3 -88 25t-53 63q-29 -43 -67 -67.5t-92 -24.5q-84 0 -129.5 58t-45.5 159q0 86 32.5 167.5t104 135.5t182.5 54q59 0 121 -15.5zM237 350.5q-27 -67.5 -27 -152.5
q0 -45 11.5 -60.5t31.5 -15.5q42 0 77 60l34 230q-22 6 -42 6q-58 0 -85 -67.5zM231 682.5q-39 56.5 -34 140.5l102 15q2 -36 20 -57t49 -21q32 0 56 21.5t37 58.5l98 -19q-16 -83 -69 -139t-136 -56q-84 0 -123 56.5z" />
    <glyph glyph-name="Aogonek" unicode="&#x104;" horiz-adv-x="589" 
d="M378.5 -52.5q-27.5 -28.5 -27.5 -53.5q0 -33 43 -33q27 0 62 8l-26 -115q-35 -8 -73 -8q-63 0 -103 29.5t-40 81.5q0 109 146 172l-5 106h-163l-44 -135h-211l296 696h242l101 -696h-96q-74 -24 -101.5 -52.5zM238 279h109l-16 288z" />
    <glyph glyph-name="aogonek" unicode="&#x105;" horiz-adv-x="574" 
d="M518 147q0 -14 5 -22.5t19 -14.5l-56 -126q-74 -24 -101.5 -52.5t-27.5 -53.5q0 -33 43 -33q27 0 62 8l-26 -115q-35 -8 -73 -8q-63 0 -103 29.5t-40 81.5q0 115 163 179q-26 20 -38 52q-29 -43 -67 -67.5t-92 -24.5q-84 0 -129.5 58t-45.5 159q0 86 32.5 167.5
t104 135.5t182.5 54q59 0 121 -15.5t115 -47.5l-46 -319q-2 -20 -2 -25zM364 412q-22 6 -42 6q-58 0 -85 -67.5t-27 -152.5q0 -45 11.5 -60.5t31.5 -15.5q42 0 77 60z" />
    <glyph glyph-name="Cacute" unicode="&#x106;" horiz-adv-x="571" 
d="M613 626l-107 -103q-25 22 -51 33.5t-58 11.5q-59 0 -95.5 -48.5t-52 -116.5t-15.5 -129q0 -139 103 -139q33 0 63.5 15t68.5 43l76 -117q-48 -43 -109.5 -69.5t-134.5 -26.5q-83 0 -145 33.5t-96.5 98.5t-34.5 158q0 107 38 209t121 169.5t211 67.5q142 0 218 -90z
M536 975l60 -144l-260 -89l-42 96z" />
    <glyph glyph-name="cacute" unicode="&#x107;" horiz-adv-x="469" 
d="M427 535q46 -19 80 -55l-93 -111q-39 36 -86 36q-62 0 -87.5 -58.5t-25.5 -134.5q0 -45 18 -62t51 -17q23 0 44 8t51 27l70 -124q-89 -64 -193 -64q-115 0 -179.5 64t-64.5 173q0 76 33 154t104 130.5t178 52.5q54 0 100 -19zM440 856l60 -144l-260 -99l-44 99z" />
    <glyph glyph-name="Ccircumflex" unicode="&#x108;" horiz-adv-x="571" 
d="M613 626l-107 -103q-25 22 -51 33.5t-58 11.5q-59 0 -95.5 -48.5t-52 -116.5t-15.5 -129q0 -139 103 -139q33 0 63.5 15t68.5 43l76 -117q-48 -43 -109.5 -69.5t-134.5 -26.5q-83 0 -145 33.5t-96.5 98.5t-34.5 158q0 107 38 209t121 169.5t211 67.5q142 0 218 -90z
M280 752l-59 77l162 141h116l122 -141l-73 -77l-122 87z" />
    <glyph glyph-name="ccircumflex" unicode="&#x109;" horiz-adv-x="469" 
d="M427 535q46 -19 80 -55l-93 -111q-39 36 -86 36q-62 0 -87.5 -58.5t-25.5 -134.5q0 -45 18 -62t51 -17q23 0 44 8t51 27l70 -124q-89 -64 -193 -64q-115 0 -179.5 64t-64.5 173q0 76 33 154t104 130.5t178 52.5q54 0 100 -19zM200 612l-58 77l163 151h116l121 -151
l-75 -77l-120 96z" />
    <glyph glyph-name="Cdotaccent" unicode="&#x10a;" horiz-adv-x="571" 
d="M613 626l-107 -103q-25 22 -51 33.5t-58 11.5q-59 0 -95.5 -48.5t-52 -116.5t-15.5 -129q0 -139 103 -139q33 0 63.5 15t68.5 43l76 -117q-48 -43 -109.5 -69.5t-134.5 -26.5q-83 0 -145 33.5t-96.5 98.5t-34.5 158q0 107 38 209t121 169.5t211 67.5q142 0 218 -90z
M351.5 769q-26.5 26 -26.5 67q0 51 35.5 85t87.5 34q44 0 70.5 -26t26.5 -67q0 -51 -35.5 -85t-87.5 -34q-44 0 -70.5 26z" />
    <glyph glyph-name="cdotaccent" unicode="&#x10b;" horiz-adv-x="469" 
d="M427 535q46 -19 80 -55l-93 -111q-39 36 -86 36q-62 0 -87.5 -58.5t-25.5 -134.5q0 -45 18 -62t51 -17q23 0 44 8t51 27l70 -124q-89 -64 -193 -64q-115 0 -179.5 64t-64.5 173q0 76 33 154t104 130.5t178 52.5q54 0 100 -19zM266.5 643q-26.5 26 -26.5 67q0 51 35.5 85
t87.5 34q44 0 70.5 -26t26.5 -67q0 -51 -35.5 -85t-87.5 -34q-44 0 -70.5 26z" />
    <glyph glyph-name="Ccaron" unicode="&#x10c;" horiz-adv-x="571" 
d="M613 626l-107 -103q-25 22 -51 33.5t-58 11.5q-59 0 -95.5 -48.5t-52 -116.5t-15.5 -129q0 -139 103 -139q33 0 63.5 15t68.5 43l76 -117q-48 -43 -109.5 -69.5t-134.5 -26.5q-83 0 -145 33.5t-96.5 98.5t-34.5 158q0 107 38 209t121 169.5t211 67.5q142 0 218 -90z
M578 964l58 -76l-161 -141h-116l-123 141l74 76l122 -86z" />
    <glyph glyph-name="ccaron" unicode="&#x10d;" horiz-adv-x="469" 
d="M427 535q46 -19 80 -55l-93 -111q-39 36 -86 36q-62 0 -87.5 -58.5t-25.5 -134.5q0 -45 18 -62t51 -17q23 0 44 8t51 27l70 -124q-89 -64 -193 -64q-115 0 -179.5 64t-64.5 173q0 76 33 154t104 130.5t178 52.5q54 0 100 -19zM493 830l60 -77l-162 -151h-116l-122 151
l72 77l120 -96z" />
    <glyph glyph-name="Dcaron" unicode="&#x10e;" horiz-adv-x="644" 
d="M554 637.5q88 -58.5 88 -205.5q0 -193 -94 -312.5t-311 -119.5h-231l97 696h217q146 0 234 -58.5zM285 551l-57 -406h39q94 0 130.5 85.5t36.5 199.5q0 68 -26 94.5t-81 26.5h-42zM514 964l58 -76l-161 -141h-116l-123 141l74 76l122 -86z" />
    <glyph glyph-name="dcaron" unicode="&#x10f;" horiz-adv-x="705" 
d="M611 744l-104 -744h-173l1 69q-65 -89 -157 -89q-83 0 -125 56.5t-42 160.5q0 81 28.5 164t87 138t144.5 55q35 0 64 -11.5t49 -31.5l35 253zM235.5 345q-24.5 -68 -24.5 -146q0 -45 10.5 -61t29.5 -16q39 0 90 83l26 186q-22 22 -52 22q-55 0 -79.5 -68zM656 760
l136 -17l-79 -234l-97 8z" />
    <glyph glyph-name="Dcroat" unicode="&#x110;" horiz-adv-x="653" 
d="M563 637.5q88 -58.5 88 -205.5q0 -193 -94 -312.5t-311 -119.5h-231l41 295h-48l16 116h48l40 285h217q146 0 234 -58.5zM406.5 230.5q36.5 85.5 36.5 199.5q0 68 -26 94.5t-81 26.5h-42l-20 -140h118l-16 -116h-118l-21 -150h39q94 0 130.5 85.5z" />
    <glyph glyph-name="dcroat" unicode="&#x111;" horiz-adv-x="596" 
d="M640 590h-51l-82 -590h-173l1 69q-65 -89 -157 -89q-83 0 -125 56.5t-42 160.5q0 81 28.5 164t87 138t144.5 55q35 0 64 -11.5t49 -31.5l11 79h-114l1 106h128l9 68l192 -20l-7 -48h51zM367 391q-22 22 -52 22q-55 0 -79.5 -68t-24.5 -146q0 -45 10.5 -61t29.5 -16
q39 0 90 83z" />
    <glyph glyph-name="Emacron" unicode="&#x112;" horiz-adv-x="510" 
d="M552 696l-41 -143h-226l-18 -130h197l-18 -139h-198l-20 -140h242l-20 -144h-444l97 696h449zM498 774h-319l19 134h319z" />
    <glyph glyph-name="emacron" unicode="&#x113;" horiz-adv-x="542" 
d="M447.5 252q-97.5 -48 -241.5 -61q7 -71 81 -71q32 0 62 12t70 37l67 -113q-104 -76 -225 -76q-124 0 -186.5 62.5t-62.5 168.5q0 80 32.5 159t104 131.5t182.5 52.5q101 0 157.5 -42.5t56.5 -110.5q0 -101 -97.5 -149zM322 335q29 28 29 57q0 37 -39 37t-63 -35.5
t-35 -91.5q79 5 108 33zM491 648h-319l19 134h319z" />
    <glyph glyph-name="Ebreve" unicode="&#x114;" horiz-adv-x="510" 
d="M552 696l-41 -143h-226l-18 -130h197l-18 -139h-198l-20 -140h242l-20 -144h-444l97 696h449zM245 772.5q-36 26.5 -51.5 69t-12.5 91.5l100 15q3 -30 20.5 -49t48.5 -19q32 0 55 19.5t35 50.5l103 -19q-17 -77 -70 -131t-135 -54q-57 0 -93 26.5z" />
    <glyph glyph-name="ebreve" unicode="&#x115;" horiz-adv-x="542" 
d="M447.5 252q-97.5 -48 -241.5 -61q7 -71 81 -71q32 0 62 12t70 37l67 -113q-104 -76 -225 -76q-124 0 -186.5 62.5t-62.5 168.5q0 80 32.5 159t104 131.5t182.5 52.5q101 0 157.5 -42.5t56.5 -110.5q0 -101 -97.5 -149zM322 335q29 28 29 57q0 37 -39 37t-63 -35.5
t-35 -91.5q79 5 108 33zM200 682.5q-39 56.5 -34 140.5l102 15q2 -36 20 -57t49 -21q32 0 56 21.5t37 58.5l98 -19q-16 -83 -69 -139t-136 -56q-84 0 -123 56.5z" />
    <glyph glyph-name="Edotaccent" unicode="&#x116;" horiz-adv-x="510" 
d="M552 696l-41 -143h-226l-18 -130h197l-18 -139h-198l-20 -140h242l-20 -144h-444l97 696h449zM269.5 769q-26.5 26 -26.5 67q0 51 35.5 85t87.5 34q44 0 70.5 -26t26.5 -67q0 -51 -35.5 -85t-87.5 -34q-44 0 -70.5 26z" />
    <glyph glyph-name="edotaccent" unicode="&#x117;" horiz-adv-x="542" 
d="M447.5 252q-97.5 -48 -241.5 -61q7 -71 81 -71q32 0 62 12t70 37l67 -113q-104 -76 -225 -76q-124 0 -186.5 62.5t-62.5 168.5q0 80 32.5 159t104 131.5t182.5 52.5q101 0 157.5 -42.5t56.5 -110.5q0 -101 -97.5 -149zM322 335q29 28 29 57q0 37 -39 37t-63 -35.5
t-35 -91.5q79 5 108 33zM259.5 643q-26.5 26 -26.5 67q0 51 35.5 85t87.5 34q44 0 70.5 -26t26.5 -67q0 -51 -35.5 -85t-87.5 -34q-44 0 -70.5 26z" />
    <glyph glyph-name="Eogonek" unicode="&#x118;" horiz-adv-x="510" 
d="M285 553l-18 -130h197l-18 -139h-198l-20 -140h242l-20 -144h-38q-74 -24 -101.5 -52.5t-27.5 -53.5q0 -33 43 -33q27 0 62 8l-26 -115q-35 -8 -73 -8q-63 0 -103 29.5t-40 81.5q0 86 90 143h-230l97 696h449l-41 -143h-226z" />
    <glyph glyph-name="eogonek" unicode="&#x119;" horiz-adv-x="542" 
d="M447.5 252q-97.5 -48 -241.5 -61q7 -71 81 -71q32 0 62 12t70 37l67 -113q-66 -47 -132 -64q-46 -22 -64 -44.5t-18 -42.5q0 -33 44 -33q28 0 63 8l-26 -115q-35 -8 -74 -8q-65 0 -105.5 29.5t-40.5 81.5q0 72 72 116q-96 14 -144.5 74t-48.5 153q0 80 32.5 159
t104 131.5t182.5 52.5q101 0 157.5 -42.5t56.5 -110.5q0 -101 -97.5 -149zM322 335q29 28 29 57q0 37 -39 37t-63 -35.5t-35 -91.5q79 5 108 33z" />
    <glyph glyph-name="Ecaron" unicode="&#x11a;" horiz-adv-x="510" 
d="M552 696l-41 -143h-226l-18 -130h197l-18 -139h-198l-20 -140h242l-20 -144h-444l97 696h449zM496 964l58 -76l-161 -141h-116l-123 141l74 76l122 -86z" />
    <glyph glyph-name="ecaron" unicode="&#x11b;" horiz-adv-x="542" 
d="M447.5 252q-97.5 -48 -241.5 -61q7 -71 81 -71q32 0 62 12t70 37l67 -113q-104 -76 -225 -76q-124 0 -186.5 62.5t-62.5 168.5q0 80 32.5 159t104 131.5t182.5 52.5q101 0 157.5 -42.5t56.5 -110.5q0 -101 -97.5 -149zM322 335q29 28 29 57q0 37 -39 37t-63 -35.5
t-35 -91.5q79 5 108 33zM486 830l60 -77l-162 -151h-116l-122 151l72 77l120 -96z" />
    <glyph glyph-name="Gcircumflex" unicode="&#x11c;" horiz-adv-x="640" 
d="M557.5 690q58.5 -26 96.5 -68l-110 -99q-32 26 -59.5 37.5t-63.5 11.5q-104 0 -147 -98.5t-43 -230.5q0 -65 21.5 -91t66.5 -26q37 0 75 16l18 128h-69l2 139h281l-48 -351q-59 -37 -131 -57.5t-137 -20.5q-286 0 -286 279q0 115 41 219t131 171t229 67q74 0 132.5 -26z
M278 752l-59 77l162 141h116l122 -141l-73 -77l-122 87z" />
    <glyph glyph-name="gcircumflex" unicode="&#x11d;" horiz-adv-x="575" 
d="M456 538.5q62 -15.5 115 -47.5l-61 -433q-14 -101 -48.5 -163t-96 -92t-158.5 -30q-50 0 -107 17t-103 46l63 124q79 -42 146 -42q45 0 73.5 21.5t37.5 81.5l7 42q-56 -63 -135 -63q-86 0 -131.5 57.5t-45.5 153.5q0 79 32.5 157.5t105.5 132t185 53.5q59 0 121 -15.5z
M260 385.5q-26 -32.5 -37.5 -78.5t-11.5 -89q0 -74 46 -74q41 0 80 58l32 210q-23 6 -41 6q-42 0 -68 -32.5zM213 612l-58 77l163 151h116l121 -151l-75 -77l-120 96z" />
    <glyph glyph-name="Gbreve" unicode="&#x11e;" horiz-adv-x="640" 
d="M557.5 690q58.5 -26 96.5 -68l-110 -99q-32 26 -59.5 37.5t-63.5 11.5q-104 0 -147 -98.5t-43 -230.5q0 -65 21.5 -91t66.5 -26q37 0 75 16l18 128h-69l2 139h281l-48 -351q-59 -37 -131 -57.5t-137 -20.5q-286 0 -286 279q0 115 41 219t131 171t229 67q74 0 132.5 -26z
M325 772.5q-36 26.5 -51.5 69t-12.5 91.5l100 15q3 -30 20.5 -49t48.5 -19q32 0 55 19.5t35 50.5l103 -19q-17 -77 -70 -131t-135 -54q-57 0 -93 26.5z" />
    <glyph glyph-name="gbreve" unicode="&#x11f;" horiz-adv-x="575" 
d="M456 538.5q62 -15.5 115 -47.5l-61 -433q-14 -101 -48.5 -163t-96 -92t-158.5 -30q-50 0 -107 17t-103 46l63 124q79 -42 146 -42q45 0 73.5 21.5t37.5 81.5l7 42q-56 -63 -135 -63q-86 0 -131.5 57.5t-45.5 153.5q0 79 32.5 157.5t105.5 132t185 53.5q59 0 121 -15.5z
M260 385.5q-26 -32.5 -37.5 -78.5t-11.5 -89q0 -74 46 -74q41 0 80 58l32 210q-23 6 -41 6q-42 0 -68 -32.5zM220 682.5q-39 56.5 -34 140.5l102 15q2 -36 20 -57t49 -21q32 0 56 21.5t37 58.5l98 -19q-16 -83 -69 -139t-136 -56q-84 0 -123 56.5z" />
    <glyph glyph-name="Gdotaccent" unicode="&#x120;" horiz-adv-x="640" 
d="M557.5 690q58.5 -26 96.5 -68l-110 -99q-32 26 -59.5 37.5t-63.5 11.5q-104 0 -147 -98.5t-43 -230.5q0 -65 21.5 -91t66.5 -26q37 0 75 16l18 128h-69l2 139h281l-48 -351q-59 -37 -131 -57.5t-137 -20.5q-286 0 -286 279q0 115 41 219t131 171t229 67q74 0 132.5 -26z
M349.5 769q-26.5 26 -26.5 67q0 51 35.5 85t87.5 34q44 0 70.5 -26t26.5 -67q0 -51 -35.5 -85t-87.5 -34q-44 0 -70.5 26z" />
    <glyph glyph-name="gdotaccent" unicode="&#x121;" horiz-adv-x="575" 
d="M456 538.5q62 -15.5 115 -47.5l-61 -433q-14 -101 -48.5 -163t-96 -92t-158.5 -30q-50 0 -107 17t-103 46l63 124q79 -42 146 -42q45 0 73.5 21.5t37.5 81.5l7 42q-56 -63 -135 -63q-86 0 -131.5 57.5t-45.5 153.5q0 79 32.5 157.5t105.5 132t185 53.5q59 0 121 -15.5z
M260 385.5q-26 -32.5 -37.5 -78.5t-11.5 -89q0 -74 46 -74q41 0 80 58l32 210q-23 6 -41 6q-42 0 -68 -32.5zM279.5 643q-26.5 26 -26.5 67q0 51 35.5 85t87.5 34q44 0 70.5 -26t26.5 -67q0 -51 -35.5 -85t-87.5 -34q-44 0 -70.5 26z" />
    <glyph glyph-name="Gcommaaccent" unicode="&#x122;" horiz-adv-x="640" 
d="M557.5 690q58.5 -26 96.5 -68l-110 -99q-32 26 -59.5 37.5t-63.5 11.5q-104 0 -147 -98.5t-43 -230.5q0 -65 21.5 -91t66.5 -26q37 0 75 16l18 128h-69l2 139h281l-48 -351q-59 -37 -131 -57.5t-137 -20.5q-286 0 -286 279q0 115 41 219t131 171t229 67q74 0 132.5 -26z
M360 -84q24 -22 24 -58q0 -26 -9 -47.5t-30 -54.5l-63 -98h-92l44 116q-32 22 -32 61q0 46 28 74.5t69 28.5q37 0 61 -22z" />
    <glyph glyph-name="gcommaaccent" unicode="&#x123;" horiz-adv-x="575" 
d="M456 538.5q62 -15.5 115 -47.5l-61 -433q-14 -101 -48.5 -163t-96 -92t-158.5 -30q-50 0 -107 17t-103 46l63 124q79 -42 146 -42q45 0 73.5 21.5t37.5 81.5l7 42q-56 -63 -135 -63q-86 0 -131.5 57.5t-45.5 153.5q0 79 32.5 157.5t105.5 132t185 53.5q59 0 121 -15.5z
M260 385.5q-26 -32.5 -37.5 -78.5t-11.5 -89q0 -74 46 -74q41 0 80 58l32 210q-23 6 -41 6q-42 0 -68 -32.5zM286 610q-24 22 -24 58q0 26 9 48t30 54l63 98h92l-44 -116q32 -22 32 -61q0 -46 -28 -74.5t-69 -28.5q-37 0 -61 22z" />
    <glyph glyph-name="Hcircumflex" unicode="&#x124;" horiz-adv-x="645" 
d="M207 0h-202l98 696h202l-36 -257h154l36 257h202l-97 -696h-202l38 281h-153zM252 752l-59 77l162 141h116l122 -141l-73 -77l-122 87z" />
    <glyph glyph-name="hcircumflex" unicode="&#x125;" horiz-adv-x="559" 
d="M512 521q31 -33 31 -93q0 -23 -2 -35l-55 -393h-194l48 341q2 18 2 23q0 29 -18 29q-34 0 -88 -115l-39 -278h-194l104 744l196 20l-43 -313q26 46 71.5 74.5t94.5 28.5q55 0 86 -33zM216 800l-59 77l162 141h116l122 -141l-73 -77l-122 87z" />
    <glyph glyph-name="Hbar" unicode="&#x126;" horiz-adv-x="669" 
d="M708 601l-15 -106h-50l-69 -495h-202l38 281h-153l-40 -281h-202l70 495h-49l15 106h49l13 95h202l-13 -95h154l13 95h202l-13 -95h50zM433 439l8 56h-154l-8 -56h154z" />
    <glyph glyph-name="hbar" unicode="&#x127;" horiz-adv-x="569" 
d="M522 521q31 -33 31 -93q0 -23 -2 -35l-55 -393h-194l48 341q2 18 2 23q0 29 -18 29q-34 0 -88 -115l-39 -278h-194l82 590h-49l15 106h49l7 48l196 20l-9 -68h130l-30 -106h-115l-19 -139q26 46 71.5 74.5t94.5 28.5q55 0 86 -33z" />
    <glyph glyph-name="Itilde" unicode="&#x128;" horiz-adv-x="289" 
d="M305 696l-97 -696h-202l97 696h202zM207 773q-14 9 -23 13.5t-18 4.5q-18 0 -30.5 -10.5t-29.5 -33.5l-85 47q28 59 69 97t86 38q22 0 38 -7t34 -20q23 -16 36 -16q17 0 29.5 10.5t29.5 33.5l85 -47q-28 -59 -69 -97t-86 -38q-29 0 -66 25z" />
    <glyph glyph-name="itilde" unicode="&#x129;" horiz-adv-x="276" 
d="M272 534l-74 -534h-194l74 534h194zM183 647q-14 9 -23 13.5t-18 4.5q-17 0 -30 -10.5t-30 -33.5l-85 47q28 59 69 97t86 38q22 0 38 -7t34 -20q23 -16 36 -16q17 0 29.5 10.5t29.5 33.5l85 -47q-28 -59 -69 -97t-86 -38q-29 0 -66 25z" />
    <glyph glyph-name="Imacron" unicode="&#x12a;" horiz-adv-x="289" 
d="M305 696l-97 -696h-202l97 696h202zM374 774h-319l19 134h319z" />
    <glyph glyph-name="imacron" unicode="&#x12b;" horiz-adv-x="276" 
d="M272 534l-74 -534h-194l74 534h194zM350 648h-319l19 134h319z" />
    <glyph glyph-name="Ibreve" unicode="&#x12c;" horiz-adv-x="289" 
d="M305 696l-97 -696h-202l97 696h202zM121 772.5q-36 26.5 -51.5 69t-12.5 91.5l100 15q3 -30 20.5 -49t48.5 -19q32 0 55 19.5t35 50.5l103 -19q-17 -77 -70 -131t-135 -54q-57 0 -93 26.5z" />
    <glyph glyph-name="ibreve" unicode="&#x12d;" horiz-adv-x="276" 
d="M272 534l-74 -534h-194l74 534h194zM59 682.5q-39 56.5 -34 140.5l102 15q2 -36 20 -57t49 -21q32 0 56 21.5t37 58.5l98 -19q-16 -83 -69 -139t-136 -56q-84 0 -123 56.5z" />
    <glyph glyph-name="Iogonek" unicode="&#x12e;" horiz-adv-x="289" 
d="M305 696l-97 -696h-43q-74 -24 -101.5 -52.5t-27.5 -53.5q0 -33 43 -33q27 0 62 8l-26 -115q-35 -8 -73 -8q-63 0 -103 29.5t-40 81.5q0 94 109 154l95 685h202z" />
    <glyph glyph-name="iogonek" unicode="&#x12f;" horiz-adv-x="276" 
d="M285.5 803q26.5 -26 26.5 -67q0 -51 -35.5 -85t-87.5 -34q-44 0 -70.5 26t-26.5 67q0 51 35.5 85t87.5 34q44 0 70.5 -26zM78 534h194l-74 -534h-37q-74 -24 -101.5 -52.5t-27.5 -53.5q0 -33 43 -33q27 0 62 8l-26 -115q-35 -8 -73 -8q-63 0 -103 29.5t-40 81.5
q0 95 111 155z" />
    <glyph glyph-name="Idotaccent" unicode="&#x130;" horiz-adv-x="289" 
d="M305 696l-97 -696h-202l97 696h202zM145.5 769q-26.5 26 -26.5 67q0 51 35.5 85t87.5 34q44 0 70.5 -26t26.5 -67q0 -51 -35.5 -85t-87.5 -34q-44 0 -70.5 26z" />
    <glyph glyph-name="dotlessi" unicode="&#x131;" horiz-adv-x="276" 
d="M272 534l-74 -534h-194l74 534h194z" />
    <glyph glyph-name="IJ" unicode="&#x132;" horiz-adv-x="606" 
d="M305 696l-97 -696h-202l97 696h202zM543 110q-13 -91 -55.5 -150t-99.5 -92t-131 -57l-36 145q44 16 68 39t35 51.5t17 72.5l81 577h202z" />
    <glyph glyph-name="ij" unicode="&#x133;" horiz-adv-x="550" 
d="M272 534l-74 -534h-194l74 534h194zM118.5 643q-26.5 26 -26.5 67q0 51 35.5 85t87.5 34q44 0 70.5 -26t26.5 -67q0 -51 -35.5 -85t-87.5 -34q-44 0 -70.5 26zM159 -88q60 23 90 57t39 97l65 468h194l-64 -458q-18 -130 -89.5 -198t-188.5 -105zM393.5 643
q-26.5 26 -26.5 67q0 51 35.5 85t87.5 34q44 0 70.5 -26t26.5 -67q0 -51 -35.5 -85t-87.5 -34q-44 0 -70.5 26z" />
    <glyph glyph-name="Jcircumflex" unicode="&#x134;" horiz-adv-x="317" 
d="M254 110q-13 -91 -55.5 -150t-99.5 -92t-131 -57l-36 145q44 16 68 39t35 51.5t17 72.5l81 577h202zM104 752l-59 77l162 141h116l122 -141l-73 -77l-122 87z" />
    <glyph glyph-name="jcircumflex" unicode="&#x135;" horiz-adv-x="274" 
d="M-117 -88q60 23 90 57t39 97l65 468h194l-64 -458q-18 -130 -89.5 -198t-188.5 -105zM51 612l-58 77l163 151h116l121 -151l-75 -77l-120 96z" />
    <glyph glyph-name="Kcommaaccent" unicode="&#x136;" horiz-adv-x="647" 
d="M6 0l97 696h202l-97 -696h-202zM402 0l-136 371l233 325h210l-238 -319l159 -377h-228zM342 -84q24 -22 24 -58q0 -26 -9 -47.5t-30 -54.5l-63 -98h-92l44 116q-32 22 -32 61q0 46 28 74.5t69 28.5q37 0 61 -22z" />
    <glyph glyph-name="kcommaaccent" unicode="&#x137;" horiz-adv-x="579" 
d="M264 478q40 40 82 58t91 18q71 0 111.5 -36t40.5 -95q0 -123 -133 -185l86 -238h-212l-78 256q78 27 109.5 59t31.5 70q0 36 -38 36q-52 0 -111 -84l-46 -337h-195l104 744l197 20zM308 -84q24 -22 24 -58q0 -26 -9 -47.5t-30 -54.5l-63 -98h-92l44 116q-32 22 -32 61
q0 46 28 74.5t69 28.5q37 0 61 -22z" />
    <glyph glyph-name="kgreenlandic" unicode="&#x138;" horiz-adv-x="562" 
d="M273 534l-74 -534h-195l74 534h195zM609 534l-170 -249l104 -285h-210l-92 282l164 252h204z" />
    <glyph glyph-name="Lacute" unicode="&#x139;" horiz-adv-x="514" 
d="M305 696l-75 -538h257l-42 -158h-439l97 696h202zM330 975l60 -144l-260 -89l-42 96z" />
    <glyph glyph-name="lacute" unicode="&#x13a;" horiz-adv-x="288" 
d="M215 167q-1 -4 -1 -10q0 -22 20 -22q6 0 20 4l18 -138q-22 -10 -53.5 -15.5t-62.5 -5.5q-67 0 -103.5 34.5t-36.5 99.5q0 19 3 38l83 592l196 20zM325 1023l60 -144l-260 -89l-42 96z" />
    <glyph glyph-name="Lcommaaccent" unicode="&#x13b;" horiz-adv-x="514" 
d="M305 696l-75 -538h257l-42 -158h-439l97 696h202zM280 -84q24 -22 24 -58q0 -26 -9 -47.5t-30 -54.5l-63 -98h-92l44 116q-32 22 -32 61q0 46 28 74.5t69 28.5q37 0 61 -22z" />
    <glyph glyph-name="lcommaaccent" unicode="&#x13c;" horiz-adv-x="288" 
d="M215 167q-1 -4 -1 -10q0 -22 20 -22q6 0 20 4l18 -138q-22 -10 -53.5 -15.5t-62.5 -5.5q-67 0 -103.5 34.5t-36.5 99.5q0 19 3 38l83 592l196 20zM189 -84q24 -22 24 -58q0 -26 -9 -47.5t-30 -54.5l-63 -98h-92l44 116q-32 22 -32 61q0 46 28 74.5t69 28.5q37 0 61 -22z
" />
    <glyph glyph-name="Lcaron" unicode="&#x13d;" horiz-adv-x="514" 
d="M305 696l-75 -538h257l-42 -158h-439l97 696h202zM355 712l136 -17l-79 -234l-97 8z" />
    <glyph glyph-name="lcaron" unicode="&#x13e;" horiz-adv-x="395" 
d="M215 167q-1 -4 -1 -10q0 -22 20 -22q6 0 20 4l18 -138q-22 -10 -53.5 -15.5t-62.5 -5.5q-67 0 -103.5 34.5t-36.5 99.5q0 19 3 38l83 592l196 20zM346 760l136 -17l-79 -234l-97 8z" />
    <glyph glyph-name="Ldot" unicode="&#x13f;" horiz-adv-x="514" 
d="M305 696l-75 -538h257l-42 -158h-439l97 696h202zM331.5 324q-26.5 26 -26.5 67q0 51 35.5 85t87.5 34q44 0 70.5 -26t26.5 -67q0 -51 -35.5 -85t-87.5 -34q-44 0 -70.5 26z" />
    <glyph glyph-name="ldot" unicode="&#x140;" horiz-adv-x="499" 
d="M215 167q-1 -4 -1 -10q0 -22 20 -22q6 0 20 4l18 -138q-22 -10 -53.5 -15.5t-62.5 -5.5q-67 0 -103.5 34.5t-36.5 99.5q0 19 3 38l83 592l196 20zM311.5 293q-26.5 26 -26.5 67q0 51 35.5 85t87.5 34q44 0 70.5 -26t26.5 -67q0 -51 -35.5 -85t-87.5 -34q-44 0 -70.5 26z
" />
    <glyph glyph-name="Lslash" unicode="&#x141;" horiz-adv-x="562" 
d="M278 158h257l-42 -158h-439l29 205l-36 -21l-47 103l102 59l49 350h202l-31 -222l115 67l49 -102l-184 -107z" />
    <glyph glyph-name="lslash" unicode="&#x142;" horiz-adv-x="359" 
d="M290 139l18 -138q-22 -10 -53.5 -15.5t-62.5 -5.5q-67 0 -103.5 34.5t-36.5 99.5q0 19 3 38l14 101l-45 -26l-28 116l93 54l49 347l196 20l-34 -245l60 35l25 -119l-105 -61l-29 -207q-1 -4 -1 -10q0 -22 20 -22q6 0 20 4z" />
    <glyph glyph-name="Nacute" unicode="&#x143;" horiz-adv-x="640" 
d="M559 0h-254l-85 527l1 -27q4 -62 4 -101q0 -88 -14 -194l-29 -205h-176l97 696h250l89 -527q-6 92 -6 132q0 81 14 183l30 212h176zM506 975l60 -144l-260 -89l-42 96z" />
    <glyph glyph-name="nacute" unicode="&#x144;" 
d="M513 521q31 -33 31 -93q0 -23 -2 -35l-55 -393h-194l48 341q2 18 2 23q0 29 -18 29t-39 -28.5t-48 -86.5l-40 -278h-194l74 534h169l1 -88q32 49 80 78.5t99 29.5q55 0 86 -33zM439 856l60 -144l-260 -99l-44 99z" />
    <glyph glyph-name="Ncommaaccent" unicode="&#x145;" horiz-adv-x="640" 
d="M559 0h-254l-85 527l1 -27q4 -62 4 -101q0 -88 -14 -194l-29 -205h-176l97 696h250l89 -527q-6 92 -6 132q0 81 14 183l30 212h176zM337 -84q24 -22 24 -58q0 -26 -9 -47.5t-30 -54.5l-63 -98h-92l44 116q-32 22 -32 61q0 46 28 74.5t69 28.5q37 0 61 -22z" />
    <glyph glyph-name="ncommaaccent" unicode="&#x146;" 
d="M513 521q31 -33 31 -93q0 -23 -2 -35l-55 -393h-194l48 341q2 18 2 23q0 29 -18 29t-39 -28.5t-48 -86.5l-40 -278h-194l74 534h169l1 -88q32 49 80 78.5t99 29.5q55 0 86 -33zM291 -84q24 -22 24 -58q0 -26 -9 -47.5t-30 -54.5l-63 -98h-92l44 116q-32 22 -32 61
q0 46 28 74.5t69 28.5q37 0 61 -22z" />
    <glyph glyph-name="Ncaron" unicode="&#x147;" horiz-adv-x="640" 
d="M559 0h-254l-85 527l1 -27q4 -62 4 -101q0 -88 -14 -194l-29 -205h-176l97 696h250l89 -527q-6 92 -6 132q0 81 14 183l30 212h176zM548 964l58 -76l-161 -141h-116l-123 141l74 76l122 -86z" />
    <glyph glyph-name="ncaron" unicode="&#x148;" 
d="M513 521q31 -33 31 -93q0 -23 -2 -35l-55 -393h-194l48 341q2 18 2 23q0 29 -18 29t-39 -28.5t-48 -86.5l-40 -278h-194l74 534h169l1 -88q32 49 80 78.5t99 29.5q55 0 86 -33zM492 830l60 -77l-162 -151h-116l-122 151l72 77l120 -96z" />
    <glyph glyph-name="napostrophe" unicode="&#x149;" horiz-adv-x="693" 
d="M217 745.5q19 -18.5 19 -47.5q0 -21 -7.5 -39t-25.5 -45l-52 -79h-78l35 92q-24 21 -24 53t25 58t59 26q30 0 49 -18.5zM646 521q31 -33 31 -93q0 -23 -2 -35l-55 -393h-194l48 341q2 18 2 23q0 29 -18 29t-39 -28.5t-48 -86.5l-40 -278h-194l74 534h169l1 -88
q32 49 80 78.5t99 29.5q55 0 86 -33z" />
    <glyph glyph-name="Eng" unicode="&#x14a;" horiz-adv-x="640" 
d="M656 696l-97 -696l-3 -18q-18 -104 -84 -156.5t-169 -52.5q-93 0 -150 46l79 118q18 -10 31 -14.5t31 -4.5q50 0 59 54l4 28h-52l-85 527l1 -27q4 -62 4 -101q0 -88 -14 -194l-29 -205h-176l97 696h250l89 -527q-6 92 -6 132q0 81 14 183l30 212h176z" />
    <glyph glyph-name="eng" unicode="&#x14b;" 
d="M513 521q31 -33 31 -93q0 -23 -2 -35l-55 -393l-3 -18q-17 -103 -82 -156t-165 -53q-93 0 -150 46l77 113q20 -10 33 -14.5t31 -4.5q25 0 40.5 14t19.5 40l5 33l48 341q2 18 2 23q0 29 -18 29t-39 -28.5t-48 -86.5l-40 -278h-194l74 534h169l1 -88q32 49 80 78.5t99 29.5
q55 0 86 -33z" />
    <glyph glyph-name="Omacron" unicode="&#x14c;" horiz-adv-x="678" 
d="M605 640.5q71 -75.5 71 -211.5q0 -107 -36 -209t-120 -171t-219 -69q-133 0 -204.5 76t-71.5 212q0 107 36 209t120.5 170.5t218.5 68.5t205 -75.5zM291.5 515q-33.5 -55 -46 -127.5t-12.5 -136.5q0 -67 20.5 -96t63.5 -29q59 0 92.5 54.5t46 127.5t12.5 139t-20.5 94.5
t-63.5 28.5q-59 0 -92.5 -55zM569 774h-319l19 134h319z" />
    <glyph glyph-name="omacron" unicode="&#x14d;" horiz-adv-x="572" 
d="M75 41q-62 61 -62 170q0 87 30.5 165t100 128t179.5 50t172.5 -61.5t62.5 -167.5q0 -87 -30.5 -165t-100 -129t-180.5 -51q-110 0 -172 61zM340 190.5q20 68.5 20 147.5q0 39 -13 56.5t-40 17.5q-56 0 -76 -66.5t-20 -144.5q0 -42 12.5 -60.5t39.5 -18.5q57 0 77 68.5z
M489 648h-319l19 134h319z" />
    <glyph glyph-name="Obreve" unicode="&#x14e;" horiz-adv-x="678" 
d="M605 640.5q71 -75.5 71 -211.5q0 -107 -36 -209t-120 -171t-219 -69q-133 0 -204.5 76t-71.5 212q0 107 36 209t120.5 170.5t218.5 68.5t205 -75.5zM291.5 515q-33.5 -55 -46 -127.5t-12.5 -136.5q0 -67 20.5 -96t63.5 -29q59 0 92.5 54.5t46 127.5t12.5 139t-20.5 94.5
t-63.5 28.5q-59 0 -92.5 -55zM316 772.5q-36 26.5 -51.5 69t-12.5 91.5l100 15q3 -30 20.5 -49t48.5 -19q32 0 55 19.5t35 50.5l103 -19q-17 -77 -70 -131t-135 -54q-57 0 -93 26.5z" />
    <glyph glyph-name="obreve" unicode="&#x14f;" horiz-adv-x="572" 
d="M75 41q-62 61 -62 170q0 87 30.5 165t100 128t179.5 50t172.5 -61.5t62.5 -167.5q0 -87 -30.5 -165t-100 -129t-180.5 -51q-110 0 -172 61zM340 190.5q20 68.5 20 147.5q0 39 -13 56.5t-40 17.5q-56 0 -76 -66.5t-20 -144.5q0 -42 12.5 -60.5t39.5 -18.5q57 0 77 68.5z
M198 682.5q-39 56.5 -34 140.5l102 15q2 -36 20 -57t49 -21q32 0 56 21.5t37 58.5l98 -19q-16 -83 -69 -139t-136 -56q-84 0 -123 56.5z" />
    <glyph glyph-name="Ohungarumlaut" unicode="&#x150;" horiz-adv-x="678" 
d="M605 640.5q71 -75.5 71 -211.5q0 -107 -36 -209t-120 -171t-219 -69q-133 0 -204.5 76t-71.5 212q0 107 36 209t120.5 170.5t218.5 68.5t205 -75.5zM291.5 515q-33.5 -55 -46 -127.5t-12.5 -136.5q0 -67 20.5 -96t63.5 -29q59 0 92.5 54.5t46 127.5t12.5 139t-20.5 94.5
t-63.5 28.5q-59 0 -92.5 -55zM380 1003l115 -56l-148 -197l-91 39zM566 1003l113 -61l-155 -196l-89 46z" />
    <glyph glyph-name="ohungarumlaut" unicode="&#x151;" horiz-adv-x="572" 
d="M75 41q-62 61 -62 170q0 87 30.5 165t100 128t179.5 50t172.5 -61.5t62.5 -167.5q0 -87 -30.5 -165t-100 -129t-180.5 -51q-110 0 -172 61zM340 190.5q20 68.5 20 147.5q0 39 -13 56.5t-40 17.5q-56 0 -76 -66.5t-20 -144.5q0 -42 12.5 -60.5t39.5 -18.5q57 0 77 68.5z
M302 877l115 -56l-148 -197l-91 39zM488 877l113 -61l-155 -196l-89 46z" />
    <glyph glyph-name="OE" unicode="&#x152;" horiz-adv-x="890" 
d="M622 553q25 -56 28 -130h195l-18 -139h-189q-19 -81 -65 -140h278l-20 -144h-438q-52 -20 -110 -20q-123 0 -190.5 75.5t-67.5 211.5q0 105 35.5 207.5t115.5 172t206 69.5q61 0 106 -20h444l-40 -143h-270zM414.5 223.5q32.5 97.5 32.5 231.5q0 60 -18.5 87.5
t-56.5 27.5q-77 0 -108.5 -95.5t-31.5 -230.5q0 -62 18.5 -90t55.5 -28q76 0 108.5 97.5z" />
    <glyph glyph-name="oe" unicode="&#x153;" horiz-adv-x="885" 
d="M790.5 252q-97.5 -48 -241.5 -61q7 -71 81 -71q32 0 62 12t70 37l67 -113q-104 -76 -225 -76q-117 0 -178 69q-67 -69 -177 -69t-173 61t-63 170q0 87 30.5 165t98 128t173.5 50q105 0 169 -75q78 75 190 75q101 0 157.5 -42.5t56.5 -110.5q0 -101 -97.5 -149zM642 321
q31 16 41.5 35t10.5 33q0 19 -10 29.5t-33 10.5q-39 0 -62.5 -35t-33.5 -92q56 3 87 19zM343 191q21 69 21 146q0 40 -13.5 57.5t-41.5 17.5q-56 0 -77 -67t-21 -144q0 -42 13 -60.5t41 -18.5q57 0 78 69z" />
    <glyph glyph-name="Racute" unicode="&#x154;" horiz-adv-x="612" 
d="M587.5 378.5q-30.5 -53.5 -117.5 -97.5l125 -281h-220l-92 248h-41l-34 -248h-202l97 696h251q128 0 196 -52t68 -140q0 -72 -30.5 -125.5zM262 386h52q49 0 72.5 31t23.5 74q0 64 -81 64h-44zM493 975l60 -144l-260 -89l-42 96z" />
    <glyph glyph-name="racute" unicode="&#x155;" horiz-adv-x="399" 
d="M449 542l-55 -191q-27 8 -46 8q-44 0 -70 -35t-48 -99l-32 -225h-194l74 534h169l1 -95q26 54 65 83t83 29q28 0 53 -9zM380 856l60 -144l-260 -99l-44 99z" />
    <glyph glyph-name="Rcommaaccent" unicode="&#x156;" horiz-adv-x="612" 
d="M587.5 378.5q-30.5 -53.5 -117.5 -97.5l125 -281h-220l-92 248h-41l-34 -248h-202l97 696h251q128 0 196 -52t68 -140q0 -72 -30.5 -125.5zM262 386h52q49 0 72.5 31t23.5 74q0 64 -81 64h-44zM324 -84q24 -22 24 -58q0 -26 -9 -47.5t-30 -54.5l-63 -98h-92l44 116
q-32 22 -32 61q0 46 28 74.5t69 28.5q37 0 61 -22z" />
    <glyph glyph-name="rcommaaccent" unicode="&#x157;" horiz-adv-x="399" 
d="M449 542l-55 -191q-27 8 -46 8q-44 0 -70 -35t-48 -99l-32 -225h-194l74 534h169l1 -95q26 54 65 83t83 29q28 0 53 -9zM146 -84q24 -22 24 -58q0 -26 -9 -47.5t-30 -54.5l-63 -98h-92l44 116q-32 22 -32 61q0 46 28 74.5t69 28.5q37 0 61 -22z" />
    <glyph glyph-name="Rcaron" unicode="&#x158;" horiz-adv-x="612" 
d="M587.5 378.5q-30.5 -53.5 -117.5 -97.5l125 -281h-220l-92 248h-41l-34 -248h-202l97 696h251q128 0 196 -52t68 -140q0 -72 -30.5 -125.5zM262 386h52q49 0 72.5 31t23.5 74q0 64 -81 64h-44zM535 964l58 -76l-161 -141h-116l-123 141l74 76l122 -86z" />
    <glyph glyph-name="rcaron" unicode="&#x159;" horiz-adv-x="399" 
d="M449 542l-55 -191q-27 8 -46 8q-44 0 -70 -35t-48 -99l-32 -225h-194l74 534h169l1 -95q26 54 65 83t83 29q28 0 53 -9zM433 830l60 -77l-162 -151h-116l-122 151l72 77l120 -96z" />
    <glyph glyph-name="Sacute" unicode="&#x15a;" horiz-adv-x="576" 
d="M594 620l-102 -105q-61 55 -138 55q-40 0 -61.5 -15.5t-21.5 -40.5q0 -17 9.5 -28t32 -21t67.5 -25q91 -31 133.5 -79.5t42.5 -122.5q0 -66 -31 -124.5t-101 -96t-180 -37.5q-89 0 -156 29.5t-113 76.5l113 115q67 -67 161 -67q45 0 69 17t24 49q0 28 -21.5 47t-76.5 38
q-100 33 -143 82.5t-43 118.5q0 61 31 113t96 84.5t161 32.5q154 0 248 -96zM487 975l60 -144l-260 -89l-42 96z" />
    <glyph glyph-name="sacute" unicode="&#x15b;" horiz-adv-x="481" 
d="M389 535q54 -19 93 -51l-83 -104q-28 17 -60.5 27t-61.5 10q-50 0 -50 -27q0 -10 7 -16t31 -15.5t62 -21.5q132 -44 132 -163q0 -49 -23 -92.5t-79 -72.5t-148 -29q-71 0 -135 26t-101 68l94 99q63 -56 142 -56q59 0 59 33q0 12 -7.5 19t-26 15t-67.5 25q-67 24 -99.5 62
t-32.5 99q0 52 28.5 94t83 66t128.5 24q60 0 114 -19zM399 856l60 -144l-260 -99l-44 99z" />
    <glyph glyph-name="Scircumflex" unicode="&#x15c;" horiz-adv-x="576" 
d="M594 620l-102 -105q-61 55 -138 55q-40 0 -61.5 -15.5t-21.5 -40.5q0 -17 9.5 -28t32 -21t67.5 -25q91 -31 133.5 -79.5t42.5 -122.5q0 -66 -31 -124.5t-101 -96t-180 -37.5q-89 0 -156 29.5t-113 76.5l113 115q67 -67 161 -67q45 0 69 17t24 49q0 28 -21.5 47t-76.5 38
q-100 33 -143 82.5t-43 118.5q0 61 31 113t96 84.5t161 32.5q154 0 248 -96zM231 752l-59 77l162 141h116l122 -141l-73 -77l-122 87z" />
    <glyph glyph-name="scircumflex" unicode="&#x15d;" horiz-adv-x="481" 
d="M389 535q54 -19 93 -51l-83 -104q-28 17 -60.5 27t-61.5 10q-50 0 -50 -27q0 -10 7 -16t31 -15.5t62 -21.5q132 -44 132 -163q0 -49 -23 -92.5t-79 -72.5t-148 -29q-71 0 -135 26t-101 68l94 99q63 -56 142 -56q59 0 59 33q0 12 -7.5 19t-26 15t-67.5 25q-67 24 -99.5 62
t-32.5 99q0 52 28.5 94t83 66t128.5 24q60 0 114 -19zM159 612l-58 77l163 151h116l121 -151l-75 -77l-120 96z" />
    <glyph glyph-name="Scedilla" unicode="&#x15e;" horiz-adv-x="576" 
d="M513.5 360.5q42.5 -48.5 42.5 -122.5q0 -59 -25 -113t-81.5 -93t-145.5 -49l-4 -26q47 -6 71.5 -30.5t24.5 -65.5q0 -31 -17 -62t-57 -52.5t-104 -21.5q-68 0 -119 35l53 84q29 -17 60 -17q49 0 49 28q0 14 -20.5 19.5t-67.5 5.5l26 102q-136 14 -224 104l113 115
q67 -67 161 -67q45 0 69 17t24 49q0 28 -21.5 47t-76.5 38q-100 33 -143 82.5t-43 118.5q0 61 31 113t96 84.5t161 32.5q154 0 248 -96l-102 -105q-61 55 -138 55q-40 0 -61.5 -15.5t-21.5 -40.5q0 -17 9.5 -28t32 -21t67.5 -25q91 -31 133.5 -79.5z" />
    <glyph glyph-name="scedilla" unicode="&#x15f;" horiz-adv-x="481" 
d="M459 174q0 -71 -48 -126.5t-157 -65.5l-4 -25q47 -6 71.5 -30.5t24.5 -65.5q0 -31 -17 -62t-57 -52.5t-104 -21.5q-68 0 -119 35l53 84q29 -17 60 -17q49 0 49 28q0 14 -20.5 19.5t-67.5 5.5l26 105q-54 9 -100.5 32.5t-75.5 56.5l94 99q63 -56 142 -56q59 0 59 33
q0 12 -7.5 19t-26 15t-67.5 25q-67 24 -99.5 62t-32.5 99q0 52 28.5 94t83 66t128.5 24q60 0 114 -19t93 -51l-83 -104q-28 17 -60.5 27t-61.5 10q-50 0 -50 -27q0 -10 7 -16t31 -15.5t62 -21.5q132 -44 132 -163z" />
    <glyph glyph-name="Scaron" unicode="&#x160;" horiz-adv-x="576" 
d="M594 620l-102 -105q-61 55 -138 55q-40 0 -61.5 -15.5t-21.5 -40.5q0 -17 9.5 -28t32 -21t67.5 -25q91 -31 133.5 -79.5t42.5 -122.5q0 -66 -31 -124.5t-101 -96t-180 -37.5q-89 0 -156 29.5t-113 76.5l113 115q67 -67 161 -67q45 0 69 17t24 49q0 28 -21.5 47t-76.5 38
q-100 33 -143 82.5t-43 118.5q0 61 31 113t96 84.5t161 32.5q154 0 248 -96zM529 964l58 -76l-161 -141h-116l-123 141l74 76l122 -86z" />
    <glyph glyph-name="scaron" unicode="&#x161;" horiz-adv-x="481" 
d="M389 535q54 -19 93 -51l-83 -104q-28 17 -60.5 27t-61.5 10q-50 0 -50 -27q0 -10 7 -16t31 -15.5t62 -21.5q132 -44 132 -163q0 -49 -23 -92.5t-79 -72.5t-148 -29q-71 0 -135 26t-101 68l94 99q63 -56 142 -56q59 0 59 33q0 12 -7.5 19t-26 15t-67.5 25q-67 24 -99.5 62
t-32.5 99q0 52 28.5 94t83 66t128.5 24q60 0 114 -19zM452 830l60 -77l-162 -151h-116l-122 151l72 77l120 -96z" />
    <glyph glyph-name="uni0162" unicode="&#x162;" horiz-adv-x="542" 
d="M335 0l-6 -43q46 -6 70 -30.5t24 -66.5q0 -30 -17.5 -61t-57 -52.5t-103.5 -21.5q-68 0 -119 35l53 84q29 -17 60 -17q49 0 49 28q0 14 -20.5 19.5t-67.5 5.5l30 120h-97l76 542h-166l21 154h544l-42 -154h-155z" />
    <glyph glyph-name="uni0163" unicode="&#x163;" horiz-adv-x="389" 
d="M251 -17l-4 -26q47 -6 71.5 -30.5t24.5 -65.5q0 -31 -17 -62t-57 -52.5t-104 -21.5q-68 0 -119 35l53 84q29 -17 60 -17q49 0 49 28q0 14 -20.5 19.5t-67.5 5.5l27 109q-50 14 -75.5 54.5t-25.5 104.5q0 23 3 50l29 202h-63l18 134h72l32 115l172 20l-19 -135h120
l-40 -134h-98l-28 -202q-2 -18 -2 -24q0 -21 8 -30t24 -9q22 0 51 13l48 -126q-52 -30 -122 -39z" />
    <glyph glyph-name="Tcaron" unicode="&#x164;" horiz-adv-x="542" 
d="M608 696l-42 -154h-155l-76 -542h-202l76 542h-166l21 154h544zM500 964l58 -76l-161 -141h-116l-123 141l74 76l122 -86z" />
    <glyph glyph-name="tcaron" unicode="&#x165;" horiz-adv-x="389" 
d="M365 825l136 -17l-79 -234l-97 8zM244 198q-2 -18 -2 -24q0 -21 8 -30t24 -9q22 0 51 13l48 -126q-34 -20 -79 -31t-83 -11q-81 0 -123.5 43t-42.5 125q0 14 4 50l29 202h-63l18 134h72l32 115l172 20l-19 -135h120l-40 -134h-98z" />
    <glyph glyph-name="Tbar" unicode="&#x166;" horiz-adv-x="542" 
d="M566 542h-155l-21 -151h106l-14 -106h-107l-40 -285h-202l40 285h-106l14 106h107l21 151h-166l21 154h544z" />
    <glyph glyph-name="tbar" unicode="&#x167;" horiz-adv-x="389" 
d="M325 148l48 -126q-34 -20 -79 -31t-83 -11q-81 0 -123.5 43t-42.5 125q0 14 4 50l6 42h-53l17 124h53l6 36h-63l18 134h72l32 115l172 20l-19 -135h120l-40 -134h-98l-5 -36h99l-36 -124h-80l-6 -42q-2 -18 -2 -24q0 -21 8 -30t24 -9q22 0 51 13z" />
    <glyph glyph-name="Utilde" unicode="&#x168;" horiz-adv-x="632" 
d="M595 235q-10 -73 -49.5 -130.5t-107.5 -91t-160 -33.5q-126 0 -189 56t-63 154q0 23 3 47l64 459h202l-64 -455q-3 -22 -3 -40q0 -38 15.5 -55.5t50.5 -17.5q44 0 67.5 28t31.5 87l64 453h202zM379 773q-14 9 -23 13.5t-18 4.5q-18 0 -30.5 -10.5t-29.5 -33.5l-85 47
q28 59 69 97t86 38q22 0 38 -7t34 -20q23 -16 36 -16q17 0 29.5 10.5t29.5 33.5l85 -47q-28 -59 -69 -97t-86 -38q-29 0 -66 25z" />
    <glyph glyph-name="utilde" unicode="&#x169;" horiz-adv-x="554" 
d="M48 15q-32 35 -32 97q0 18 3 39l54 383h194l-48 -345q-2 -14 -2 -19q0 -32 25 -32q14 0 32 16t35 43l47 337h194l-74 -534h-169l2 67q-34 -41 -76.5 -64t-88.5 -23q-64 0 -96 35zM320 647q-14 9 -23 13.5t-18 4.5q-17 0 -30 -10.5t-30 -33.5l-85 47q28 59 69 97t86 38
q22 0 38 -7t34 -20q23 -16 36 -16q17 0 29.5 10.5t29.5 33.5l85 -47q-28 -59 -69 -97t-86 -38q-29 0 -66 25z" />
    <glyph glyph-name="Umacron" unicode="&#x16a;" horiz-adv-x="632" 
d="M595 235q-10 -73 -49.5 -130.5t-107.5 -91t-160 -33.5q-126 0 -189 56t-63 154q0 23 3 47l64 459h202l-64 -455q-3 -22 -3 -40q0 -38 15.5 -55.5t50.5 -17.5q44 0 67.5 28t31.5 87l64 453h202zM546 774h-319l19 134h319z" />
    <glyph glyph-name="umacron" unicode="&#x16b;" horiz-adv-x="554" 
d="M48 15q-32 35 -32 97q0 18 3 39l54 383h194l-48 -345q-2 -14 -2 -19q0 -32 25 -32q14 0 32 16t35 43l47 337h194l-74 -534h-169l2 67q-34 -41 -76.5 -64t-88.5 -23q-64 0 -96 35zM487 648h-319l19 134h319z" />
    <glyph glyph-name="Ubreve" unicode="&#x16c;" horiz-adv-x="632" 
d="M595 235q-10 -73 -49.5 -130.5t-107.5 -91t-160 -33.5q-126 0 -189 56t-63 154q0 23 3 47l64 459h202l-64 -455q-3 -22 -3 -40q0 -38 15.5 -55.5t50.5 -17.5q44 0 67.5 28t31.5 87l64 453h202zM293 772.5q-36 26.5 -51.5 69t-12.5 91.5l100 15q3 -30 20.5 -49t48.5 -19
q32 0 55 19.5t35 50.5l103 -19q-17 -77 -70 -131t-135 -54q-57 0 -93 26.5z" />
    <glyph glyph-name="ubreve" unicode="&#x16d;" horiz-adv-x="554" 
d="M48 15q-32 35 -32 97q0 18 3 39l54 383h194l-48 -345q-2 -14 -2 -19q0 -32 25 -32q14 0 32 16t35 43l47 337h194l-74 -534h-169l2 67q-34 -41 -76.5 -64t-88.5 -23q-64 0 -96 35zM196 682.5q-39 56.5 -34 140.5l102 15q2 -36 20 -57t49 -21q32 0 56 21.5t37 58.5l98 -19
q-16 -83 -69 -139t-136 -56q-84 0 -123 56.5z" />
    <glyph glyph-name="Uring" unicode="&#x16e;" horiz-adv-x="632" 
d="M595 235q-10 -73 -49.5 -130.5t-107.5 -91t-160 -33.5q-126 0 -189 56t-63 154q0 23 3 47l64 459h202l-64 -455q-3 -22 -3 -40q0 -38 15.5 -55.5t50.5 -17.5q44 0 67.5 28t31.5 87l64 453h202zM518 975.5q35 -36.5 35 -95.5q0 -42 -21 -79t-60.5 -59.5t-90.5 -22.5
q-63 0 -98 36.5t-35 95.5q0 41 21.5 78t60.5 60t89 23q64 0 99 -36.5zM371 896q-14 -18 -14 -40q0 -19 9 -28t25 -9q24 0 38 16.5t14 39.5q0 19 -9 29t-25 10q-24 0 -38 -18z" />
    <glyph glyph-name="uring" unicode="&#x16f;" horiz-adv-x="554" 
d="M48 15q-32 35 -32 97q0 18 3 39l54 383h194l-48 -345q-2 -14 -2 -19q0 -32 25 -32q14 0 32 16t35 43l47 337h194l-74 -534h-169l2 67q-34 -41 -76.5 -64t-88.5 -23q-64 0 -96 35zM458 849.5q35 -36.5 35 -95.5q0 -42 -21 -79t-60.5 -59.5t-90.5 -22.5q-63 0 -98 36.5
t-35 95.5q0 41 21.5 78t60.5 60t89 23q64 0 99 -36.5zM311 770q-14 -18 -14 -40q0 -19 9 -28t25 -9q24 0 38 16.5t14 39.5q0 19 -9 29t-25 10q-24 0 -38 -18z" />
    <glyph glyph-name="Uhungarumlaut" unicode="&#x170;" horiz-adv-x="632" 
d="M595 235q-10 -73 -49.5 -130.5t-107.5 -91t-160 -33.5q-126 0 -189 56t-63 154q0 23 3 47l64 459h202l-64 -455q-3 -22 -3 -40q0 -38 15.5 -55.5t50.5 -17.5q44 0 67.5 28t31.5 87l64 453h202zM357 1003l115 -56l-148 -197l-91 39zM543 1003l113 -61l-155 -196l-89 46z
" />
    <glyph glyph-name="uhungarumlaut" unicode="&#x171;" horiz-adv-x="554" 
d="M48 15q-32 35 -32 97q0 18 3 39l54 383h194l-48 -345q-2 -14 -2 -19q0 -32 25 -32q14 0 32 16t35 43l47 337h194l-74 -534h-169l2 67q-34 -41 -76.5 -64t-88.5 -23q-64 0 -96 35zM300 877l115 -56l-148 -197l-91 39zM486 877l113 -61l-155 -196l-89 46z" />
    <glyph glyph-name="Uogonek" unicode="&#x172;" horiz-adv-x="632" 
d="M659 696l-64 -461q-12 -86 -64.5 -150t-139.5 -90q-66 -23 -91.5 -50t-25.5 -51q0 -33 44 -33q28 0 63 8l-26 -115q-35 -8 -74 -8q-65 0 -105.5 29.5t-40.5 81.5q0 81 91 126q-100 11 -150 65.5t-50 141.5q0 23 3 47l64 459h202l-64 -455q-3 -22 -3 -40q0 -38 15.5 -55.5
t50.5 -17.5q44 0 67.5 28t31.5 87l64 453h202z" />
    <glyph glyph-name="uogonek" unicode="&#x173;" horiz-adv-x="554" 
d="M374.5 -52.5q-27.5 -28.5 -27.5 -53.5q0 -33 43 -33q27 0 62 8l-26 -115q-35 -8 -73 -8q-63 0 -103 29.5t-40 81.5q0 90 97 147l2 63q-34 -41 -76.5 -64t-88.5 -23q-64 0 -96 35t-32 97q0 18 3 39l54 383h194l-48 -345q-2 -14 -2 -19q0 -32 25 -32q14 0 32 16t35 43
l47 337h194l-74 -534q-74 -24 -101.5 -52.5z" />
    <glyph glyph-name="Wcircumflex" unicode="&#x174;" horiz-adv-x="847" 
d="M905 696l-196 -696h-263l9 500l-138 -500h-256l1 696h200l-33 -547l149 547h212l-16 -547l135 547h196zM356 752l-59 77l162 141h116l122 -141l-73 -77l-122 87z" />
    <glyph glyph-name="wcircumflex" unicode="&#x175;" horiz-adv-x="756" 
d="M797 534l-177 -534h-220l-7 358l-104 -358h-223l-31 534h196l-22 -383l122 383h181l2 -383l97 383h186zM293 612l-58 77l163 151h116l121 -151l-75 -77l-120 96z" />
    <glyph glyph-name="Ycircumflex" unicode="&#x176;" horiz-adv-x="608" 
d="M683 696l-279 -439l-36 -257h-202l36 256l-157 440h217l63 -284l142 284h216zM234 752l-59 77l162 141h116l122 -141l-73 -77l-122 87z" />
    <glyph glyph-name="ycircumflex" unicode="&#x177;" horiz-adv-x="520" 
d="M345 0q-95 -220 -362 -228l-4 135q77 7 117.5 27.5t68.5 65.5h-68l-75 534h202l11 -412l136 412h203zM175 612l-58 77l163 151h116l121 -151l-75 -77l-120 96z" />
    <glyph glyph-name="Ydieresis" unicode="&#x178;" horiz-adv-x="608" 
d="M683 696l-279 -439l-36 -257h-202l36 256l-157 440h217l63 -284l142 284h216zM189 782.5q-23 22.5 -23 58.5q0 44 31 73.5t76 29.5q39 0 62 -22.5t23 -58.5q0 -44 -31 -73.5t-76 -29.5q-39 0 -62 22.5zM429 782.5q-23 22.5 -23 58.5q0 44 31 73.5t76 29.5q39 0 62 -22.5
t23 -58.5q0 -44 -31 -73.5t-76 -29.5q-39 0 -62 22.5z" />
    <glyph glyph-name="Zacute" unicode="&#x179;" horiz-adv-x="545" 
d="M-28 0l20 151l334 389h-250l21 156h485l-21 -153l-329 -382h284l-42 -161h-502zM459 975l60 -144l-260 -89l-42 96z" />
    <glyph glyph-name="zacute" unicode="&#x17a;" horiz-adv-x="460" 
d="M482 534l-18 -137l-235 -251h206l-37 -146h-432l18 138l238 252h-182l20 144h422zM388 856l60 -144l-260 -99l-44 99z" />
    <glyph glyph-name="Zdotaccent" unicode="&#x17b;" horiz-adv-x="545" 
d="M-28 0l20 151l334 389h-250l21 156h485l-21 -153l-329 -382h284l-42 -161h-502zM274.5 769q-26.5 26 -26.5 67q0 51 35.5 85t87.5 34q44 0 70.5 -26t26.5 -67q0 -51 -35.5 -85t-87.5 -34q-44 0 -70.5 26z" />
    <glyph glyph-name="zdotaccent" unicode="&#x17c;" horiz-adv-x="460" 
d="M482 534l-18 -137l-235 -251h206l-37 -146h-432l18 138l238 252h-182l20 144h422zM214.5 643q-26.5 26 -26.5 67q0 51 35.5 85t87.5 34q44 0 70.5 -26t26.5 -67q0 -51 -35.5 -85t-87.5 -34q-44 0 -70.5 26z" />
    <glyph glyph-name="Zcaron" unicode="&#x17d;" horiz-adv-x="545" 
d="M-28 0l20 151l334 389h-250l21 156h485l-21 -153l-329 -382h284l-42 -161h-502zM501 964l58 -76l-161 -141h-116l-123 141l74 76l122 -86z" />
    <glyph glyph-name="zcaron" unicode="&#x17e;" horiz-adv-x="460" 
d="M482 534l-18 -137l-235 -251h206l-37 -146h-432l18 138l238 252h-182l20 144h422zM441 830l60 -77l-162 -151h-116l-122 151l72 77l120 -96z" />
    <glyph glyph-name="longs" unicode="&#x17f;" horiz-adv-x="357" 
d="M441.5 750.5q41.5 -13.5 70.5 -33.5l-66 -115q-35 20 -77 20q-29 0 -46 -16t-22 -52l-78 -554h-193l55 400h-70l18 134h71l4 32q12 87 74.5 142.5t167.5 55.5q50 0 91.5 -13.5z" />
    <glyph glyph-name="uni0180" unicode="&#x180;" horiz-adv-x="595" 
d="M542 500.5q41 -53.5 41 -153.5q0 -148 -72.5 -257.5t-254.5 -109.5q-124 0 -237 50l78 560h-51l15 106h51l7 48l196 20l-10 -68h129l-30 -106h-113l-14 -97q26 28 65 44.5t77 16.5q82 0 123 -53.5zM358 189q26 68 26 149q0 43 -12 58.5t-34 15.5q-43 0 -79 -53l-32 -228
q26 -10 51 -10q54 0 80 68z" />
    <glyph glyph-name="uni0181" unicode="&#x181;" horiz-adv-x="785" 
d="M727 323q37 -33 37 -102q0 -100 -80.5 -160.5t-262.5 -60.5h-240l77 553h-25q-23 0 -35 -12.5t-12 -36.5q0 -20 6 -50l-131 -50q-12 27 -18.5 51t-6.5 52q0 88 57.5 138.5t152.5 50.5h243q141 0 215.5 -37t74.5 -124q0 -70 -43 -110t-108 -57q62 -12 99 -45zM551.5 450.5
q18.5 23.5 18.5 58.5q0 24 -18.5 35t-61.5 11h-31l-18 -128h35q57 0 75.5 23.5zM532.5 169.5q24.5 24.5 24.5 69.5q0 58 -85 58h-49l-21 -152h39q67 0 91.5 24.5z" />
    <glyph glyph-name="uni0182" unicode="&#x182;" horiz-adv-x="595" 
d="M520.5 409q64.5 -47 64.5 -140q0 -64 -31 -125.5t-99.5 -102.5t-174.5 -41h-274l97 696h459l-40 -153h-238l-12 -87h62q122 0 186.5 -47zM346 175q26 30 26 79q0 64 -78 64h-42l-24 -173h44q48 0 74 30z" />
    <glyph glyph-name="uni0183" unicode="&#x183;" horiz-adv-x="585" 
d="M530 480q41 -54 41 -155q0 -80 -28 -158t-101 -132.5t-198 -54.5q-124 0 -237 50l100 714h408l-40 -139h-194l-19 -132q26 28 66.5 44.5t79.5 16.5q81 0 122 -54zM326 153.5q24 32.5 35 78t11 84.5q0 44 -12 60t-34 16q-21 0 -42.5 -13t-39.5 -40l-29 -208q26 -10 51 -10
q36 0 60 32.5z" />
    <glyph glyph-name="uni0184" unicode="&#x184;" horiz-adv-x="616" 
d="M542 419.5q65 -49.5 65 -143.5q0 -70 -32 -132.5t-100.5 -103t-173.5 -40.5h-274l66 471l-71 57q75 67 138 168h166l-32 -227h62q121 0 186 -49.5zM371.5 181q23.5 36 23.5 79q0 32 -19 51.5t-59 19.5h-42l-26 -186h44q55 0 78.5 36z" />
    <glyph glyph-name="uni0185" unicode="&#x185;" horiz-adv-x="541" 
d="M470.5 330q57.5 -41 57.5 -127q0 -52 -26 -103t-86.5 -85.5t-157.5 -34.5q-58 0 -110 9t-114 29l42 301l-71 57q80 71 137 158h157l-22 -163h16q120 0 177.5 -41zM319 132q16 29 16 65q0 28 -13 41t-47 13h-14l-20 -144q12 -4 23 -4q39 0 55 29z" />
    <glyph glyph-name="uni0186" unicode="&#x186;" horiz-adv-x="571" 
d="M495 639q73 -77 73 -215q0 -124 -45.5 -225t-131.5 -160t-202 -59q-70 0 -125 27.5t-92 70.5l101 113q31 -28 59 -42t64 -14q56 0 92.5 42.5t53.5 109.5t17 142q0 72 -23 105.5t-69 33.5q-34 0 -65 -13t-64 -37l-82 117q52 40 110.5 60.5t128.5 20.5q127 0 200 -77z" />
    <glyph glyph-name="uni0187" unicode="&#x187;" horiz-adv-x="583" 
d="M795 825l-66 -120q-31 16 -59 16q-46 0 -53 -55l-5 -40l-88 -94q-31 18 -61 27t-64 9q-60 0 -97 -48.5t-53 -116.5t-16 -129q0 -139 103 -139q33 0 63.5 15t70.5 44l74 -118q-47 -42 -108.5 -69t-128.5 -27q-134 0 -208.5 75t-74.5 215q0 103 41 206.5t120 171.5t188 68
q46 0 84 -15q14 77 63.5 119.5t135.5 42.5q80 0 139 -38z" />
    <glyph glyph-name="uni0188" unicode="&#x188;" horiz-adv-x="470" 
d="M696 726l-66 -120q-29 16 -59 16q-23 0 -35 -13t-17 -42l-12 -87l-81 -99q-48 24 -98 24q-62 0 -87.5 -58.5t-25.5 -134.5q0 -45 18 -62t51 -17q23 0 44 8t51 27l70 -124q-89 -64 -193 -64q-115 0 -179.5 64t-64.5 173q0 74 33.5 152.5t98 131.5t152.5 53q24 0 55 -7
l5 39q12 85 61.5 131.5t138.5 46.5q83 0 140 -38z" />
    <glyph glyph-name="uni0189" unicode="&#x189;" horiz-adv-x="653" 
d="M563 637.5q88 -58.5 88 -205.5q0 -193 -94 -312.5t-311 -119.5h-231l41 295h-48l16 116h48l40 285h217q146 0 234 -58.5zM406.5 230.5q36.5 85.5 36.5 199.5q0 68 -26 94.5t-81 26.5h-42l-20 -140h118l-16 -116h-118l-21 -150h39q94 0 130.5 85.5z" />
    <glyph glyph-name="uni018A" unicode="&#x18a;" horiz-adv-x="819" 
d="M729 637.5q88 -58.5 88 -205.5q0 -193 -94 -312.5t-311 -119.5h-231l77 553h-25q-23 0 -35 -12.5t-12 -36.5q0 -20 6 -50l-131 -50q-12 27 -18.5 51t-6.5 52q0 88 57.5 138.5t152.5 50.5h249q146 0 234 -58.5zM572.5 230.5q36.5 85.5 36.5 199.5q0 68 -26 94.5t-81 26.5
h-42l-57 -406h39q94 0 130.5 85.5z" />
    <glyph glyph-name="uni018B" unicode="&#x18b;" horiz-adv-x="598" 
d="M517 0h-275q-110 0 -174.5 53t-64.5 154q0 121 85 185t227 64h63l13 87h-249l22 153h450zM335 145l24 173h-40q-51 0 -77.5 -29t-26.5 -73q0 -37 18.5 -54t56.5 -17h45z" />
    <glyph glyph-name="uni018C" unicode="&#x18c;" horiz-adv-x="585" 
d="M507 0h-173l1 69q-65 -89 -157 -89q-84 0 -125.5 56t-41.5 161q0 81 27.5 158.5t86 128t145.5 50.5q34 0 62.5 -11t48.5 -32l16 114h-204l20 139h398zM364 369q-11 13 -23 18.5t-29 5.5q-51 0 -76 -61t-25 -133q0 -45 11 -61t30 -16q38 0 89 83z" />
    <glyph glyph-name="uni018D" unicode="&#x18d;" horiz-adv-x="567" 
d="M93 -205q-51 22 -84 59l96 92q23 -22 48 -32.5t57 -10.5q29 0 43.5 12t14.5 31q0 16 -14.5 28t-61.5 32q-93 39 -135.5 90.5t-42.5 133.5q0 73 30.5 147.5t99.5 125.5t176 51q73 0 126.5 -29t81.5 -78.5t28 -107.5q0 -91 -42 -159.5t-144 -105.5q45 -31 63 -63.5
t18 -69.5q0 -43 -26.5 -81.5t-80 -62.5t-131.5 -24q-69 0 -120 22zM343 221q15 53 15 118q0 73 -53 73q-48 0 -70.5 -56.5t-22.5 -133.5q0 -34 14.5 -54.5t53.5 -43.5q48 44 63 97z" />
    <glyph glyph-name="uni018E" unicode="&#x18e;" horiz-adv-x="506" 
d="M83 696h439l-97 -696h-444l20 144h242l20 140h-198l18 139h198l19 130h-237z" />
    <glyph glyph-name="uni018F" unicode="&#x18f;" horiz-adv-x="623" 
d="M549.5 644q71.5 -72 71.5 -207q0 -132 -39 -235.5t-117.5 -162.5t-191.5 -59q-128 0 -194 72t-66 198q0 85 24 167l383 -1q2 28 2 39q0 60 -24.5 87.5t-73.5 27.5q-45 0 -79.5 -15.5t-69.5 -41.5l-77 113q59 46 119.5 68t134.5 22q126 0 197.5 -72zM356.5 162
q30.5 36 44.5 119l-196 -1q-4 -27 -4 -54q0 -53 20 -76.5t58 -23.5q47 0 77.5 36z" />
    <glyph glyph-name="uni0190" unicode="&#x190;" horiz-adv-x="541" 
d="M478 692q55 -24 99 -73l-106 -98q-48 51 -111 51q-42 0 -65.5 -20.5t-23.5 -56.5q0 -59 76 -59h81l-43 -141h-52q-59 0 -91.5 -25t-32.5 -70q0 -39 21 -56.5t64 -17.5q37 0 69 14t70 45l92 -106q-105 -99 -266 -99q-77 0 -135.5 23.5t-90.5 67.5t-32 103q0 89 54 135.5
t155 57.5q-73 16 -107.5 53.5t-34.5 91.5q0 61 38.5 107.5t101.5 71.5t135 25q80 0 135 -24z" />
    <glyph glyph-name="uni0191" unicode="&#x191;" horiz-adv-x="475" 
d="M285 553l-21 -152h186l-20 -143h-186l-36 -258l-3 -18q-18 -104 -84 -156.5t-169 -52.5q-93 0 -150 46l79 118q18 -10 31 -14.5t31 -4.5q50 0 59 54l4 28l97 696h434l-41 -143h-211z" />
    <glyph glyph-name="florin" unicode="&#x192;" horiz-adv-x="357" 
d="M323 606q-17 -16 -22 -52l-3 -20h122l-40 -134h-101l-45 -324q-18 -130 -89.5 -198t-188.5 -105l-47 141q61 21 91 55t39 97l46 334h-70l18 134h71l4 32q12 87 74.5 142.5t167.5 55.5q50 0 91.5 -13.5t70.5 -33.5l-66 -115q-35 20 -77 20q-29 0 -46 -16z" />
    <glyph glyph-name="uni0193" unicode="&#x193;" horiz-adv-x="624" 
d="M836 825l-66 -120q-31 16 -59 16q-47 0 -53 -55l-5 -44l-100 -90q-63 40 -133 40q-104 0 -147 -98.5t-43 -230.5q0 -65 21.5 -91t66.5 -26q37 0 75 16l18 128h-69l2 139h281l-48 -351q-59 -37 -131 -57.5t-137 -20.5q-286 0 -286 279q0 111 44 216.5t130 173t205 67.5
q53 0 96 -16q14 78 63.5 120.5t135.5 42.5q80 0 139 -38z" />
    <glyph glyph-name="uni0194" unicode="&#x194;" horiz-adv-x="569" 
d="M358 97q25 -51 37 -85.5t12 -73.5q0 -80 -49 -122.5t-138 -42.5q-77 0 -113.5 34.5t-36.5 95.5q0 49 24 97.5t70 105.5l-129 590h211l35 -459l164 459h209zM251 7q-18 -24 -29 -48t-11 -42q0 -23 22 -23q16 0 24.5 11t8.5 29q0 31 -15 73z" />
    <glyph glyph-name="uni0195" unicode="&#x195;" horiz-adv-x="842" 
d="M367 29.5q-51 49.5 -51 122.5q0 10 2 30l22 159q2 18 2 23q0 29 -18 29t-39 -28.5t-48 -86.5l-40 -278h-194l104 744l196 20l-43 -313q26 46 71.5 74.5t94.5 28.5q55 0 86 -33t31 -93q0 -23 -2 -35l-28 -203q-2 -18 -2 -27q0 -41 31 -41q57 0 78.5 106.5t21.5 227.5
q0 43 -4 78h183q8 -48 8 -108q0 -141 -25 -237.5t-93 -152.5t-190 -56q-103 0 -154 49.5z" />
    <glyph glyph-name="uni0196" unicode="&#x196;" horiz-adv-x="397" 
d="M380 24q-66 -44 -159 -44q-94 0 -147.5 44t-53.5 129q0 18 3 39l2 15l69 489h202l-69 -489l-4 -30q-1 -5 -1 -13q0 -39 40 -39q19 0 33.5 4t36.5 14z" />
    <glyph glyph-name="uni0197" unicode="&#x197;" horiz-adv-x="340" 
d="M360 435l-20 -150h-65l-40 -285h-202l40 285h-67l20 150h68l36 261h202l-36 -261h64z" />
    <glyph glyph-name="uni0198" unicode="&#x198;" horiz-adv-x="661" 
d="M266 371l152 219q49 71 92.5 98.5t110.5 27.5q40 0 68 -10.5t51 -28.5l-62 -112q-6 3 -14.5 6t-20.5 3q-19 0 -32.5 -9.5t-34.5 -39.5l-104 -148l158 -377h-228zM6 0l97 696h202l-97 -696h-202z" />
    <glyph glyph-name="uni0199" unicode="&#x199;" horiz-adv-x="579" 
d="M456 238l86 -238h-212l-78 256q78 27 109.5 59t31.5 70q0 36 -38 36q-52 0 -111 -84l-46 -337h-195l75 533l4 33q13 87 76.5 142.5t170.5 55.5q42 0 83.5 -11t67.5 -27l-67 -123q-32 19 -73 19q-29 0 -44 -15.5t-21 -52.5l-3 -21l-8 -55q40 40 82 58t91 18
q71 0 111.5 -36t40.5 -95q0 -123 -133 -185z" />
    <glyph glyph-name="uni019A" unicode="&#x19a;" horiz-adv-x="346" 
d="M250 167q-1 -4 -1 -10q0 -22 20 -22q6 0 20 4l18 -138q-22 -10 -53.5 -15.5t-62.5 -5.5q-67 0 -103.5 34.5t-36.5 99.5q0 19 3 38l21 152h-67l20 135h66l43 305l196 20l-45 -325h74l-20 -135h-73z" />
    <glyph glyph-name="uni019B" unicode="&#x19b;" horiz-adv-x="540" 
d="M468.5 195q18.5 -81 59.5 -156l-197 -58q-36 81 -48.5 153t-11.5 207l-115 -361l-190 47l220 458l85 -15q-3 48 -11 75l-55 -36l-89 65l75 52q-33 12 -82 15l36 123q60 -8 101 -20t72 -33l82 56l58 -91l-70 -46q36 -73 48 -202q14 -152 32.5 -233z" />
    <glyph glyph-name="uni019C" unicode="&#x19c;" horiz-adv-x="889" 
d="M905 696l-97 -696h-178l-6 62q-40 -44 -77 -63t-83 -19q-49 0 -82.5 22.5t-48.5 62.5q-74 -85 -174 -85q-67 0 -104.5 41.5t-37.5 110.5q0 18 3 39l73 525h202l-72 -516q-1 -4 -1 -12q0 -19 8 -29t22 -10q35 0 74 50l72 517h202l-72 -516q-1 -4 -1 -12q0 -19 8 -29
t22 -10q35 0 74 50l72 517h202z" />
    <glyph glyph-name="uni019D" unicode="&#x19d;" horiz-adv-x="640" 
d="M656 696l-97 -696h-254l-85 527l1 -27q4 -62 4 -101q0 -88 -14 -194l-29 -205l-3 -19q-33 -208 -227 -208q-93 0 -150 46l79 111q18 -10 31 -14.5t31 -4.5q50 0 59 61l4 28l97 696h250l89 -527q-6 92 -6 132q0 81 14 183l30 212h176z" />
    <glyph glyph-name="uni019E" unicode="&#x19e;" horiz-adv-x="559" 
d="M513 521q32 -33 32 -92q0 -16 -3 -36l-86 -600l-198 -21l87 569q2 18 2 23q0 29 -19 29q-17 0 -40.5 -29.5t-49.5 -85.5l-40 -278h-194l74 534h169l1 -88q31 49 80 78.5t97 29.5q56 0 88 -33z" />
    <glyph glyph-name="uni019F" unicode="&#x19f;" horiz-adv-x="678" 
d="M605 640.5q71 -75.5 71 -211.5q0 -107 -36 -209t-120 -171t-219 -69q-133 0 -204.5 76t-71.5 212q0 107 36 209t120.5 170.5t218.5 68.5t205 -75.5zM291 527q-36 -48 -52 -123h238q1 14 1 39q0 70 -21.5 101t-68.5 31q-61 0 -97 -48zM411.5 170.5q36.5 49.5 52.5 127.5
h-240q-1 -16 -1 -43q0 -71 21.5 -102.5t68.5 -31.5q62 0 98.5 49.5z" />
    <glyph glyph-name="Ohorn" unicode="&#x1a0;" horiz-adv-x="712" 
d="M757.5 599.5q-34.5 -41.5 -98.5 -52.5q17 -54 17 -118q0 -107 -36 -209t-120 -171t-219 -69q-133 0 -204.5 76t-71.5 212q0 107 36 209t120.5 170.5t218.5 68.5q140 0 212 -83q29 3 42.5 21.5t13.5 53.5q0 28 -5 51l121 13q8 -28 8 -60q0 -71 -34.5 -112.5zM409.5 180.5
q33.5 54.5 46 127.5t12.5 139t-20.5 94.5t-63.5 28.5q-59 0 -92.5 -55t-46 -127.5t-12.5 -136.5q0 -67 20.5 -96t63.5 -29q59 0 92.5 54.5z" />
    <glyph glyph-name="ohorn" unicode="&#x1a1;" horiz-adv-x="639" 
d="M655 436q-36 -42 -103 -52q6 -28 6 -61q-1 -87 -31.5 -164.5t-100 -128t-179.5 -50.5t-172 61t-62 170q0 87 30.5 165t100 128t179.5 50q64 0 112.5 -21.5t78.5 -61.5q28 4 40.5 22.5t12.5 52.5q0 30 -6 51l122 13q1 -3 4.5 -19.5t3.5 -40.5q0 -72 -36 -114zM347 394.5
q-13 17.5 -40 17.5q-56 0 -76 -66.5t-20 -144.5q0 -42 12.5 -60.5t39.5 -18.5q57 0 77 68.5t20 147.5q0 39 -13 56.5z" />
    <glyph glyph-name="uni01A2" unicode="&#x1a2;" horiz-adv-x="963" 
d="M904 672.5q52 -43.5 52 -126.5q0 -19 -3 -42l-101 -719h-202l103 729q1 6 1 17q0 45 -42 45q-29 0 -60 -14q24 -57 24 -133q0 -107 -36 -209t-120 -171t-219 -69q-133 0 -204.5 76t-71.5 212q0 107 36 209t120.5 170.5t218.5 68.5q106 0 176 -53q77 53 182 53
q94 0 146 -43.5zM409.5 180.5q33.5 54.5 46 127.5t12.5 139t-20.5 94.5t-63.5 28.5q-59 0 -92.5 -55t-46 -127.5t-12.5 -136.5q0 -67 20.5 -96t63.5 -29q59 0 92.5 54.5z" />
    <glyph glyph-name="uni01A3" unicode="&#x1a3;" horiz-adv-x="828" 
d="M757 509q49 -45 49 -125q0 -19 -3 -42l-77 -549l-196 -20l81 589q1 5 1 15q0 20 -9.5 28.5t-29.5 8.5q-16 0 -29 -4q14 -40 14 -87q-1 -87 -31.5 -164.5t-100 -128t-179.5 -50.5t-172 61t-62 170q0 87 30.5 165t100 128t179.5 50q78 0 139 -39q37 21 74 30t84 9
q88 0 137 -45zM347 394.5q-13 17.5 -40 17.5q-56 0 -76 -66.5t-20 -144.5q0 -42 12.5 -60.5t39.5 -18.5q57 0 77 68.5t20 147.5q0 39 -13 56.5z" />
    <glyph glyph-name="uni01A4" unicode="&#x1a4;" horiz-adv-x="775" 
d="M721.5 644.5q70.5 -51.5 70.5 -149.5q0 -68 -32 -131.5t-102 -105t-177 -41.5h-68l-30 -217h-202l77 553h-25q-23 0 -35 -12.5t-12 -36.5q0 -20 6 -50l-131 -50q-12 27 -18.5 51t-6.5 52q0 88 57.5 138.5t152.5 50.5h278q127 0 197.5 -51.5zM560 400q24 38 24 83
q0 70 -81 70h-43l-27 -191h46q57 0 81 38z" />
    <glyph glyph-name="uni01A5" unicode="&#x1a5;" horiz-adv-x="584" 
d="M531.5 500.5q41.5 -53.5 41.5 -153.5q0 -87 -28 -171t-91.5 -140t-163.5 -56q-58 0 -93 14l-30 -201l-194 -20l105 760l4 33q13 87 76.5 142.5t170.5 55.5q42 0 83.5 -11t67.5 -27l-67 -123q-32 19 -73 19q-29 0 -44 -15.5t-21 -52.5l-3 -21l-4 -42q27 31 65.5 47
t73.5 16q83 0 124.5 -53.5zM348 189q26 68 26 149q0 43 -12 58.5t-34 15.5q-43 0 -79 -52l-32 -229q26 -10 51 -10q54 0 80 68z" />
    <glyph glyph-name="uni01A6" unicode="&#x1a6;" horiz-adv-x="612" 
d="M572.5 273q-30.5 -55 -117.5 -101l125 -282h-216l-95 248h-42l-19 -138h-202l97 696h202l-15 -110h49q264 0 264 -181q0 -77 -30.5 -132zM246 276h53q52 0 74 32.5t22 74.5q0 62 -81 62h-44z" />
    <glyph glyph-name="uni01A7" unicode="&#x1a7;" horiz-adv-x="566" 
d="M524 667q63 -49 63 -133q0 -97 -63 -153.5t-186 -94.5q-68 -19 -97 -43.5t-29 -56.5q0 -25 17 -40t54 -15q84 0 171 66l86 -113q-53 -46 -125.5 -75t-162.5 -29q-77 0 -133 24.5t-85.5 69.5t-29.5 104q0 101 58.5 159.5t173.5 95.5q57 17 87.5 30.5t43 28t13.5 35.5
q-2 43 -61 43q-44 0 -82.5 -14t-77.5 -43l-76 109q117 94 273 94q105 0 168 -49z" />
    <glyph glyph-name="uni01A8" unicode="&#x1a8;" horiz-adv-x="477" 
d="M415 512.5q56 -41.5 56 -107.5q0 -62 -40 -109t-134 -79q-65 -22 -85 -37t-20 -34q0 -30 44 -30q35 0 72.5 15t70.5 39l79 -106q-47 -39 -114.5 -61.5t-139.5 -22.5q-98 0 -156.5 44t-58.5 117q0 65 42 111t149 81q46 15 67 25t27 17t6 16q0 26 -43 26q-26 0 -59 -10.5
t-61 -27.5l-59 107q41 32 96.5 50t112.5 18q92 0 148 -41.5z" />
    <glyph glyph-name="uni01A9" unicode="&#x1a9;" horiz-adv-x="492" 
d="M542 696l-20 -145h-258l123 -179l-9 -68l-164 -156h252l-21 -148h-473l20 144l198 199l-141 209l20 144h473z" />
    <glyph glyph-name="uni01AA" unicode="&#x1aa;" horiz-adv-x="453" 
d="M529 -183q-68 -44 -161 -44q-91 0 -142 44.5t-51 130.5q0 24 2 37l2 15l55 398q-35 -15 -71 -15q-39 0 -71.5 20t-51.5 57t-19 84q0 63 30 113.5t84 78.5t123 28q91 0 142 -48.5t51 -135.5q0 -22 -3 -46l-75 -534l-5 -35q-6 -52 43 -52q19 0 33.5 4t36.5 14zM251 519
l8 58q2 20 2 25q0 16 -6.5 23t-20.5 7q-27 0 -39 -23.5t-11 -55.5q0 -38 38 -38q16 0 29 4z" />
    <glyph glyph-name="uni01AB" unicode="&#x1ab;" horiz-adv-x="389" 
d="M329 135l44 -113l-6 -38q-17 -106 -78 -158t-162 -52q-51 0 -91 12.5t-66 33.5l77 113q19 -10 37.5 -14.5t43.5 -4.5q28 0 46.5 13.5t22.5 40.5l2 12q-79 4 -116.5 45t-37.5 119q0 29 4 54l29 202h-63l18 134h72l32 115l172 20l-19 -135h118l-38 -134h-98l-30 -217
q-1 -7 -1 -18q0 -22 9 -31t29 -9t50 10z" />
    <glyph glyph-name="uni01AC" unicode="&#x1ac;" horiz-adv-x="607" 
d="M631 542h-155l-76 -542h-202l76 542h-48q-20 0 -30 -11.5t-10 -30.5q0 -16 6 -46l-131 -50q-12 27 -18.5 51t-6.5 52q0 58 25.5 101t70.5 65.5t101 22.5h440z" />
    <glyph glyph-name="uni01AD" unicode="&#x1ad;" horiz-adv-x="389" 
d="M244 198q-2 -18 -2 -24q0 -21 8 -30t23 -9q27 0 52 14l48 -127q-34 -20 -79 -31t-83 -11q-166 1 -166 164q0 29 4 54l28 202h-62l18 134h63l4 32q13 87 72.5 142.5t157.5 55.5q79 0 138 -38l-66 -110q-29 16 -56 16q-42 0 -49 -55l-7 -43h118l-38 -134h-98z" />
    <glyph glyph-name="uni01AE" unicode="&#x1ae;" horiz-adv-x="542" 
d="M331 -30q-1 -5 -1 -13q0 -39 40 -39q19 0 33.5 4t36.5 14l48 -119q-66 -44 -159 -44q-94 0 -147.5 44t-53.5 129q0 18 3 39l2 15l76 542h-166l21 154h544l-42 -154h-155l-76 -542z" />
    <glyph glyph-name="Uhorn" unicode="&#x1af;" horiz-adv-x="737" 
d="M770.5 587q-46.5 -43 -132.5 -44l-43 -308q-10 -73 -49.5 -130.5t-107.5 -91t-160 -33.5q-126 0 -189 56t-63 154q0 23 3 47l64 459h202l-64 -455q-3 -22 -3 -40q0 -38 15.5 -55.5t50.5 -17.5q44 0 67.5 28t31.5 87l64 453h202l-8 -60q22 6 32 23.5t10 48.5q0 28 -5 51
l121 13q8 -28 8 -60q0 -82 -46.5 -125z" />
    <glyph glyph-name="uhorn" unicode="&#x1b0;" horiz-adv-x="656" 
d="M661 425q-47 -43 -132 -44l-53 -381h-169l2 67q-34 -41 -76.5 -64t-88.5 -23q-64 0 -96 35t-32 97q0 18 3 39l54 383h194l-48 -345q-2 -14 -2 -19q0 -32 25 -32q14 0 32 16t35 43l47 337h194l-8 -60q22 6 32 23.5t10 48.5q0 30 -6 51l122 13q1 -3 4.5 -19.5t3.5 -40.5
q0 -82 -47 -125z" />
    <glyph glyph-name="uni01B1" unicode="&#x1b1;" horiz-adv-x="679" 
d="M149.5 15q-63.5 35 -96.5 95t-33 136q0 100 45 180t131 129h-115l20 141h251l-18 -133q-50 -66 -77 -152t-27 -165q0 -61 21 -90.5t66 -29.5q78 0 111.5 79t33.5 188q0 61 -8.5 99t-25.5 73l18 131h251l-20 -143h-111q100 -72 100 -202q0 -108 -45.5 -192t-128.5 -131.5
t-191 -47.5q-88 0 -151.5 35z" />
    <glyph glyph-name="uni01B2" unicode="&#x1b2;" horiz-adv-x="625" 
d="M599.5 681q38.5 -35 38.5 -111q0 -29 -4 -54l-31 -231q-20 -149 -109.5 -227t-232.5 -78q-74 0 -128 25.5t-82 71t-28 104.5q0 18 3 36l68 479h202l-67 -483q-2 -18 -2 -26q0 -59 53 -59q44 0 76 36t43 116l36 259q1 4 1 10q0 22 -19 22q-9 0 -21 -3l-11 131
q48 17 101 17q75 0 113.5 -35z" />
    <glyph glyph-name="uni01B3" unicode="&#x1b3;" horiz-adv-x="641" 
d="M202 256l-157 440h217l63 -284l68 146q40 87 85.5 122.5t123.5 35.5q41 0 70.5 -9.5t56.5 -26.5l-65 -117q-19 11 -41 11q-19 0 -32 -10t-30 -39l-157 -268l-36 -257h-202z" />
    <glyph glyph-name="uni01B4" unicode="&#x1b4;" horiz-adv-x="536" 
d="M-21 -93q77 7 117.5 27.5t68.5 65.5h-68l-75 534h202l11 -413l98 315q25 80 65.5 115.5t115.5 35.5q48 0 89 -13l-45 -131q-12 4 -24 4q-15 0 -26 -9t-19 -31l-129 -370q-48 -137 -143 -199t-234 -66z" />
    <glyph glyph-name="uni01B5" unicode="&#x1b5;" horiz-adv-x="545" 
d="M582 696l-21 -153l-122 -136h58l-17 -120h-150l-113 -126h299l-42 -161h-502l20 151l124 136h-70l17 120h162l121 133h-270l21 156h485z" />
    <glyph glyph-name="uni01B6" unicode="&#x1b6;" horiz-adv-x="459" 
d="M480 534l-18 -127l-74 -76h48l-17 -106h-135l-87 -89h236l-37 -136h-432l18 128l96 97h-60l17 106h147l68 69h-212l20 134h422z" />
    <glyph glyph-name="uni01B7" unicode="&#x1b7;" horiz-adv-x="559" 
d="M543 557l-173 -151q78 -5 123 -48.5t45 -118.5q0 -80 -42 -138.5t-114 -89.5t-160 -31t-145.5 29t-96.5 82l112 97q32 -32 60.5 -46t67.5 -14q47 0 79 28t32 74q0 66 -93 66h-105l15 107l167 149h-227l20 144h454z" />
    <glyph glyph-name="uni01B8" unicode="&#x1b8;" horiz-adv-x="561" 
d="M550 552h-236l135 -152l-15 -104h-103q-53 0 -84.5 -27t-31.5 -75q0 -31 20 -48.5t54 -17.5q42 0 77.5 14.5t75.5 47.5l89 -101q-53 -53 -118 -81t-152 -28q-122 0 -189 56t-67 150q0 62 30.5 111t83.5 77t117 32l-138 151l19 139h453z" />
    <glyph glyph-name="uni01B9" unicode="&#x1b9;" horiz-adv-x="517" 
d="M510 390h-242l136 -179l-14 -102l-2 1l1 -1h-98q-56 0 -87.5 -28t-31.5 -79q0 -41 22 -61t59 -20q38 0 71 14t75 46l84 -99q-102 -109 -260 -109q-80 0 -137 27t-86 75t-29 110q0 98 65.5 160t176.5 72l-147 185l18 132h446z" />
    <glyph glyph-name="uni01BA" unicode="&#x1ba;" horiz-adv-x="524" 
d="M21 -167.5q-41 37.5 -41 88.5q0 65 51 102.5t139 56.5q66 14 92 28.5t26 37.5q0 18 -15.5 25.5t-54.5 7.5h-120l14 97l148 124h-221l19 134h446l-16 -122l-166 -127h6q75 0 116 -35t42 -97q0 -85 -58 -130t-161 -67q-71 -15 -93 -25.5t-22 -25.5q0 -9 7.5 -16t23.5 -15
l-52 -101q-69 22 -110 59.5z" />
    <glyph glyph-name="uni01BB" unicode="&#x1bb;" horiz-adv-x="518" 
d="M507.5 434q-11.5 -37 -45.5 -81h46l-17 -120h-151q-68 -54 -115 -86l258 1l-41 -148h-457l17 137q53 44 112 96h-57l17 120h169q44 45 59 74.5t15 61.5q0 27 -17 43t-46 16q-31 0 -58.5 -16t-62.5 -51l-102 98q53 57 116.5 87t143.5 30q74 0 125.5 -24.5t77 -66
t25.5 -93.5q0 -41 -11.5 -78z" />
    <glyph glyph-name="uni01BC" unicode="&#x1bc;" horiz-adv-x="549" 
d="M70 10.5q-57 30.5 -92 81.5l118 94q19 -28 50 -44t68 -16q59 0 84.5 38.5t25.5 94.5q0 38 -16.5 56.5t-45.5 18.5q-34 0 -82 -26l-127 2l54 386h442l-40 -138h-235l-16 -113q48 20 99 20q75 0 121 -50.5t46 -140.5q0 -71 -31 -138t-102.5 -111.5t-185.5 -44.5
q-78 0 -135 30.5z" />
    <glyph glyph-name="uni01BD" unicode="&#x1bd;" horiz-adv-x="487" 
d="M427 395h-188l-9 -63q29 17 80 17q64 0 105 -38.5t41 -109.5q0 -66 -36 -116t-97 -77.5t-134 -27.5q-74 0 -119 21.5t-88 66.5l110 101q27 -23 51 -35t54 -12q31 0 49 18t18 48q0 37 -37 37q-22 0 -55 -11h-125l44 320h379z" />
    <glyph glyph-name="uni01BE" unicode="&#x1be;" horiz-adv-x="503" 
d="M482 264q0 -82 -37 -146.5t-103.5 -101t-151.5 -36.5q-140 0 -228 97l106 95q26 -26 50.5 -38t55.5 -12q52 0 80.5 37.5t28.5 101.5q0 46 -23 75t-73 42l-45 9l19 133h-66l14 106h66l17 118l194 20l-19 -138h96l-14 -106h-97l-11 -78l28 -10q113 -44 113 -168z" />
    <glyph glyph-name="uni01BF" unicode="&#x1bf;" horiz-adv-x="586" 
d="M536.5 507.5q44.5 -46.5 44.5 -127.5q0 -94 -41 -161t-109 -114.5t-171 -93.5l-67 -29l-27 -189l-194 -20l106 761h173l1 -57q71 77 167 77q73 0 117.5 -46.5zM379 366q0 50 -43 50t-86 -38l-37 -259l29 22q137 98 137 225z" />
    <glyph glyph-name="uni01C0" unicode="&#x1c0;" horiz-adv-x="252" 
d="M278 761l-109 -761h-164l105 744z" />
    <glyph glyph-name="uni01C1" unicode="&#x1c1;" horiz-adv-x="474" 
d="M278 761l-109 -761h-164l105 744zM500 761l-109 -761h-164l105 744z" />
    <glyph glyph-name="uni01C2" unicode="&#x1c2;" horiz-adv-x="341" 
d="M355 391h-85l-6 -44h85l-15 -105h-85l-35 -242h-164l34 242h-86l15 105h86l6 44h-85l15 105h85l35 248l168 17l-38 -265h85z" />
    <glyph glyph-name="uni01C3" unicode="&#x1c3;" horiz-adv-x="289" 
d="M292 761l-71 -511h-165l68 494zM42 6q-25 26 -25 67q0 46 33.5 79.5t81.5 33.5q39 0 64 -25.5t25 -65.5q0 -47 -33 -81t-81 -34q-40 0 -65 26z" />
    <glyph glyph-name="uni01C4" unicode="&#x1c4;" horiz-adv-x="1164" 
d="M554 637.5q88 -58.5 88 -205.5q0 -193 -94 -312.5t-311 -119.5h-231l97 696h217q146 0 234 -58.5zM285 551l-57 -406h39q94 0 130.5 85.5t36.5 199.5q0 68 -26 94.5t-81 26.5h-42zM591 0l20 151l334 389h-250l21 156h485l-21 -153l-329 -382h284l-42 -161h-502zM1120 964
l58 -76l-161 -141h-116l-123 141l74 76l122 -86z" />
    <glyph glyph-name="uni01C5" unicode="&#x1c5;" horiz-adv-x="1094" 
d="M554 637.5q88 -58.5 88 -205.5q0 -193 -94 -312.5t-311 -119.5h-231l97 696h217q146 0 234 -58.5zM285 551l-57 -406h39q94 0 130.5 85.5t36.5 199.5q0 68 -26 94.5t-81 26.5h-42zM1116 534l-18 -137l-235 -251h206l-37 -146h-432l18 138l238 252h-182l20 144h422z
M1075 830l60 -77l-162 -151h-116l-122 151l72 77l120 -96z" />
    <glyph glyph-name="uni01C6" unicode="&#x1c6;" horiz-adv-x="1045" 
d="M611 744l-104 -744h-173l1 69q-65 -89 -157 -89q-83 0 -125 56.5t-42 160.5q0 81 28.5 164t87 138t144.5 55q35 0 64 -11.5t49 -31.5l35 253zM235.5 345q-24.5 -68 -24.5 -146q0 -45 10.5 -61t29.5 -16q39 0 90 83l26 186q-22 22 -52 22q-55 0 -79.5 -68zM1067 534
l-18 -137l-235 -251h206l-37 -146h-432l18 138l238 252h-182l20 144h422zM1026 830l60 -77l-162 -151h-116l-122 151l72 77l120 -96z" />
    <glyph glyph-name="uni01C7" unicode="&#x1c7;" horiz-adv-x="806" 
d="M305 696l-75 -538h257l-42 -158h-439l97 696h202zM743 110q-13 -91 -55.5 -150t-99.5 -92t-131 -57l-36 145q44 16 68 39t35 51.5t17 72.5l81 577h202z" />
    <glyph glyph-name="uni01C8" unicode="&#x1c8;" horiz-adv-x="773" 
d="M305 696l-75 -538h257l-42 -158h-439l97 696h202zM382 -88q60 23 90 57t39 97l65 468h194l-64 -458q-18 -130 -89.5 -198t-188.5 -105zM616.5 643q-26.5 26 -26.5 67q0 51 35.5 85t87.5 34q44 0 70.5 -26t26.5 -67q0 -51 -35.5 -85t-87.5 -34q-44 0 -70.5 26z" />
    <glyph glyph-name="uni01C9" unicode="&#x1c9;" horiz-adv-x="562" 
d="M215 167q-1 -4 -1 -10q0 -22 20 -22q6 0 20 4l18 -138q-22 -10 -53.5 -15.5t-62.5 -5.5q-67 0 -103.5 34.5t-36.5 99.5q0 19 3 38l83 592l196 20zM171 -88q60 23 90 57t39 97l65 468h194l-64 -458q-18 -130 -89.5 -198t-188.5 -105zM405.5 643q-26.5 26 -26.5 67
q0 51 35.5 85t87.5 34q44 0 70.5 -26t26.5 -67q0 -51 -35.5 -85t-87.5 -34q-44 0 -70.5 26z" />
    <glyph glyph-name="uni01CA" unicode="&#x1ca;" horiz-adv-x="957" 
d="M559 0h-254l-85 527l1 -27q4 -62 4 -101q0 -88 -14 -194l-29 -205h-176l97 696h250l89 -527q-6 92 -6 132q0 81 14 183l30 212h176zM894 110q-13 -91 -55.5 -150t-99.5 -92t-131 -57l-36 145q44 16 68 39t35 51.5t17 72.5l81 577h202z" />
    <glyph glyph-name="uni01CB" unicode="&#x1cb;" horiz-adv-x="914" 
d="M559 0h-254l-85 527l1 -27q4 -62 4 -101q0 -88 -14 -194l-29 -205h-176l97 696h250l89 -527q-6 92 -6 132q0 81 14 183l30 212h176zM523 -88q60 23 90 57t39 97l65 468h194l-64 -458q-18 -130 -89.5 -198t-188.5 -105zM757.5 643q-26.5 26 -26.5 67q0 51 35.5 85t87.5 34
q44 0 70.5 -26t26.5 -67q0 -51 -35.5 -85t-87.5 -34q-44 0 -70.5 26z" />
    <glyph glyph-name="uni01CC" unicode="&#x1cc;" horiz-adv-x="834" 
d="M513 521q31 -33 31 -93q0 -23 -2 -35l-55 -393h-194l48 341q2 18 2 23q0 29 -18 29t-39 -28.5t-48 -86.5l-40 -278h-194l74 534h169l1 -88q32 49 80 78.5t99 29.5q55 0 86 -33zM443 -88q60 23 90 57t39 97l65 468h194l-64 -458q-18 -130 -89.5 -198t-188.5 -105z
M677.5 643q-26.5 26 -26.5 67q0 51 35.5 85t87.5 34q44 0 70.5 -26t26.5 -67q0 -51 -35.5 -85t-87.5 -34q-44 0 -70.5 26z" />
    <glyph glyph-name="uni01CD" unicode="&#x1cd;" horiz-adv-x="589" 
d="M362 0l-7 135h-163l-44 -135h-211l296 696h242l101 -696h-214zM238 279h109l-16 288zM522 964l58 -76l-161 -141h-116l-123 141l74 76l122 -86z" />
    <glyph glyph-name="uni01CE" unicode="&#x1ce;" horiz-adv-x="574" 
d="M451 538.5q62 -15.5 115 -47.5l-46 -319q-2 -20 -2 -25q0 -14 5 -22.5t19 -14.5l-56 -126q-50 3 -88 25t-53 63q-29 -43 -67 -67.5t-92 -24.5q-84 0 -129.5 58t-45.5 159q0 86 32.5 167.5t104 135.5t182.5 54q59 0 121 -15.5zM237 350.5q-27 -67.5 -27 -152.5
q0 -45 11.5 -60.5t31.5 -15.5q42 0 77 60l34 230q-22 6 -42 6q-58 0 -85 -67.5zM517 830l60 -77l-162 -151h-116l-122 151l72 77l120 -96z" />
    <glyph glyph-name="uni01CF" unicode="&#x1cf;" horiz-adv-x="289" 
d="M305 696l-97 -696h-202l97 696h202zM372 964l58 -76l-161 -141h-116l-123 141l74 76l122 -86z" />
    <glyph glyph-name="uni01D0" unicode="&#x1d0;" horiz-adv-x="276" 
d="M272 534l-74 -534h-194l74 534h194zM345 830l60 -77l-162 -151h-116l-122 151l72 77l120 -96z" />
    <glyph glyph-name="uni01D1" unicode="&#x1d1;" horiz-adv-x="678" 
d="M605 640.5q71 -75.5 71 -211.5q0 -107 -36 -209t-120 -171t-219 -69q-133 0 -204.5 76t-71.5 212q0 107 36 209t120.5 170.5t218.5 68.5t205 -75.5zM291.5 515q-33.5 -55 -46 -127.5t-12.5 -136.5q0 -67 20.5 -96t63.5 -29q59 0 92.5 54.5t46 127.5t12.5 139t-20.5 94.5
t-63.5 28.5q-59 0 -92.5 -55zM567 964l58 -76l-161 -141h-116l-123 141l74 76l122 -86z" />
    <glyph glyph-name="uni01D2" unicode="&#x1d2;" horiz-adv-x="572" 
d="M75 41q-62 61 -62 170q0 87 30.5 165t100 128t179.5 50t172.5 -61.5t62.5 -167.5q0 -87 -30.5 -165t-100 -129t-180.5 -51q-110 0 -172 61zM340 190.5q20 68.5 20 147.5q0 39 -13 56.5t-40 17.5q-56 0 -76 -66.5t-20 -144.5q0 -42 12.5 -60.5t39.5 -18.5q57 0 77 68.5z
M484 830l60 -77l-162 -151h-116l-122 151l72 77l120 -96z" />
    <glyph glyph-name="uni01D3" unicode="&#x1d3;" horiz-adv-x="632" 
d="M595 235q-10 -73 -49.5 -130.5t-107.5 -91t-160 -33.5q-126 0 -189 56t-63 154q0 23 3 47l64 459h202l-64 -455q-3 -22 -3 -40q0 -38 15.5 -55.5t50.5 -17.5q44 0 67.5 28t31.5 87l64 453h202zM544 964l58 -76l-161 -141h-116l-123 141l74 76l122 -86z" />
    <glyph glyph-name="uni01D4" unicode="&#x1d4;" horiz-adv-x="554" 
d="M48 15q-32 35 -32 97q0 18 3 39l54 383h194l-48 -345q-2 -14 -2 -19q0 -32 25 -32q14 0 32 16t35 43l47 337h194l-74 -534h-169l2 67q-34 -41 -76.5 -64t-88.5 -23q-64 0 -96 35zM482 830l60 -77l-162 -151h-116l-122 151l72 77l120 -96z" />
    <glyph glyph-name="uni01D5" unicode="&#x1d5;" horiz-adv-x="632" 
d="M595 235q-10 -73 -49.5 -130.5t-107.5 -91t-160 -33.5q-126 0 -189 56t-63 154q0 23 3 47l64 459h202l-64 -455q-3 -22 -3 -40q0 -38 15.5 -55.5t50.5 -17.5q44 0 67.5 28t31.5 87l64 453h202zM200 768.5q-23 22.5 -23 58.5q0 44 31 73.5t76 29.5q39 0 62 -22.5t23 -58.5
q0 -44 -31 -73.5t-76 -29.5q-39 0 -62 22.5zM440 768.5q-23 22.5 -23 58.5q0 44 31 73.5t76 29.5q39 0 62 -22.5t23 -58.5q0 -44 -31 -73.5t-76 -29.5q-39 0 -62 22.5zM566 963h-319l19 134h319z" />
    <glyph glyph-name="uni01D6" unicode="&#x1d6;" horiz-adv-x="554" 
d="M48 15q-32 35 -32 97q0 18 3 39l54 383h194l-48 -345q-2 -14 -2 -19q0 -32 25 -32q14 0 32 16t35 43l47 337h194l-74 -534h-169l2 67q-34 -41 -76.5 -64t-88.5 -23q-64 0 -96 35zM141 611.5q-23 22.5 -23 58.5q0 44 31 73.5t76 29.5q39 0 62 -22.5t23 -58.5
q0 -44 -31 -73.5t-76 -29.5q-39 0 -62 22.5zM381 611.5q-23 22.5 -23 58.5q0 44 31 73.5t76 29.5q39 0 62 -22.5t23 -58.5q0 -44 -31 -73.5t-76 -29.5q-39 0 -62 22.5zM509 807h-319l19 134h319z" />
    <glyph glyph-name="uni01D7" unicode="&#x1d7;" horiz-adv-x="632" 
d="M595 235q-10 -73 -49.5 -130.5t-107.5 -91t-160 -33.5q-126 0 -189 56t-63 154q0 23 3 47l64 459h202l-64 -455q-3 -22 -3 -40q0 -38 15.5 -55.5t50.5 -17.5q44 0 67.5 28t31.5 87l64 453h202zM503 1146l91 -102l-189 -149l-65 65zM194 772.5q-23 22.5 -23 58.5
q0 44 31 73.5t76 29.5q39 0 62 -22.5t23 -58.5q0 -44 -31 -73.5t-76 -29.5q-39 0 -62 22.5zM454 772.5q-23 22.5 -23 58.5q0 44 31 73.5t76 29.5q39 0 62 -22.5t23 -58.5q0 -44 -31 -73.5t-76 -29.5q-39 0 -62 22.5z" />
    <glyph glyph-name="uni01D8" unicode="&#x1d8;" horiz-adv-x="554" 
d="M48 15q-32 35 -32 97q0 18 3 39l54 383h194l-48 -345q-2 -14 -2 -19q0 -32 25 -32q14 0 32 16t35 43l47 337h194l-74 -534h-169l2 67q-34 -41 -76.5 -64t-88.5 -23q-64 0 -96 35zM430 984l91 -102l-189 -149l-65 65zM118 610.5q-23 22.5 -23 58.5q0 44 31 73.5t76 29.5
q39 0 62 -22.5t23 -58.5q0 -44 -31 -73.5t-76 -29.5q-39 0 -62 22.5zM380 610.5q-23 22.5 -23 58.5q0 44 31 73.5t76 29.5q39 0 62 -22.5t23 -58.5q0 -44 -31 -73.5t-76 -29.5q-39 0 -62 22.5z" />
    <glyph glyph-name="uni01D9" unicode="&#x1d9;" horiz-adv-x="632" 
d="M595 235q-10 -73 -49.5 -130.5t-107.5 -91t-160 -33.5q-126 0 -189 56t-63 154q0 23 3 47l64 459h202l-64 -455q-3 -22 -3 -40q0 -38 15.5 -55.5t50.5 -17.5q44 0 67.5 28t31.5 87l64 453h202zM563 1146l58 -76l-161 -141h-116l-123 141l74 76l122 -86zM190 772.5
q-23 22.5 -23 58.5q0 44 31 73.5t76 29.5q39 0 62 -22.5t23 -58.5q0 -44 -31 -73.5t-76 -29.5q-39 0 -62 22.5zM450 772.5q-23 22.5 -23 58.5q0 44 31 73.5t76 29.5q39 0 62 -22.5t23 -58.5q0 -44 -31 -73.5t-76 -29.5q-39 0 -62 22.5z" />
    <glyph glyph-name="uni01DA" unicode="&#x1da;" horiz-adv-x="554" 
d="M48 15q-32 35 -32 97q0 18 3 39l54 383h194l-48 -345q-2 -14 -2 -19q0 -32 25 -32q14 0 32 16t35 43l47 337h194l-74 -534h-169l2 67q-34 -41 -76.5 -64t-88.5 -23q-64 0 -96 35zM495 984l58 -76l-161 -141h-116l-123 141l74 76l122 -86zM118 610.5q-23 22.5 -23 58.5
q0 44 31 73.5t76 29.5q39 0 62 -22.5t23 -58.5q0 -44 -31 -73.5t-76 -29.5q-39 0 -62 22.5zM380 610.5q-23 22.5 -23 58.5q0 44 31 73.5t76 29.5q39 0 62 -22.5t23 -58.5q0 -44 -31 -73.5t-76 -29.5q-39 0 -62 22.5z" />
    <glyph glyph-name="uni01DB" unicode="&#x1db;" horiz-adv-x="632" 
d="M595 235q-10 -73 -49.5 -130.5t-107.5 -91t-160 -33.5q-126 0 -189 56t-63 154q0 23 3 47l64 459h202l-64 -455q-3 -22 -3 -40q0 -38 15.5 -55.5t50.5 -17.5q44 0 67.5 28t31.5 87l64 453h202zM362 1143l112 -188l-78 -60l-148 156zM190 772.5q-23 22.5 -23 58.5
q0 44 31 73.5t76 29.5q39 0 62 -22.5t23 -58.5q0 -44 -31 -73.5t-76 -29.5q-39 0 -62 22.5zM450 772.5q-23 22.5 -23 58.5q0 44 31 73.5t76 29.5q39 0 62 -22.5t23 -58.5q0 -44 -31 -73.5t-76 -29.5q-39 0 -62 22.5z" />
    <glyph glyph-name="uni01DC" unicode="&#x1dc;" horiz-adv-x="554" 
d="M48 15q-32 35 -32 97q0 18 3 39l54 383h194l-48 -345q-2 -14 -2 -19q0 -32 25 -32q14 0 32 16t35 43l47 337h194l-74 -534h-169l2 67q-34 -41 -76.5 -64t-88.5 -23q-64 0 -96 35zM290 981l112 -188l-78 -60l-148 156zM118 610.5q-23 22.5 -23 58.5q0 44 31 73.5t76 29.5
q39 0 62 -22.5t23 -58.5q0 -44 -31 -73.5t-76 -29.5q-39 0 -62 22.5zM380 610.5q-23 22.5 -23 58.5q0 44 31 73.5t76 29.5q39 0 62 -22.5t23 -58.5q0 -44 -31 -73.5t-76 -29.5q-39 0 -62 22.5z" />
    <glyph glyph-name="uni01DD" unicode="&#x1dd;" horiz-adv-x="542" 
d="M467.5 491.5q62.5 -62.5 62.5 -168.5q0 -80 -32.5 -159t-104 -131.5t-182.5 -52.5q-101 0 -157.5 42.5t-56.5 110.5q0 101 97.5 149t241.5 61q-7 71 -81 71q-32 0 -62 -12t-70 -37l-67 113q104 76 225 76q124 0 186.5 -62.5zM293 140.5q24 35.5 35 91.5q-79 -5 -108 -33
t-29 -57q0 -37 39 -37t63 35.5z" />
    <glyph glyph-name="uni01DE" unicode="&#x1de;" horiz-adv-x="589" 
d="M362 0l-7 135h-163l-44 -135h-211l296 696h242l101 -696h-214zM238 279h109l-16 288zM178 768.5q-23 22.5 -23 58.5q0 44 31 73.5t76 29.5q39 0 62 -22.5t23 -58.5q0 -44 -31 -73.5t-76 -29.5q-39 0 -62 22.5zM418 768.5q-23 22.5 -23 58.5q0 44 31 73.5t76 29.5
q39 0 62 -22.5t23 -58.5q0 -44 -31 -73.5t-76 -29.5q-39 0 -62 22.5zM544 963h-319l19 134h319z" />
    <glyph glyph-name="uni01DF" unicode="&#x1df;" horiz-adv-x="574" 
d="M451 538.5q62 -15.5 115 -47.5l-46 -319q-2 -20 -2 -25q0 -14 5 -22.5t19 -14.5l-56 -126q-50 3 -88 25t-53 63q-29 -43 -67 -67.5t-92 -24.5q-84 0 -129.5 58t-45.5 159q0 86 32.5 167.5t104 135.5t182.5 54q59 0 121 -15.5zM237 350.5q-27 -67.5 -27 -152.5
q0 -45 11.5 -60.5t31.5 -15.5q42 0 77 60l34 230q-22 6 -42 6q-58 0 -85 -67.5zM176 611.5q-23 22.5 -23 58.5q0 44 31 73.5t76 29.5q39 0 62 -22.5t23 -58.5q0 -44 -31 -73.5t-76 -29.5q-39 0 -62 22.5zM416 611.5q-23 22.5 -23 58.5q0 44 31 73.5t76 29.5q39 0 62 -22.5
t23 -58.5q0 -44 -31 -73.5t-76 -29.5q-39 0 -62 22.5zM544 807h-319l19 134h319z" />
    <glyph glyph-name="uni01E0" unicode="&#x1e0;" horiz-adv-x="589" 
d="M362 0l-7 135h-163l-44 -135h-211l296 696h242l101 -696h-214zM238 279h109l-16 288zM287.5 759q-26.5 26 -26.5 67q0 51 35.5 85t87.5 34q44 0 70.5 -26t26.5 -67q0 -51 -35.5 -85t-87.5 -34q-44 0 -70.5 26zM553 963h-319l19 134h319z" />
    <glyph glyph-name="uni01E1" unicode="&#x1e1;" horiz-adv-x="574" 
d="M451 538.5q62 -15.5 115 -47.5l-46 -319q-2 -20 -2 -25q0 -14 5 -22.5t19 -14.5l-56 -126q-50 3 -88 25t-53 63q-29 -43 -67 -67.5t-92 -24.5q-84 0 -129.5 58t-45.5 159q0 86 32.5 167.5t104 135.5t182.5 54q59 0 121 -15.5zM237 350.5q-27 -67.5 -27 -152.5
q0 -45 11.5 -60.5t31.5 -15.5q42 0 77 60l34 230q-22 6 -42 6q-58 0 -85 -67.5zM283.5 613q-26.5 26 -26.5 67q0 51 35.5 85t87.5 34q44 0 70.5 -26t26.5 -67q0 -51 -35.5 -85t-87.5 -34q-44 0 -70.5 26zM543 825h-319l19 134h319z" />
    <glyph glyph-name="uni01E2" unicode="&#x1e2;" horiz-adv-x="847" 
d="M814 553h-243l4 -132h231l-18 -139h-209l4 -138h228l-20 -144h-390l-1 135h-185l-60 -135h-219l352 696h566zM278 279h121l-2 270zM711 774h-319l19 134h319z" />
    <glyph glyph-name="uni01E3" unicode="&#x1e3;" horiz-adv-x="843" 
d="M387.5 537.5q37.5 -16.5 64.5 -48.5q30 30 78.5 47.5t101.5 17.5q101 0 157.5 -42.5t56.5 -110.5q0 -101 -98 -149t-241 -61q3 -42 23.5 -56.5t57.5 -14.5q32 0 62 12t70 37l67 -113q-104 -76 -225 -76q-143 0 -203 85q-43 -46 -91 -65.5t-104 -19.5q-76 0 -121.5 40.5
t-45.5 106.5q0 87 65 145t223 58h46q4 14 16 40q-6 21 -28.5 31.5t-55.5 10.5q-69 0 -145 -25l-28 126q106 41 200 41q60 0 97.5 -16.5zM548.5 393q-23.5 -36 -33.5 -91q55 3 85.5 19.5t41 35.5t10.5 32q0 19 -10 29.5t-33 10.5q-37 0 -60.5 -36zM286 222q-40 0 -62.5 -16.5
t-22.5 -46.5q0 -18 9.5 -29t30.5 -11q19 0 36 10.5t42 32.5q-4 21 -4 60h-29zM634 648h-319l19 134h319z" />
    <glyph glyph-name="uni01E4" unicode="&#x1e4;" horiz-adv-x="680" 
d="M658 181h-63l-17 -123q-59 -37 -131 -57.5t-137 -20.5q-286 0 -286 279q0 115 41 219t131 171t229 67q74 0 132.5 -26t96.5 -68l-114 -103q-28 28 -55 40.5t-64 12.5q-104 0 -147 -98.5t-43 -230.5q0 -65 21.5 -91t66.5 -26q47 0 85 16l5 39h-85l14 105h85l4 34h-79v113
h282l-20 -147h62z" />
    <glyph glyph-name="uni01E5" unicode="&#x1e5;" horiz-adv-x="573" 
d="M503 9h52l-8 -63h-61q-32 -89 -97.5 -131t-174.5 -42q-57 0 -112 16.5t-103 46.5l58 114q79 -42 146 -42q70 0 96 38h-105l8 63h115l13 84q-26 -29 -62 -46t-77 -17q-85 0 -131 58t-46 147q0 71 33.5 144.5t106.5 124t183 50.5q59 0 121 -15.5t115 -47.5l-61 -433
q-3 -25 -9 -49zM302.5 189.5q22.5 15.5 40.5 42.5l28 180q-22 6 -41 6q-40 0 -66.5 -27.5t-38.5 -67.5t-12 -77q0 -72 46 -72q21 0 43.5 15.5z" />
    <glyph glyph-name="Gcaron" unicode="&#x1e6;" horiz-adv-x="640" 
d="M557.5 690q58.5 -26 96.5 -68l-110 -99q-32 26 -59.5 37.5t-63.5 11.5q-104 0 -147 -98.5t-43 -230.5q0 -65 21.5 -91t66.5 -26q37 0 75 16l18 128h-69l2 139h281l-48 -351q-59 -37 -131 -57.5t-137 -20.5q-286 0 -286 279q0 115 41 219t131 171t229 67q74 0 132.5 -26z
M576 964l58 -76l-161 -141h-116l-123 141l74 76l122 -86z" />
    <glyph glyph-name="gcaron" unicode="&#x1e7;" horiz-adv-x="575" 
d="M456 538.5q62 -15.5 115 -47.5l-61 -433q-14 -101 -48.5 -163t-96 -92t-158.5 -30q-50 0 -107 17t-103 46l63 124q79 -42 146 -42q45 0 73.5 21.5t37.5 81.5l7 42q-56 -63 -135 -63q-86 0 -131.5 57.5t-45.5 153.5q0 79 32.5 157.5t105.5 132t185 53.5q59 0 121 -15.5z
M260 385.5q-26 -32.5 -37.5 -78.5t-11.5 -89q0 -74 46 -74q41 0 80 58l32 210q-23 6 -41 6q-42 0 -68 -32.5zM506 830l60 -77l-162 -151h-116l-122 151l72 77l120 -96z" />
    <glyph glyph-name="uni01E8" unicode="&#x1e8;" horiz-adv-x="647" 
d="M6 0l97 696h202l-97 -696h-202zM402 0l-136 371l233 325h210l-238 -319l159 -377h-228zM553 964l58 -76l-161 -141h-116l-123 141l74 76l122 -86z" />
    <glyph glyph-name="uni01E9" unicode="&#x1e9;" horiz-adv-x="579" 
d="M264 478q40 40 82 58t91 18q71 0 111.5 -36t40.5 -95q0 -123 -133 -185l86 -238h-212l-78 256q78 27 109.5 59t31.5 70q0 36 -38 36q-52 0 -111 -84l-46 -337h-195l104 744l197 20zM551 1012l58 -76l-161 -141h-116l-123 141l74 76l122 -86z" />
    <glyph glyph-name="uni01EA" unicode="&#x1ea;" horiz-adv-x="678" 
d="M324 -55.5q-25 -27.5 -25 -50.5q0 -33 43 -33q27 0 62 8l-26 -115q-35 -8 -73 -8q-63 0 -103 29.5t-40 81.5q0 76 70 129q-101 19 -154 92t-53 190q0 107 36 209t120.5 170.5t218.5 68.5t205 -75.5t71 -211.5q0 -89 -25.5 -177.5t-84 -158.5t-151.5 -98
q-66 -23 -91 -50.5zM291.5 515q-33.5 -55 -46 -127.5t-12.5 -136.5q0 -67 20.5 -96t63.5 -29q59 0 92.5 54.5t46 127.5t12.5 139t-20.5 94.5t-63.5 28.5q-59 0 -92.5 -55z" />
    <glyph glyph-name="uni01EB" unicode="&#x1eb;" horiz-adv-x="572" 
d="M495.5 492.5q62.5 -61.5 62.5 -167.5q0 -113 -50.5 -206.5t-158.5 -124.5q-63 -23 -87 -50t-24 -50q0 -33 43 -33q27 0 62 8l-26 -115q-35 -8 -73 -8q-63 0 -103 29.5t-40 81.5q0 77 73 131q-77 19 -119 76.5t-42 146.5q0 87 30.5 165t100 128t179.5 50t172.5 -61.5z
M231 345.5q-20 -66.5 -20 -144.5q0 -42 12.5 -60.5t39.5 -18.5q57 0 77 68.5t20 147.5q0 39 -13 56.5t-40 17.5q-56 0 -76 -66.5z" />
    <glyph glyph-name="uni01EC" unicode="&#x1ec;" horiz-adv-x="678" 
d="M588 908l-19 -134h-319l19 134h319zM324 -55.5q-25 -27.5 -25 -50.5q0 -33 43 -33q27 0 62 8l-26 -115q-35 -8 -73 -8q-63 0 -103 29.5t-40 81.5q0 76 70 129q-101 19 -154 92t-53 190q0 107 36 209t120.5 170.5t218.5 68.5t205 -75.5t71 -211.5q0 -89 -25.5 -177.5
t-84 -158.5t-151.5 -98q-66 -23 -91 -50.5zM291.5 515q-33.5 -55 -46 -127.5t-12.5 -136.5q0 -67 20.5 -96t63.5 -29q59 0 92.5 54.5t46 127.5t12.5 139t-20.5 94.5t-63.5 28.5q-59 0 -92.5 -55z" />
    <glyph glyph-name="uni01ED" unicode="&#x1ed;" horiz-adv-x="572" 
d="M508 782l-19 -134h-319l19 134h319zM495.5 492.5q62.5 -61.5 62.5 -167.5q0 -113 -50.5 -206.5t-158.5 -124.5q-63 -23 -87 -50t-24 -50q0 -33 43 -33q27 0 62 8l-26 -115q-35 -8 -73 -8q-63 0 -103 29.5t-40 81.5q0 77 73 131q-77 19 -119 76.5t-42 146.5q0 87 30.5 165
t100 128t179.5 50t172.5 -61.5zM231 345.5q-20 -66.5 -20 -144.5q0 -42 12.5 -60.5t39.5 -18.5q57 0 77 68.5t20 147.5q0 39 -13 56.5t-40 17.5q-56 0 -76 -66.5z" />
    <glyph glyph-name="uni01EE" unicode="&#x1ee;" horiz-adv-x="559" 
d="M543 557l-173 -151q78 -5 123 -48.5t45 -118.5q0 -80 -42 -138.5t-114 -89.5t-160 -31t-145.5 29t-96.5 82l112 97q32 -32 60.5 -46t67.5 -14q47 0 79 28t32 74q0 66 -93 66h-105l15 107l167 149h-227l20 144h454zM503 964l58 -76l-161 -141h-116l-123 141l74 76l122 -86
z" />
    <glyph glyph-name="uni01EF" unicode="&#x1ef;" horiz-adv-x="515" 
d="M489 402l-187 -187q81 -9 126 -52t45 -118q0 -81 -41 -142.5t-112.5 -95.5t-161.5 -34q-81 0 -138.5 29.5t-93.5 81.5l112 97q31 -32 59.5 -46t64.5 -14q51 0 82 32t31 90q0 36 -23.5 51t-69.5 15h-100l14 107l169 174h-225l20 144h446zM453 830l60 -77l-162 -151h-116
l-122 151l72 77l120 -96z" />
    <glyph glyph-name="uni01F0" unicode="&#x1f0;" horiz-adv-x="274" 
d="M-117 -88q60 23 90 57t39 97l65 468h194l-64 -458q-18 -130 -89.5 -198t-188.5 -105zM344 830l60 -77l-162 -151h-116l-122 151l72 77l120 -96z" />
    <glyph glyph-name="uni01F1" unicode="&#x1f1;" horiz-adv-x="1164" 
d="M554 637.5q88 -58.5 88 -205.5q0 -193 -94 -312.5t-311 -119.5h-231l97 696h217q146 0 234 -58.5zM285 551l-57 -406h39q94 0 130.5 85.5t36.5 199.5q0 68 -26 94.5t-81 26.5h-42zM591 0l20 151l334 389h-250l21 156h485l-21 -153l-329 -382h284l-42 -161h-502z" />
    <glyph glyph-name="uni01F2" unicode="&#x1f2;" horiz-adv-x="1094" 
d="M554 637.5q88 -58.5 88 -205.5q0 -193 -94 -312.5t-311 -119.5h-231l97 696h217q146 0 234 -58.5zM285 551l-57 -406h39q94 0 130.5 85.5t36.5 199.5q0 68 -26 94.5t-81 26.5h-42zM1116 534l-18 -137l-235 -251h206l-37 -146h-432l18 138l238 252h-182l20 144h422z" />
    <glyph glyph-name="uni01F3" unicode="&#x1f3;" horiz-adv-x="1045" 
d="M611 744l-104 -744h-173l1 69q-65 -89 -157 -89q-83 0 -125 56.5t-42 160.5q0 81 28.5 164t87 138t144.5 55q35 0 64 -11.5t49 -31.5l35 253zM235.5 345q-24.5 -68 -24.5 -146q0 -45 10.5 -61t29.5 -16q39 0 90 83l26 186q-22 22 -52 22q-55 0 -79.5 -68zM1067 534
l-18 -137l-235 -251h206l-37 -146h-432l18 138l238 252h-182l20 144h422z" />
    <glyph glyph-name="uni01F4" unicode="&#x1f4;" horiz-adv-x="640" 
d="M557.5 690q58.5 -26 96.5 -68l-110 -99q-32 26 -59.5 37.5t-63.5 11.5q-104 0 -147 -98.5t-43 -230.5q0 -65 21.5 -91t66.5 -26q37 0 75 16l18 128h-69l2 139h281l-48 -351q-59 -37 -131 -57.5t-137 -20.5q-286 0 -286 279q0 115 41 219t131 171t229 67q74 0 132.5 -26z
M534 975l60 -144l-260 -89l-42 96z" />
    <glyph glyph-name="uni01F5" unicode="&#x1f5;" horiz-adv-x="575" 
d="M456 538.5q62 -15.5 115 -47.5l-61 -433q-14 -101 -48.5 -163t-96 -92t-158.5 -30q-50 0 -107 17t-103 46l63 124q79 -42 146 -42q45 0 73.5 21.5t37.5 81.5l7 42q-56 -63 -135 -63q-86 0 -131.5 57.5t-45.5 153.5q0 79 32.5 157.5t105.5 132t185 53.5q59 0 121 -15.5z
M260 385.5q-26 -32.5 -37.5 -78.5t-11.5 -89q0 -74 46 -74q41 0 80 58l32 210q-23 6 -41 6q-42 0 -68 -32.5zM453 856l60 -144l-260 -99l-44 99z" />
    <glyph glyph-name="uni01F6" unicode="&#x1f6;" horiz-adv-x="920" 
d="M441 29q-55 49 -55 126q0 9 2 27l13 99h-154l-39 -281h-202l97 696h202l-36 -257h155l36 257h202l-71 -506q-2 -18 -2 -27q0 -41 31 -41q57 0 78.5 106.5t21.5 227.5q0 43 -4 78h183q8 -48 8 -108q0 -141 -25 -237.5t-92.5 -152.5t-190.5 -56q-103 0 -158 49z" />
    <glyph glyph-name="uni01F7" unicode="&#x1f7;" horiz-adv-x="600" 
d="M578 670q46 -46 46 -124q0 -86 -40.5 -146t-108.5 -99.5t-167 -73.5l-72 -25l-28 -202h-202l97 696h202l-5 -36q31 27 72 41.5t86 14.5q74 0 120 -46zM414 520q0 26 -13.5 39.5t-36.5 13.5q-41 0 -80 -29l-29 -204l17 8q142 70 142 172z" />
    <glyph glyph-name="uni01F8" unicode="&#x1f8;" horiz-adv-x="640" 
d="M559 0h-254l-85 527l1 -27q4 -62 4 -101q0 -88 -14 -194l-29 -205h-176l97 696h250l89 -527q-6 92 -6 132q0 81 14 183l30 212h176zM344 974l208 -136l-49 -94l-239 86z" />
    <glyph glyph-name="uni01F9" unicode="&#x1f9;" 
d="M513 521q31 -33 31 -93q0 -23 -2 -35l-55 -393h-194l48 341q2 18 2 23q0 29 -18 29t-39 -28.5t-48 -86.5l-40 -278h-194l74 534h169l1 -88q32 49 80 78.5t99 29.5q55 0 86 -33zM292 856l212 -147l-53 -93l-239 96z" />
    <glyph glyph-name="Aringacute" unicode="&#x1fa;" horiz-adv-x="589" 
d="M362 0l-7 135h-163l-44 -135h-211l296 696h242l101 -696h-214zM238 279h109l-16 288zM490 980.5q35 -36.5 35 -95.5q0 -42 -21 -79t-60.5 -59.5t-90.5 -22.5q-63 0 -98 36.5t-35 95.5q0 41 21.5 78t60.5 60t89 23q64 0 99 -36.5zM343 901q-14 -18 -14 -40q0 -19 9 -28
t25 -9q24 0 38 16.5t14 39.5q0 19 -9 29t-25 10q-24 0 -38 -18zM482 1246l60 -144l-260 -89l-42 96z" />
    <glyph glyph-name="aringacute" unicode="&#x1fb;" horiz-adv-x="574" 
d="M451 538.5q62 -15.5 115 -47.5l-46 -319q-2 -20 -2 -25q0 -14 5 -22.5t19 -14.5l-56 -126q-50 3 -88 25t-53 63q-29 -43 -67 -67.5t-92 -24.5q-84 0 -129.5 58t-45.5 159q0 86 32.5 167.5t104 135.5t182.5 54q59 0 121 -15.5zM237 350.5q-27 -67.5 -27 -152.5
q0 -45 11.5 -60.5t31.5 -15.5q42 0 77 60l34 230q-22 6 -42 6q-58 0 -85 -67.5zM489 829.5q35 -36.5 35 -95.5q0 -42 -21 -79t-60.5 -59.5t-90.5 -22.5q-63 0 -98 36.5t-35 95.5q0 41 21.5 78t60.5 60t89 23q64 0 99 -36.5zM342 750q-14 -18 -14 -40q0 -19 9 -28t25 -9
q24 0 38 16.5t14 39.5q0 19 -9 29t-25 10q-24 0 -38 -18zM485 1095l60 -144l-260 -89l-42 96z" />
    <glyph glyph-name="AEacute" unicode="&#x1fc;" horiz-adv-x="847" 
d="M814 553h-243l4 -132h231l-18 -139h-209l4 -138h228l-20 -144h-390l-1 135h-185l-60 -135h-219l352 696h566zM278 279h121l-2 270zM667 975l60 -144l-260 -89l-42 96z" />
    <glyph glyph-name="aeacute" unicode="&#x1fd;" horiz-adv-x="843" 
d="M387.5 537.5q37.5 -16.5 64.5 -48.5q30 30 78.5 47.5t101.5 17.5q101 0 157.5 -42.5t56.5 -110.5q0 -101 -98 -149t-241 -61q3 -42 23.5 -56.5t57.5 -14.5q32 0 62 12t70 37l67 -113q-104 -76 -225 -76q-143 0 -203 85q-43 -46 -91 -65.5t-104 -19.5q-76 0 -121.5 40.5
t-45.5 106.5q0 87 65 145t223 58h46q4 14 16 40q-6 21 -28.5 31.5t-55.5 10.5q-69 0 -145 -25l-28 126q106 41 200 41q60 0 97.5 -16.5zM548.5 393q-23.5 -36 -33.5 -91q55 3 85.5 19.5t41 35.5t10.5 32q0 19 -10 29.5t-33 10.5q-37 0 -60.5 -36zM286 222q-40 0 -62.5 -16.5
t-22.5 -46.5q0 -18 9.5 -29t30.5 -11q19 0 36 10.5t42 32.5q-4 21 -4 60h-29zM576 856l60 -144l-260 -99l-44 99z" />
    <glyph glyph-name="Oslashacute" unicode="&#x1fe;" horiz-adv-x="678" 
d="M651 569q25 -60 25 -140q0 -107 -36 -209t-120 -171t-219 -69q-14 0 -40 2l-53 -121l-143 40l59 130q-49 37 -74 97t-25 140q0 107 36 209t120.5 170.5t218.5 68.5q14 0 38 -2l55 119l142 -40l-58 -127q49 -37 74 -97zM290 514.5q-35 -55.5 -48.5 -129.5t-13.5 -139
q0 -39 4 -59l166 383h-14q-59 0 -94 -55.5zM410.5 181q34.5 55 48 129.5t13.5 141.5q0 32 -3 54l-164 -380h12q59 0 93.5 55zM530 1020l60 -144l-260 -89l-42 96z" />
    <glyph glyph-name="oslashacute" unicode="&#x1ff;" horiz-adv-x="572" 
d="M536.5 429.5q21.5 -46.5 21.5 -102.5q0 -88 -30.5 -166.5t-100 -129.5t-180.5 -51q-16 0 -24 1l-51 -119l-132 41l56 124q-40 31 -61.5 78.5t-21.5 105.5q0 87 30.5 165t100 128t179.5 50q17 0 25 -1l54 120l133 -41l-60 -126q40 -30 61.5 -76.5zM238 376.5
q-27 -35.5 -38 -83t-11 -87.5q0 -24 5 -44l116 250q-45 0 -72 -35.5zM332.5 157.5q26.5 35.5 37.5 82t11 84.5q0 23 -5 41l-113 -243q43 0 69.5 35.5zM439 866l60 -144l-260 -99l-44 99z" />
    <glyph glyph-name="uni0200" unicode="&#x200;" horiz-adv-x="589" 
d="M362 0l-7 135h-163l-44 -135h-211l296 696h242l101 -696h-214zM238 279h109l-16 288zM261 1003l73 -211l-101 -46l-101 196zM447 1003l64 -214l-100 -39l-94 197z" />
    <glyph glyph-name="uni0201" unicode="&#x201;" horiz-adv-x="574" 
d="M451 538.5q62 -15.5 115 -47.5l-46 -319q-2 -20 -2 -25q0 -14 5 -22.5t19 -14.5l-56 -126q-50 3 -88 25t-53 63q-29 -43 -67 -67.5t-92 -24.5q-84 0 -129.5 58t-45.5 159q0 86 32.5 167.5t104 135.5t182.5 54q59 0 121 -15.5zM237 350.5q-27 -67.5 -27 -152.5
q0 -45 11.5 -60.5t31.5 -15.5q42 0 77 60l34 230q-22 6 -42 6q-58 0 -85 -67.5zM262 877l73 -211l-101 -46l-101 196zM448 877l64 -214l-100 -39l-94 197z" />
    <glyph glyph-name="uni0202" unicode="&#x202;" horiz-adv-x="589" 
d="M362 0l-7 135h-163l-44 -135h-211l296 696h242l101 -696h-214zM238 279h109l-16 288zM181 774q18 83 72.5 139t138.5 56q85 0 124.5 -56.5t34.5 -140.5l-105 -15q-3 37 -20 57.5t-49 20.5q-33 0 -57 -21.5t-38 -58.5z" />
    <glyph glyph-name="uni0203" unicode="&#x203;" horiz-adv-x="574" 
d="M451 538.5q62 -15.5 115 -47.5l-46 -319q-2 -20 -2 -25q0 -14 5 -22.5t19 -14.5l-56 -126q-50 3 -88 25t-53 63q-29 -43 -67 -67.5t-92 -24.5q-84 0 -129.5 58t-45.5 159q0 86 32.5 167.5t104 135.5t182.5 54q59 0 121 -15.5zM237 350.5q-27 -67.5 -27 -152.5
q0 -45 11.5 -60.5t31.5 -15.5q42 0 77 60l34 230q-22 6 -42 6q-58 0 -85 -67.5zM174 612q18 83 72.5 139t138.5 56q85 0 124.5 -56.5t34.5 -140.5l-105 -15q-3 37 -20 57.5t-49 20.5q-33 0 -57 -21.5t-38 -58.5z" />
    <glyph glyph-name="uni0204" unicode="&#x204;" horiz-adv-x="510" 
d="M552 696l-41 -143h-226l-18 -130h197l-18 -139h-198l-20 -140h242l-20 -144h-444l97 696h449zM235 1003l73 -211l-101 -46l-101 196zM421 1003l64 -214l-100 -39l-94 197z" />
    <glyph glyph-name="uni0205" unicode="&#x205;" horiz-adv-x="542" 
d="M447.5 252q-97.5 -48 -241.5 -61q7 -71 81 -71q32 0 62 12t70 37l67 -113q-104 -76 -225 -76q-124 0 -186.5 62.5t-62.5 168.5q0 80 32.5 159t104 131.5t182.5 52.5q101 0 157.5 -42.5t56.5 -110.5q0 -101 -97.5 -149zM322 335q29 28 29 57q0 37 -39 37t-63 -35.5
t-35 -91.5q79 5 108 33zM231 877l73 -211l-101 -46l-101 196zM417 877l64 -214l-100 -39l-94 197z" />
    <glyph glyph-name="uni0206" unicode="&#x206;" horiz-adv-x="510" 
d="M552 696l-41 -143h-226l-18 -130h197l-18 -139h-198l-20 -140h242l-20 -144h-444l97 696h449zM155 774q18 83 72.5 139t138.5 56q85 0 124.5 -56.5t34.5 -140.5l-105 -15q-3 37 -20 57.5t-49 20.5q-33 0 -57 -21.5t-38 -58.5z" />
    <glyph glyph-name="uni0207" unicode="&#x207;" horiz-adv-x="542" 
d="M447.5 252q-97.5 -48 -241.5 -61q7 -71 81 -71q32 0 62 12t70 37l67 -113q-104 -76 -225 -76q-124 0 -186.5 62.5t-62.5 168.5q0 80 32.5 159t104 131.5t182.5 52.5q101 0 157.5 -42.5t56.5 -110.5q0 -101 -97.5 -149zM322 335q29 28 29 57q0 37 -39 37t-63 -35.5
t-35 -91.5q79 5 108 33zM143 612q18 83 72.5 139t138.5 56q85 0 124.5 -56.5t34.5 -140.5l-105 -15q-3 37 -20 57.5t-49 20.5q-33 0 -57 -21.5t-38 -58.5z" />
    <glyph glyph-name="uni0208" unicode="&#x208;" horiz-adv-x="289" 
d="M305 696l-97 -696h-202l97 696h202zM111 1003l73 -211l-101 -46l-101 196zM297 1003l64 -214l-100 -39l-94 197z" />
    <glyph glyph-name="uni0209" unicode="&#x209;" horiz-adv-x="276" 
d="M272 534l-74 -534h-194l74 534h194zM90 877l73 -211l-101 -46l-101 196zM276 877l64 -214l-100 -39l-94 197z" />
    <glyph glyph-name="uni020A" unicode="&#x20a;" horiz-adv-x="289" 
d="M305 696l-97 -696h-202l97 696h202zM31 774q18 83 72.5 139t138.5 56q85 0 124.5 -56.5t34.5 -140.5l-105 -15q-3 37 -20 57.5t-49 20.5q-33 0 -57 -21.5t-38 -58.5z" />
    <glyph glyph-name="uni020B" unicode="&#x20b;" horiz-adv-x="276" 
d="M272 534l-74 -534h-194l74 534h194zM2 612q18 83 72.5 139t138.5 56q85 0 124.5 -56.5t34.5 -140.5l-105 -15q-3 37 -20 57.5t-49 20.5q-33 0 -57 -21.5t-38 -58.5z" />
    <glyph glyph-name="uni020C" unicode="&#x20c;" horiz-adv-x="678" 
d="M605 640.5q71 -75.5 71 -211.5q0 -107 -36 -209t-120 -171t-219 -69q-133 0 -204.5 76t-71.5 212q0 107 36 209t120.5 170.5t218.5 68.5t205 -75.5zM291.5 515q-33.5 -55 -46 -127.5t-12.5 -136.5q0 -67 20.5 -96t63.5 -29q59 0 92.5 54.5t46 127.5t12.5 139t-20.5 94.5
t-63.5 28.5q-59 0 -92.5 -55zM306 1003l73 -211l-101 -46l-101 196zM492 1003l64 -214l-100 -39l-94 197z" />
    <glyph glyph-name="uni020D" unicode="&#x20d;" horiz-adv-x="572" 
d="M75 41q-62 61 -62 170q0 87 30.5 165t100 128t179.5 50t172.5 -61.5t62.5 -167.5q0 -87 -30.5 -165t-100 -129t-180.5 -51q-110 0 -172 61zM340 190.5q20 68.5 20 147.5q0 39 -13 56.5t-40 17.5q-56 0 -76 -66.5t-20 -144.5q0 -42 12.5 -60.5t39.5 -18.5q57 0 77 68.5z
M229 877l73 -211l-101 -46l-101 196zM415 877l64 -214l-100 -39l-94 197z" />
    <glyph glyph-name="uni020E" unicode="&#x20e;" horiz-adv-x="678" 
d="M605 640.5q71 -75.5 71 -211.5q0 -107 -36 -209t-120 -171t-219 -69q-133 0 -204.5 76t-71.5 212q0 107 36 209t120.5 170.5t218.5 68.5t205 -75.5zM291.5 515q-33.5 -55 -46 -127.5t-12.5 -136.5q0 -67 20.5 -96t63.5 -29q59 0 92.5 54.5t46 127.5t12.5 139t-20.5 94.5
t-63.5 28.5q-59 0 -92.5 -55zM226 774q18 83 72.5 139t138.5 56q85 0 124.5 -56.5t34.5 -140.5l-105 -15q-3 37 -20 57.5t-49 20.5q-33 0 -57 -21.5t-38 -58.5z" />
    <glyph glyph-name="uni020F" unicode="&#x20f;" horiz-adv-x="572" 
d="M75 41q-62 61 -62 170q0 87 30.5 165t100 128t179.5 50t172.5 -61.5t62.5 -167.5q0 -87 -30.5 -165t-100 -129t-180.5 -51q-110 0 -172 61zM340 190.5q20 68.5 20 147.5q0 39 -13 56.5t-40 17.5q-56 0 -76 -66.5t-20 -144.5q0 -42 12.5 -60.5t39.5 -18.5q57 0 77 68.5z
M141 612q18 83 72.5 139t138.5 56q85 0 124.5 -56.5t34.5 -140.5l-105 -15q-3 37 -20 57.5t-49 20.5q-33 0 -57 -21.5t-38 -58.5z" />
    <glyph glyph-name="uni0210" unicode="&#x210;" horiz-adv-x="612" 
d="M587.5 378.5q-30.5 -53.5 -117.5 -97.5l125 -281h-220l-92 248h-41l-34 -248h-202l97 696h251q128 0 196 -52t68 -140q0 -72 -30.5 -125.5zM262 386h52q49 0 72.5 31t23.5 74q0 64 -81 64h-44zM274 1003l73 -211l-101 -46l-101 196zM460 1003l64 -214l-100 -39l-94 197z
" />
    <glyph glyph-name="uni0211" unicode="&#x211;" horiz-adv-x="399" 
d="M449 542l-55 -191q-27 8 -46 8q-44 0 -70 -35t-48 -99l-32 -225h-194l74 534h169l1 -95q26 54 65 83t83 29q28 0 53 -9zM178 877l73 -211l-101 -46l-101 196zM364 877l64 -214l-100 -39l-94 197z" />
    <glyph glyph-name="uni0212" unicode="&#x212;" horiz-adv-x="612" 
d="M587.5 378.5q-30.5 -53.5 -117.5 -97.5l125 -281h-220l-92 248h-41l-34 -248h-202l97 696h251q128 0 196 -52t68 -140q0 -72 -30.5 -125.5zM262 386h52q49 0 72.5 31t23.5 74q0 64 -81 64h-44zM194 774q18 83 72.5 139t138.5 56q85 0 124.5 -56.5t34.5 -140.5l-105 -15
q-3 37 -20 57.5t-49 20.5q-33 0 -57 -21.5t-38 -58.5z" />
    <glyph glyph-name="uni0213" unicode="&#x213;" horiz-adv-x="399" 
d="M449 542l-55 -191q-27 8 -46 8q-44 0 -70 -35t-48 -99l-32 -225h-194l74 534h169l1 -95q26 54 65 83t83 29q28 0 53 -9zM90 612q18 83 72.5 139t138.5 56q85 0 124.5 -56.5t34.5 -140.5l-105 -15q-3 37 -20 57.5t-49 20.5q-33 0 -57 -21.5t-38 -58.5z" />
    <glyph glyph-name="uni0214" unicode="&#x214;" horiz-adv-x="632" 
d="M595 235q-10 -73 -49.5 -130.5t-107.5 -91t-160 -33.5q-126 0 -189 56t-63 154q0 23 3 47l64 459h202l-64 -455q-3 -22 -3 -40q0 -38 15.5 -55.5t50.5 -17.5q44 0 67.5 28t31.5 87l64 453h202zM283 1003l73 -211l-101 -46l-101 196zM469 1003l64 -214l-100 -39l-94 197z
" />
    <glyph glyph-name="uni0215" unicode="&#x215;" horiz-adv-x="554" 
d="M48 15q-32 35 -32 97q0 18 3 39l54 383h194l-48 -345q-2 -14 -2 -19q0 -32 25 -32q14 0 32 16t35 43l47 337h194l-74 -534h-169l2 67q-34 -41 -76.5 -64t-88.5 -23q-64 0 -96 35zM227 877l73 -211l-101 -46l-101 196zM413 877l64 -214l-100 -39l-94 197z" />
    <glyph glyph-name="uni0216" unicode="&#x216;" horiz-adv-x="632" 
d="M595 235q-10 -73 -49.5 -130.5t-107.5 -91t-160 -33.5q-126 0 -189 56t-63 154q0 23 3 47l64 459h202l-64 -455q-3 -22 -3 -40q0 -38 15.5 -55.5t50.5 -17.5q44 0 67.5 28t31.5 87l64 453h202zM203 774q18 83 72.5 139t138.5 56q85 0 124.5 -56.5t34.5 -140.5l-105 -15
q-3 37 -20 57.5t-49 20.5q-33 0 -57 -21.5t-38 -58.5z" />
    <glyph glyph-name="uni0217" unicode="&#x217;" horiz-adv-x="554" 
d="M48 15q-32 35 -32 97q0 18 3 39l54 383h194l-48 -345q-2 -14 -2 -19q0 -32 25 -32q14 0 32 16t35 43l47 337h194l-74 -534h-169l2 67q-34 -41 -76.5 -64t-88.5 -23q-64 0 -96 35zM139 612q18 83 72.5 139t138.5 56q85 0 124.5 -56.5t34.5 -140.5l-105 -15q-3 37 -20 57.5
t-49 20.5q-33 0 -57 -21.5t-38 -58.5z" />
    <glyph glyph-name="Scommaaccent" unicode="&#x218;" horiz-adv-x="576" 
d="M594 620l-102 -105q-61 55 -138 55q-40 0 -61.5 -15.5t-21.5 -40.5q0 -17 9.5 -28t32 -21t67.5 -25q91 -31 133.5 -79.5t42.5 -122.5q0 -66 -31 -124.5t-101 -96t-180 -37.5q-89 0 -156 29.5t-113 76.5l113 115q67 -67 161 -67q45 0 69 17t24 49q0 28 -21.5 47t-76.5 38
q-100 33 -143 82.5t-43 118.5q0 61 31 113t96 84.5t161 32.5q154 0 248 -96zM304 -84q24 -22 24 -58q0 -26 -9 -47.5t-30 -54.5l-63 -98h-92l44 116q-32 22 -32 61q0 46 28 74.5t69 28.5q37 0 61 -22z" />
    <glyph glyph-name="scommaaccent" unicode="&#x219;" horiz-adv-x="481" 
d="M389 535q54 -19 93 -51l-83 -104q-28 17 -60.5 27t-61.5 10q-50 0 -50 -27q0 -10 7 -16t31 -15.5t62 -21.5q132 -44 132 -163q0 -49 -23 -92.5t-79 -72.5t-148 -29q-71 0 -135 26t-101 68l94 99q63 -56 142 -56q59 0 59 33q0 12 -7.5 19t-26 15t-67.5 25q-67 24 -99.5 62
t-32.5 99q0 52 28.5 94t83 66t128.5 24q60 0 114 -19zM248 -84q24 -22 24 -58q0 -26 -9 -47.5t-30 -54.5l-63 -98h-92l44 116q-32 22 -32 61q0 46 28 74.5t69 28.5q37 0 61 -22z" />
    <glyph glyph-name="uni021A" unicode="&#x21a;" horiz-adv-x="542" 
d="M608 696l-42 -154h-155l-76 -542h-202l76 542h-166l21 154h544zM288 -84q24 -22 24 -58q0 -26 -9 -47.5t-30 -54.5l-63 -98h-92l44 116q-32 22 -32 61q0 46 28 74.5t69 28.5q37 0 61 -22z" />
    <glyph glyph-name="uni021B" unicode="&#x21b;" horiz-adv-x="389" 
d="M325 148l48 -126q-34 -20 -79 -31t-83 -11q-81 0 -123.5 43t-42.5 125q0 14 4 50l29 202h-63l18 134h72l32 115l172 20l-19 -135h120l-40 -134h-98l-28 -202q-2 -18 -2 -24q0 -21 8 -30t24 -9q22 0 51 13zM245 -84q24 -22 24 -58q0 -26 -9 -47.5t-30 -54.5l-63 -98h-92
l44 116q-32 22 -32 61q0 46 28 74.5t69 28.5q37 0 61 -22z" />
    <glyph glyph-name="uni021C" unicode="&#x21c;" horiz-adv-x="520" 
d="M417 693.5q51 -22.5 78 -63t27 -93.5q0 -139 -185 -180q78 -2 120 -38t42 -103q0 -129 -136 -213.5t-346 -122.5l4 144q134 38 201 81.5t67 115.5q0 35 -22 49.5t-71 14.5h-76l40 141h57q48 0 73 24t25 66q0 56 -62 56q-63 0 -132 -51l-81 100q112 95 257 95
q69 0 120 -22.5z" />
    <glyph glyph-name="uni021D" unicode="&#x21d;" horiz-adv-x="482" 
d="M406 516q55 -38 55 -106q0 -53 -37.5 -87t-101.5 -49q62 0 96 -26.5t34 -73.5q0 -102 -112 -174.5t-327 -112.5v129q117 35 178 73.5t61 82.5q0 16 -10 23t-29 7h-97l28 120h55q30 0 47 15.5t17 45.5q0 39 -46 39q-26 0 -50.5 -8t-56.5 -24l-73 102q52 32 105 47t115 15
q94 0 149 -38z" />
    <glyph glyph-name="uni021E" unicode="&#x21e;" horiz-adv-x="645" 
d="M207 0h-202l98 696h202l-36 -257h154l36 257h202l-97 -696h-202l38 281h-153zM550 964l58 -76l-161 -141h-116l-123 141l74 76l122 -86z" />
    <glyph glyph-name="uni021F" unicode="&#x21f;" horiz-adv-x="559" 
d="M512 521q31 -33 31 -93q0 -23 -2 -35l-55 -393h-194l48 341q2 18 2 23q0 29 -18 29q-34 0 -88 -115l-39 -278h-194l104 744l196 20l-43 -313q26 46 71.5 74.5t94.5 28.5q55 0 86 -33zM514 1012l58 -76l-161 -141h-116l-123 141l74 76l122 -86z" />
    <glyph glyph-name="uni0220" unicode="&#x220;" horiz-adv-x="631" 
d="M589.5 674.5q40.5 -41.5 40.5 -113.5q0 -16 -3 -36l-101 -740h-202l99 721q1 7 1 18q0 43 -39 43q-26 0 -49.5 -12.5t-56.5 -40.5l-72 -514h-201l97 696h177l6 -54q45 39 88.5 56.5t97.5 17.5q77 0 117.5 -41.5z" />
    <glyph glyph-name="uni0221" unicode="&#x221;" horiz-adv-x="809" 
d="M758.5 229.5q32.5 -28.5 32.5 -77.5q0 -81 -61 -126.5t-155 -45.5q-27 0 -50 3l-43 -73l-80 34l39 65q-57 30 -85 84q-38 -54 -81 -83.5t-97 -29.5q-84 0 -125.5 56t-41.5 161q0 83 27 165t87.5 137t153.5 55q30 0 57.5 -11.5t47.5 -31.5l35 253l192 -20l-76 -542
q-3 -26 -2 -40l1 1q28 51 60.5 73t80.5 22q51 0 83.5 -28.5zM367 389q-11 13 -23 18.5t-29 5.5q-55 0 -79.5 -68t-24.5 -146q0 -45 11 -61t30 -16q39 0 89 84zM653 123.5q14 8.5 14 24.5q0 15 -18 15q-13 0 -24 -10.5t-27 -37.5h17q24 0 38 8.5z" />
    <glyph glyph-name="uni0222" unicode="&#x222;" horiz-adv-x="636" 
d="M508 400q105 -44 105 -151q0 -79 -42.5 -140t-117.5 -95t-170 -34q-84 0 -145.5 28.5t-94 77t-32.5 109.5q0 75 41 126.5t114 78.5q-72 40 -72 126q0 16 1 25l20 145h202l-23 -161q-2 -16 -2 -23q0 -25 12.5 -37.5t40.5 -12.5q35 0 52 19.5t21 55.5l23 159h202l-20 -147
q-15 -100 -115 -149zM374.5 159.5q28.5 33.5 28.5 87.5q0 35 -19.5 56t-55.5 21q-47 0 -76.5 -35t-29.5 -89q0 -34 19.5 -54t55.5 -20q49 0 77.5 33.5z" />
    <glyph glyph-name="uni0223" unicode="&#x223;" horiz-adv-x="567" 
d="M455 420q92 -40 92 -149q0 -84 -38.5 -150.5t-107.5 -103.5t-156 -37q-115 0 -175.5 57t-60.5 154q0 82 37.5 139.5t107.5 86.5q-61 35 -61 112q0 21 2 32l26 183h191l-31 -225q-1 -5 -1 -15q0 -32 31 -32q20 0 30.5 11.5t14.5 37.5l32 223h191l-26 -185
q-14 -95 -98 -139zM328.5 166.5q21.5 45.5 21.5 108.5q0 37 -12.5 55.5t-39.5 18.5q-47 0 -69.5 -48t-22.5 -110q0 -70 53 -70q48 0 69.5 45.5z" />
    <glyph glyph-name="uni0224" unicode="&#x224;" horiz-adv-x="536" 
d="M561 543l-324 -382h269l-24 -161l-4 -26q-17 -99 -80 -150t-162 -51q-93 0 -150 46l76 114q17 -10 32 -14.5t33 -4.5q50 0 59 58l4 28h-318l20 151l334 389h-250l21 156h485z" />
    <glyph glyph-name="uni0225" unicode="&#x225;" horiz-adv-x="454" 
d="M464 397l-235 -251h195l-19 -146l-3 -22q-14 -103 -75.5 -154t-161.5 -51q-93 0 -150 46l77 113q20 -10 33 -14.5t31 -4.5q25 0 40.5 14t19.5 40l5 33h-255l18 138l238 252h-182l20 144h422z" />
    <glyph glyph-name="uni0226" unicode="&#x226;" horiz-adv-x="589" 
d="M362 0l-7 135h-163l-44 -135h-211l296 696h242l101 -696h-214zM238 279h109l-16 288zM295.5 769q-26.5 26 -26.5 67q0 51 35.5 85t87.5 34q44 0 70.5 -26t26.5 -67q0 -51 -35.5 -85t-87.5 -34q-44 0 -70.5 26z" />
    <glyph glyph-name="uni0227" unicode="&#x227;" horiz-adv-x="574" 
d="M451 538.5q62 -15.5 115 -47.5l-46 -319q-2 -20 -2 -25q0 -14 5 -22.5t19 -14.5l-56 -126q-50 3 -88 25t-53 63q-29 -43 -67 -67.5t-92 -24.5q-84 0 -129.5 58t-45.5 159q0 86 32.5 167.5t104 135.5t182.5 54q59 0 121 -15.5zM237 350.5q-27 -67.5 -27 -152.5
q0 -45 11.5 -60.5t31.5 -15.5q42 0 77 60l34 230q-22 6 -42 6q-58 0 -85 -67.5zM290.5 643q-26.5 26 -26.5 67q0 51 35.5 85t87.5 34q44 0 70.5 -26t26.5 -67q0 -51 -35.5 -85t-87.5 -34q-44 0 -70.5 26z" />
    <glyph glyph-name="uni0228" unicode="&#x228;" horiz-adv-x="510" 
d="M285 553l-18 -130h197l-18 -139h-198l-20 -140h242l-20 -144h-168l-7 -43q47 -6 71.5 -30.5t24.5 -65.5q0 -31 -17 -62t-57 -52.5t-104 -21.5q-68 0 -119 35l53 84q29 -17 64 -17q45 0 45 27q0 15 -20 20.5t-68 5.5l30 120h-172l97 696h449l-41 -143h-226z" />
    <glyph glyph-name="uni0229" unicode="&#x229;" horiz-adv-x="542" 
d="M447.5 252q-97.5 -48 -241.5 -61q7 -71 81 -71q32 0 62 12t70 37l67 -113q-86 -62 -184 -74l-4 -25q47 -6 71.5 -30.5t24.5 -65.5q0 -31 -17 -62t-57 -52.5t-104 -21.5q-68 0 -119 35l53 84q29 -17 60 -17q49 0 49 28q0 14 -20.5 19.5t-67.5 5.5l26 105q-92 15 -138.5 75
t-46.5 151q0 80 32.5 159t104 131.5t182.5 52.5q101 0 157.5 -42.5t56.5 -110.5q0 -101 -97.5 -149zM322 335q29 28 29 57q0 37 -39 37t-63 -35.5t-35 -91.5q79 5 108 33z" />
    <glyph glyph-name="uni022A" unicode="&#x22a;" horiz-adv-x="678" 
d="M605 640.5q71 -75.5 71 -211.5q0 -107 -36 -209t-120 -171t-219 -69q-133 0 -204.5 76t-71.5 212q0 107 36 209t120.5 170.5t218.5 68.5t205 -75.5zM291.5 515q-33.5 -55 -46 -127.5t-12.5 -136.5q0 -67 20.5 -96t63.5 -29q59 0 92.5 54.5t46 127.5t12.5 139t-20.5 94.5
t-63.5 28.5q-59 0 -92.5 -55zM223 768.5q-23 22.5 -23 58.5q0 44 31 73.5t76 29.5q39 0 62 -22.5t23 -58.5q0 -44 -31 -73.5t-76 -29.5q-39 0 -62 22.5zM463 768.5q-23 22.5 -23 58.5q0 44 31 73.5t76 29.5q39 0 62 -22.5t23 -58.5q0 -44 -31 -73.5t-76 -29.5
q-39 0 -62 22.5zM589 963h-319l19 134h319z" />
    <glyph glyph-name="uni022B" unicode="&#x22b;" horiz-adv-x="572" 
d="M75 41q-62 61 -62 170q0 87 30.5 165t100 128t179.5 50t172.5 -61.5t62.5 -167.5q0 -87 -30.5 -165t-100 -129t-180.5 -51q-110 0 -172 61zM340 190.5q20 68.5 20 147.5q0 39 -13 56.5t-40 17.5q-56 0 -76 -66.5t-20 -144.5q0 -42 12.5 -60.5t39.5 -18.5q57 0 77 68.5z
M143 611.5q-23 22.5 -23 58.5q0 44 31 73.5t76 29.5q39 0 62 -22.5t23 -58.5q0 -44 -31 -73.5t-76 -29.5q-39 0 -62 22.5zM383 611.5q-23 22.5 -23 58.5q0 44 31 73.5t76 29.5q39 0 62 -22.5t23 -58.5q0 -44 -31 -73.5t-76 -29.5q-39 0 -62 22.5zM511 807h-319l19 134h319z
" />
    <glyph glyph-name="uni022C" unicode="&#x22c;" horiz-adv-x="678" 
d="M583 962h-319l19 134h319zM397 779q-14 9 -23 13.5t-18 4.5q-18 0 -30.5 -10.5t-29.5 -33.5l-85 47q28 59 69 97t86 38q22 0 38 -7t34 -20q23 -16 36 -16q17 0 29.5 10.5t29.5 33.5l85 -47q-28 -59 -69 -97t-86 -38q-29 0 -66 25zM605 640.5q71 -75.5 71 -211.5
q0 -107 -36 -209t-120 -171t-219 -69q-133 0 -204.5 76t-71.5 212q0 107 36 209t120.5 170.5t218.5 68.5t205 -75.5zM291.5 515q-33.5 -55 -46 -127.5t-12.5 -136.5q0 -67 20.5 -96t63.5 -29q59 0 92.5 54.5t46 127.5t12.5 139t-20.5 94.5t-63.5 28.5q-59 0 -92.5 -55z" />
    <glyph glyph-name="uni022D" unicode="&#x22d;" horiz-adv-x="572" 
d="M75 41q-62 61 -62 170q0 87 30.5 165t100 128t179.5 50t172.5 -61.5t62.5 -167.5q0 -87 -30.5 -165t-100 -129t-180.5 -51q-110 0 -172 61zM340 190.5q20 68.5 20 147.5q0 39 -13 56.5t-40 17.5q-56 0 -76 -66.5t-20 -144.5q0 -42 12.5 -60.5t39.5 -18.5q57 0 77 68.5z
M303 617q-14 9 -23 13.5t-18 4.5q-17 0 -30 -10.5t-30 -33.5l-85 47q28 59 69 97t86 38q22 0 38 -7t34 -20q23 -16 36 -16q17 0 29.5 10.5t29.5 33.5l85 -47q-28 -59 -69 -97t-86 -38q-29 0 -66 25zM495 803h-319l19 134h319z" />
    <glyph glyph-name="uni022E" unicode="&#x22e;" horiz-adv-x="678" 
d="M605 640.5q71 -75.5 71 -211.5q0 -107 -36 -209t-120 -171t-219 -69q-133 0 -204.5 76t-71.5 212q0 107 36 209t120.5 170.5t218.5 68.5t205 -75.5zM291.5 515q-33.5 -55 -46 -127.5t-12.5 -136.5q0 -67 20.5 -96t63.5 -29q59 0 92.5 54.5t46 127.5t12.5 139t-20.5 94.5
t-63.5 28.5q-59 0 -92.5 -55zM340.5 769q-26.5 26 -26.5 67q0 51 35.5 85t87.5 34q44 0 70.5 -26t26.5 -67q0 -51 -35.5 -85t-87.5 -34q-44 0 -70.5 26z" />
    <glyph glyph-name="uni022F" unicode="&#x22f;" horiz-adv-x="572" 
d="M75 41q-62 61 -62 170q0 87 30.5 165t100 128t179.5 50t172.5 -61.5t62.5 -167.5q0 -87 -30.5 -165t-100 -129t-180.5 -51q-110 0 -172 61zM340 190.5q20 68.5 20 147.5q0 39 -13 56.5t-40 17.5q-56 0 -76 -66.5t-20 -144.5q0 -42 12.5 -60.5t39.5 -18.5q57 0 77 68.5z
M257.5 643q-26.5 26 -26.5 67q0 51 35.5 85t87.5 34q44 0 70.5 -26t26.5 -67q0 -51 -35.5 -85t-87.5 -34q-44 0 -70.5 26z" />
    <glyph glyph-name="uni0230" unicode="&#x230;" horiz-adv-x="678" 
d="M605 640.5q71 -75.5 71 -211.5q0 -107 -36 -209t-120 -171t-219 -69q-133 0 -204.5 76t-71.5 212q0 107 36 209t120.5 170.5t218.5 68.5t205 -75.5zM291.5 515q-33.5 -55 -46 -127.5t-12.5 -136.5q0 -67 20.5 -96t63.5 -29q59 0 92.5 54.5t46 127.5t12.5 139t-20.5 94.5
t-63.5 28.5q-59 0 -92.5 -55zM332.5 759q-26.5 26 -26.5 67q0 51 35.5 85t87.5 34q44 0 70.5 -26t26.5 -67q0 -51 -35.5 -85t-87.5 -34q-44 0 -70.5 26zM598 963h-319l19 134h319z" />
    <glyph glyph-name="uni0231" unicode="&#x231;" horiz-adv-x="572" 
d="M75 41q-62 61 -62 170q0 87 30.5 165t100 128t179.5 50t172.5 -61.5t62.5 -167.5q0 -87 -30.5 -165t-100 -129t-180.5 -51q-110 0 -172 61zM340 190.5q20 68.5 20 147.5q0 39 -13 56.5t-40 17.5q-56 0 -76 -66.5t-20 -144.5q0 -42 12.5 -60.5t39.5 -18.5q57 0 77 68.5z
M250.5 613q-26.5 26 -26.5 67q0 51 35.5 85t87.5 34q44 0 70.5 -26t26.5 -67q0 -51 -35.5 -85t-87.5 -34q-44 0 -70.5 26zM510 825h-319l19 134h319z" />
    <glyph glyph-name="uni0232" unicode="&#x232;" horiz-adv-x="608" 
d="M683 696l-279 -439l-36 -257h-202l36 256l-157 440h217l63 -284l142 284h216zM534 774h-319l19 134h319z" />
    <glyph glyph-name="uni0233" unicode="&#x233;" horiz-adv-x="520" 
d="M345 0q-95 -220 -362 -228l-4 135q77 7 117.5 27.5t68.5 65.5h-68l-75 534h202l11 -412l136 412h203zM473 648h-319l19 134h319z" />
    <glyph glyph-name="uni0234" unicode="&#x234;" horiz-adv-x="493" 
d="M442.5 229.5q32.5 -28.5 32.5 -77.5q0 -81 -61 -126.5t-155 -45.5q-27 0 -51 3l-42 -73l-80 34l37 61q-50 22 -75 62t-25 95q0 23 2 35l77 547l196 20l-82 -582q-2 -17 -1 -24l3 5q28 51 60.5 73t80.5 22q51 0 83.5 -28.5zM337 123.5q14 8.5 14 24.5q0 15 -18 15
q-14 0 -25 -10.5t-26 -37.5h17q24 0 38 8.5z" />
    <glyph glyph-name="uni0235" unicode="&#x235;" horiz-adv-x="789" 
d="M738.5 229.5q32.5 -28.5 32.5 -77.5q0 -81 -61 -126.5t-155 -45.5q-27 0 -51 3l-42 -73l-80 34l37 61q-49 22 -74 61t-25 92q0 20 3 39l22 144q2 9 2 24q0 28 -19 28q-17 0 -40.5 -29.5t-49.5 -85.5l-40 -278h-194l74 534h169l1 -88q31 49 80 78.5t97 29.5q56 0 88 -33
t32 -92q0 -16 -3 -36l-30 -211q-2 -17 -1 -24l3 5q28 51 60.5 73t80.5 22q51 0 83.5 -28.5zM633 123.5q14 8.5 14 24.5q0 15 -18 15q-14 0 -25 -10.5t-26 -37.5h17q24 0 38 8.5z" />
    <glyph glyph-name="uni0236" unicode="&#x236;" horiz-adv-x="519" 
d="M468.5 229q32.5 -29 32.5 -80q0 -79 -61 -124t-155 -45q-26 0 -52 3l-41 -73l-80 34l37 61q-50 21 -75.5 61.5t-25.5 96.5q0 23 2 35l28 202h-63l18 134h72l32 115l172 20l-19 -135h120l-40 -134h-99l-30 -217q-1 -6 -1 -16q0 -8 1 -11q34 58 66 80t78 22q51 0 83.5 -29z
M363 123.5q14 8.5 14 24.5q0 15 -18 15q-14 0 -25 -10.5t-26 -37.5h17q24 0 38 8.5z" />
    <glyph glyph-name="uni0237" unicode="&#x237;" horiz-adv-x="274" 
d="M-117 -88q60 23 90 57t39 97l65 468h194l-64 -458q-18 -130 -89.5 -198t-188.5 -105z" />
    <glyph glyph-name="uni0238" unicode="&#x238;" horiz-adv-x="853" 
d="M804 500.5q38 -53.5 38 -151.5q-1 -94 -30.5 -179t-85 -137.5t-129.5 -52.5q-38 0 -67.5 20t-46.5 62l-18 -62h-151v69q-25 -42 -62 -65.5t-84 -23.5q-75 0 -116 56t-41 155q0 92 30.5 175.5t87 135.5t130.5 52q31 0 58.5 -14.5t44.5 -42.5l35 247l197 20l-39 -276
q27 31 63.5 48.5t75.5 17.5q72 0 110 -53.5zM284 137.5q17 15.5 34 50.5l28 193q-20 32 -46 32q-45 0 -67 -68.5t-22 -147.5q0 -44 11.5 -59.5t29.5 -15.5q15 0 32 15.5zM605 157q19 36 28 86.5t9 96.5q0 41 -10 56.5t-28 15.5q-32 0 -66 -45l-27 -196q15 -50 45 -50t49 36z
" />
    <glyph glyph-name="uni0239" unicode="&#x239;" horiz-adv-x="851" 
d="M800.5 500.5q39.5 -53.5 39.5 -150.5q0 -92 -30 -177.5t-85.5 -139t-127.5 -53.5q-33 0 -62 20t-42 56l-37 -263l-197 -20l38 272q-53 -65 -131 -65q-74 0 -115 56t-41 154q0 93 30.5 177t87 135.5t130.5 51.5t116 -69l14 49h150l1 -51q36 39 71 55t77 16
q74 0 113.5 -53.5zM315 174l28 201q-10 21 -20.5 29.5t-24.5 8.5q-31 0 -51 -37t-28.5 -89t-8.5 -98q0 -67 38 -67q32 0 67 52zM602.5 160q19.5 39 29.5 92.5t10 94.5q0 39 -9.5 52t-26.5 13q-15 0 -33.5 -11.5t-36.5 -33.5l-27 -198q8 -26 19 -37t27 -11q28 0 47.5 39z" />
    <glyph glyph-name="uni023A" unicode="&#x23a;" horiz-adv-x="589" 
d="M386 0l-12 135h-104l-86 -212l-65 15l80 197h-24l-47 -135h-191l296 696h193l26 63l64 -15l-35 -87l95 -657h-190zM222 269h31l90 220l-9 98zM324 269h38l-7 78z" />
    <glyph glyph-name="uni023B" unicode="&#x23b;" horiz-adv-x="571" 
d="M400.5 150q30.5 15 68.5 43l76 -117q-48 -43 -109.5 -69.5t-134.5 -26.5q-29 0 -61 5l-25 -62l-65 15l27 66q-72 31 -112 98.5t-40 167.5q0 107 38 209t121 169.5t211 67.5q36 0 68 -6l20 49l64 -15l-21 -53q50 -22 87 -65l-107 -103q-19 17 -37 27l-166 -410
q17 -5 34 -5q33 0 63.5 15zM250 186l155 382h-8q-59 0 -95.5 -48.5t-52 -116.5t-15.5 -129q0 -53 16 -88z" />
    <glyph glyph-name="uni023C" unicode="&#x23c;" horiz-adv-x="469" 
d="M328 141q21 8 51 27l70 -124q-89 -64 -193 -64q-13 0 -35 2l-24 -59l-61 15l23 57q-71 23 -109 81t-38 141q0 76 33 154t104 130.5t178 52.5q29 0 56 -6l23 56l60 -15l-25 -61q38 -18 66 -48l-93 -111q-12 12 -28 21l-104 -257h2q23 0 44 8zM226 160l99 245
q-60 -1 -85 -59.5t-25 -133.5q0 -33 11 -52z" />
    <glyph glyph-name="uni023D" unicode="&#x23d;" horiz-adv-x="537" 
d="M253 158h257l-42 -158h-439l40 288h-63l20 150h64l36 258h202l-36 -258h68l-20 -150h-69z" />
    <glyph glyph-name="uni023E" unicode="&#x23e;" horiz-adv-x="542" 
d="M568 552h-83l-115 -198l-50 -354h-156l-45 -77l-49 25l93 160l63 444h-181l19 144h442l37 63l48 -25l-22 -38h39zM390 497l32 55h-24z" />
    <glyph glyph-name="uni023F" unicode="&#x23f;" horiz-adv-x="488" 
d="M442.5 82.5q-23.5 -44.5 -73.5 -73.5t-123 -29q-11 0 -33 2q21 -7 36.5 -16.5t32.5 -22.5q20 -15 34 -22t34 -7q25 0 49 7l17 -118q-45 -29 -110 -29q-53 0 -89.5 19t-59.5 47.5t-55 80.5q-33 54 -58.5 88.5t-63.5 64.5l83 99q39 -27 75 -41.5t78 -14.5q59 0 59 33
q0 12 -7.5 19t-26 15t-67.5 25q-67 24 -99.5 62t-32.5 99q0 52 28.5 94t83 66t128.5 24q60 0 114 -19t93 -51l-83 -104q-28 17 -60.5 27t-61.5 10q-50 0 -50 -27q0 -10 7 -16t31 -15.5t62 -21.5q132 -44 132 -163q0 -47 -23.5 -91.5z" />
    <glyph glyph-name="uni0240" unicode="&#x240;" horiz-adv-x="460" 
d="M-16 138l247 252h-191l20 144h422l-18 -137l-299 -302q45 -16 69 -43.5t49 -70.5q20 -35 35.5 -51t42.5 -16q24 0 52 7l17 -122q-50 -25 -107 -25q-48 0 -79 14t-49.5 35t-41.5 57q-25 37 -44.5 59.5t-54.5 40t-88 20.5z" />
    <glyph glyph-name="uni0241" unicode="&#x241;" horiz-adv-x="535" 
d="M159 337l46 13q66 19 100.5 54.5t34.5 94.5q0 35 -18 54t-54 19q-33 0 -63 -13t-65 -40l-84 102q56 49 115 72t138 23q112 0 175.5 -54t63.5 -150q0 -164 -164 -220l-29 -10l-40 -282h-202z" />
    <glyph glyph-name="uni0242" unicode="&#x242;" horiz-adv-x="473" 
d="M99 206l41 12q60 18 90.5 48t30.5 83q0 30 -16 46.5t-43 16.5q-28 0 -51.5 -11t-50.5 -33l-78 97q47 44 100 66.5t118 22.5t114.5 -24t77 -67t27.5 -100q0 -154 -141 -202l-32 -11l-21 -150h-194z" />
    <glyph glyph-name="uni0243" unicode="&#x243;" horiz-adv-x="620" 
d="M562 323q37 -33 37 -102q0 -100 -80.5 -160.5t-262.5 -60.5h-240l25 180h-49l12 86h49l60 430h211q141 0 215.5 -37t74.5 -124q0 -70 -43 -110t-108 -57q62 -12 99 -45zM386.5 450.5q18.5 23.5 18.5 58.5q0 24 -18.5 35t-61.5 11h-31l-18 -128h35q57 0 75.5 23.5z
M367.5 169.5q24.5 24.5 24.5 69.5q0 58 -85 58h-49l-4 -31h89l-12 -86h-89l-5 -35h39q67 0 91.5 24.5z" />
    <glyph glyph-name="uni0244" unicode="&#x244;" horiz-adv-x="677" 
d="M701 495h-50l-36 -260q-10 -73 -49.5 -130.5t-107.5 -91t-160 -33.5q-126 0 -189 56t-63 154q0 23 3 47l36 258h-48l14 106h49l13 95h202l-13 -95h162l13 95h202l-13 -95h49zM449 495h-162l-36 -254q-3 -22 -3 -40q0 -38 15.5 -55.5t50.5 -17.5q44 0 67.5 28t31.5 87z
" />
    <glyph glyph-name="uni0245" unicode="&#x245;" horiz-adv-x="589" 
d="M475 696l101 -696h-209l-32 552l-182 -552h-216l296 696h242z" />
    <glyph glyph-name="uni0246" unicode="&#x246;" horiz-adv-x="510" 
d="M511 553h-47l-53 -130h53l-18 -139h-91l-57 -140h172l-20 -144h-210l-31 -77l-65 15l25 62h-163l97 696h348l26 63l64 -15l-19 -48h30zM341 423l52 130h-108l-18 -130h74zM228 146l56 138h-36z" />
    <glyph glyph-name="uni0247" unicode="&#x247;" horiz-adv-x="542" 
d="M464 262.5q-81 -47.5 -206 -65.5l-27 -66q21 -11 56 -11q32 0 62 12t70 37l67 -113q-104 -76 -225 -76q-50 0 -87 10l-27 -67l-61 15l30 74q-52 29 -78 80t-26 119q0 80 32.5 159t104 131.5t182.5 52.5h5l20 50l60 -15l-17 -41q70 -13 108 -53t38 -94q0 -91 -81 -138.5z
M353 433l-50 -125q68 24 68 87q0 28 -18 38zM230.5 379q-20.5 -37 -28.5 -87l28 2l56 137q-35 -15 -55.5 -52z" />
    <glyph glyph-name="uni0248" unicode="&#x248;" horiz-adv-x="339" 
d="M340 268h-65l-22 -158q-13 -91 -55.5 -150t-99.5 -92t-131 -57l-36 145q44 16 68 39t35 51.5t17 72.5l21 149h-66l20 150h67l39 278h202l-38 -278h64z" />
    <glyph glyph-name="uni0249" unicode="&#x249;" horiz-adv-x="346" 
d="M332 184h-69l-15 -108q-18 -130 -89.5 -198t-188.5 -105l-46 139q60 23 90 57t39 97l16 118h-71l19 135h71l30 215h194l-30 -215h69zM158.5 643q-26.5 26 -26.5 67q0 51 35.5 85t87.5 34q44 0 70.5 -26t26.5 -67q0 -51 -35.5 -85t-87.5 -34q-44 0 -70.5 26z" />
    <glyph glyph-name="uni024A" unicode="&#x24a;" horiz-adv-x="668" 
d="M737 -183q-66 -44 -159 -44q-94 0 -147.5 44t-53.5 129q0 18 3 39l2 15l5 34q-57 -54 -145 -54q-67 0 -116.5 33t-75.5 95t-26 145q-1 120 38.5 226.5t113.5 171.5t171 65q48 0 81.5 -15.5t61.5 -44.5l11 40h180l-97 -696l-4 -30q-1 -5 -1 -13q0 -39 40 -39q19 0 33.5 4
t36.5 14zM404 157l53 377q-31 36 -78 36q-49 0 -82.5 -48t-49.5 -122t-16 -152q0 -69 20.5 -98t61.5 -29q48 0 91 36z" />
    <glyph glyph-name="uni024B" unicode="&#x24b;" horiz-adv-x="574" 
d="M534 -68l16 -142q-18 -8 -47.5 -12.5t-61.5 -4.5q-70 0 -107.5 35t-37.5 100q0 19 3 40l8 53l5 33q-14 -18 -49 -36t-78 -18q-84 0 -129 58t-45 159q0 90 33 171.5t105.5 133.5t183.5 52q59 0 121 -15.5t115 -47.5l-68 -490l-7 -47q-1 -3 -1 -9q0 -17 18 -17q13 0 23 4z
M332 182l34 230q-22 6 -41 6q-58 0 -86.5 -68t-28.5 -152q0 -45 12.5 -60.5t33.5 -15.5q41 0 76 60z" />
    <glyph glyph-name="uni024C" unicode="&#x24c;" horiz-adv-x="622" 
d="M597.5 378.5q-30.5 -53.5 -117.5 -97.5l125 -281h-220l-92 248h-41l-34 -248h-202l35 248h-49l19 138h49l43 310h251q128 0 196 -52t68 -140q0 -72 -30.5 -125.5zM295 555l-23 -169h52q49 0 72.5 31t23.5 74q0 64 -81 64h-44z" />
    <glyph glyph-name="uni024D" unicode="&#x24d;" horiz-adv-x="428" 
d="M478 542l-55 -191q-27 8 -46 8q-40 0 -65 -29t-44 -81h68l-20 -135h-73l-16 -114h-194l16 114h-67l20 135h66l39 285h169l1 -95q26 54 65 83t83 29q28 0 53 -9z" />
    <glyph glyph-name="uni024E" unicode="&#x24e;" horiz-adv-x="610" 
d="M685 696l-48 -75h37l-14 -106h-90l-164 -258l-36 -257h-202l36 256l-92 259h-91l14 106h39l-27 75h197l20 -75h185l40 75h196zM325 392l66 123h-99z" />
    <glyph glyph-name="uni024F" unicode="&#x24f;" horiz-adv-x="562" 
d="M538 399h40l-16 -115h-73l-122 -284q-95 -220 -362 -228l-4 135q77 7 117 27.5t69 65.5h-68l-40 284h-73l16 115h41l-19 135h202l4 -135h98l45 135h203zM257 122l53 162h-57z" />
    <glyph glyph-name="uni0250" unicode="&#x250;" horiz-adv-x="537" 
d="M220 187q-2 -18 -2 -24q0 -24 13.5 -33.5t46.5 -9.5q61 0 139 25l33 -124q-48 -20 -103 -30.5t-108 -10.5q-107 0 -160.5 37.5t-53.5 118.5q0 20 3 42l26 184q2 16 2 22q0 16 -5.5 25.5t-18.5 14.5l56 126q52 -4 83.5 -21t47.5 -53q59 78 167 78q72 0 113 -41t41 -110
q0 -101 -76.5 -151.5t-203.5 -50.5h-38zM275 405.5q-17 -9.5 -28 -25.5l-11 -76h19q44 0 68 19t24 55q0 17 -9.5 27t-26.5 10q-19 0 -36 -9.5z" />
    <glyph glyph-name="uni0251" unicode="&#x251;" horiz-adv-x="574" 
d="M518 147q0 -14 5 -22.5t19 -14.5l-56 -126q-50 3 -88 25t-53 63q-59 -92 -157 -92q-87 0 -132 57.5t-45 159.5q0 90 34.5 172.5t97 133.5t144.5 51q89 0 124 -69l25 49h136l-52 -362q-2 -20 -2 -25zM359 382q-19 36 -54 36q-48 0 -71.5 -65t-23.5 -155q0 -45 11.5 -60.5
t31.5 -15.5q42 0 77 60z" />
    <glyph glyph-name="uni0252" unicode="&#x252;" horiz-adv-x="574" 
d="M518 496.5q45 -57.5 45 -159.5q0 -90 -34.5 -172.5t-97 -133.5t-144.5 -51q-89 0 -124 69l-25 -49h-136l52 362q2 20 2 25q0 14 -5 22.5t-19 14.5l56 126q50 -3 88 -25t53 -63q59 92 157 92q87 0 132 -57.5zM340.5 181.5q23.5 65.5 23.5 154.5q0 45 -11.5 60.5
t-31.5 15.5q-42 0 -77 -60l-29 -200q19 -36 54 -36q48 0 71.5 65.5z" />
    <glyph glyph-name="uni0253" unicode="&#x253;" horiz-adv-x="583" 
d="M529.5 500.5q41.5 -53.5 41.5 -153.5q0 -148 -72.5 -257.5t-254.5 -109.5q-124 0 -237 50l71 503l4 33q13 87 76.5 142.5t170.5 55.5q42 0 83.5 -11t67.5 -27l-67 -123q-32 19 -73 19q-29 0 -44 -15.5t-21 -52.5l-3 -21l-5 -40q24 27 63.5 44t74.5 17q83 0 124.5 -53.5z
M346 189q26 68 26 149q0 43 -12 58.5t-34 15.5q-43 0 -79 -53l-32 -228q26 -10 51 -10q54 0 80 68z" />
    <glyph glyph-name="uni0254" unicode="&#x254;" horiz-adv-x="460" 
d="M35 -4.5q-42 15.5 -78 46.5l100 111q21 -17 38 -24t41 -7q59 0 85.5 60t26.5 138q0 50 -14.5 71t-46.5 21q-47 0 -97 -33l-69 110q43 33 91 49t107 16q106 0 166.5 -60t60.5 -170q0 -104 -37.5 -182t-107.5 -120t-165 -42q-59 0 -101 15.5z" />
    <glyph glyph-name="uni0255" unicode="&#x255;" horiz-adv-x="505" 
d="M454.5 237q32.5 -30 32.5 -84q0 -83 -61 -128t-155 -45q-42 0 -69 6l-44 -76l-80 34l42 71q-52 28 -79.5 79.5t-27.5 124.5q0 76 33.5 153.5t104.5 129.5t177 52q54 0 100 -19t80 -55l-93 -111q-39 36 -86 36q-62 0 -87.5 -58.5t-25.5 -134.5q0 -15 2 -35q29 48 66 69
t84 21q54 0 86.5 -30zM348.5 124.5q13.5 9.5 13.5 28.5q0 18 -19 18q-34 0 -67 -52q15 -4 35 -4q24 0 37.5 9.5z" />
    <glyph glyph-name="uni0256" unicode="&#x256;" horiz-adv-x="597" 
d="M663 -183q-68 -44 -161 -44q-91 0 -142 44.5t-51 130.5q0 24 2 37l2 15l8 55q-17 -28 -54.5 -51.5t-88.5 -23.5q-84 0 -125.5 56t-41.5 161q0 83 27 165t87.5 137t153.5 55q30 0 57.5 -11.5t47.5 -31.5l35 253l192 -20l-104 -744l-5 -35q-6 -52 43 -52q19 0 33.5 4
t36.5 14zM341 205l26 184q-11 13 -23 18.5t-29 5.5q-55 0 -79.5 -68t-24.5 -146q0 -45 11 -61t30 -16q38 0 89 83z" />
    <glyph glyph-name="uni0257" unicode="&#x257;" horiz-adv-x="584" 
d="M764 726l-66 -120q-31 16 -60 16q-23 0 -35 -13t-17 -42l-5 -33l-74 -534h-173l1 69q-65 -89 -157 -89q-84 0 -125.5 56t-41.5 161q0 83 27 165t87.5 137t153.5 55q30 0 57.5 -11.5t47.5 -31.5l3 23l4 32q11 87 71.5 142.5t160.5 55.5q82 0 141 -38zM367 389
q-11 13 -23 18.5t-29 5.5q-55 0 -79.5 -68t-24.5 -146q0 -45 11 -61t30 -16q38 0 89 83z" />
    <glyph glyph-name="uni0258" unicode="&#x258;" horiz-adv-x="547" 
d="M475 487.5q58 -66.5 58 -169.5q0 -100 -37.5 -176.5t-109.5 -119t-172 -42.5q-125 0 -209 79l84 105q31 -23 59.5 -33.5t63.5 -10.5q79 0 108 71q-138 9 -214.5 48t-76.5 125q0 51 30.5 94.5t89 69.5t137.5 26q131 0 189 -66.5zM250.5 324q24.5 -19 90.5 -22q1 11 1 34
q0 47 -14.5 70t-47.5 23q-25 0 -39.5 -16t-14.5 -42q0 -28 24.5 -47z" />
    <glyph glyph-name="uni0259" unicode="&#x259;" horiz-adv-x="542" 
d="M467.5 491.5q62.5 -62.5 62.5 -168.5q0 -80 -32.5 -159t-104 -131.5t-182.5 -52.5q-101 0 -157.5 42.5t-56.5 110.5q0 101 97.5 149t241.5 61q-7 71 -81 71q-32 0 -62 -12t-70 -37l-67 113q104 76 225 76q124 0 186.5 -62.5zM293 140.5q24 35.5 35 91.5q-79 -5 -108 -33
t-29 -57q0 -37 39 -37t63 35.5z" />
    <glyph glyph-name="uni025A" unicode="&#x25a;" horiz-adv-x="838" 
d="M856 339q-59 -36 -132 -36q-132 0 -149 112l-1 7l-52 -29q8 -35 8 -70q0 -80 -32.5 -159t-104 -131.5t-182.5 -52.5q-101 0 -157.5 42.5t-56.5 110.5q0 101 97.5 149t241.5 61q-7 71 -81 71q-32 0 -62 -12t-70 -37l-67 113q104 76 225 76q132 0 195 -71l103 51h155
l-7 -54q-1 -4 -1 -11q0 -17 9.5 -25.5t26.5 -8.5q16 0 30 3t27 8zM293 140.5q24 35.5 35 91.5q-79 -5 -108 -33t-29 -57q0 -37 39 -37t63 35.5z" />
    <glyph glyph-name="uni025B" unicode="&#x25b;" horiz-adv-x="489" 
d="M62 21.5q-62 41.5 -62 120.5q0 63 44 100t122 42q-54 12 -82 40.5t-28 72.5q0 75 62.5 116t168.5 41q135 0 210 -75l-86 -90q-48 33 -101 33q-28 0 -45.5 -13t-17.5 -37q0 -17 12 -28.5t37 -11.5h70l-35 -120h-58q-75 0 -75 -52q0 -20 18 -32t54 -12q27 0 55 9.5t68 31.5
l60 -108q-40 -33 -99.5 -51t-127.5 -18q-102 0 -164 41.5z" />
    <glyph glyph-name="uni025C" unicode="&#x25c;" horiz-adv-x="486" 
d="M410.5 517q54.5 -37 54.5 -100q0 -51 -36 -86.5t-103 -47.5q63 -6 95.5 -39t32.5 -84q0 -48 -27 -89t-86.5 -66t-150.5 -25q-131 0 -216 67l91 106q32 -21 59.5 -29t59.5 -8q35 0 53 14t18 38q0 20 -11.5 32t-43.5 12h-90l28 120h65q29 0 47 14t18 38q0 38 -47 38
q-29 0 -53 -8t-54 -25l-74 103q97 62 227 62q89 0 143.5 -37z" />
    <glyph glyph-name="uni025D" unicode="&#x25d;" horiz-adv-x="768" 
d="M786 339q-59 -36 -132 -36q-132 0 -149 112l-1 7l-40 -22q-6 -45 -41.5 -75.5t-96.5 -41.5q63 -6 95.5 -39t32.5 -84q0 -48 -27 -89t-86.5 -66t-150.5 -25q-131 0 -216 67l91 106q32 -21 59.5 -29t59.5 -8q35 0 53 14t18 38q0 20 -11.5 32t-43.5 12h-90l28 120h65
q29 0 47 14t18 38q0 38 -47 38q-29 0 -53 -8t-54 -25l-74 103q97 62 227 62q55 0 98.5 -14.5t68.5 -42.5l75 37h155l-7 -54q-1 -4 -1 -11q0 -17 9.5 -25.5t26.5 -8.5q16 0 30 3t27 8z" />
    <glyph glyph-name="uni025E" unicode="&#x25e;" horiz-adv-x="569" 
d="M77 38.5q-64 58.5 -64 170.5q0 102 38.5 180t111 121.5t172.5 43.5q62 0 110.5 -17.5t75.5 -49.5t27 -73q0 -51 -36 -85t-103 -46q63 -6 95.5 -39t32.5 -84q0 -49 -27.5 -89.5t-89 -65.5t-157.5 -25q-122 0 -186 58.5zM341 172q0 20 -12.5 30t-45.5 10h-28l28 120h3
q30 0 48 14.5t18 39.5q0 36 -41 36q-57 0 -83 -68.5t-26 -149.5q0 -48 15.5 -68t50.5 -20q73 0 73 56z" />
    <glyph glyph-name="uni025F" unicode="&#x25f;" horiz-adv-x="346" 
d="M332 184h-69l-15 -108q-18 -130 -89.5 -198t-188.5 -105l-46 139q60 23 90 57t39 97l16 118h-71l19 135h71l30 215h194l-30 -215h69z" />
    <glyph glyph-name="uni0260" unicode="&#x260;" horiz-adv-x="582" 
d="M762 726l-66 -120q-31 16 -60 16q-23 0 -35 -13t-17 -42l-5 -33l-69 -476q-15 -101 -49 -163t-95.5 -92t-158.5 -30q-50 0 -107 17t-103 46l63 124q79 -42 146 -42q45 0 73.5 21.5t37.5 81.5l7 42q-56 -63 -135 -63q-86 0 -131.5 57.5t-45.5 153.5q0 78 32.5 157
t103 132.5t177.5 53.5q30 0 62 -6l2 18q11 87 71.5 142.5t160.5 55.5q82 0 141 -38zM337 202l30 210q-21 6 -39 6q-42 0 -68 -32.5t-37.5 -78.5t-11.5 -89q0 -74 46 -74q41 0 80 58z" />
    <glyph glyph-name="uni0261" unicode="&#x261;" horiz-adv-x="575" 
d="M456 538.5q62 -15.5 115 -47.5l-61 -433q-14 -101 -48.5 -163t-96 -92t-158.5 -30q-50 0 -107 17t-103 46l63 124q79 -42 146 -42q45 0 73.5 21.5t37.5 81.5l7 42q-56 -63 -135 -63q-86 0 -131.5 57.5t-45.5 153.5q0 79 32.5 157.5t105.5 132t185 53.5q59 0 121 -15.5z
M260 385.5q-26 -32.5 -37.5 -78.5t-11.5 -89q0 -74 46 -74q41 0 80 58l32 210q-23 6 -41 6q-42 0 -68 -32.5z" />
    <glyph glyph-name="uni0262" unicode="&#x262;" horiz-adv-x="550" 
d="M460 533q50 -21 89 -58l-103 -96q-51 40 -104 40q-69 0 -100 -62t-31 -154q0 -47 15.5 -66t46.5 -19q29 0 54 9l10 69h-49l-1 124h248l-37 -269q-49 -33 -110.5 -51t-131.5 -18q-245 0 -245 220q0 103 41.5 183t116 124.5t170.5 44.5q71 0 121 -21z" />
    <glyph glyph-name="uni0263" unicode="&#x263;" horiz-adv-x="514" 
d="M367 7q12 -37 12 -77q0 -73 -47 -115t-135 -42q-70 0 -109 32t-39 85q0 48 25 94.5t74 109.5l1 1l-127 439h207l27 -316l110 316h202l-237 -441l-1 -1q25 -48 37 -85zM233 -101.5q9 10.5 9 26.5q0 15 -4.5 32t-10.5 35h-1q-39 -55 -39 -82q0 -22 22 -22q15 0 24 10.5z
" />
    <glyph glyph-name="uni0264" unicode="&#x264;" horiz-adv-x="582" 
d="M576 545.5q26 -8.5 51 -24.5l-67 -113q-2 1 -12.5 5t-26.5 4t-28 -8t-26 -28l-92 -133q23 -36 33.5 -65t10.5 -62q0 -60 -41.5 -100.5t-123.5 -40.5q-64 0 -99 31t-35 80q0 39 20 78t59 83l-49 131q-7 20 -16 27t-25 7q-13 0 -23.5 -2.5t-19.5 -6.5l-39 115
q29 16 56.5 23.5t61.5 7.5q62 0 92.5 -33t49.5 -108l14 -54l34 64q37 70 76 100.5t104 30.5q35 0 61 -8.5zM278 168q-30 -39 -30 -60q0 -18 18 -18q12 0 19 7.5t7 20.5q0 22 -14 50z" />
    <glyph glyph-name="uni0265" unicode="&#x265;" horiz-adv-x="555" 
d="M300 72q-29 -40 -72.5 -66t-90.5 -26q-56 0 -88.5 33.5t-32.5 94.5q0 21 2 33l55 393h194l-49 -339l-2 -24q0 -30 18 -30q17 0 39.5 25.5t46.5 69.5l42 298h194l-103 -741l-194 -20z" />
    <glyph glyph-name="uni0266" unicode="&#x266;" horiz-adv-x="559" 
d="M511.5 521q31.5 -33 31.5 -93q0 -23 -2 -35l-55 -393h-194l52 341q2 9 2 24q0 28 -19 28q-17 0 -40.5 -29.5t-49.5 -85.5l-40 -278h-194l75 533l4 33q13 87 76.5 142.5t170.5 55.5q42 0 83.5 -11t67.5 -27l-67 -123q-32 19 -73 19q-29 0 -44 -15.5t-21 -52.5l-3 -21
l-12 -85q26 47 70.5 76.5t91.5 29.5q58 0 89.5 -33z" />
    <glyph glyph-name="uni0267" unicode="&#x267;" horiz-adv-x="559" 
d="M511.5 521q31.5 -33 31.5 -93q0 -23 -2 -35l-55 -393l-3 -18q-17 -103 -82 -156t-165 -53q-93 0 -150 46l77 113q20 -10 33 -14.5t31 -4.5q25 0 40.5 14t19.5 40l5 33l52 341q2 9 2 24q0 28 -19 28q-17 0 -40.5 -29.5t-49.5 -85.5l-40 -278h-194l75 533l4 33
q13 87 76.5 142.5t170.5 55.5q42 0 83.5 -11t67.5 -27l-67 -123q-32 19 -73 19q-29 0 -44 -15.5t-21 -52.5l-3 -21l-12 -85q26 47 70.5 76.5t91.5 29.5q58 0 89.5 -33z" />
    <glyph glyph-name="uni0268" unicode="&#x268;" horiz-adv-x="340" 
d="M151.5 643q-26.5 26 -26.5 67q0 51 35.5 85t87.5 34q44 0 70.5 -26t26.5 -67q0 -51 -35.5 -85t-87.5 -34q-44 0 -70.5 26zM350 349l-20 -135h-69l-30 -214h-194l30 214h-71l20 135h69l26 185h194l-26 -185h71z" />
    <glyph glyph-name="uni0269" unicode="&#x269;" horiz-adv-x="289" 
d="M73 534h194l-51 -367q-1 -4 -1 -10q0 -22 20 -22q11 0 20 3l18 -137q-22 -10 -53.5 -15.5t-62.5 -5.5q-67 0 -103.5 35t-36.5 101q0 17 3 36z" />
    <glyph glyph-name="uni026A" unicode="&#x26a;" horiz-adv-x="331" 
d="M341 399h-60l-37 -264h60l-19 -135h-314l19 135h60l37 264h-60l19 135h314z" />
    <glyph glyph-name="uni026B" unicode="&#x26b;" horiz-adv-x="500" 
d="M327 167q-1 -4 -1 -10q0 -22 20 -22q6 0 20 4l18 -138q-22 -10 -53.5 -15.5t-62.5 -5.5q-67 0 -103.5 34.5t-36.5 99.5q0 19 3 38l24 170q-21 -3 -34 -16t-30 -40l-94 57q39 63 81 101t97 42l39 278l196 20l-50 -356q21 3 34 15.5t30 39.5l95 -57q-38 -62 -80.5 -100.5
t-98.5 -43.5z" />
    <glyph glyph-name="uni026C" unicode="&#x26c;" horiz-adv-x="470" 
d="M345 167q-1 -4 -1 -10q0 -22 20 -22q6 0 20 4l18 -138q-22 -10 -53.5 -15.5t-62.5 -5.5q-67 0 -103.5 34.5t-36.5 99.5q0 19 3 38l11 81q-77 3 -116.5 35.5t-39.5 87.5q0 62 42.5 98t111.5 36q16 0 38 -4l36 258l196 20l-59 -427h5q33 3 70 10l-1 -96q-42 -11 -83 -14h-5
zM174 333l9 61q-11 3 -22 3q-15 0 -24.5 -9t-9.5 -23q0 -30 47 -32z" />
    <glyph glyph-name="uni026D" unicode="&#x26d;" horiz-adv-x="275" 
d="M353 -183q-68 -44 -161 -44q-91 0 -142 44.5t-51 130.5q0 24 2 37l2 15l104 744l196 20l-106 -764l-5 -35q-6 -52 43 -52q19 0 33.5 4t36.5 14z" />
    <glyph glyph-name="uni026E" unicode="&#x26e;" horiz-adv-x="723" 
d="M697 402l-187 -187q81 -9 126 -52t45 -118q0 -81 -41 -142.5t-112.5 -95.5t-161.5 -34q-125 0 -201 74l102 115q24 -22 48 -31.5t55 -9.5q51 0 82 32t31 90q0 36 -23.5 51t-69.5 15h-100l14 107l169 174h-227l-31 -223q-1 -4 -1 -10q0 -22 20 -22q6 0 20 4l18 -138
q-22 -10 -53.5 -15.5t-62.5 -5.5q-67 0 -103.5 34.5t-36.5 99.5q0 19 3 38l83 592l196 20l-32 -230h448z" />
    <glyph glyph-name="uni026F" unicode="&#x26f;" horiz-adv-x="821" 
d="M817 534l-74 -534h-169l-1 78q-29 -46 -72 -72t-90 -26q-48 0 -78.5 23.5t-38.5 67.5q-31 -42 -73.5 -66.5t-85.5 -24.5q-56 0 -87.5 33t-31.5 93q0 23 2 35l55 393h194l-49 -341l-2 -24q0 -28 17 -28q35 0 75 107l40 286h194l-48 -341q-2 -18 -2 -23q0 -29 18 -29
q16 0 36 29.5t37 82.5l40 281h194z" />
    <glyph glyph-name="uni0270" unicode="&#x270;" horiz-adv-x="818" 
d="M818 534l-102 -741l-195 -20l37 283q-29 -36 -67.5 -56t-76.5 -20q-45 0 -78 23t-42 67q-31 -41 -73.5 -65.5t-82.5 -24.5q-58 0 -90 33t-32 93q0 23 2 35l55 393h194l-52 -341q-2 -9 -2 -24q0 -28 19 -28q16 0 37 28.5t40 79.5l40 285h194l-52 -341q-2 -9 -2 -24
q0 -28 19 -28q17 0 38.5 30t37.5 82l40 281h194z" />
    <glyph glyph-name="uni0271" unicode="&#x271;" horiz-adv-x="821" 
d="M773.5 521q31.5 -33 31.5 -93q0 -23 -2 -35l-55 -393l-3 -18q-17 -103 -82 -156t-165 -53q-93 0 -150 46l77 113q20 -10 33 -14.5t31 -4.5q25 0 40.5 14t19.5 40l5 33l49 341l2 24q0 28 -17 28q-35 0 -75 -107l-40 -286h-194l48 341q2 18 2 23q0 29 -18 29
q-16 0 -36 -29.5t-37 -82.5l-40 -281h-194l74 534h169l1 -78q29 46 72 72t90 26q48 0 78.5 -23.5t38.5 -67.5q31 42 73.5 66.5t85.5 24.5q56 0 87.5 -33z" />
    <glyph glyph-name="uni0272" unicode="&#x272;" 
d="M513 521q31 -33 31 -93q0 -23 -2 -35l-55 -393h-194l48 341q2 18 2 23q0 29 -18 29t-39 -28.5t-48 -86.5l-40 -278l-3 -18q-17 -103 -82 -156t-165 -53q-93 0 -150 46l77 113q20 -10 33 -14.5t31 -4.5q25 0 40.5 14t19.5 40l5 33l74 534h169l1 -88q32 49 80 78.5t99 29.5
q55 0 86 -33z" />
    <glyph glyph-name="uni0273" unicode="&#x273;" 
d="M643 -183q-68 -44 -161 -44q-91 0 -142 44.5t-51 130.5q0 24 2 37l2 15l48 341q2 18 2 23q0 29 -18 29t-39 -28.5t-48 -86.5l-40 -278h-194l74 534h169l1 -88q32 49 80 78.5t99 29.5q55 0 86 -33t31 -93q0 -23 -2 -35l-55 -393l-5 -35q-6 -52 43 -52q19 0 33.5 4t36.5 14
z" />
    <glyph glyph-name="uni0274" unicode="&#x274;" horiz-adv-x="571" 
d="M493 0h-228l-70 368q4 -66 4 -112q0 -74 -9 -142l-16 -114h-170l74 534h225l74 -367q-4 86 -4 115q0 64 11 146l14 106h169z" />
    <glyph glyph-name="uni0275" unicode="&#x275;" horiz-adv-x="572" 
d="M495.5 492.5q62.5 -61.5 62.5 -167.5q0 -87 -30.5 -165t-100 -129t-180.5 -51q-110 0 -172 61t-62 170q0 87 30.5 165t100 128t179.5 50t172.5 -61.5zM214 321h156v9q1 46 -13.5 66.5t-46.5 20.5q-72 0 -96 -96zM359 221h-158v-17q0 -46 14 -66.5t45 -20.5q74 0 99 104z
" />
    <glyph glyph-name="uni0276" unicode="&#x276;" horiz-adv-x="762" 
d="M524 402q16 -31 22 -68h169l-18 -128h-162q-14 -40 -40 -73h227l-19 -133h-349q-52 -20 -109 -20q-109 0 -170.5 61t-61.5 170q0 87 30.5 165t99 128t177.5 50q55 0 107 -20h358l-39 -132h-222zM340 190.5q20 68.5 20 147.5q0 39 -13 56.5t-40 17.5q-56 0 -76 -66.5
t-20 -144.5q0 -42 12.5 -60.5t39.5 -18.5q57 0 77 68.5z" />
    <glyph glyph-name="uni0277" unicode="&#x277;" horiz-adv-x="754" 
d="M652.5 491.5q84.5 -62.5 84.5 -192.5q0 -86 -28 -158.5t-83 -116.5t-133 -44q-64 0 -98.5 28.5t-41.5 90.5q-25 -64 -65.5 -91.5t-104.5 -27.5q-82 0 -128 50.5t-46 147.5q0 183 107.5 279.5t300.5 96.5q151 0 235.5 -62.5zM514.5 144.5q16.5 22.5 26 61t9.5 85.5
q0 64 -35.5 97.5t-114.5 33.5q-106 0 -154.5 -59.5t-48.5 -177.5q0 -33 9 -48t27 -15q16 0 27.5 17t16.5 52l15 104l181 24l-19 -140q-2 -18 -2 -24q0 -17 6 -25t20 -8q20 0 36.5 22.5z" />
    <glyph glyph-name="uni0278" unicode="&#x278;" horiz-adv-x="675" 
d="M592 103q-72 -84 -197 -97l-31 -213l-194 -20l33 234q-84 11 -138.5 62t-54.5 146q0 131 71 215t195 98l30 216l194 20l-32 -236q85 -11 140.5 -62t55.5 -147q0 -132 -72 -216zM458.5 188.5q20.5 56.5 20.5 138.5q0 42 -12 61t-35 22l-41 -285q47 7 67.5 63.5z
M214.5 344.5q-19.5 -54.5 -19.5 -131.5q0 -76 43 -88l40 283q-44 -9 -63.5 -63.5z" />
    <glyph glyph-name="uni0279" unicode="&#x279;" horiz-adv-x="399" 
d="M-50 -8l55 191q27 -8 46 -8q44 0 70 35t48 99l32 225h194l-74 -534h-169l-1 95q-26 -54 -65 -83t-83 -29q-28 0 -53 9z" />
    <glyph glyph-name="uni027A" unicode="&#x27a;" horiz-adv-x="399" 
d="M425 744l-30 -210l-74 -534h-169l-1 95q-26 -54 -65 -83t-83 -29q-28 0 -53 9l55 191q27 -8 46 -8q44 0 70 35t48 99l32 225l32 230z" />
    <glyph glyph-name="uni027B" unicode="&#x27b;" horiz-adv-x="399" 
d="M477 -183q-68 -44 -161 -44q-91 0 -142 44.5t-51 130.5q0 24 2 37l2 15l10 68q-26 -39 -61 -62t-73 -23q-28 0 -53 9l55 191q27 -8 46 -8q44 0 70 35t48 99l32 225h194l-74 -534l-5 -35q-6 -52 43 -52q19 0 33.5 4t36.5 14z" />
    <glyph glyph-name="uni027C" unicode="&#x27c;" horiz-adv-x="399" 
d="M449 542l-55 -191q-27 8 -46 8q-44 0 -70 -35t-48 -99l-64 -432l-194 -20l106 761h169l1 -95q25 50 66.5 81t81.5 31q28 0 53 -9z" />
    <glyph glyph-name="uni027D" unicode="&#x27d;" horiz-adv-x="399" 
d="M193 -35q-6 -52 43 -52q19 0 33.5 4t36.5 14l48 -114q-68 -44 -161 -44q-91 0 -142 44.5t-51 130.5q0 24 2 37l2 15l74 534h169l1 -95q26 54 65 83t83 29q28 0 53 -9l-55 -191q-27 8 -46 8q-44 0 -70 -35t-48 -99l-32 -225z" />
    <glyph glyph-name="uni027E" unicode="&#x27e;" horiz-adv-x="396" 
d="M444 509l-77 -113q-20 10 -33 14.5t-31 4.5q-25 0 -40.5 -14t-19.5 -40l-5 -33l-45 -328h-194l45 328l3 18q17 103 82 156t165 53q93 0 150 -46z" />
    <glyph glyph-name="uni027F" unicode="&#x27f;" horiz-adv-x="398" 
d="M323 510.5q51 -44.5 51 -130.5q0 -24 -2 -37l-2 -15l-45 -328h-194l45 328l5 35q6 52 -43 52q-19 0 -33.5 -4t-36.5 -14l-48 114q68 44 161 44q91 0 142 -44.5z" />
    <glyph glyph-name="uni0280" unicode="&#x280;" horiz-adv-x="541" 
d="M406 203l93 -203h-197l-62 172h-28l-24 -172h-184l74 534h216q105 0 159.5 -39t54.5 -119q0 -119 -102 -173zM230 298h23q34 0 50 18t16 48q0 21 -11.5 29.5t-35.5 8.5h-28z" />
    <glyph glyph-name="uni0281" unicode="&#x281;" horiz-adv-x="539" 
d="M485 205q0 -101 -70.5 -153t-193.5 -52h-217l74 534h184l-24 -172h27l110 172h198l-150 -205q62 -39 62 -124zM295 195q0 22 -11.5 31.5t-36.5 9.5h-27l-14 -104h26q63 0 63 63z" />
    <glyph glyph-name="uni0282" unicode="&#x282;" horiz-adv-x="482" 
d="M460 174q0 -79 -57.5 -136.5t-192.5 -57.5q-43 0 -84 12l-3 -26q-1 -4 -1 -11q0 -41 54 -41q26 0 45.5 5t43.5 16l48 -117q-30 -20 -73.5 -32t-92.5 -12q-91 0 -140 42.5t-49 124.5q0 21 3 45l13 88l86 90q66 -47 147 -47q30 0 46 7t16 26q0 12 -7.5 19.5t-27 15.5
t-66.5 24q-64 22 -98 63t-34 98q0 52 28.5 94t83.5 66t130 24q56 0 114 -19.5t91 -50.5l-84 -106q-24 18 -57.5 28.5t-63.5 10.5q-50 0 -50 -27q0 -10 7 -16.5t31 -15.5t62 -21q132 -44 132 -163z" />
    <glyph glyph-name="uni0283" unicode="&#x283;" horiz-adv-x="277" 
d="M455 726l-66 -120q-31 16 -60 16q-23 0 -35 -13t-17 -42l-5 -33l-74 -534l-3 -18q-17 -103 -82 -156t-165 -53q-93 0 -150 46l77 113q20 -10 33 -14.5t31 -4.5q25 0 40.5 14t19.5 40l5 33l74 534l4 32q11 87 71.5 142.5t160.5 55.5q82 0 141 -38z" />
    <glyph glyph-name="uni0284" unicode="&#x284;" horiz-adv-x="347" 
d="M497 726l-66 -120q-31 16 -60 16q-23 0 -35 -13t-17 -42l-5 -33l-56 -399h67l-19 -135h-73q-30 -92 -96 -143.5t-165 -83.5l-43 131q51 22 76.5 41.5t37.5 54.5h-71l19 135h74l55 399l4 32q11 87 71.5 142.5t160.5 55.5q82 0 141 -38z" />
    <glyph glyph-name="uni0285" unicode="&#x285;" horiz-adv-x="527" 
d="M508 24q-68 -44 -161 -44q-91 0 -142 44.5t-51 130.5q0 24 2 37l2 15l17 120l5 35q6 52 -43 52q-19 0 -33.5 -4t-36.5 -14l-48 114q68 44 161 44q91 0 142 -44.5t51 -130.5q0 -24 -2 -37l-2 -15l-17 -120l-5 -35q-6 -52 43 -52q19 0 33.5 4t36.5 14z" />
    <glyph glyph-name="uni0286" unicode="&#x286;" horiz-adv-x="357" 
d="M535 726l-66 -120q-31 16 -60 16q-23 0 -35 -13t-17 -42l-5 -33l-70 -498q-4 -26 -7 -39q43 -13 87 -39l-40 -74q-22 12 -71 28q-30 -71 -85 -105t-144 -34q-68 0 -106 33t-38 89q0 62 45 99.5t115 37.5q30 0 50 -2l70 504l4 32q11 87 71.5 142.5t160.5 55.5
q82 0 141 -38zM53.5 -116q14.5 17 21.5 59q-18 2 -35 2q-27 0 -42 -12.5t-15 -33.5q0 -15 8 -23.5t24 -8.5q24 0 38.5 17z" />
    <glyph glyph-name="uni0287" unicode="&#x287;" horiz-adv-x="389" 
d="M356 0h-72l-32 -115l-172 -20l19 135h-120l40 134h98l28 202q2 18 2 24q0 21 -8 30t-24 9q-22 0 -51 -13l-48 126q34 20 79 31t83 11q81 0 123.5 -43t42.5 -125q0 -14 -4 -50l-29 -202h63z" />
    <glyph glyph-name="uni0288" unicode="&#x288;" horiz-adv-x="388" 
d="M286.5 -83q14.5 4 36.5 14l48 -114q-68 -44 -161 -44q-91 0 -142 44.5t-51 130.5q0 24 2 37l2 15l57 400h-63l18 134h72l32 115l172 20l-19 -135h118l-38 -134h-99l-56 -400l-5 -35q-6 -52 43 -52q19 0 33.5 4z" />
    <glyph glyph-name="uni0289" unicode="&#x289;" horiz-adv-x="619" 
d="M621 284h-71l-39 -284h-169l2 67q-34 -41 -76.5 -64t-88.5 -23q-64 0 -96 35t-32 97q0 18 3 39l19 133h-70l16 115h70l19 135h194l-19 -135h89l19 135h194l-19 -135h71zM356 284h-89l-13 -95q-2 -14 -2 -19q0 -32 25 -32q14 0 32 16t35 43z" />
    <glyph glyph-name="uni028A" unicode="&#x28a;" horiz-adv-x="580" 
d="M118.5 7.5q-54.5 27.5 -83 74t-28.5 104.5q0 69 35 125t102 91h-92l19 132h225l-17 -122q-33 -39 -52 -98.5t-19 -115.5q0 -81 56 -81q52 0 74.5 50t22.5 125q0 38 -7 70.5t-18 51.5l17 120h225l-19 -132h-93q43 -30 67 -66.5t24 -88.5q0 -80 -41 -140.5t-111 -93.5
t-156 -33q-76 0 -130.5 27.5z" />
    <glyph glyph-name="uni028B" unicode="&#x28b;" horiz-adv-x="546" 
d="M78 22.5q-56 42.5 -56 125.5q0 22 2 34l49 352h194l-48 -345q-2 -10 -2 -26q0 -23 8.5 -32t24.5 -9q30 0 51 28.5t29 86.5l21 146l1 8q0 18 -19 18l-13 -1l-12 133q47 13 94 13q69 0 107 -35.5t38 -104.5q0 -18 -3 -41l-18 -130q-19 -134 -102.5 -198.5t-200.5 -64.5
q-89 0 -145 42.5z" />
    <glyph glyph-name="uni028C" unicode="&#x28c;" horiz-adv-x="514" 
d="M-54 0l227 534h233l86 -534h-208l-15 391l-121 -391h-202z" />
    <glyph glyph-name="uni028D" unicode="&#x28d;" horiz-adv-x="756" 
d="M-41 0l177 534h220l7 -358l104 358h223l31 -534h-196l22 383l-122 -383h-181l-2 383l-97 -383h-186z" />
    <glyph glyph-name="uni028E" unicode="&#x28e;" horiz-adv-x="520" 
d="M175 534q95 222 362 230l4 -133q-76 -8 -118 -30t-69 -68l69 1l75 -534h-202l-11 412l-136 -412h-203z" />
    <glyph glyph-name="uni028F" unicode="&#x28f;" horiz-adv-x="518" 
d="M572 534l-226 -345l-27 -189h-194l27 188l-130 346h206l38 -213l98 213h208z" />
    <glyph glyph-name="uni0290" unicode="&#x290;" horiz-adv-x="460" 
d="M564 -183q-68 -44 -161 -44q-91 0 -142 44.5t-51 130.5q0 24 2 37l2 15h-248l18 138l238 252h-182l20 144h422l-18 -137l-235 -251h200l-21 -146l-5 -35q-6 -52 43 -52q19 0 33.5 4t36.5 14z" />
    <glyph glyph-name="uni0291" unicode="&#x291;" horiz-adv-x="586" 
d="M552.5 267q34.5 -30 34.5 -83q0 -93 -62 -139t-174 -45h-10q-7 -22 -12.5 -58t-6.5 -42l-5 -33l-103 2q14 89 24 131h-272l18 138l251 252h-195l20 144h421l-17 -127l-257 -261h71q35 82 81 116.5t104 34.5q55 0 89.5 -30zM448 155q14 9 14 26q0 20 -21 20q-36 0 -60 -55
h30q23 0 37 9z" />
    <glyph glyph-name="uni0292" unicode="&#x292;" horiz-adv-x="515" 
d="M489 402l-187 -187q81 -9 126 -52t45 -118q0 -81 -41 -142.5t-112.5 -95.5t-161.5 -34q-81 0 -138.5 29.5t-93.5 81.5l112 97q31 -32 59.5 -46t64.5 -14q51 0 82 32t31 90q0 36 -23.5 51t-69.5 15h-100l14 107l169 174h-225l20 144h446z" />
    <glyph glyph-name="uni0293" unicode="&#x293;" horiz-adv-x="521" 
d="M495 402l-188 -177q82 -9 127 -52.5t45 -122.5q0 -94 -53.5 -161t-148.5 -97l18 -55l-92 -34l-21 72q-30 -2 -48 -2q-90 0 -143 38t-53 110q0 48 20.5 82t54 51.5t73.5 17.5q52 0 83 -27t53 -91l5 -14q54 31 54 108q0 39 -23.5 55t-69.5 16h-100l14 107l172 164h-228
l20 144h446zM141 -79q-10 30 -20.5 42.5t-27.5 12.5q-12 0 -19.5 -7.5t-7.5 -18.5q0 -15 13 -22t52 -7h10z" />
    <glyph glyph-name="uni0294" unicode="&#x294;" horiz-adv-x="501" 
d="M143 357l32 10q140 43 140 175q0 80 -75 80q-30 0 -58 -12.5t-60 -39.5l-82 99q58 49 114 72t131 23q108 0 172.5 -57t64.5 -159q0 -90 -41.5 -148t-125.5 -89l-25 -9l-42 -302h-194z" />
    <glyph glyph-name="uni0295" unicode="&#x295;" horiz-adv-x="495" 
d="M134 0l43 302l-20 11q-53 30 -81 69t-28 101q0 81 38.5 145t106 100t152.5 36q71 0 124.5 -24.5t97.5 -72.5l-105 -95q-47 50 -106 50q-48 0 -79 -35.5t-31 -102.5q0 -43 24.5 -71.5t76.5 -45.5l31 -10l-50 -357h-194z" />
    <glyph glyph-name="uni0296" unicode="&#x296;" horiz-adv-x="503" 
d="M386 764l-45 -322l28 -10q113 -44 113 -168q0 -82 -37 -146.5t-103.5 -101t-151.5 -36.5q-140 0 -228 97l106 95q26 -26 50.5 -38t55.5 -12q52 0 80.5 37.5t28.5 101.5q0 46 -23 75t-73 42l-45 9l50 357z" />
    <glyph glyph-name="uni0297" unicode="&#x297;" horiz-adv-x="475" 
d="M442.5 535q42.5 -19 72.5 -53l-91 -108q-35 31 -77 31q-51 0 -83.5 -57t-47.5 -138t-15 -157q0 -70 16.5 -98.5t49.5 -28.5q23 0 43.5 8t47.5 26l68 -122q-86 -65 -186 -65q-116 0 -178 75t-63 209q0 131 41 244.5t120 183t188 69.5q52 0 94.5 -19z" />
    <glyph glyph-name="uni0298" unicode="&#x298;" horiz-adv-x="787" 
d="M630.5 678.5q74.5 -37.5 114 -106.5t39.5 -162q0 -123 -53.5 -221t-151 -153.5t-222.5 -55.5q-101 0 -175.5 38t-114.5 108t-40 163q0 123 55 220.5t152 152t221 54.5q101 0 175.5 -37.5zM274 498q-55 -86 -56 -220q0 -166 153 -166q111 0 166.5 85.5t55.5 217.5
q0 85 -40.5 127t-111.5 42q-112 0 -167 -86zM340.5 283.5q-21.5 20.5 -21.5 53.5q0 40 29 67.5t70 27.5q35 0 56 -20.5t21 -53.5q0 -41 -28 -68t-70 -27q-35 0 -56.5 20.5z" />
    <glyph glyph-name="uni0299" unicode="&#x299;" horiz-adv-x="535" 
d="M511 184q0 -92 -72 -138t-193 -46h-242l73 529q139 25 229 25q103 0 160.5 -33.5t57.5 -96.5q0 -50 -33 -83.5t-97 -45.5q117 -16 117 -111zM314 347q16 18 16 49q0 39 -39 39q-9 0 -31 -2l-15 -104h27q26 0 42 18zM299.5 144q15.5 21 15.5 54q0 39 -44 39h-39l-17 -114
h38q31 0 46.5 21z" />
    <glyph glyph-name="uni029A" unicode="&#x29a;" horiz-adv-x="567" 
d="M62.5 21.5q-62.5 41.5 -62.5 123.5q0 61 44 97.5t122 41.5q-54 12 -82 39t-28 68q0 48 30.5 85t87 57.5t132.5 20.5q119 0 183 -62.5t64 -171.5q0 -102 -38.5 -178.5t-111.5 -119t-173 -42.5q-105 0 -167.5 41.5zM339 178q25 62 25 140q0 58 -16 81t-48 23
q-24 0 -38.5 -13t-14.5 -35q0 -19 12 -30.5t37 -11.5h17l-35 -120h-5q-75 0 -75 -52q0 -21 15 -32.5t44 -11.5q57 0 82 62z" />
    <glyph glyph-name="uni029B" unicode="&#x29b;" 
d="M739 726l-66 -120q-29 16 -59 16q-24 0 -36 -13.5t-16 -41.5l-13 -92l-93 -86q-62 30 -114 30q-69 0 -100 -62t-31 -154q0 -47 15.5 -66t46.5 -19q29 0 54 9l10 69h-49l-1 124h248l-37 -269q-49 -33 -110.5 -51t-131.5 -18q-245 0 -245 220q0 101 42 181.5t112 125.5
t151 45q39 0 77 -10l6 42q12 85 61.5 131.5t138.5 46.5q83 0 140 -38z" />
    <glyph glyph-name="uni029C" unicode="&#x29c;" horiz-adv-x="570" 
d="M298 0l28 199h-100l-28 -199h-194l74 534h194l-26 -193h100l26 193h194l-74 -534h-194z" />
    <glyph glyph-name="uni029D" unicode="&#x29d;" horiz-adv-x="351" 
d="M198.5 643q-26.5 26 -26.5 67q0 51 35.5 85t87.5 34q44 0 70.5 -26t26.5 -67q0 -51 -35.5 -85t-87.5 -34q-44 0 -70.5 26zM275 -3q43 -13 87 -39l-40 -74q-22 12 -71 28q-30 -71 -85 -105t-144 -34q-68 0 -106 33t-38 89q0 62 45 99.5t115 37.5q30 0 50 -2l70 504h194
l-70 -498q-4 -26 -7 -39zM53.5 -116q14.5 17 21.5 59q-18 2 -35 2q-27 0 -42 -12.5t-15 -33.5q0 -15 8 -23.5t24 -8.5q24 0 38.5 17z" />
    <glyph glyph-name="uni029E" unicode="&#x29e;" horiz-adv-x="551" 
d="M-53 0l177 244l-105 290h210l85 -292l-168 -242h-199zM256 -227l103 761h194l-104 -742z" />
    <glyph glyph-name="uni029F" unicode="&#x29f;" horiz-adv-x="454" 
d="M272 534l-53 -386h210l-41 -148h-384l74 534h194z" />
    <glyph glyph-name="uni02A0" unicode="&#x2a0;" horiz-adv-x="578" 
d="M758 726l-66 -120q-31 16 -60 16q-23 0 -35 -13t-17 -42l-5 -33l-103 -741l-195 -20l37 263q-12 -19 -48.5 -37.5t-80.5 -18.5q-84 0 -129 58t-45 159q0 90 32.5 171t102.5 133.5t177 52.5q33 0 60 -5l2 17q11 87 71.5 142.5t160.5 55.5q82 0 141 -38zM368 415
q-24 3 -43 3q-58 0 -86.5 -68t-28.5 -152q0 -45 12.5 -60.5t33.5 -15.5q42 0 77 60z" />
    <glyph glyph-name="uni02A1" unicode="&#x2a1;" horiz-adv-x="501" 
d="M330 302l-11 -76h94l-14 -106h-94l-17 -120h-194l16 120h-65l14 106h66l18 131l32 10q140 43 140 175q0 80 -75 80q-30 0 -58 -12.5t-60 -39.5l-82 99q58 49 114 72t131 23q108 0 172.5 -57t64.5 -159q0 -90 -41.5 -148t-125.5 -89z" />
    </font>
</defs>
</svg>
