<?xml version="1.0" standalone="no"?>
<!DOCTYPE svg PUBLIC "-//W3C//DTD SVG 1.1//EN" "http://www.w3.org/Graphics/SVG/1.1/DTD/svg11.dtd" >
<svg xmlns="http://www.w3.org/2000/svg" xmlns:xlink="http://www.w3.org/1999/xlink" version="1.1">
<metadata>
Created by FontForge 20170731 at Fri Dec  2 11:32:34 2016
 By Aleksey,,,
Digitized data copyright 2012-2016, The Mozilla Foundation and Telefonica S.A.
</metadata>
<defs>
<font id="FiraSans-Black" horiz-adv-x="560" >
  <font-face 
    font-family="Fira Sans Black"
    font-weight="900"
    font-stretch="normal"
    units-per-em="1000"
    panose-1="2 11 10 3 5 0 0 2 0 4"
    ascent="800"
    descent="-200"
    x-height="534"
    cap-height="696"
    bbox="-800 -355 1360 1245"
    underline-thickness="50"
    underline-position="-150"
    unicode-range="U+000D-FEFF"
  />
<missing-glyph horiz-adv-x="666" 
d="M543 1050v-1400h-420v1400h420zM489 998h-311v-1296h311v1296zM409.5 419q25.5 -32 25.5 -83q0 -53 -22.5 -82t-72.5 -36v-45q0 -11 -7.5 -17.5t-17.5 -6.5t-17.5 6.5t-7.5 17.5v84q53 3 72 19.5t19 57.5q0 33 -13 51t-48 18q-29 0 -52 -11q-8 -3 -13 -3q-11 0 -17.5 6.5
t-6.5 16.5q0 19 29.5 29t63.5 10q60 0 85.5 -32zM340 110q10 -10 10 -25q0 -16 -10 -26.5t-25 -10.5t-25 10.5t-10 26.5q0 15 10 25t25 10t25 -10z" />
    <glyph glyph-name="fi" unicode="fi" horiz-adv-x="613" 
d="M429 752q50 -12 88 -30l-52 -124q-62 24 -116 24q-42 0 -57.5 -14t-15.5 -53v-21h295v-534h-198v400h-97v-400h-198v400h-80v134h80v31q0 89 60 144t184 55q57 0 107 -12z" />
    <glyph glyph-name="fl" unicode="fl" horiz-adv-x="655" 
d="M670 -2q-22 -8 -53.5 -13t-62.5 -5q-77 0 -119.5 44t-42.5 127v468q-28 7 -56 7q-35 0 -47.5 -14.5t-12.5 -52.5v-25h84l-22 -134h-62v-400h-198v400h-80v134h80v31q0 87 58 143t168 56q50 0 114 -17l172 17v-589q0 -40 23 -40q10 0 22 4z" />
    <glyph glyph-name=".notdef" horiz-adv-x="666" 
d="M543 1050v-1400h-420v1400h420zM489 998h-311v-1296h311v1296zM409.5 419q25.5 -32 25.5 -83q0 -53 -22.5 -82t-72.5 -36v-45q0 -11 -7.5 -17.5t-17.5 -6.5t-17.5 6.5t-7.5 17.5v84q53 3 72 19.5t19 57.5q0 33 -13 51t-48 18q-29 0 -52 -11q-8 -3 -13 -3q-11 0 -17.5 6.5
t-6.5 16.5q0 19 29.5 29t63.5 10q60 0 85.5 -32zM340 110q10 -10 10 -25q0 -16 -10 -26.5t-25 -10.5t-25 10.5t-10 26.5q0 15 10 25t25 10t25 -10z" />
    <glyph glyph-name=".null" horiz-adv-x="0" 
 />
    <glyph glyph-name="nonmarkingreturn" unicode="&#xd;" horiz-adv-x="220" 
 />
    <glyph glyph-name="space" unicode=" " horiz-adv-x="220" 
 />
    <glyph glyph-name="exclam" unicode="!" horiz-adv-x="240" 
d="M224 696l-26 -426h-156l-26 426h208zM193 155.5q30 -30.5 30 -72.5t-30 -72.5t-73 -30.5t-73 30.5t-30 72.5t30 72.5t73 30.5t73 -30.5z" />
    <glyph glyph-name="quotedbl" unicode="&#x22;" horiz-adv-x="464" 
d="M62 406l-22 290h170l-22 -290h-126zM276 406l-22 290h170l-22 -290h-126z" />
    <glyph glyph-name="numbersign" unicode="#" horiz-adv-x="580" 
d="M565 436h-65l-24 -179h52v-126h-69l-17 -131h-163l17 131h-68l-17 -131h-163l17 131h-50v126h67l24 179h-54v126h70l16 118h163l-16 -118h68l16 118h163l-16 -118h49v-126zM313 257l24 179h-68l-24 -179h68z" />
    <glyph glyph-name="dollar" unicode="$" 
d="M495.5 74.5q-49.5 -55.5 -137.5 -74.5v-165h-135v158q-135 12 -223 98l96 105q75 -64 163 -64q41 0 61.5 16t20.5 43q0 20 -9 33.5t-31.5 24.5t-66.5 25q-115 36 -160.5 87t-45.5 127q0 79 53.5 131t141.5 66v149h135v-150q102 -16 170 -84l-86 -102q-67 53 -142 53
q-35 0 -53 -12.5t-18 -34.5q0 -17 10 -28t33.5 -21t75.5 -26q104 -34 150.5 -84t46.5 -137q0 -78 -49.5 -133.5z" />
    <glyph glyph-name="percent" unicode="%" horiz-adv-x="879" 
d="M614 725l118 -73l-464 -697l-117 73zM301.5 673q42.5 -23 67.5 -65t25 -98t-25 -98t-67.5 -65t-94.5 -23t-94.5 23t-67.5 65t-25 98t25 98t67.5 65t94.5 23t94.5 -23zM152 510q0 -72 55 -72q54 0 54 72t-54 72q-55 0 -55 -72zM766.5 329q42.5 -23 67.5 -65t25 -98
t-25 -98t-67.5 -65t-94.5 -23t-95 23t-68 65.5t-25 97.5t25 97.5t68 65.5t95 23t94.5 -23zM617 166q0 -72 55 -72q54 0 54 72t-54 72q-55 0 -55 -72z" />
    <glyph glyph-name="ampersand" unicode="&#x26;" horiz-adv-x="779" 
d="M445 694.5q53 -21.5 80.5 -59t27.5 -84.5q0 -59 -32 -103.5t-96 -89.5l111 -103q23 50 40 128l160 -47q-38 -106 -93 -179l126 -108l-176 -69l-67 64q-93 -64 -217 -64q-78 0 -137.5 24.5t-92 70t-32.5 104.5t31 102.5t102 90.5q-56 55 -75.5 90.5t-19.5 79.5
q0 45 25.5 85t78.5 64.5t130 24.5q73 0 126 -21.5zM287 579.5q-13 -13.5 -13 -37.5q0 -20 8 -36.5t36 -44.5q26 19 36.5 39t10.5 47q0 21 -11 33.5t-32 12.5q-22 0 -35 -13.5zM256 191q0 -34 24 -54.5t66 -20.5q48 0 85 18l-139 132q-36 -30 -36 -75z" />
    <glyph glyph-name="quotesingle" unicode="'" horiz-adv-x="250" 
d="M62 406l-22 290h170l-22 -290h-126z" />
    <glyph glyph-name="parenleft" unicode="(" horiz-adv-x="325" 
d="M330 782q-69 -96 -98 -199.5t-29 -232.5t29 -232.5t98 -199.5l-127 -85q-64 87 -104.5 155.5t-67 159t-26.5 202.5t26.5 202.5t67 159t104.5 155.5z" />
    <glyph glyph-name="parenright" unicode=")" horiz-adv-x="325" 
d="M226.5 711.5q40.5 -68.5 67 -159t26.5 -202.5t-26.5 -202.5t-67 -159t-104.5 -155.5l-127 85q69 96 98 199.5t29 232.5t-29 232.5t-98 199.5l127 85q64 -87 104.5 -155.5z" />
    <glyph glyph-name="asterisk" unicode="*" horiz-adv-x="455" 
d="M455 520l-134 -18l99 -93l-133 -97l-59 123l-58 -124l-133 97l98 94l-135 17l51 153l119 -64l-24 136h164l-24 -136l118 65z" />
    <glyph glyph-name="plus" unicode="+" horiz-adv-x="550" 
d="M355 567v-160h155v-150h-155v-160h-160v160h-155v150h155v160h160z" />
    <glyph glyph-name="comma" unicode="," horiz-adv-x="240" 
d="M193.5 156.5q29.5 -29.5 29.5 -73.5q0 -24 -8.5 -49.5t-31.5 -77.5l-62 -140h-102l44 183q-22 14 -34 36t-12 49q0 44 29.5 73t73.5 29t73.5 -29.5z" />
    <glyph glyph-name="hyphen" unicode="-" horiz-adv-x="410" 
d="M35 238v150h340v-150h-340z" />
    <glyph glyph-name="period" unicode="." horiz-adv-x="240" 
d="M193 155.5q30 -30.5 30 -72.5t-30 -72.5t-73 -30.5t-73 30.5t-30 72.5t30 72.5t73 30.5t73 -30.5z" />
    <glyph glyph-name="slash" unicode="/" horiz-adv-x="520" 
d="M292 822l174 -40l-237 -899l-175 40z" />
    <glyph glyph-name="zero" unicode="0" horiz-adv-x="602" 
d="M504 603.5q71 -92.5 71 -264.5t-71 -265.5t-203 -93.5t-203 93.5t-71 265.5t71 264.5t203 92.5t203 -92.5zM257.5 534.5q-15.5 -18.5 -22 -64.5t-6.5 -131q0 -86 6.5 -131.5t22 -64.5t43.5 -19q29 0 44 17.5t21.5 63.5t6.5 134q0 89 -6.5 134.5t-21.5 62.5t-44 17
q-28 0 -43.5 -18.5z" />
    <glyph glyph-name="one" unicode="1" horiz-adv-x="482" 
d="M417 680v-680h-192v492l-139 -85l-86 129l241 144h176z" />
    <glyph glyph-name="two" unicode="2" horiz-adv-x="530" 
d="M382 669q57 -27 85.5 -72.5t28.5 -99.5q0 -51 -18.5 -95t-72 -104t-158.5 -150h263l-20 -148h-467v136q116 110 171.5 169t77.5 97t22 73q0 34 -19 53.5t-53 19.5q-33 0 -59.5 -16.5t-54.5 -51.5l-113 90q43 58 106 92t143 34q81 0 138 -27z" />
    <glyph glyph-name="three" unicode="3" horiz-adv-x="532" 
d="M378.5 674q54.5 -22 82.5 -61t28 -89q0 -61 -34 -103t-100 -62q69 -8 113 -49.5t44 -120.5q0 -57 -31.5 -104.5t-94 -76t-150.5 -28.5q-161 0 -251 110l103 101q35 -34 65.5 -48.5t68.5 -14.5q39 0 63.5 20t24.5 58q0 43 -23.5 63t-73.5 20h-60l22 132h41q41 0 62 18.5
t21 50.5q0 30 -20.5 46.5t-56.5 16.5q-69 0 -128 -57l-97 102q101 98 250 98q77 0 131.5 -22z" />
    <glyph glyph-name="four" unicode="4" horiz-adv-x="585" 
d="M570 280v-146h-70v-134h-194l-1 134h-285v129l187 438l169 -60l-153 -361h84l23 148h170v-148h70z" />
    <glyph glyph-name="five" unicode="5" horiz-adv-x="557" 
d="M475 542h-235v-109q46 21 95 21q56 0 100.5 -26.5t70.5 -77.5t26 -121q0 -74 -35 -130.5t-100 -87.5t-151 -31q-151 0 -241 113l109 99q50 -66 123 -66q45 0 69 25.5t24 74.5q0 52 -20.5 74.5t-58.5 22.5q-33 0 -72 -24h-129v381h446z" />
    <glyph glyph-name="six" unicode="6" horiz-adv-x="582" 
d="M472 436q45 -28 70 -80t25 -123q0 -68 -31 -125.5t-91 -92.5t-142 -35q-138 0 -207 87t-69 239q0 117 39 205t111 136.5t170 48.5q49 0 90.5 -12.5t72.5 -33.5l-71 -115q-22 12 -41.5 18.5t-44.5 6.5q-48 0 -78.5 -36t-39.5 -108q60 48 133 48q59 0 104 -28zM353.5 148
q15.5 30 15.5 84q0 56 -14.5 78.5t-48.5 22.5q-35 0 -71 -30q0 -71 6.5 -110.5t21.5 -57t42 -17.5q33 0 48.5 30z" />
    <glyph glyph-name="seven" unicode="7" horiz-adv-x="482" 
d="M472 680v-130l-247 -570l-179 60l218 494h-259v146h467z" />
    <glyph glyph-name="eight" unicode="8" horiz-adv-x="599" 
d="M547.5 285.5q31.5 -44.5 31.5 -100.5q0 -55 -33 -102t-97 -75t-154 -28q-86 0 -148 27.5t-94.5 73.5t-32.5 101q0 56 31.5 97.5t89.5 66.5q-95 62 -95 163q0 53 31 95.5t89 67t134 24.5q116 0 184.5 -47.5t68.5 -129.5q0 -42 -26 -83t-79 -71q68 -35 99.5 -79.5z
M254 551.5q-17 -15.5 -17 -45.5q0 -26 13 -45.5t43 -34.5l24 -10q27 21 36 43t9 49t-15.5 43t-45.5 16t-47 -15.5zM362.5 138q20.5 20 20.5 50q0 33 -18 52t-61 37l-38 14q-25 -17 -37.5 -42t-12.5 -55q0 -34 23.5 -55t62.5 -21q40 0 60.5 20z" />
    <glyph glyph-name="nine" unicode="9" horiz-adv-x="582" 
d="M438 662.5q62 -33.5 93 -93t31 -136.5q0 -137 -49 -231t-150.5 -151t-260.5 -83l-39 136q88 19 142 41t87.5 54.5t53.5 83.5q-28 -28 -58.5 -41t-74.5 -13q-54 0 -99 27.5t-72 79t-27 120.5q0 70 35.5 124.5t98 85t139.5 30.5q88 0 150 -33.5zM322 374q21 11 37 34
q1 58 -5.5 90.5t-22 47t-45.5 14.5q-33 0 -53 -24t-20 -70q0 -103 66 -103q22 0 43 11z" />
    <glyph glyph-name="colon" unicode=":" horiz-adv-x="240" 
d="M193 155.5q30 -30.5 30 -72.5t-30 -72.5t-73 -30.5t-73 30.5t-30 72.5t30 72.5t73 30.5t73 -30.5zM193 487.5q30 -30.5 30 -72.5t-30 -72.5t-73 -30.5t-73 30.5t-30 72.5t30 72.5t73 30.5t73 -30.5z" />
    <glyph glyph-name="semicolon" unicode=";" horiz-adv-x="240" 
d="M193.5 156.5q29.5 -29.5 29.5 -73.5q0 -24 -8.5 -49.5t-31.5 -77.5l-62 -140h-102l44 183q-22 14 -34 36t-12 49q0 44 29.5 73t73.5 29t73.5 -29.5zM193 487.5q30 -30.5 30 -72.5t-30 -72.5t-73 -30.5t-73 30.5t-30 72.5t30 72.5t73 30.5t73 -30.5z" />
    <glyph glyph-name="less" unicode="&#x3c;" horiz-adv-x="530" 
d="M445 591l60 -132l-309 -126l309 -118l-60 -140l-420 174v167z" />
    <glyph glyph-name="equal" unicode="=" horiz-adv-x="530" 
d="M40 367v150h450v-150h-450zM40 147v150h450v-150h-450z" />
    <glyph glyph-name="greater" unicode="&#x3e;" horiz-adv-x="530" 
d="M85 591l420 -175v-167l-420 -174l-60 140l309 118l-309 126z" />
    <glyph glyph-name="question" unicode="?" horiz-adv-x="495" 
d="M383.5 692.5q53.5 -23.5 80 -63t26.5 -87.5q0 -43 -15 -73t-36 -49t-55 -42q-38 -27 -55.5 -46.5t-17.5 -48.5v-13h-176v19q0 50 15 84t35 53.5t50 39.5q26 17 37 28.5t11 28.5q0 19 -13 29t-38 10q-53 0 -104 -54l-123 96q95 112 249 112q76 0 129.5 -23.5zM297 155.5
q30 -30.5 30 -72.5t-30 -72.5t-73 -30.5t-73 30.5t-30 72.5t30 72.5t73 30.5t73 -30.5z" />
    <glyph glyph-name="at" unicode="@" horiz-adv-x="1020" 
d="M621 496q50 -13 90 -35v-239q0 -43 2.5 -65t9.5 -31.5t22 -9.5q31 0 50 44.5t19 158.5q0 258 -288 258q-154 0 -236 -89.5t-82 -243.5q0 -159 81.5 -244.5t238.5 -85.5q48 0 104 10t95 25l45 -132q-46 -19 -115.5 -31.5t-129.5 -12.5q-150 0 -261 57.5t-171 164
t-60 248.5q0 137 64 245t176 168t252 60q139 0 243 -55t159.5 -146t55.5 -194q0 -94 -30 -167t-83 -113t-118 -40q-55 0 -91.5 30t-44.5 71q-20 -46 -56.5 -71t-86.5 -25q-99 0 -144 62t-45 166q0 124 62 199.5t180 75.5q43 0 93 -13zM546 153v230q-14 6 -29 6
q-26 0 -41.5 -34t-15.5 -122q0 -64 9 -86t32 -22q29 0 45 28z" />
    <glyph glyph-name="A" unicode="A" horiz-adv-x="601" 
d="M408 0l-27 135h-165l-26 -135h-215l203 696h246l202 -696h-218zM245 279h107l-54 273z" />
    <glyph glyph-name="B" unicode="B" horiz-adv-x="622" 
d="M564 317.5q43 -37.5 43 -111.5q0 -115 -83.5 -160.5t-236.5 -45.5h-244v696h217q155 0 236.5 -41.5t81.5 -138.5q0 -62 -36 -97.5t-90 -49.5q69 -14 112 -51.5zM249 555v-128h35q47 0 66 15.5t19 52.5q0 31 -20.5 45.5t-69.5 14.5h-30zM368 161q27 16 27 59
q0 40 -24.5 58.5t-73.5 18.5h-48v-152h40q52 0 79 16z" />
    <glyph glyph-name="C" unicode="C" horiz-adv-x="584" 
d="M576 634l-95 -112q-30 22 -58.5 34t-60.5 12q-61 0 -94.5 -55t-33.5 -163t34 -161.5t97 -53.5q34 0 63.5 14t65.5 42l90 -114q-42 -42 -101.5 -69.5t-127.5 -27.5q-103 0 -178 42.5t-116 125.5t-41 202q0 114 42 196.5t117 126t173 43.5q129 0 224 -82z" />
    <glyph glyph-name="D" unicode="D" horiz-adv-x="656" 
d="M535 621.5q101 -74.5 101 -270.5q0 -193 -97 -272t-261 -79h-235v696h223q168 0 269 -74.5zM249 551v-406h41q48 0 77 19t43 63.5t14 123.5q0 78 -14.5 121.5t-43.5 61t-75 17.5h-42z" />
    <glyph glyph-name="E" unicode="E" horiz-adv-x="520" 
d="M500 696l-21 -143h-230v-130h202v-139h-202v-140h246v-144h-452v696h457z" />
    <glyph glyph-name="F" unicode="F" horiz-adv-x="485" 
d="M43 0v696h442l-21 -143h-215v-152h189v-143h-189v-258h-206z" />
    <glyph glyph-name="G" unicode="G" horiz-adv-x="653" 
d="M508.5 691q62.5 -25 109.5 -66l-100 -104q-37 27 -67 39t-68 12q-73 0 -112 -55.5t-39 -168.5q0 -85 12 -133.5t37.5 -68.5t67.5 -20q37 0 71 17v127h-70l-19 139h287v-349q-55 -38 -126 -59t-137 -21q-171 0 -253 93.5t-82 275.5q0 115 45 198t125 126t181 43
q75 0 137.5 -25z" />
    <glyph glyph-name="H" unicode="H" horiz-adv-x="657" 
d="M408 0v281h-159v-281h-206v696h206v-257h159v257h206v-696h-206z" />
    <glyph glyph-name="I" unicode="I" horiz-adv-x="292" 
d="M249 696v-696h-206v696h206z" />
    <glyph glyph-name="J" unicode="J" horiz-adv-x="325" 
d="M284 111q0 -91 -35 -150.5t-88.5 -92.5t-125.5 -57l-55 145q43 16 64 38.5t27.5 51t6.5 72.5v578h206v-585z" />
    <glyph glyph-name="K" unicode="K" horiz-adv-x="659" 
d="M249 696v-696h-206v696h206zM661 696l-197 -309l215 -387h-234l-190 371l194 325h212z" />
    <glyph glyph-name="L" unicode="L" horiz-adv-x="522" 
d="M249 696v-538h263l-21 -158h-448v696h206z" />
    <glyph glyph-name="M" unicode="M" horiz-adv-x="791" 
d="M776 0h-203l-5 247q-1 29 -1 87q0 102 8 197l-82 -461h-195l-88 461q13 -139 13 -238v-45l-5 -248h-203l50 696h254l80 -451l72 451h255z" />
    <glyph glyph-name="N" unicode="N" horiz-adv-x="651" 
d="M608 0h-258l-152 508l3 -22q11 -73 17.5 -133.5t6.5 -136.5v-216h-182v696h253l158 -510l-3 21q-12 69 -18.5 128.5t-6.5 137.5v223h182v-696z" />
    <glyph glyph-name="O" unicode="O" horiz-adv-x="690" 
d="M585.5 619.5q84.5 -96.5 84.5 -270.5q0 -113 -38 -196t-111 -128t-176 -45q-156 0 -240.5 97.5t-84.5 271.5q0 113 38 195.5t111 127t176 44.5q156 0 240.5 -96.5zM260 519.5q-26 -50.5 -26 -170.5t26 -171.5t85 -51.5q60 0 85.5 51t25.5 172q0 120 -26 170.5t-85 50.5
t-85 -50.5z" />
    <glyph glyph-name="P" unicode="P" horiz-adv-x="611" 
d="M516.5 636.5q79.5 -59.5 79.5 -174.5q0 -119 -75.5 -182t-203.5 -63h-68v-217h-206v696h251q143 0 222.5 -59.5zM386 462q0 91 -95 91h-42v-191h48q89 0 89 100z" />
    <glyph glyph-name="Q" unicode="Q" horiz-adv-x="690" 
d="M625.5 33q49.5 -15 94.5 -48l-121 -158q-53 70 -116.5 113.5t-152.5 43.5q-97 0 -166.5 43t-106.5 125t-37 197q0 113 38 195.5t111 127t176 44.5q156 0 240.5 -96.5t84.5 -270.5q0 -114 -47.5 -186.5t-118.5 -114.5q72 0 121.5 -15zM260 177.5q26 -51.5 85 -51.5
q60 0 85.5 51t25.5 172q0 120 -26 170.5t-85 50.5t-85 -50.5t-26 -170.5t26 -171.5z" />
    <glyph glyph-name="R" unicode="R" horiz-adv-x="624" 
d="M287 248h-38v-248h-206v696h255q151 0 225 -53.5t74 -167.5q0 -65 -29 -108t-94 -81l170 -286h-228zM249 386h54q42 0 63 22t21 67q0 80 -94 80h-44v-169z" />
    <glyph glyph-name="S" unicode="S" horiz-adv-x="588" 
d="M556 621l-91 -107q-70 56 -149 56q-37 0 -56 -13t-19 -37q0 -18 10.5 -29.5t35 -21.5t79.5 -28q110 -35 158.5 -88t48.5 -145q0 -67 -35.5 -118.5t-101.5 -80.5t-156 -29q-92 0 -162 29t-118 76l101 111q79 -68 171 -68q43 0 65 17.5t22 45.5q0 21 -9.5 35t-33.5 26
t-70 26q-121 38 -169 91.5t-48 133.5q0 65 35 113t96.5 74t138.5 26q159 0 257 -95z" />
    <glyph glyph-name="T" unicode="T" horiz-adv-x="554" 
d="M559 696l-21 -154h-158v-542h-206v542h-169v154h554z" />
    <glyph glyph-name="U" unicode="U" horiz-adv-x="644" 
d="M611 236q0 -73 -32 -131t-97 -91.5t-160 -33.5q-143 0 -216 69t-73 187v460h206v-454q0 -59 19.5 -86.5t63.5 -27.5t63.5 27.5t19.5 86.5v454h206v-460z" />
    <glyph glyph-name="V" unicode="V" horiz-adv-x="579" 
d="M604 696l-176 -696h-266l-187 696h217l106 -553l95 553h211z" />
    <glyph glyph-name="W" unicode="W" horiz-adv-x="859" 
d="M859 696l-101 -696h-268l-62 500l-69 -500h-262l-97 696h206l44 -547l74 547h215l62 -547l60 547h198z" />
    <glyph glyph-name="X" unicode="X" horiz-adv-x="606" 
d="M422 375l194 -375h-222l-96 239l-90 -239h-218l186 369l-173 327h221l76 -200l85 200h217z" />
    <glyph glyph-name="Y" unicode="Y" horiz-adv-x="620" 
d="M635 696l-222 -439v-257h-206v256l-222 440h225l103 -284l104 284h218z" />
    <glyph glyph-name="Z" unicode="Z" horiz-adv-x="557" 
d="M533 696v-153l-277 -382h286l-20 -161h-512v151l286 389h-258v156h495z" />
    <glyph glyph-name="bracketleft" unicode="[" horiz-adv-x="325" 
d="M315 827v-143h-112v-669h112v-142h-300v954h300z" />
    <glyph glyph-name="backslash" unicode="\" horiz-adv-x="520" 
d="M228 822l238 -899l-175 -40l-237 899z" />
    <glyph glyph-name="bracketright" unicode="]" horiz-adv-x="325" 
d="M310 827v-954h-300v143h112v669h-112v142h300z" />
    <glyph glyph-name="asciicircum" unicode="^" horiz-adv-x="570" 
d="M376 847l189 -320h-189l-92 178l-86 -178h-193l189 320h182z" />
    <glyph glyph-name="underscore" unicode="_" horiz-adv-x="520" 
d="M5 -188v150h510v-150h-510z" />
    <glyph glyph-name="grave" unicode="`" horiz-adv-x="364" 
d="M104 856l230 -144l-53 -99l-251 99z" />
    <glyph glyph-name="a" unicode="a" horiz-adv-x="551" 
d="M511 131.5q7 -13.5 25 -20.5l-40 -127q-54 4 -88 20.5t-56 53.5q-52 -78 -161 -78q-79 0 -127.5 47.5t-48.5 122.5q0 89 66 136t192 47h38v13q0 40 -16 54t-61 14q-24 0 -61.5 -7.5t-76.5 -20.5l-43 126q49 20 106.5 31t104.5 11q126 0 183 -48.5t57 -148.5v-184
q0 -28 7 -41.5zM285.5 128q15.5 9 25.5 23v79h-21q-42 0 -62 -15t-20 -46q0 -23 12 -36.5t32 -13.5q18 0 33.5 9z" />
    <glyph glyph-name="b" unicode="b" horiz-adv-x="599" 
d="M527 478.5q50 -75.5 50 -212.5q0 -82 -25.5 -147t-74 -102t-114.5 -37q-43 0 -78.5 17.5t-59.5 48.5l-7 -46h-176v744l198 20v-277q22 30 60 48.5t80 18.5q97 0 147 -75.5zM355.5 154q18.5 33 18.5 112q0 86 -16.5 116t-47.5 30q-41 0 -70 -50v-202q23 -39 63 -39
q34 0 52.5 33z" />
    <glyph glyph-name="c" unicode="c" horiz-adv-x="479" 
d="M489 483l-82 -115q-46 37 -94 37q-46 0 -68 -32t-22 -110q0 -75 22.5 -102.5t65.5 -27.5q23 0 43 7.5t50 26.5l85 -121q-81 -66 -189 -66q-87 0 -151 35.5t-98 100t-34 147.5q0 84 34.5 150t97.5 103.5t146 37.5q114 0 194 -71z" />
    <glyph glyph-name="d" unicode="d" horiz-adv-x="601" 
d="M559 744v-744h-176l-7 55q-57 -75 -151 -75q-101 0 -152 77t-51 213q0 82 28 146.5t78.5 101t116.5 36.5q69 0 116 -42v252zM361 169v214q-14 15 -28 22.5t-31 7.5q-35 0 -56 -34.5t-21 -110.5q0 -88 17.5 -117t49.5 -29q42 0 69 47z" />
    <glyph glyph-name="e" unicode="e" horiz-adv-x="557" 
d="M541 211h-324q8 -54 33.5 -72.5t73.5 -18.5q28 0 57 11.5t64 35.5l80 -108q-97 -79 -220 -79q-142 0 -215 78.5t-73 207.5q0 80 30.5 145.5t90.5 104t145 38.5q79 0 138 -33t91.5 -96t32.5 -151q0 -25 -4 -63zM350 330q-1 47 -14.5 73t-48.5 26q-33 0 -49.5 -23
t-21.5 -83h134v7z" />
    <glyph glyph-name="f" unicode="f" horiz-adv-x="369" 
d="M281 607q-13 -15 -13 -52v-21h124l-22 -134h-102v-400h-198v400h-72v134h72v31q0 87 58 143t168 56q42 0 85 -10.5t72 -26.5l-52 -125q-37 20 -78 20q-29 0 -42 -15z" />
    <glyph glyph-name="g" unicode="g" horiz-adv-x="570" 
d="M570 498q-53 -24 -152 -24q54 -23 79 -54.5t25 -85.5q0 -50 -29 -90.5t-82.5 -63t-125.5 -22.5q-39 0 -57 3q-12 -6 -12 -19q0 -11 10 -18t42 -7h77q66 0 115 -20t75.5 -56.5t26.5 -82.5q0 -86 -76.5 -135.5t-219.5 -49.5q-105 0 -164.5 22t-83 61t-23.5 95h177
q0 -21 8 -32t29 -16t63 -5q54 0 72.5 12.5t18.5 33.5q0 17 -13.5 28t-43.5 11h-74q-92 0 -136 29.5t-44 77.5q0 31 19 60t49 47q-54 29 -77 66t-23 90q0 95 68 148t183 53q76 -3 136.5 19.5t119.5 62.5zM233 408q-17 -18 -17 -51q0 -36 17 -54.5t44 -18.5q61 0 61 76
q0 35 -15 50.5t-46 15.5q-27 0 -44 -18z" />
    <glyph glyph-name="h" unicode="h" horiz-adv-x="572" 
d="M496.5 512q38.5 -42 38.5 -118v-394h-198v358q0 30 -7.5 41t-22.5 11q-33 0 -67 -53v-357h-198v744l198 20v-278q34 36 70 52t81 16q67 0 105.5 -42z" />
    <glyph glyph-name="i" unicode="i" horiz-adv-x="282" 
d="M240 534v-534h-198v534h198zM220.5 798.5q31.5 -30.5 31.5 -75.5t-31.5 -75.5t-79.5 -30.5t-79.5 30.5t-31.5 75.5t31.5 75.5t79.5 30.5t79.5 -30.5z" />
    <glyph glyph-name="j" unicode="j" horiz-adv-x="282" 
d="M240 77q0 -130 -64 -198.5t-178 -105.5l-68 144q39 18 62 35t36.5 44t13.5 69v469h198v-457zM220.5 798.5q31.5 -30.5 31.5 -75.5t-31.5 -75.5t-79.5 -30.5t-79.5 30.5t-31.5 75.5t31.5 75.5t79.5 30.5t79.5 -30.5z" />
    <glyph glyph-name="k" unicode="k" horiz-adv-x="576" 
d="M240 764v-764h-198v744zM583 534l-141 -234l149 -300h-219l-128 292l143 242h196z" />
    <glyph glyph-name="l" unicode="l" horiz-adv-x="300" 
d="M80.5 25.5q-43.5 45.5 -43.5 128.5v590l198 20v-602q0 -27 24 -27q11 0 21 4l35 -141q-47 -18 -110 -18q-81 0 -124.5 45.5z" />
    <glyph glyph-name="m" unicode="m" horiz-adv-x="837" 
d="M762.5 511.5q37.5 -42.5 37.5 -117.5v-394h-198v358q0 29 -7 40.5t-20 11.5q-15 0 -29 -13.5t-26 -39.5v-357h-198v358q0 29 -7 40.5t-20 11.5q-15 0 -29 -13.5t-26 -39.5v-357h-198v534h173l14 -54q32 39 69.5 56.5t85.5 17.5q42 0 73 -20t47 -57q34 40 72 58.5t88 18.5
q61 0 98.5 -42.5z" />
    <glyph glyph-name="n" unicode="n" horiz-adv-x="572" 
d="M496.5 512q38.5 -42 38.5 -118v-394h-198v358q0 30 -7.5 41t-22.5 11q-33 0 -67 -53v-357h-198v534h173l14 -55q37 39 75.5 57t86.5 18q67 0 105.5 -42z" />
    <glyph glyph-name="o" unicode="o" horiz-adv-x="584" 
d="M493.5 479q73.5 -75 73.5 -213q0 -86 -33.5 -151t-95.5 -100t-146 -35q-128 0 -201.5 75t-73.5 213q0 86 33.5 151t95.5 100t146 35q128 0 201.5 -75zM237 378q-17 -34 -17 -110q0 -79 17 -112.5t55 -33.5t55 34t17 110q0 79 -17 112.5t-55 33.5t-55 -34z" />
    <glyph glyph-name="p" unicode="p" horiz-adv-x="599" 
d="M526.5 479q50.5 -75 50.5 -210q0 -83 -26.5 -148.5t-75 -103t-111.5 -37.5q-76 0 -124 53v-240l-198 -20v761h176l8 -52q32 38 71.5 55t79.5 17q99 0 149.5 -75zM374 266q0 61 -8 93t-21.5 42.5t-34.5 10.5q-42 0 -70 -50v-204q13 -20 27 -28.5t32 -8.5q75 0 75 145z" />
    <glyph glyph-name="q" unicode="q" horiz-adv-x="601" 
d="M559 534v-761l-198 20v248q-52 -61 -136 -61q-101 0 -152 77t-51 213q0 82 28 147t79 101t117 36q77 0 131 -57l9 37h173zM361 169v214q-15 15 -28 22.5t-30 7.5q-36 0 -57 -34.5t-21 -110.5q0 -88 17.5 -117t49.5 -29q42 0 69 47z" />
    <glyph glyph-name="r" unicode="r" horiz-adv-x="410" 
d="M420 542l-31 -191q-27 8 -49 8q-44 0 -65.5 -29t-34.5 -87v-243h-198v534h173l16 -100q17 53 54 85t81 32q26 0 54 -9z" />
    <glyph glyph-name="s" unicode="s" horiz-adv-x="493" 
d="M369.5 535.5q54.5 -18.5 91.5 -50.5l-70 -107q-29 18 -62 28.5t-65 10.5q-45 0 -45 -24q0 -10 6 -16.5t28.5 -16t72.5 -24.5q80 -25 118.5 -63.5t38.5 -108.5q0 -54 -32.5 -96t-90 -65t-130.5 -23q-70 0 -131.5 22.5t-103.5 62.5l94 104q30 -24 65.5 -38.5t70.5 -14.5
q27 0 41.5 8.5t14.5 24.5q0 14 -6.5 21.5t-26.5 15t-70 22.5q-155 46 -155 173q0 49 27.5 88t80 62t125.5 23q59 0 113.5 -18.5z" />
    <glyph glyph-name="t" unicode="t" horiz-adv-x="401" 
d="M416 26q-31 -22 -75.5 -34t-84.5 -12q-99 1 -146.5 55.5t-47.5 161.5v203h-64v134h64v112l198 23v-135h120l-20 -134h-100v-201q0 -35 11 -49.5t31 -14.5q25 0 50 14z" />
    <glyph glyph-name="u" unicode="u" horiz-adv-x="566" 
d="M524 0h-173l-7 58q-55 -78 -158 -78q-75 0 -112 45t-37 125v384h198v-358q0 -29 8.5 -40.5t24.5 -11.5q14 0 29.5 11t28.5 33v366h198v-534z" />
    <glyph glyph-name="v" unicode="v" horiz-adv-x="526" 
d="M541 534l-159 -534h-234l-163 534h215l67 -391l74 391h200z" />
    <glyph glyph-name="w" unicode="w" horiz-adv-x="768" 
d="M773 534l-105 -534h-227l-58 358l-55 -358h-226l-107 534h200l32 -383l70 383h185l56 -383l45 383h190z" />
    <glyph glyph-name="x" unicode="x" horiz-adv-x="528" 
d="M383 286l165 -286h-221l-70 184l-64 -184h-213l163 280l-149 254h219l52 -157l47 157h207z" />
    <glyph glyph-name="y" unicode="y" horiz-adv-x="534" 
d="M385 1q-34 -111 -116 -168t-216 -61l-21 135q77 8 114.5 28t58.5 65h-68l-152 534h210l67 -413l83 413h204z" />
    <glyph glyph-name="z" unicode="z" horiz-adv-x="472" 
d="M455 534v-137l-219 -251h226l-17 -146h-440v138l222 252h-202v144h430z" />
    <glyph glyph-name="braceleft" unicode="{" horiz-adv-x="325" 
d="M310 708q-40 0 -52 -11.5t-12 -42.5v-154q0 -71 -29.5 -104t-91.5 -47q60 -10 91 -45t31 -104v-154q0 -31 12 -42.5t51 -11.5v-134q-100 0 -154 20t-74 57t-20 97v153q0 47 -12.5 65.5t-49.5 18.5v162q37 0 49.5 18.5t12.5 65.5v153q0 60 20 97.5t74 57t154 19.5v-134z
" />
    <glyph glyph-name="bar" unicode="|" horiz-adv-x="360" 
d="M273 812v-919h-186v919h186z" />
    <glyph glyph-name="braceright" unicode="}" horiz-adv-x="325" 
d="M169 822.5q54 -19.5 74 -57t20 -97.5v-153q0 -47 12.5 -65.5t49.5 -18.5v-162q-37 0 -49.5 -18.5t-12.5 -65.5v-153q0 -60 -20 -97t-74 -57t-154 -20v134q39 0 51 11.5t12 42.5v154q0 69 31 104t91 45q-62 14 -91.5 47t-29.5 104v154q0 31 -12 42.5t-52 11.5v134
q100 0 154 -19.5z" />
    <glyph glyph-name="asciitilde" unicode="~" horiz-adv-x="530" 
d="M288.5 230.5q-24.5 9.5 -54.5 27.5q-22 13 -34 18t-27 5q-22 0 -34 -10t-21.5 -22.5t-12.5 -17.5l-100 50q32 67 73 106t102 39q37 0 61.5 -9.5t54.5 -27.5q22 -13 34 -18t27 -5q21 0 33 9t21.5 21t14.5 18l99 -48q-32 -67 -73 -106t-102 -39q-37 0 -61.5 9.5z" />
    <glyph glyph-name="uni00A0" unicode="&#xa0;" horiz-adv-x="220" 
 />
    <glyph glyph-name="exclamdown" unicode="&#xa1;" horiz-adv-x="240" 
d="M193 487.5q30 -30.5 30 -72.5t-30 -72.5t-73 -30.5t-73 30.5t-30 72.5t30 72.5t73 30.5t73 -30.5zM198 228l26 -443h-208l26 443h156z" />
    <glyph glyph-name="cent" unicode="&#xa2;" horiz-adv-x="479" 
d="M489 46q-60 -49 -133 -61v-150h-135v154q-96 22 -150 95t-54 179q0 108 55 184.5t150 98.5v150h134v-147q75 -14 133 -66l-82 -115q-46 37 -94 37q-46 0 -68 -32t-22 -110q0 -75 22.5 -102.5t65.5 -27.5q23 0 43 7.5t50 26.5z" />
    <glyph glyph-name="sterling" unicode="&#xa3;" horiz-adv-x="551" 
d="M284.5 194.5q-13.5 -27.5 -52.5 -48.5h299l-22 -146h-489v139q39 10 57 25.5t22.5 34t4.5 51.5v54h-69v95h69v76q0 99 58.5 160t169.5 61q75 0 128 -27t91 -82l-119 -86q-17 28 -35.5 39.5t-41.5 11.5q-31 0 -44 -20.5t-13 -58.5v-74h171v-95h-171v-41q0 -41 -13.5 -68.5
z" />
    <glyph glyph-name="currency" unicode="&#xa4;" 
d="M476 226l75 -75l-79 -79l-78 76q-51 -28 -113 -28t-113 28l-79 -76l-79 79l76 75q-31 53 -31 116q0 62 31 115l-76 77l79 79l78 -77q51 28 114 28q64 0 114 -29l77 78l79 -79l-75 -76q31 -53 31 -116q0 -65 -31 -116zM342.5 271.5q20.5 24.5 20.5 70.5q0 45 -20.5 69
t-61.5 24q-40 0 -61 -24t-21 -69t21 -70t61 -25q41 0 61.5 24.5z" />
    <glyph glyph-name="yen" unicode="&#xa5;" horiz-adv-x="588" 
d="M603 680l-169 -324h89v-95h-130v-60h130v-95h-130v-106h-196v106h-128v95h128v60h-128v95h86l-170 324h208l105 -273l102 273h203z" />
    <glyph glyph-name="brokenbar" unicode="&#xa6;" horiz-adv-x="360" 
d="M273 812v-369h-186v369h186zM273 262v-369h-186v369h186z" />
    <glyph glyph-name="section" unicode="&#xa7;" 
d="M481 140.5q13 -25.5 13 -64.5q0 -48 -29 -86t-83 -59.5t-126 -21.5q-120 0 -206 57l61 113q68 -38 130 -38q67 0 67 31q0 13 -7 21.5t-31.5 19t-77.5 26.5q-73 22 -111.5 56t-38.5 95q0 75 82 124q-31 23 -43.5 49.5t-12.5 63.5q0 47 27.5 85.5t80.5 61t124 22.5
q55 0 109.5 -15t96.5 -42l-63 -108q-63 33 -129 33q-60 0 -60 -32q0 -13 7.5 -21.5t30.5 -17.5t75 -24q74 -22 112.5 -56.5t38.5 -97.5q0 -80 -80 -128q30 -21 43 -46.5zM333 237q17 26 17 51q0 20 -19 34.5t-73 31.5l-36 12q-12 -23 -12 -47q0 -19 14 -32t53 -28z" />
    <glyph glyph-name="dieresis" unicode="&#xa8;" horiz-adv-x="495" 
d="M190.5 791q27.5 -27 27.5 -65q0 -39 -27.5 -66t-67.5 -27q-39 0 -67 27t-28 66q0 38 28 65t67 27q40 0 67.5 -27zM435.5 791q27.5 -27 27.5 -65q0 -39 -27.5 -66t-67.5 -27q-39 0 -67 27t-28 66q0 38 28 65t67 27q40 0 67.5 -27z" />
    <glyph glyph-name="copyright" unicode="&#xa9;" horiz-adv-x="810" 
d="M584.5 733q80.5 -44 127 -123t46.5 -179t-46.5 -178.5t-127 -122.5t-178.5 -44t-179 44t-128 122.5t-47 178.5t47 179t128 123t179 44t178.5 -44zM281 649.5q-55 -31.5 -86.5 -88t-31.5 -130.5t31.5 -130.5t86.5 -87.5t125 -31q69 0 124 31t86.5 87.5t31.5 130.5
t-31.5 130.5t-86.5 88t-124 31.5q-70 0 -125 -31.5zM483 618q37 -15 64 -42l-56 -69q-18 14 -32.5 18.5t-34.5 4.5q-29 0 -47 -23t-18 -75q0 -99 62 -99q43 0 79 29l51 -75q-29 -27 -65.5 -42t-76.5 -15q-87 0 -136.5 52.5t-49.5 149.5q0 91 51 146t134 55q38 0 75 -15z" />
    <glyph glyph-name="ordfeminine" unicode="&#xaa;" horiz-adv-x="500" 
d="M270 530v3q0 27 -11 35t-46 8q-18 0 -48 -5.5t-61 -15.5l-38 108q39 15 87 24t86 9q105 0 152.5 -37t47.5 -116v-125q0 -20 5 -30t19 -14l-35 -110q-41 2 -70 14.5t-50 38.5q-22 -30 -56 -43.5t-74 -13.5q-64 0 -103 36.5t-39 93.5q0 68 54 104t156 36h24zM237 381
q19 0 33 12v49h-8q-27 0 -39.5 -9t-12.5 -28q0 -24 27 -24zM40 150h427v-150h-427v150z" />
    <glyph glyph-name="guillemotleft" unicode="&#xab;" horiz-adv-x="660" 
d="M223 569l123 -81l-125 -205l125 -205l-123 -81l-198 225v122zM512 569l123 -81l-125 -205l125 -205l-123 -81l-198 225v122z" />
    <glyph glyph-name="logicalnot" unicode="&#xac;" horiz-adv-x="550" 
d="M510 407v-310h-160v160h-310v150h470z" />
    <glyph glyph-name="uni00AD" unicode="&#xad;" horiz-adv-x="410" 
d="M35 238v150h340v-150h-340z" />
    <glyph glyph-name="registered" unicode="&#xae;" horiz-adv-x="635" 
d="M466 728q65 -36 102 -101t37 -148t-37 -147t-102 -100t-147 -36t-148 36t-103.5 100t-37.5 147t37.5 148t103.5 101t148 36t147 -36zM459.5 329.5q53.5 55.5 53.5 149.5q0 62 -24.5 109t-68.5 72.5t-101 25.5t-102 -25.5t-70 -72.5t-25 -109t25 -108.5t70 -71.5t102 -25
q87 0 140.5 55.5zM420.5 497q-14.5 -20 -39.5 -32l73 -118h-91l-56 101h-20v-101h-80v286h88q140 0 140 -90q0 -26 -14.5 -46zM287 514h29q16 0 26.5 8t10.5 24q0 14 -10 21t-28 7h-28v-60z" />
    <glyph glyph-name="macron" unicode="&#xaf;" horiz-adv-x="385" 
d="M355 648h-325v134h325v-134z" />
    <glyph glyph-name="degree" unicode="&#xb0;" horiz-adv-x="519" 
d="M127.5 384.5q-43.5 22.5 -70.5 63t-27 93.5t27 92.5t70 61t90 21.5t90 -21.5t70 -61t27 -92.5t-27 -93.5t-70.5 -63t-89.5 -22.5t-89.5 22.5zM261 492.5q15 19.5 15 48.5t-15 48t-44 19t-44 -19t-15 -48t15 -48.5t44 -19.5t44 19.5z" />
    <glyph glyph-name="plusminus" unicode="&#xb1;" horiz-adv-x="550" 
d="M50 0v150h450v-150h-450zM355 670v-160h155v-150h-155v-160h-160v160h-155v150h155v160h160z" />
    <glyph glyph-name="uni00B2" unicode="&#xb2;" horiz-adv-x="400" 
d="M288 737q39 -18 58 -47.5t19 -63.5q0 -30 -12 -56t-46.5 -60t-102.5 -84h170l-14 -106h-315v97q73 63 109 98.5t50 57t14 40.5q0 18 -11 28t-30 10q-21 0 -38.5 -10t-34.5 -31l-79 62q28 38 71.5 60.5t97.5 22.5q55 0 94 -18z" />
    <glyph glyph-name="uni00B3" unicode="&#xb3;" horiz-adv-x="400" 
d="M320.5 723.5q42.5 -31.5 42.5 -81.5q0 -34 -23.5 -60.5t-73.5 -38.5q52 -3 82.5 -28.5t30.5 -73.5q0 -37 -21 -67.5t-63 -49t-103 -18.5q-109 0 -171 72l77 74q19 -21 38.5 -30t44.5 -9q22 0 36 9t14 29q0 22 -14 32.5t-44 10.5h-40l16 94h28q48 0 48 32q0 16 -12 24
t-33 8q-45 0 -82 -34l-70 72q68 65 172 65q78 0 120.5 -31.5z" />
    <glyph glyph-name="acute" unicode="&#xb4;" horiz-adv-x="364" 
d="M260 856l74 -144l-251 -99l-53 99z" />
    <glyph glyph-name="uni00B5" unicode="&#xb5;" horiz-adv-x="579" 
d="M371 -20q-8 17 -12.5 32.5t-9.5 44.5q-40 -63 -91 -63q-25 0 -45.5 8t-38.5 30q28 -42 40.5 -73.5t12.5 -81.5v-84l-185 -18v759h198v-361q0 -43 33 -43q14 0 29.5 11t28.5 33v360h198v-350q0 -105 23 -184z" />
    <glyph glyph-name="paragraph" unicode="&#xb6;" horiz-adv-x="820" 
d="M720 696v-902l-172 -21v790h-78v-769l-172 -21v479q-119 1 -183.5 61.5t-64.5 159.5q0 104 71.5 163.5t201.5 59.5h397z" />
    <glyph glyph-name="periodcentered" unicode="&#xb7;" horiz-adv-x="240" 
d="M193 378.5q30 -30.5 30 -72.5t-30 -72.5t-73 -30.5t-73 30.5t-30 72.5t30 72.5t73 30.5t73 -30.5z" />
    <glyph glyph-name="cedilla" unicode="&#xb8;" horiz-adv-x="349" 
d="M209 -43q110 -14 110 -108q0 -54 -44 -89t-120 -35q-37 0 -69.5 9.5t-55.5 24.5l43 86q33 -18 64 -18q45 0 45 24q0 16 -22 22.5t-72 6.5l17 136h104v-59z" />
    <glyph glyph-name="uni00B9" unicode="&#xb9;" horiz-adv-x="400" 
d="M315 744v-424h-140v294l-88 -56l-63 93l162 93h129z" />
    <glyph glyph-name="ordmasculine" unicode="&#xba;" horiz-adv-x="500" 
d="M415.5 639.5q60.5 -56.5 60.5 -162.5q0 -100 -60.5 -158.5t-164.5 -58.5q-105 0 -165.5 56.5t-60.5 162.5q0 100 61 158.5t164 58.5q105 0 165.5 -56.5zM213.5 551.5q-11.5 -22.5 -11.5 -72.5q0 -53 11 -75t38 -22q25 0 36.5 22.5t11.5 72.5q0 53 -11 75t-38 22
q-25 0 -36.5 -22.5zM25 0v150h450v-150h-450z" />
    <glyph glyph-name="guillemotright" unicode="&#xbb;" horiz-adv-x="661" 
d="M148 569l198 -225v-122l-198 -225l-123 81l125 205l-125 205zM438 569l198 -225v-122l-198 -225l-123 81l125 205l-125 205z" />
    <glyph glyph-name="onequarter" unicode="&#xbc;" horiz-adv-x="991" 
d="M315 696v-424h-140v294l-88 -56l-63 93l162 93h129zM647 764l111 -55l-414 -799l-111 55zM976 179v-102h-43v-77h-133v77h-195v93l117 265l119 -43l-91 -213h51l30 88h102v-88h43z" />
    <glyph glyph-name="onehalf" unicode="&#xbd;" horiz-adv-x="991" 
d="M315 696v-424h-140v294l-88 -56l-63 93l162 93h129zM647 764l111 -55l-414 -799l-111 55zM879 417q39 -18 58 -47.5t19 -63.5q0 -30 -12 -56t-46.5 -60t-102.5 -84h170l-14 -106h-315v97q73 63 109 98.5t50 57t14 40.5q0 18 -11 28t-30 10q-21 0 -38.5 -10t-34.5 -31
l-79 62q28 38 71.5 60.5t97.5 22.5q55 0 94 -18z" />
    <glyph glyph-name="threequarters" unicode="&#xbe;" horiz-adv-x="991" 
d="M320.5 675.5q42.5 -31.5 42.5 -81.5q0 -34 -23.5 -60.5t-73.5 -38.5q52 -3 82.5 -28.5t30.5 -73.5q0 -37 -21 -67.5t-63 -49t-103 -18.5q-109 0 -171 72l77 74q19 -21 38.5 -30t44.5 -9q22 0 36 9t14 29q0 22 -14 32.5t-44 10.5h-40l16 94h28q48 0 48 32q0 16 -12 24
t-33 8q-45 0 -82 -34l-70 72q68 65 172 65q78 0 120.5 -31.5zM647 764l111 -55l-414 -799l-111 55zM976 179v-102h-43v-77h-133v77h-195v93l117 265l119 -43l-91 -213h51l30 88h102v-88h43z" />
    <glyph glyph-name="questiondown" unicode="&#xbf;" horiz-adv-x="495" 
d="M198 342.5q-30 30.5 -30 72.5t30 72.5t73 30.5t73 -30.5t30 -72.5t-30 -72.5t-73 -30.5t-73 30.5zM111.5 -203.5q-53.5 23.5 -80 63t-26.5 87.5q0 43 15 73t36 49t55 42q38 27 55.5 46.5t17.5 48.5v23h176v-29q0 -50 -15 -84t-35 -53.5t-50 -39.5q-25 -17 -36.5 -28.5
t-11.5 -28.5q0 -19 13 -29t38 -10q53 0 104 54l123 -96q-95 -112 -249 -112q-76 0 -129.5 23.5z" />
    <glyph glyph-name="Agrave" unicode="&#xc0;" horiz-adv-x="601" 
d="M408 0l-27 135h-165l-26 -135h-215l203 696h246l202 -696h-218zM245 279h107l-54 273zM220 984l233 -136l-50 -99l-254 91z" />
    <glyph glyph-name="Aacute" unicode="&#xc1;" horiz-adv-x="601" 
d="M408 0l-27 135h-165l-26 -135h-215l203 696h246l202 -696h-218zM245 279h107l-54 273zM383 984l70 -144l-254 -91l-50 99z" />
    <glyph glyph-name="Acircumflex" unicode="&#xc2;" horiz-adv-x="601" 
d="M408 0l-27 135h-165l-26 -135h-215l203 696h246l202 -696h-218zM245 279h107l-54 273zM164 752l-67 77l145 141h118l145 -141l-67 -77l-137 86z" />
    <glyph glyph-name="Atilde" unicode="&#xc3;" horiz-adv-x="601" 
d="M408 0l-27 135h-165l-26 -135h-215l203 696h246l202 -696h-218zM245 279h107l-54 273zM318.5 755q-16.5 7 -35.5 20q-12 8 -20 12t-17 4q-18 0 -29 -10t-24 -33l-93 45q21 59 57.5 97.5t83.5 38.5q25 0 42.5 -7t36.5 -20q12 -8 20 -12t17 -4q17 0 28 10t24 33l93 -45
q-21 -60 -58 -98t-85 -38q-24 0 -40.5 7z" />
    <glyph glyph-name="Adieresis" unicode="&#xc4;" horiz-adv-x="601" 
d="M408 0l-27 135h-165l-26 -135h-215l203 696h246l202 -696h-218zM245 279h107l-54 273zM243.5 917q27.5 -27 27.5 -65q0 -39 -27.5 -66t-67.5 -27q-39 0 -67 27t-28 66q0 38 28 65t67 27q40 0 67.5 -27zM488.5 917q27.5 -27 27.5 -65q0 -39 -27.5 -66t-67.5 -27
q-39 0 -67 27t-28 66q0 38 28 65t67 27q40 0 67.5 -27z" />
    <glyph glyph-name="Aring" unicode="&#xc5;" horiz-adv-x="601" 
d="M408 0l-27 135h-165l-26 -135h-215l203 696h246l202 -696h-218zM245 279h107l-54 273zM383 992q35 -20 53.5 -53t18.5 -73t-18.5 -73.5t-53.5 -53.5t-82 -20t-82 20t-53.5 53.5t-18.5 73.5t18.5 73t53.5 53t82 20t82 -20zM272 900.5q-11 -11.5 -11 -34.5t11 -34.5
t29 -11.5t29 11.5t11 34.5t-11 34.5t-29 11.5t-29 -11.5z" />
    <glyph glyph-name="AE" unicode="&#xc6;" horiz-adv-x="863" 
d="M610 144h233v-144h-407l-18 135h-183l-41 -135h-224l271 696h567l-21 -143h-247l23 -132h236v-139h-213zM279 279h119l-36 270z" />
    <glyph glyph-name="Ccedilla" unicode="&#xc7;" horiz-adv-x="584" 
d="M498 -151q0 -54 -44 -89t-120 -35q-37 0 -69.5 9.5t-55.5 24.5l43 86q33 -18 64 -18q45 0 45 24q0 16 -22 22.5t-72 6.5l13 106q-122 22 -191 115.5t-69 248.5q0 114 42 196.5t117 126t173 43.5q129 0 224 -82l-95 -112q-30 22 -58.5 34t-60.5 12q-61 0 -94.5 -55
t-33.5 -163t34 -161.5t97 -53.5q34 0 63.5 14t65.5 42l90 -114q-37 -37 -87.5 -63t-108.5 -32v-25q110 -14 110 -108z" />
    <glyph glyph-name="Egrave" unicode="&#xc8;" horiz-adv-x="520" 
d="M500 696l-21 -143h-230v-130h202v-139h-202v-140h246v-144h-452v696h457zM191 984l233 -136l-50 -99l-254 91z" />
    <glyph glyph-name="Eacute" unicode="&#xc9;" horiz-adv-x="520" 
d="M500 696l-21 -143h-230v-130h202v-139h-202v-140h246v-144h-452v696h457zM354 984l70 -144l-254 -91l-50 99z" />
    <glyph glyph-name="Ecircumflex" unicode="&#xca;" horiz-adv-x="520" 
d="M500 696l-21 -143h-230v-130h202v-139h-202v-140h246v-144h-452v696h457zM135 752l-67 77l145 141h118l145 -141l-67 -77l-137 86z" />
    <glyph glyph-name="Edieresis" unicode="&#xcb;" horiz-adv-x="520" 
d="M500 696l-21 -143h-230v-130h202v-139h-202v-140h246v-144h-452v696h457zM214.5 917q27.5 -27 27.5 -65q0 -39 -27.5 -66t-67.5 -27q-39 0 -67 27t-28 66q0 38 28 65t67 27q40 0 67.5 -27zM459.5 917q27.5 -27 27.5 -65q0 -39 -27.5 -66t-67.5 -27q-39 0 -67 27t-28 66
q0 38 28 65t67 27q40 0 67.5 -27z" />
    <glyph glyph-name="Igrave" unicode="&#xcc;" horiz-adv-x="292" 
d="M249 696v-696h-206v696h206zM65 984l233 -136l-50 -99l-254 91z" />
    <glyph glyph-name="Iacute" unicode="&#xcd;" horiz-adv-x="292" 
d="M249 696v-696h-206v696h206zM228 984l70 -144l-254 -91l-50 99z" />
    <glyph glyph-name="Icircumflex" unicode="&#xce;" horiz-adv-x="292" 
d="M249 696v-696h-206v696h206zM9 752l-67 77l145 141h118l145 -141l-67 -77l-137 86z" />
    <glyph glyph-name="Idieresis" unicode="&#xcf;" horiz-adv-x="292" 
d="M249 696v-696h-206v696h206zM88.5 917q27.5 -27 27.5 -65q0 -39 -27.5 -66t-67.5 -27q-39 0 -67 27t-28 66q0 38 28 65t67 27q40 0 67.5 -27zM333.5 917q27.5 -27 27.5 -65q0 -39 -27.5 -66t-67.5 -27q-39 0 -67 27t-28 66q0 38 28 65t67 27q40 0 67.5 -27z" />
    <glyph glyph-name="Eth" unicode="&#xd0;" horiz-adv-x="671" 
d="M550 621.5q101 -74.5 101 -270.5q0 -193 -97 -272t-261 -79h-235v295h-48v116h48v285h223q168 0 269 -74.5zM382 164q29 19 43 63.5t14 123.5q0 78 -14.5 121.5t-43.5 61t-75 17.5h-42v-140h121v-116h-121v-150h41q48 0 77 19z" />
    <glyph glyph-name="Ntilde" unicode="&#xd1;" horiz-adv-x="651" 
d="M608 0h-258l-152 508l3 -22q11 -73 17.5 -133.5t6.5 -136.5v-216h-182v696h253l158 -510l-3 21q-12 69 -18.5 128.5t-6.5 137.5v223h182v-696zM343.5 755q-16.5 7 -35.5 20q-12 8 -20 12t-17 4q-18 0 -29 -10t-24 -33l-93 45q21 59 57.5 97.5t83.5 38.5q25 0 42.5 -7
t36.5 -20q12 -8 20 -12t17 -4q17 0 28 10t24 33l93 -45q-21 -60 -58 -98t-85 -38q-24 0 -40.5 7z" />
    <glyph glyph-name="Ograve" unicode="&#xd2;" horiz-adv-x="690" 
d="M585.5 619.5q84.5 -96.5 84.5 -270.5q0 -113 -38 -196t-111 -128t-176 -45q-156 0 -240.5 97.5t-84.5 271.5q0 113 38 195.5t111 127t176 44.5q156 0 240.5 -96.5zM260 519.5q-26 -50.5 -26 -170.5t26 -171.5t85 -51.5q60 0 85.5 51t25.5 172q0 120 -26 170.5t-85 50.5
t-85 -50.5zM264 984l233 -136l-50 -99l-254 91z" />
    <glyph glyph-name="Oacute" unicode="&#xd3;" horiz-adv-x="690" 
d="M585.5 619.5q84.5 -96.5 84.5 -270.5q0 -113 -38 -196t-111 -128t-176 -45q-156 0 -240.5 97.5t-84.5 271.5q0 113 38 195.5t111 127t176 44.5q156 0 240.5 -96.5zM260 519.5q-26 -50.5 -26 -170.5t26 -171.5t85 -51.5q60 0 85.5 51t25.5 172q0 120 -26 170.5t-85 50.5
t-85 -50.5zM427 984l70 -144l-254 -91l-50 99z" />
    <glyph glyph-name="Ocircumflex" unicode="&#xd4;" horiz-adv-x="690" 
d="M585.5 619.5q84.5 -96.5 84.5 -270.5q0 -113 -38 -196t-111 -128t-176 -45q-156 0 -240.5 97.5t-84.5 271.5q0 113 38 195.5t111 127t176 44.5q156 0 240.5 -96.5zM260 519.5q-26 -50.5 -26 -170.5t26 -171.5t85 -51.5q60 0 85.5 51t25.5 172q0 120 -26 170.5t-85 50.5
t-85 -50.5zM208 752l-67 77l145 141h118l145 -141l-67 -77l-137 86z" />
    <glyph glyph-name="Otilde" unicode="&#xd5;" horiz-adv-x="690" 
d="M585.5 619.5q84.5 -96.5 84.5 -270.5q0 -113 -38 -196t-111 -128t-176 -45q-156 0 -240.5 97.5t-84.5 271.5q0 113 38 195.5t111 127t176 44.5q156 0 240.5 -96.5zM260 519.5q-26 -50.5 -26 -170.5t26 -171.5t85 -51.5q60 0 85.5 51t25.5 172q0 120 -26 170.5t-85 50.5
t-85 -50.5zM362.5 755q-16.5 7 -35.5 20q-12 8 -20 12t-17 4q-18 0 -29 -10t-24 -33l-93 45q21 59 57.5 97.5t83.5 38.5q25 0 42.5 -7t36.5 -20q12 -8 20 -12t17 -4q17 0 28 10t24 33l93 -45q-21 -60 -58 -98t-85 -38q-24 0 -40.5 7z" />
    <glyph glyph-name="Odieresis" unicode="&#xd6;" horiz-adv-x="690" 
d="M585.5 619.5q84.5 -96.5 84.5 -270.5q0 -113 -38 -196t-111 -128t-176 -45q-156 0 -240.5 97.5t-84.5 271.5q0 113 38 195.5t111 127t176 44.5q156 0 240.5 -96.5zM260 519.5q-26 -50.5 -26 -170.5t26 -171.5t85 -51.5q60 0 85.5 51t25.5 172q0 120 -26 170.5t-85 50.5
t-85 -50.5zM287.5 917q27.5 -27 27.5 -65q0 -39 -27.5 -66t-67.5 -27q-39 0 -67 27t-28 66q0 38 28 65t67 27q40 0 67.5 -27zM532.5 917q27.5 -27 27.5 -65q0 -39 -27.5 -66t-67.5 -27q-39 0 -67 27t-28 66q0 38 28 65t67 27q40 0 67.5 -27z" />
    <glyph glyph-name="multiply" unicode="&#xd7;" horiz-adv-x="530" 
d="M378 525l106 -106l-114 -110l114 -116l-106 -106l-111 119l-115 -119l-106 106l113 110l-113 116l106 106l110 -119z" />
    <glyph glyph-name="Oslash" unicode="&#xd8;" horiz-adv-x="690" 
d="M634.5 542q35.5 -81 35.5 -193q0 -113 -38 -196t-111 -128t-176 -45q-13 0 -39 2l-37 -121l-150 40l40 129q-68 44 -103.5 125.5t-35.5 193.5q0 113 38 195.5t111 127t176 44.5q13 0 39 -2l37 119l150 -40l-40 -126q68 -44 103.5 -125zM260 519.5q-26 -50.5 -26 -170.5
q0 -107 15 -157l114 377q-6 1 -18 1q-59 0 -85 -50.5zM430.5 177q25.5 51 25.5 172q0 106 -15 155l-113 -377q5 -1 17 -1q60 0 85.5 51z" />
    <glyph glyph-name="Ugrave" unicode="&#xd9;" horiz-adv-x="644" 
d="M611 236q0 -73 -32 -131t-97 -91.5t-160 -33.5q-143 0 -216 69t-73 187v460h206v-454q0 -59 19.5 -86.5t63.5 -27.5t63.5 27.5t19.5 86.5v454h206v-460zM241 984l233 -136l-50 -99l-254 91z" />
    <glyph glyph-name="Uacute" unicode="&#xda;" horiz-adv-x="644" 
d="M611 236q0 -73 -32 -131t-97 -91.5t-160 -33.5q-143 0 -216 69t-73 187v460h206v-454q0 -59 19.5 -86.5t63.5 -27.5t63.5 27.5t19.5 86.5v454h206v-460zM404 984l70 -144l-254 -91l-50 99z" />
    <glyph glyph-name="Ucircumflex" unicode="&#xdb;" horiz-adv-x="644" 
d="M611 236q0 -73 -32 -131t-97 -91.5t-160 -33.5q-143 0 -216 69t-73 187v460h206v-454q0 -59 19.5 -86.5t63.5 -27.5t63.5 27.5t19.5 86.5v454h206v-460zM185 752l-67 77l145 141h118l145 -141l-67 -77l-137 86z" />
    <glyph glyph-name="Udieresis" unicode="&#xdc;" horiz-adv-x="644" 
d="M611 236q0 -73 -32 -131t-97 -91.5t-160 -33.5q-143 0 -216 69t-73 187v460h206v-454q0 -59 19.5 -86.5t63.5 -27.5t63.5 27.5t19.5 86.5v454h206v-460zM264.5 917q27.5 -27 27.5 -65q0 -39 -27.5 -66t-67.5 -27q-39 0 -67 27t-28 66q0 38 28 65t67 27q40 0 67.5 -27z
M509.5 917q27.5 -27 27.5 -65q0 -39 -27.5 -66t-67.5 -27q-39 0 -67 27t-28 66q0 38 28 65t67 27q40 0 67.5 -27z" />
    <glyph glyph-name="Yacute" unicode="&#xdd;" horiz-adv-x="620" 
d="M635 696l-222 -439v-257h-206v256l-222 440h225l103 -284l104 284h218zM392 984l70 -144l-254 -91l-50 99z" />
    <glyph glyph-name="Thorn" unicode="&#xde;" horiz-adv-x="611" 
d="M516.5 533.5q79.5 -59.5 79.5 -175.5q0 -124 -75.5 -188t-203.5 -64h-68v-106h-206v696h206v-103h45q143 0 222.5 -59.5zM363.5 277q22.5 26 22.5 81q0 92 -95 92h-42v-199h48q44 0 66.5 26z" />
    <glyph glyph-name="germandbls" unicode="&#xdf;" horiz-adv-x="614" 
d="M420.5 743q50.5 -21 76 -56t25.5 -76q0 -36 -14.5 -60.5t-41.5 -52.5q-19 -20 -28.5 -34t-9.5 -30q0 -18 14 -32.5t46 -37.5q37 -26 61 -49t42 -60t18 -87q0 -87 -60 -137.5t-156 -50.5q-34 0 -68.5 8t-60.5 21l59 133q21 -11 43 -11q38 0 38 41q0 29 -15.5 48t-46.5 42
q-39 29 -60 57t-21 77q0 40 10.5 62.5t31.5 47.5q17 20 25 35.5t8 40.5q0 21 -11 34t-31 13q-28 0 -41 -23t-13 -69v-537h-198v530q0 110 66.5 172t190.5 62q71 0 121.5 -21z" />
    <glyph glyph-name="agrave" unicode="&#xe0;" horiz-adv-x="551" 
d="M511 131.5q7 -13.5 25 -20.5l-40 -127q-54 4 -88 20.5t-56 53.5q-52 -78 -161 -78q-79 0 -127.5 47.5t-48.5 122.5q0 89 66 136t192 47h38v13q0 40 -16 54t-61 14q-24 0 -61.5 -7.5t-76.5 -20.5l-43 126q49 20 106.5 31t104.5 11q126 0 183 -48.5t57 -148.5v-184
q0 -28 7 -41.5zM285.5 128q15.5 9 25.5 23v79h-21q-42 0 -62 -15t-20 -46q0 -23 12 -36.5t32 -13.5q18 0 33.5 9zM209 856l230 -144l-53 -99l-251 99z" />
    <glyph glyph-name="aacute" unicode="&#xe1;" horiz-adv-x="551" 
d="M511 131.5q7 -13.5 25 -20.5l-40 -127q-54 4 -88 20.5t-56 53.5q-52 -78 -161 -78q-79 0 -127.5 47.5t-48.5 122.5q0 89 66 136t192 47h38v13q0 40 -16 54t-61 14q-24 0 -61.5 -7.5t-76.5 -20.5l-43 126q49 20 106.5 31t104.5 11q126 0 183 -48.5t57 -148.5v-184
q0 -28 7 -41.5zM285.5 128q15.5 9 25.5 23v79h-21q-42 0 -62 -15t-20 -46q0 -23 12 -36.5t32 -13.5q18 0 33.5 9zM345 856l74 -144l-251 -99l-53 99z" />
    <glyph glyph-name="acircumflex" unicode="&#xe2;" horiz-adv-x="551" 
d="M511 131.5q7 -13.5 25 -20.5l-40 -127q-54 4 -88 20.5t-56 53.5q-52 -78 -161 -78q-79 0 -127.5 47.5t-48.5 122.5q0 89 66 136t192 47h38v13q0 40 -16 54t-61 14q-24 0 -61.5 -7.5t-76.5 -20.5l-43 126q49 20 106.5 31t104.5 11q126 0 183 -48.5t57 -148.5v-184
q0 -28 7 -41.5zM285.5 128q15.5 9 25.5 23v79h-21q-42 0 -62 -15t-20 -46q0 -23 12 -36.5t32 -13.5q18 0 33.5 9zM140 612l-67 77l145 151h118l145 -151l-67 -77l-137 96z" />
    <glyph glyph-name="atilde" unicode="&#xe3;" horiz-adv-x="551" 
d="M511 131.5q7 -13.5 25 -20.5l-40 -127q-54 4 -88 20.5t-56 53.5q-52 -78 -161 -78q-79 0 -127.5 47.5t-48.5 122.5q0 89 66 136t192 47h38v13q0 40 -16 54t-61 14q-24 0 -61.5 -7.5t-76.5 -20.5l-43 126q49 20 106.5 31t104.5 11q126 0 183 -48.5t57 -148.5v-184
q0 -28 7 -41.5zM285.5 128q15.5 9 25.5 23v79h-21q-42 0 -62 -15t-20 -46q0 -23 12 -36.5t32 -13.5q18 0 33.5 9zM294.5 629q-16.5 7 -35.5 20q-12 8 -20 12t-17 4q-18 0 -29 -10t-24 -33l-93 45q21 59 57.5 97.5t83.5 38.5q25 0 42.5 -7t36.5 -20q12 -8 20 -12t17 -4
q17 0 28 10t24 33l93 -45q-21 -60 -58 -98t-85 -38q-24 0 -40.5 7z" />
    <glyph glyph-name="adieresis" unicode="&#xe4;" horiz-adv-x="551" 
d="M511 131.5q7 -13.5 25 -20.5l-40 -127q-54 4 -88 20.5t-56 53.5q-52 -78 -161 -78q-79 0 -127.5 47.5t-48.5 122.5q0 89 66 136t192 47h38v13q0 40 -16 54t-61 14q-24 0 -61.5 -7.5t-76.5 -20.5l-43 126q49 20 106.5 31t104.5 11q126 0 183 -48.5t57 -148.5v-184
q0 -28 7 -41.5zM285.5 128q15.5 9 25.5 23v79h-21q-42 0 -62 -15t-20 -46q0 -23 12 -36.5t32 -13.5q18 0 33.5 9zM221.5 791q27.5 -27 27.5 -65q0 -39 -27.5 -66t-67.5 -27q-39 0 -67 27t-28 66q0 38 28 65t67 27q40 0 67.5 -27zM466.5 791q27.5 -27 27.5 -65
q0 -39 -27.5 -66t-67.5 -27q-39 0 -67 27t-28 66q0 38 28 65t67 27q40 0 67.5 -27z" />
    <glyph glyph-name="aring" unicode="&#xe5;" horiz-adv-x="551" 
d="M511 131.5q7 -13.5 25 -20.5l-40 -127q-54 4 -88 20.5t-56 53.5q-52 -78 -161 -78q-79 0 -127.5 47.5t-48.5 122.5q0 89 66 136t192 47h38v13q0 40 -16 54t-61 14q-24 0 -61.5 -7.5t-76.5 -20.5l-43 126q49 20 106.5 31t104.5 11q126 0 183 -48.5t57 -148.5v-184
q0 -28 7 -41.5zM285.5 128q15.5 9 25.5 23v79h-21q-42 0 -62 -15t-20 -46q0 -23 12 -36.5t32 -13.5q18 0 33.5 9zM359 866q35 -20 53.5 -53t18.5 -73t-18.5 -73.5t-53.5 -53.5t-82 -20t-82 20t-53.5 53.5t-18.5 73.5t18.5 73t53.5 53t82 20t82 -20zM248 774.5
q-11 -11.5 -11 -34.5t11 -34.5t29 -11.5t29 11.5t11 34.5t-11 34.5t-29 11.5t-29 -11.5z" />
    <glyph glyph-name="ae" unicode="&#xe6;" horiz-adv-x="859" 
d="M843 211h-324q8 -54 33.5 -72.5t73.5 -18.5q28 0 57 11.5t64 35.5l80 -108q-97 -79 -220 -79q-74 0 -130 23.5t-93 64.5q-62 -88 -189 -88q-83 0 -131.5 47.5t-48.5 122.5q0 89 67.5 136t198.5 47h38v11q0 40 -16 54t-61 14q-24 0 -61.5 -7.5t-76.5 -20.5l-43 128
q49 20 106.5 31t104.5 11q110 0 165 -61q66 61 164 61q71 0 127 -33t87.5 -96.5t31.5 -150.5q0 -25 -4 -63zM652 330q-1 47 -14.5 73t-48.5 26q-33 0 -49.5 -23t-21.5 -83h134v7zM299.5 131q15.5 12 31.5 35q-7 30 -8 54v5h-23q-41 0 -60 -14t-19 -46q0 -21 11 -33.5
t31 -12.5q21 0 36.5 12z" />
    <glyph glyph-name="ccedilla" unicode="&#xe7;" horiz-adv-x="479" 
d="M333 -18v-25q110 -14 110 -108q0 -54 -44 -89t-120 -35q-37 0 -69.5 9.5t-55.5 24.5l43 86q33 -18 64 -18q45 0 45 24q0 16 -22 22.5t-72 6.5l13 108q-98 21 -153 94.5t-55 180.5q0 84 34.5 150t97.5 103.5t146 37.5q114 0 194 -71l-82 -115q-46 37 -94 37q-46 0 -68 -32
t-22 -110q0 -75 22.5 -102.5t65.5 -27.5q23 0 43 7.5t50 26.5l85 -121q-69 -56 -156 -64z" />
    <glyph glyph-name="egrave" unicode="&#xe8;" horiz-adv-x="557" 
d="M541 211h-324q8 -54 33.5 -72.5t73.5 -18.5q28 0 57 11.5t64 35.5l80 -108q-97 -79 -220 -79q-142 0 -215 78.5t-73 207.5q0 80 30.5 145.5t90.5 104t145 38.5q79 0 138 -33t91.5 -96t32.5 -151q0 -25 -4 -63zM350 330q-1 47 -14.5 73t-48.5 26q-33 0 -49.5 -23
t-21.5 -83h134v7zM217 856l230 -144l-53 -99l-251 99z" />
    <glyph glyph-name="eacute" unicode="&#xe9;" horiz-adv-x="557" 
d="M541 211h-324q8 -54 33.5 -72.5t73.5 -18.5q28 0 57 11.5t64 35.5l80 -108q-97 -79 -220 -79q-142 0 -215 78.5t-73 207.5q0 80 30.5 145.5t90.5 104t145 38.5q79 0 138 -33t91.5 -96t32.5 -151q0 -25 -4 -63zM350 330q-1 47 -14.5 73t-48.5 26q-33 0 -49.5 -23
t-21.5 -83h134v7zM353 856l74 -144l-251 -99l-53 99z" />
    <glyph glyph-name="ecircumflex" unicode="&#xea;" horiz-adv-x="557" 
d="M541 211h-324q8 -54 33.5 -72.5t73.5 -18.5q28 0 57 11.5t64 35.5l80 -108q-97 -79 -220 -79q-142 0 -215 78.5t-73 207.5q0 80 30.5 145.5t90.5 104t145 38.5q79 0 138 -33t91.5 -96t32.5 -151q0 -25 -4 -63zM350 330q-1 47 -14.5 73t-48.5 26q-33 0 -49.5 -23
t-21.5 -83h134v7zM148 612l-67 77l145 151h118l145 -151l-67 -77l-137 96z" />
    <glyph glyph-name="edieresis" unicode="&#xeb;" horiz-adv-x="557" 
d="M541 211h-324q8 -54 33.5 -72.5t73.5 -18.5q28 0 57 11.5t64 35.5l80 -108q-97 -79 -220 -79q-142 0 -215 78.5t-73 207.5q0 80 30.5 145.5t90.5 104t145 38.5q79 0 138 -33t91.5 -96t32.5 -151q0 -25 -4 -63zM350 330q-1 47 -14.5 73t-48.5 26q-33 0 -49.5 -23
t-21.5 -83h134v7zM229.5 791q27.5 -27 27.5 -65q0 -39 -27.5 -66t-67.5 -27q-39 0 -67 27t-28 66q0 38 28 65t67 27q40 0 67.5 -27zM474.5 791q27.5 -27 27.5 -65q0 -39 -27.5 -66t-67.5 -27q-39 0 -67 27t-28 66q0 38 28 65t67 27q40 0 67.5 -27z" />
    <glyph glyph-name="igrave" unicode="&#xec;" horiz-adv-x="282" 
d="M240 534v-534h-198v534h198zM73 856l230 -144l-53 -99l-251 99z" />
    <glyph glyph-name="iacute" unicode="&#xed;" horiz-adv-x="282" 
d="M240 534v-534h-198v534h198zM209 856l74 -144l-251 -99l-53 99z" />
    <glyph glyph-name="icircumflex" unicode="&#xee;" horiz-adv-x="282" 
d="M240 534v-534h-198v534h198zM4 612l-67 77l145 151h118l145 -151l-67 -77l-137 96z" />
    <glyph glyph-name="idieresis" unicode="&#xef;" horiz-adv-x="282" 
d="M240 534v-534h-198v534h198zM85.5 791q27.5 -27 27.5 -65q0 -39 -27.5 -66t-67.5 -27q-39 0 -67 27t-28 66q0 38 28 65t67 27q40 0 67.5 -27zM330.5 791q27.5 -27 27.5 -65q0 -39 -27.5 -66t-67.5 -27q-39 0 -67 27t-28 66q0 38 28 65t67 27q40 0 67.5 -27z" />
    <glyph glyph-name="eth" unicode="&#xf0;" horiz-adv-x="584" 
d="M516.5 506.5q45.5 -95.5 45.5 -222.5q0 -83 -31.5 -152.5t-94 -110.5t-150.5 -41q-77 0 -138 30.5t-96 87.5t-35 135q0 72 29.5 129t78 88.5t104.5 31.5q37 0 66 -9t57 -26q-14 37 -35 65t-56 55l-45 -46l-122 55l45 48q-43 10 -76 15l38 124q74 -10 143 -32l76 80
l97 -85l-51 -52q105 -72 150.5 -167.5zM345 151q15 30 15 99v76q-31 22 -71 22q-71 0 -71 -113q0 -62 18 -88t54 -26q40 0 55 30z" />
    <glyph glyph-name="ntilde" unicode="&#xf1;" horiz-adv-x="572" 
d="M496.5 512q38.5 -42 38.5 -118v-394h-198v358q0 30 -7.5 41t-22.5 11q-33 0 -67 -53v-357h-198v534h173l14 -55q37 39 75.5 57t86.5 18q67 0 105.5 -42zM308.5 629q-16.5 7 -35.5 20q-12 8 -20 12t-17 4q-18 0 -29 -10t-24 -33l-93 45q21 59 57.5 97.5t83.5 38.5
q25 0 42.5 -7t36.5 -20q12 -8 20 -12t17 -4q17 0 28 10t24 33l93 -45q-21 -60 -58 -98t-85 -38q-24 0 -40.5 7z" />
    <glyph glyph-name="ograve" unicode="&#xf2;" horiz-adv-x="584" 
d="M493.5 479q73.5 -75 73.5 -213q0 -86 -33.5 -151t-95.5 -100t-146 -35q-128 0 -201.5 75t-73.5 213q0 86 33.5 151t95.5 100t146 35q128 0 201.5 -75zM237 378q-17 -34 -17 -110q0 -79 17 -112.5t55 -33.5t55 34t17 110q0 79 -17 112.5t-55 33.5t-55 -34zM224 856
l230 -144l-53 -99l-251 99z" />
    <glyph glyph-name="oacute" unicode="&#xf3;" horiz-adv-x="584" 
d="M493.5 479q73.5 -75 73.5 -213q0 -86 -33.5 -151t-95.5 -100t-146 -35q-128 0 -201.5 75t-73.5 213q0 86 33.5 151t95.5 100t146 35q128 0 201.5 -75zM237 378q-17 -34 -17 -110q0 -79 17 -112.5t55 -33.5t55 34t17 110q0 79 -17 112.5t-55 33.5t-55 -34zM360 856
l74 -144l-251 -99l-53 99z" />
    <glyph glyph-name="ocircumflex" unicode="&#xf4;" horiz-adv-x="584" 
d="M493.5 479q73.5 -75 73.5 -213q0 -86 -33.5 -151t-95.5 -100t-146 -35q-128 0 -201.5 75t-73.5 213q0 86 33.5 151t95.5 100t146 35q128 0 201.5 -75zM237 378q-17 -34 -17 -110q0 -79 17 -112.5t55 -33.5t55 34t17 110q0 79 -17 112.5t-55 33.5t-55 -34zM155 612l-67 77
l145 151h118l145 -151l-67 -77l-137 96z" />
    <glyph glyph-name="otilde" unicode="&#xf5;" horiz-adv-x="584" 
d="M493.5 479q73.5 -75 73.5 -213q0 -86 -33.5 -151t-95.5 -100t-146 -35q-128 0 -201.5 75t-73.5 213q0 86 33.5 151t95.5 100t146 35q128 0 201.5 -75zM237 378q-17 -34 -17 -110q0 -79 17 -112.5t55 -33.5t55 34t17 110q0 79 -17 112.5t-55 33.5t-55 -34zM309.5 629
q-16.5 7 -35.5 20q-12 8 -20 12t-17 4q-18 0 -29 -10t-24 -33l-93 45q21 59 57.5 97.5t83.5 38.5q25 0 42.5 -7t36.5 -20q12 -8 20 -12t17 -4q17 0 28 10t24 33l93 -45q-21 -60 -58 -98t-85 -38q-24 0 -40.5 7z" />
    <glyph glyph-name="odieresis" unicode="&#xf6;" horiz-adv-x="584" 
d="M493.5 479q73.5 -75 73.5 -213q0 -86 -33.5 -151t-95.5 -100t-146 -35q-128 0 -201.5 75t-73.5 213q0 86 33.5 151t95.5 100t146 35q128 0 201.5 -75zM237 378q-17 -34 -17 -110q0 -79 17 -112.5t55 -33.5t55 34t17 110q0 79 -17 112.5t-55 33.5t-55 -34zM236.5 791
q27.5 -27 27.5 -65q0 -39 -27.5 -66t-67.5 -27q-39 0 -67 27t-28 66q0 38 28 65t67 27q40 0 67.5 -27zM481.5 791q27.5 -27 27.5 -65q0 -39 -27.5 -66t-67.5 -27q-39 0 -67 27t-28 66q0 38 28 65t67 27q40 0 67.5 -27z" />
    <glyph glyph-name="divide" unicode="&#xf7;" horiz-adv-x="530" 
d="M338 155.5q30 -30.5 30 -72.5t-30 -72.5t-73 -30.5t-73 30.5t-30 72.5t30 72.5t73 30.5t73 -30.5zM338 653.5q30 -30.5 30 -72.5t-30 -72.5t-73 -30.5t-73 30.5t-30 72.5t30 72.5t73 30.5t73 -30.5zM40 257v150h450v-150h-450z" />
    <glyph glyph-name="oslash" unicode="&#xf8;" horiz-adv-x="584" 
d="M537.5 414.5q29.5 -62.5 29.5 -148.5t-33.5 -151t-95.5 -100t-146 -35q-15 0 -22 1l-37 -119l-140 41l38 119q-55 36 -84.5 98t-29.5 148t33.5 151t95.5 100t146 35q15 0 22 -1l39 120l140 -41l-40 -120q55 -35 84.5 -97.5zM223 377q-23 -35 -23 -109t13 -106l83 250h-4
q-46 0 -69 -35zM361 157q23 35 23 109t-13 106l-83 -250h4q46 0 69 35z" />
    <glyph glyph-name="ugrave" unicode="&#xf9;" horiz-adv-x="566" 
d="M524 0h-173l-7 58q-55 -78 -158 -78q-75 0 -112 45t-37 125v384h198v-358q0 -29 8.5 -40.5t24.5 -11.5q14 0 29.5 11t28.5 33v366h198v-534zM213 856l230 -144l-53 -99l-251 99z" />
    <glyph glyph-name="uacute" unicode="&#xfa;" horiz-adv-x="566" 
d="M524 0h-173l-7 58q-55 -78 -158 -78q-75 0 -112 45t-37 125v384h198v-358q0 -29 8.5 -40.5t24.5 -11.5q14 0 29.5 11t28.5 33v366h198v-534zM349 856l74 -144l-251 -99l-53 99z" />
    <glyph glyph-name="ucircumflex" unicode="&#xfb;" horiz-adv-x="566" 
d="M524 0h-173l-7 58q-55 -78 -158 -78q-75 0 -112 45t-37 125v384h198v-358q0 -29 8.5 -40.5t24.5 -11.5q14 0 29.5 11t28.5 33v366h198v-534zM144 612l-67 77l145 151h118l145 -151l-67 -77l-137 96z" />
    <glyph glyph-name="udieresis" unicode="&#xfc;" horiz-adv-x="566" 
d="M524 0h-173l-7 58q-55 -78 -158 -78q-75 0 -112 45t-37 125v384h198v-358q0 -29 8.5 -40.5t24.5 -11.5q14 0 29.5 11t28.5 33v366h198v-534zM225.5 791q27.5 -27 27.5 -65q0 -39 -27.5 -66t-67.5 -27q-39 0 -67 27t-28 66q0 38 28 65t67 27q40 0 67.5 -27zM470.5 791
q27.5 -27 27.5 -65q0 -39 -27.5 -66t-67.5 -27q-39 0 -67 27t-28 66q0 38 28 65t67 27q40 0 67.5 -27z" />
    <glyph glyph-name="yacute" unicode="&#xfd;" horiz-adv-x="534" 
d="M385 1q-34 -111 -116 -168t-216 -61l-21 135q77 8 114.5 28t58.5 65h-68l-152 534h210l67 -413l83 413h204zM335 856l74 -144l-251 -99l-53 99z" />
    <glyph glyph-name="thorn" unicode="&#xfe;" horiz-adv-x="599" 
d="M526 479.5q51 -74.5 51 -210.5q0 -83 -26.5 -148.5t-75 -103t-111.5 -37.5q-76 0 -124 53v-240l-198 -20v971l198 20v-272q30 33 65 47.5t68 14.5q102 0 153 -74.5zM374 266q0 62 -8.5 93.5t-22.5 42t-37 10.5q-38 0 -66 -50v-204q13 -20 27 -28.5t32 -8.5q75 0 75 145z
" />
    <glyph glyph-name="ydieresis" unicode="&#xff;" horiz-adv-x="534" 
d="M385 1q-34 -111 -116 -168t-216 -61l-21 135q77 8 114.5 28t58.5 65h-68l-152 534h210l67 -413l83 413h204zM211.5 791q27.5 -27 27.5 -65q0 -39 -27.5 -66t-67.5 -27q-39 0 -67 27t-28 66q0 38 28 65t67 27q40 0 67.5 -27zM456.5 791q27.5 -27 27.5 -65q0 -39 -27.5 -66
t-67.5 -27q-39 0 -67 27t-28 66q0 38 28 65t67 27q40 0 67.5 -27z" />
    <glyph glyph-name="Amacron" unicode="&#x100;" horiz-adv-x="601" 
d="M408 0l-27 135h-165l-26 -135h-215l203 696h246l202 -696h-218zM245 279h107l-54 273zM463 774h-325v134h325v-134z" />
    <glyph glyph-name="amacron" unicode="&#x101;" horiz-adv-x="551" 
d="M511 131.5q7 -13.5 25 -20.5l-40 -127q-54 4 -88 20.5t-56 53.5q-52 -78 -161 -78q-79 0 -127.5 47.5t-48.5 122.5q0 89 66 136t192 47h38v13q0 40 -16 54t-61 14q-24 0 -61.5 -7.5t-76.5 -20.5l-43 126q49 20 106.5 31t104.5 11q126 0 183 -48.5t57 -148.5v-184
q0 -28 7 -41.5zM285.5 128q15.5 9 25.5 23v79h-21q-42 0 -62 -15t-20 -46q0 -23 12 -36.5t32 -13.5q18 0 33.5 9zM439 648h-325v134h325v-134z" />
    <glyph glyph-name="Abreve" unicode="&#x102;" horiz-adv-x="601" 
d="M408 0l-27 135h-165l-26 -135h-215l203 696h246l202 -696h-218zM245 279h107l-54 273zM170 800.5q-47 54.5 -54 131.5l103 17q9 -30 29.5 -49.5t52.5 -19.5t52.5 19.5t29.5 49.5l103 -17q-7 -77 -54 -131.5t-131 -54.5t-131 54.5z" />
    <glyph glyph-name="abreve" unicode="&#x103;" horiz-adv-x="551" 
d="M511 131.5q7 -13.5 25 -20.5l-40 -127q-54 4 -88 20.5t-56 53.5q-52 -78 -161 -78q-79 0 -127.5 47.5t-48.5 122.5q0 89 66 136t192 47h38v13q0 40 -16 54t-61 14q-24 0 -61.5 -7.5t-76.5 -20.5l-43 126q49 20 106.5 31t104.5 11q126 0 183 -48.5t57 -148.5v-184
q0 -28 7 -41.5zM285.5 128q15.5 9 25.5 23v79h-21q-42 0 -62 -15t-20 -46q0 -23 12 -36.5t32 -13.5q18 0 33.5 9zM145.5 682q-46.5 56 -53.5 140l103 17q9 -37 29.5 -58t52.5 -21t52.5 21t29.5 58l103 -17q-7 -84 -53.5 -140t-131.5 -56t-131.5 56z" />
    <glyph glyph-name="Aogonek" unicode="&#x104;" horiz-adv-x="601" 
d="M426 -47q-25 -25 -25 -48q0 -44 51 -44q26 0 61 8l-12 -115q-35 -8 -74 -8q-70 0 -115 34t-45 92q0 105 134 161l-20 102h-165l-26 -135h-215l203 696h246l202 -696h-110q-65 -22 -90 -47zM245 279h107l-54 273z" />
    <glyph glyph-name="aogonek" unicode="&#x105;" horiz-adv-x="551" 
d="M406.5 -62.5q-25.5 -25.5 -25.5 -48.5q0 -44 51 -44q26 0 61 8l-12 -115q-35 -8 -74 -8q-70 0 -115 34t-45 92q0 107 138 163q-21 17 -33 39q-52 -78 -161 -78q-79 0 -127.5 47.5t-48.5 122.5q0 89 66 136t192 47h38v13q0 40 -16 54t-61 14q-24 0 -61.5 -7.5t-76.5 -20.5
l-43 126q49 20 106.5 31t104.5 11q126 0 183 -48.5t57 -148.5v-184q0 -28 7 -41.5t25 -20.5l-40 -127q-64 -21 -89.5 -46.5zM285.5 128q15.5 9 25.5 23v79h-21q-42 0 -62 -15t-20 -46q0 -23 12 -36.5t32 -13.5q18 0 33.5 9z" />
    <glyph glyph-name="Cacute" unicode="&#x106;" horiz-adv-x="584" 
d="M576 634l-95 -112q-30 22 -58.5 34t-60.5 12q-61 0 -94.5 -55t-33.5 -163t34 -161.5t97 -53.5q34 0 63.5 14t65.5 42l90 -114q-42 -42 -101.5 -69.5t-127.5 -27.5q-103 0 -178 42.5t-116 125.5t-41 202q0 114 42 196.5t117 126t173 43.5q129 0 224 -82zM440 984l70 -144
l-254 -91l-50 99z" />
    <glyph glyph-name="cacute" unicode="&#x107;" horiz-adv-x="479" 
d="M489 483l-82 -115q-46 37 -94 37q-46 0 -68 -32t-22 -110q0 -75 22.5 -102.5t65.5 -27.5q23 0 43 7.5t50 26.5l85 -121q-81 -66 -189 -66q-87 0 -151 35.5t-98 100t-34 147.5q0 84 34.5 150t97.5 103.5t146 37.5q114 0 194 -71zM360 856l74 -144l-251 -99l-53 99z" />
    <glyph glyph-name="Ccircumflex" unicode="&#x108;" horiz-adv-x="584" 
d="M576 634l-95 -112q-30 22 -58.5 34t-60.5 12q-61 0 -94.5 -55t-33.5 -163t34 -161.5t97 -53.5q34 0 63.5 14t65.5 42l90 -114q-42 -42 -101.5 -69.5t-127.5 -27.5q-103 0 -178 42.5t-116 125.5t-41 202q0 114 42 196.5t117 126t173 43.5q129 0 224 -82zM221 752l-67 77
l145 141h118l145 -141l-67 -77l-137 86z" />
    <glyph glyph-name="ccircumflex" unicode="&#x109;" horiz-adv-x="479" 
d="M489 483l-82 -115q-46 37 -94 37q-46 0 -68 -32t-22 -110q0 -75 22.5 -102.5t65.5 -27.5q23 0 43 7.5t50 26.5l85 -121q-81 -66 -189 -66q-87 0 -151 35.5t-98 100t-34 147.5q0 84 34.5 150t97.5 103.5t146 37.5q114 0 194 -71zM155 612l-67 77l145 151h118l145 -151
l-67 -77l-137 96z" />
    <glyph glyph-name="Cdotaccent" unicode="&#x10a;" horiz-adv-x="584" 
d="M576 634l-95 -112q-30 22 -58.5 34t-60.5 12q-61 0 -94.5 -55t-33.5 -163t34 -161.5t97 -53.5q34 0 63.5 14t65.5 42l90 -114q-42 -42 -101.5 -69.5t-127.5 -27.5q-103 0 -178 42.5t-116 125.5t-41 202q0 114 42 196.5t117 126t173 43.5q129 0 224 -82zM437.5 924.5
q31.5 -30.5 31.5 -75.5t-31.5 -75.5t-79.5 -30.5t-79.5 30.5t-31.5 75.5t31.5 75.5t79.5 30.5t79.5 -30.5z" />
    <glyph glyph-name="cdotaccent" unicode="&#x10b;" horiz-adv-x="479" 
d="M489 483l-82 -115q-46 37 -94 37q-46 0 -68 -32t-22 -110q0 -75 22.5 -102.5t65.5 -27.5q23 0 43 7.5t50 26.5l85 -121q-81 -66 -189 -66q-87 0 -151 35.5t-98 100t-34 147.5q0 84 34.5 150t97.5 103.5t146 37.5q114 0 194 -71zM371.5 798.5q31.5 -30.5 31.5 -75.5
t-31.5 -75.5t-79.5 -30.5t-79.5 30.5t-31.5 75.5t31.5 75.5t79.5 30.5t79.5 -30.5z" />
    <glyph glyph-name="Ccaron" unicode="&#x10c;" horiz-adv-x="584" 
d="M576 634l-95 -112q-30 22 -58.5 34t-60.5 12q-61 0 -94.5 -55t-33.5 -163t34 -161.5t97 -53.5q34 0 63.5 14t65.5 42l90 -114q-42 -42 -101.5 -69.5t-127.5 -27.5q-103 0 -178 42.5t-116 125.5t-41 202q0 114 42 196.5t117 126t173 43.5q129 0 224 -82zM495 965l67 -77
l-145 -141h-118l-145 141l67 77l137 -86z" />
    <glyph glyph-name="ccaron" unicode="&#x10d;" horiz-adv-x="479" 
d="M489 483l-82 -115q-46 37 -94 37q-46 0 -68 -32t-22 -110q0 -75 22.5 -102.5t65.5 -27.5q23 0 43 7.5t50 26.5l85 -121q-81 -66 -189 -66q-87 0 -151 35.5t-98 100t-34 147.5q0 84 34.5 150t97.5 103.5t146 37.5q114 0 194 -71zM429 830l67 -77l-145 -151h-118l-145 151
l67 77l137 -96z" />
    <glyph glyph-name="Dcaron" unicode="&#x10e;" horiz-adv-x="656" 
d="M535 621.5q101 -74.5 101 -270.5q0 -193 -97 -272t-261 -79h-235v696h223q168 0 269 -74.5zM249 551v-406h41q48 0 77 19t43 63.5t14 123.5q0 78 -14.5 121.5t-43.5 61t-75 17.5h-42zM428 965l67 -77l-145 -141h-118l-145 141l67 77l137 -86z" />
    <glyph glyph-name="dcaron" unicode="&#x10f;" horiz-adv-x="739" 
d="M559 744v-744h-176l-7 55q-57 -75 -151 -75q-101 0 -152 77t-51 213q0 82 28 146.5t78.5 101t116.5 36.5q69 0 116 -42v252zM361 169v214q-14 15 -28 22.5t-31 7.5q-35 0 -56 -34.5t-21 -110.5q0 -88 17.5 -117t49.5 -29q42 0 69 47zM701 509l58 234l-141 21l-25 -239z
" />
    <glyph glyph-name="Dcroat" unicode="&#x110;" horiz-adv-x="671" 
d="M550 621.5q101 -74.5 101 -270.5q0 -193 -97 -272t-261 -79h-235v295h-48v116h48v285h223q168 0 269 -74.5zM382 164q29 19 43 63.5t14 123.5q0 78 -14.5 121.5t-43.5 61t-75 17.5h-42v-140h121v-116h-121v-150h41q48 0 77 19z" />
    <glyph glyph-name="dcroat" unicode="&#x111;" horiz-adv-x="611" 
d="M611 696v-106h-52v-590h-176l-7 55q-57 -75 -151 -75q-101 0 -152 77t-51 213q0 82 28 146.5t78.5 101t116.5 36.5q69 0 116 -42v78h-124v106h124v68l198 -20v-48h52zM361 169v214q-14 15 -28 22.5t-31 7.5q-35 0 -56 -34.5t-21 -110.5q0 -88 17.5 -117t49.5 -29
q42 0 69 47z" />
    <glyph glyph-name="Emacron" unicode="&#x112;" horiz-adv-x="520" 
d="M500 696l-21 -143h-230v-130h202v-139h-202v-140h246v-144h-452v696h457zM434 774h-325v134h325v-134z" />
    <glyph glyph-name="emacron" unicode="&#x113;" horiz-adv-x="557" 
d="M541 211h-324q8 -54 33.5 -72.5t73.5 -18.5q28 0 57 11.5t64 35.5l80 -108q-97 -79 -220 -79q-142 0 -215 78.5t-73 207.5q0 80 30.5 145.5t90.5 104t145 38.5q79 0 138 -33t91.5 -96t32.5 -151q0 -25 -4 -63zM350 330q-1 47 -14.5 73t-48.5 26q-33 0 -49.5 -23
t-21.5 -83h134v7zM447 648h-325v134h325v-134z" />
    <glyph glyph-name="Ebreve" unicode="&#x114;" horiz-adv-x="520" 
d="M500 696l-21 -143h-230v-130h202v-139h-202v-140h246v-144h-452v696h457zM141 800.5q-47 54.5 -54 131.5l103 17q9 -30 29.5 -49.5t52.5 -19.5t52.5 19.5t29.5 49.5l103 -17q-7 -77 -54 -131.5t-131 -54.5t-131 54.5z" />
    <glyph glyph-name="ebreve" unicode="&#x115;" horiz-adv-x="557" 
d="M541 211h-324q8 -54 33.5 -72.5t73.5 -18.5q28 0 57 11.5t64 35.5l80 -108q-97 -79 -220 -79q-142 0 -215 78.5t-73 207.5q0 80 30.5 145.5t90.5 104t145 38.5q79 0 138 -33t91.5 -96t32.5 -151q0 -25 -4 -63zM350 330q-1 47 -14.5 73t-48.5 26q-33 0 -49.5 -23
t-21.5 -83h134v7zM153.5 682q-46.5 56 -53.5 140l103 17q9 -37 29.5 -58t52.5 -21t52.5 21t29.5 58l103 -17q-7 -84 -53.5 -140t-131.5 -56t-131.5 56z" />
    <glyph glyph-name="Edotaccent" unicode="&#x116;" horiz-adv-x="520" 
d="M500 696l-21 -143h-230v-130h202v-139h-202v-140h246v-144h-452v696h457zM351.5 924.5q31.5 -30.5 31.5 -75.5t-31.5 -75.5t-79.5 -30.5t-79.5 30.5t-31.5 75.5t31.5 75.5t79.5 30.5t79.5 -30.5z" />
    <glyph glyph-name="edotaccent" unicode="&#x117;" horiz-adv-x="557" 
d="M541 211h-324q8 -54 33.5 -72.5t73.5 -18.5q28 0 57 11.5t64 35.5l80 -108q-97 -79 -220 -79q-142 0 -215 78.5t-73 207.5q0 80 30.5 145.5t90.5 104t145 38.5q79 0 138 -33t91.5 -96t32.5 -151q0 -25 -4 -63zM350 330q-1 47 -14.5 73t-48.5 26q-33 0 -49.5 -23
t-21.5 -83h134v7zM364.5 798.5q31.5 -30.5 31.5 -75.5t-31.5 -75.5t-79.5 -30.5t-79.5 30.5t-31.5 75.5t31.5 75.5t79.5 30.5t79.5 -30.5z" />
    <glyph glyph-name="Eogonek" unicode="&#x118;" horiz-adv-x="520" 
d="M249 144h246v-144h-40q-64 -22 -89.5 -47t-25.5 -48q0 -44 51 -44q26 0 61 8l-12 -115q-35 -8 -74 -8q-70 0 -115 34t-45 92q0 78 73 128h-236v696h457l-21 -143h-230v-130h202v-139h-202v-140z" />
    <glyph glyph-name="eogonek" unicode="&#x119;" horiz-adv-x="557" 
d="M541 211h-324q8 -54 33.5 -72.5t73.5 -18.5q28 0 57 11.5t64 35.5l80 -108q-56 -45 -124 -65q-39 -19 -55 -39.5t-16 -38.5q0 -44 51 -44q26 0 61 8l-12 -115q-35 -8 -74 -8q-70 0 -115 34t-45 92q0 62 58 100q-117 15 -177 90.5t-60 192.5q0 80 30.5 145.5t90.5 104
t145 38.5q79 0 138 -33t91.5 -96t32.5 -151q0 -25 -4 -63zM350 330q-1 47 -14.5 73t-48.5 26q-33 0 -49.5 -23t-21.5 -83h134v7z" />
    <glyph glyph-name="Ecaron" unicode="&#x11a;" horiz-adv-x="520" 
d="M500 696l-21 -143h-230v-130h202v-139h-202v-140h246v-144h-452v696h457zM409 965l67 -77l-145 -141h-118l-145 141l67 77l137 -86z" />
    <glyph glyph-name="ecaron" unicode="&#x11b;" horiz-adv-x="557" 
d="M541 211h-324q8 -54 33.5 -72.5t73.5 -18.5q28 0 57 11.5t64 35.5l80 -108q-97 -79 -220 -79q-142 0 -215 78.5t-73 207.5q0 80 30.5 145.5t90.5 104t145 38.5q79 0 138 -33t91.5 -96t32.5 -151q0 -25 -4 -63zM350 330q-1 47 -14.5 73t-48.5 26q-33 0 -49.5 -23
t-21.5 -83h134v7zM422 830l67 -77l-145 -151h-118l-145 151l67 77l137 -96z" />
    <glyph glyph-name="Gcircumflex" unicode="&#x11c;" horiz-adv-x="653" 
d="M508.5 691q62.5 -25 109.5 -66l-100 -104q-37 27 -67 39t-68 12q-73 0 -112 -55.5t-39 -168.5q0 -85 12 -133.5t37.5 -68.5t67.5 -20q37 0 71 17v127h-70l-19 139h287v-349q-55 -38 -126 -59t-137 -21q-171 0 -253 93.5t-82 275.5q0 115 45 198t125 126t181 43
q75 0 137.5 -25zM213 752l-67 77l145 141h118l145 -141l-67 -77l-137 86z" />
    <glyph glyph-name="gcircumflex" unicode="&#x11d;" horiz-adv-x="570" 
d="M570 498q-53 -24 -152 -24q54 -23 79 -54.5t25 -85.5q0 -50 -29 -90.5t-82.5 -63t-125.5 -22.5q-39 0 -57 3q-12 -6 -12 -19q0 -11 10 -18t42 -7h77q66 0 115 -20t75.5 -56.5t26.5 -82.5q0 -86 -76.5 -135.5t-219.5 -49.5q-105 0 -164.5 22t-83 61t-23.5 95h177
q0 -21 8 -32t29 -16t63 -5q54 0 72.5 12.5t18.5 33.5q0 17 -13.5 28t-43.5 11h-74q-92 0 -136 29.5t-44 77.5q0 31 19 60t49 47q-54 29 -77 66t-23 90q0 95 68 148t183 53q76 -3 136.5 19.5t119.5 62.5zM233 408q-17 -18 -17 -51q0 -36 17 -54.5t44 -18.5q61 0 61 76
q0 35 -15 50.5t-46 15.5q-27 0 -44 -18zM148 612l-67 77l145 151h118l145 -151l-67 -77l-137 96z" />
    <glyph glyph-name="Gbreve" unicode="&#x11e;" horiz-adv-x="653" 
d="M508.5 691q62.5 -25 109.5 -66l-100 -104q-37 27 -67 39t-68 12q-73 0 -112 -55.5t-39 -168.5q0 -85 12 -133.5t37.5 -68.5t67.5 -20q37 0 71 17v127h-70l-19 139h287v-349q-55 -38 -126 -59t-137 -21q-171 0 -253 93.5t-82 275.5q0 115 45 198t125 126t181 43
q75 0 137.5 -25zM219 800.5q-47 54.5 -54 131.5l103 17q9 -30 29.5 -49.5t52.5 -19.5t52.5 19.5t29.5 49.5l103 -17q-7 -77 -54 -131.5t-131 -54.5t-131 54.5z" />
    <glyph glyph-name="gbreve" unicode="&#x11f;" horiz-adv-x="570" 
d="M570 498q-53 -24 -152 -24q54 -23 79 -54.5t25 -85.5q0 -50 -29 -90.5t-82.5 -63t-125.5 -22.5q-39 0 -57 3q-12 -6 -12 -19q0 -11 10 -18t42 -7h77q66 0 115 -20t75.5 -56.5t26.5 -82.5q0 -86 -76.5 -135.5t-219.5 -49.5q-105 0 -164.5 22t-83 61t-23.5 95h177
q0 -21 8 -32t29 -16t63 -5q54 0 72.5 12.5t18.5 33.5q0 17 -13.5 28t-43.5 11h-74q-92 0 -136 29.5t-44 77.5q0 31 19 60t49 47q-54 29 -77 66t-23 90q0 95 68 148t183 53q76 -3 136.5 19.5t119.5 62.5zM233 408q-17 -18 -17 -51q0 -36 17 -54.5t44 -18.5q61 0 61 76
q0 35 -15 50.5t-46 15.5q-27 0 -44 -18zM153.5 682q-46.5 56 -53.5 140l103 17q9 -37 29.5 -58t52.5 -21t52.5 21t29.5 58l103 -17q-7 -84 -53.5 -140t-131.5 -56t-131.5 56z" />
    <glyph glyph-name="Gdotaccent" unicode="&#x120;" horiz-adv-x="653" 
d="M508.5 691q62.5 -25 109.5 -66l-100 -104q-37 27 -67 39t-68 12q-73 0 -112 -55.5t-39 -168.5q0 -85 12 -133.5t37.5 -68.5t67.5 -20q37 0 71 17v127h-70l-19 139h287v-349q-55 -38 -126 -59t-137 -21q-171 0 -253 93.5t-82 275.5q0 115 45 198t125 126t181 43
q75 0 137.5 -25zM429.5 924.5q31.5 -30.5 31.5 -75.5t-31.5 -75.5t-79.5 -30.5t-79.5 30.5t-31.5 75.5t31.5 75.5t79.5 30.5t79.5 -30.5z" />
    <glyph glyph-name="gdotaccent" unicode="&#x121;" horiz-adv-x="570" 
d="M570 498q-53 -24 -152 -24q54 -23 79 -54.5t25 -85.5q0 -50 -29 -90.5t-82.5 -63t-125.5 -22.5q-39 0 -57 3q-12 -6 -12 -19q0 -11 10 -18t42 -7h77q66 0 115 -20t75.5 -56.5t26.5 -82.5q0 -86 -76.5 -135.5t-219.5 -49.5q-105 0 -164.5 22t-83 61t-23.5 95h177
q0 -21 8 -32t29 -16t63 -5q54 0 72.5 12.5t18.5 33.5q0 17 -13.5 28t-43.5 11h-74q-92 0 -136 29.5t-44 77.5q0 31 19 60t49 47q-54 29 -77 66t-23 90q0 95 68 148t183 53q76 -3 136.5 19.5t119.5 62.5zM233 408q-17 -18 -17 -51q0 -36 17 -54.5t44 -18.5q61 0 61 76
q0 35 -15 50.5t-46 15.5q-27 0 -44 -18zM364.5 798.5q31.5 -30.5 31.5 -75.5t-31.5 -75.5t-79.5 -30.5t-79.5 30.5t-31.5 75.5t31.5 75.5t79.5 30.5t79.5 -30.5z" />
    <glyph glyph-name="Gcommaaccent" unicode="&#x122;" horiz-adv-x="653" 
d="M508.5 691q62.5 -25 109.5 -66l-100 -104q-37 27 -67 39t-68 12q-73 0 -112 -55.5t-39 -168.5q0 -85 12 -133.5t37.5 -68.5t67.5 -20q37 0 71 17v127h-70l-19 139h287v-349q-55 -38 -126 -59t-137 -21q-171 0 -253 93.5t-82 275.5q0 115 45 198t125 126t181 43
q75 0 137.5 -25zM416 -88q26 -26 26 -65q0 -21 -6 -39t-21 -49l-50 -101h-94l25 114q-38 29 -38 75q0 38 26 64.5t66 26.5t66 -26z" />
    <glyph glyph-name="gcommaaccent" unicode="&#x123;" horiz-adv-x="570" 
d="M570 498q-53 -24 -152 -24q54 -23 79 -54.5t25 -85.5q0 -50 -29 -90.5t-82.5 -63t-125.5 -22.5q-39 0 -57 3q-12 -6 -12 -19q0 -11 10 -18t42 -7h77q66 0 115 -20t75.5 -56.5t26.5 -82.5q0 -86 -76.5 -135.5t-219.5 -49.5q-105 0 -164.5 22t-83 61t-23.5 95h177
q0 -21 8 -32t29 -16t63 -5q54 0 72.5 12.5t18.5 33.5q0 17 -13.5 28t-43.5 11h-74q-92 0 -136 29.5t-44 77.5q0 31 19 60t49 47q-54 29 -77 66t-23 90q0 95 68 148t183 53q76 -3 136.5 19.5t119.5 62.5zM233 408q-17 -18 -17 -51q0 -36 17 -54.5t44 -18.5q61 0 61 76
q0 35 -15 50.5t-46 15.5q-27 0 -44 -18zM213 599q-26 26 -26 65q0 21 6 39t21 49l50 101h94l-25 -114q38 -29 38 -75q0 -38 -26 -64.5t-66 -26.5t-66 26z" />
    <glyph glyph-name="Hcircumflex" unicode="&#x124;" horiz-adv-x="657" 
d="M408 0v281h-159v-281h-206v696h206v-257h159v257h206v-696h-206zM192 752l-67 77l145 141h118l145 -141l-67 -77l-137 86z" />
    <glyph glyph-name="hcircumflex" unicode="&#x125;" horiz-adv-x="572" 
d="M496.5 512q38.5 -42 38.5 -118v-394h-198v358q0 30 -7.5 41t-22.5 11q-33 0 -67 -53v-357h-198v744l198 20v-278q34 36 70 52t81 16q67 0 105.5 -42zM149 800l-67 77l145 141h118l145 -141l-67 -77l-137 86z" />
    <glyph glyph-name="Hbar" unicode="&#x126;" horiz-adv-x="671" 
d="M671 601v-106h-50v-495h-206v281h-159v-281h-206v495h-50v106h50v95h206v-95h159v95h206v-95h50zM415 439v56h-159v-56h159z" />
    <glyph glyph-name="hbar" unicode="&#x127;" horiz-adv-x="582" 
d="M506.5 512q38.5 -42 38.5 -118v-394h-198v358q0 30 -7.5 41t-22.5 11q-33 0 -67 -53v-357h-198v590h-52v106h52v48l198 20v-68h122v-106h-122v-104q34 36 70 52t81 16q67 0 105.5 -42z" />
    <glyph glyph-name="Itilde" unicode="&#x128;" horiz-adv-x="292" 
d="M249 696v-696h-206v696h206zM163.5 755q-16.5 7 -35.5 20q-12 8 -20 12t-17 4q-18 0 -29 -10t-24 -33l-93 45q21 59 57.5 97.5t83.5 38.5q25 0 42.5 -7t36.5 -20q12 -8 20 -12t17 -4q17 0 28 10t24 33l93 -45q-21 -60 -58 -98t-85 -38q-24 0 -40.5 7z" />
    <glyph glyph-name="itilde" unicode="&#x129;" horiz-adv-x="282" 
d="M240 534v-534h-198v534h198zM158.5 629q-16.5 7 -35.5 20q-12 8 -20 12t-17 4q-18 0 -29 -10t-24 -33l-93 45q21 59 57.5 97.5t83.5 38.5q25 0 42.5 -7t36.5 -20q12 -8 20 -12t17 -4q17 0 28 10t24 33l93 -45q-21 -60 -58 -98t-85 -38q-24 0 -40.5 7z" />
    <glyph glyph-name="Imacron" unicode="&#x12a;" horiz-adv-x="292" 
d="M249 696v-696h-206v696h206zM308 774h-325v134h325v-134z" />
    <glyph glyph-name="imacron" unicode="&#x12b;" horiz-adv-x="282" 
d="M240 534v-534h-198v534h198zM303 648h-325v134h325v-134z" />
    <glyph glyph-name="Ibreve" unicode="&#x12c;" horiz-adv-x="292" 
d="M249 696v-696h-206v696h206zM15 800.5q-47 54.5 -54 131.5l103 17q9 -30 29.5 -49.5t52.5 -19.5t52.5 19.5t29.5 49.5l103 -17q-7 -77 -54 -131.5t-131 -54.5t-131 54.5z" />
    <glyph glyph-name="ibreve" unicode="&#x12d;" horiz-adv-x="282" 
d="M240 534v-534h-198v534h198zM9.5 682q-46.5 56 -53.5 140l103 17q9 -37 29.5 -58t52.5 -21t52.5 21t29.5 58l103 -17q-7 -84 -53.5 -140t-131.5 -56t-131.5 56z" />
    <glyph glyph-name="Iogonek" unicode="&#x12e;" horiz-adv-x="292" 
d="M249 696v-696h-46q-64 -21 -89.5 -46.5t-25.5 -48.5q0 -44 51 -44q26 0 61 8l-12 -115q-35 -8 -74 -8q-70 0 -115 34t-45 92q0 85 89 139v685h206z" />
    <glyph glyph-name="iogonek" unicode="&#x12f;" horiz-adv-x="282" 
d="M61.5 647.5q-31.5 30.5 -31.5 75.5t31.5 75.5t79.5 30.5t79.5 -30.5t31.5 -75.5t-31.5 -75.5t-79.5 -30.5t-79.5 30.5zM42 534h198v-534h-40q-64 -21 -89.5 -46.5t-25.5 -48.5q0 -44 51 -44q26 0 61 8l-12 -115q-35 -8 -74 -8q-70 0 -115 34t-45 92q0 87 91 140v522z" />
    <glyph glyph-name="Idotaccent" unicode="&#x130;" horiz-adv-x="292" 
d="M249 696v-696h-206v696h206zM225.5 924.5q31.5 -30.5 31.5 -75.5t-31.5 -75.5t-79.5 -30.5t-79.5 30.5t-31.5 75.5t31.5 75.5t79.5 30.5t79.5 -30.5z" />
    <glyph glyph-name="dotlessi" unicode="&#x131;" horiz-adv-x="282" 
d="M240 534v-534h-198v534h198z" />
    <glyph glyph-name="IJ" unicode="&#x132;" horiz-adv-x="617" 
d="M249 696v-696h-206v696h206zM576 111q0 -91 -35 -150.5t-88.5 -92.5t-125.5 -57l-55 145q43 16 64 38.5t27.5 51t6.5 72.5v578h206v-585z" />
    <glyph glyph-name="ij" unicode="&#x133;" horiz-adv-x="564" 
d="M240 534v-534h-198v534h198zM220.5 798.5q31.5 -30.5 31.5 -75.5t-31.5 -75.5t-79.5 -30.5t-79.5 30.5t-31.5 75.5t31.5 75.5t79.5 30.5t79.5 -30.5zM522 77q0 -130 -64 -198.5t-178 -105.5l-68 144q39 18 62 35t36.5 44t13.5 69v469h198v-457zM502.5 798.5
q31.5 -30.5 31.5 -75.5t-31.5 -75.5t-79.5 -30.5t-79.5 30.5t-31.5 75.5t31.5 75.5t79.5 30.5t79.5 -30.5z" />
    <glyph glyph-name="Jcircumflex" unicode="&#x134;" horiz-adv-x="325" 
d="M284 111q0 -91 -35 -150.5t-88.5 -92.5t-125.5 -57l-55 145q43 16 64 38.5t27.5 51t6.5 72.5v578h206v-585zM44 752l-67 77l145 141h118l145 -141l-67 -77l-137 86z" />
    <glyph glyph-name="jcircumflex" unicode="&#x135;" horiz-adv-x="282" 
d="M240 77q0 -130 -64 -198.5t-178 -105.5l-68 144q39 18 62 35t36.5 44t13.5 69v469h198v-457zM4 612l-67 77l145 151h118l145 -151l-67 -77l-137 96z" />
    <glyph glyph-name="Kcommaaccent" unicode="&#x136;" horiz-adv-x="659" 
d="M249 696v-696h-206v696h206zM661 696l-197 -309l215 -387h-234l-190 371l194 325h212zM396 -88q26 -26 26 -65q0 -21 -6 -39t-21 -49l-50 -101h-94l25 114q-38 29 -38 75q0 38 26 64.5t66 26.5t66 -26z" />
    <glyph glyph-name="kcommaaccent" unicode="&#x137;" horiz-adv-x="576" 
d="M240 764v-764h-198v744zM583 534l-141 -234l149 -300h-219l-128 292l143 242h196zM354 -88q26 -26 26 -65q0 -21 -6 -39t-21 -49l-50 -101h-94l25 114q-38 29 -38 75q0 38 26 64.5t66 26.5t66 -26z" />
    <glyph glyph-name="kgreenlandic" unicode="&#x138;" horiz-adv-x="576" 
d="M240 534v-534h-198v534h198zM583 534l-141 -244l149 -290h-219l-128 282l143 252h196z" />
    <glyph glyph-name="Lacute" unicode="&#x139;" horiz-adv-x="522" 
d="M249 696v-538h263l-21 -158h-448v696h206zM228 984l70 -144l-254 -91l-50 99z" />
    <glyph glyph-name="lacute" unicode="&#x13a;" horiz-adv-x="300" 
d="M80.5 25.5q-43.5 45.5 -43.5 128.5v590l198 20v-602q0 -27 24 -27q11 0 21 4l35 -141q-47 -18 -110 -18q-81 0 -124.5 45.5zM218 1032l70 -144l-254 -91l-50 99z" />
    <glyph glyph-name="Lcommaaccent" unicode="&#x13b;" horiz-adv-x="522" 
d="M249 696v-538h263l-21 -158h-448v696h206zM333 -88q26 -26 26 -65q0 -21 -6 -39t-21 -49l-50 -101h-94l25 114q-38 29 -38 75q0 38 26 64.5t66 26.5t66 -26z" />
    <glyph glyph-name="lcommaaccent" unicode="&#x13c;" horiz-adv-x="300" 
d="M80.5 25.5q-43.5 45.5 -43.5 128.5v590l198 20v-602q0 -27 24 -27q11 0 21 4l35 -141q-47 -18 -110 -18q-81 0 -124.5 45.5zM252 -88q26 -26 26 -65q0 -21 -6 -39t-21 -49l-50 -101h-94l25 114q-38 29 -38 75q0 38 26 64.5t66 26.5t66 -26z" />
    <glyph glyph-name="Lcaron" unicode="&#x13d;" horiz-adv-x="522" 
d="M249 696v-538h263l-21 -158h-448v696h206zM391 461l58 234l-141 21l-25 -239z" />
    <glyph glyph-name="lcaron" unicode="&#x13e;" horiz-adv-x="415" 
d="M80.5 25.5q-43.5 45.5 -43.5 128.5v590l198 20v-602q0 -27 24 -27q11 0 21 4l35 -141q-47 -18 -110 -18q-81 0 -124.5 45.5zM377 509l58 234l-141 21l-25 -239z" />
    <glyph glyph-name="Ldot" unicode="&#x13f;" horiz-adv-x="522" 
d="M249 696v-538h263l-21 -158h-448v696h206zM484.5 482.5q31.5 -30.5 31.5 -75.5t-31.5 -75.5t-79.5 -30.5t-79.5 30.5t-31.5 75.5t31.5 75.5t79.5 30.5t79.5 -30.5z" />
    <glyph glyph-name="ldot" unicode="&#x140;" horiz-adv-x="508" 
d="M80.5 25.5q-43.5 45.5 -43.5 128.5v590l198 20v-602q0 -27 24 -27q11 0 21 4l35 -141q-47 -18 -110 -18q-81 0 -124.5 45.5zM470.5 451.5q31.5 -30.5 31.5 -75.5t-31.5 -75.5t-79.5 -30.5t-79.5 30.5t-31.5 75.5t31.5 75.5t79.5 30.5t79.5 -30.5z" />
    <glyph glyph-name="Lslash" unicode="&#x141;" horiz-adv-x="576" 
d="M303 158h263l-21 -158h-448v205l-34 -21l-63 103l97 60v349h206v-222l108 67l64 -102l-172 -106v-175z" />
    <glyph glyph-name="lslash" unicode="&#x142;" horiz-adv-x="386" 
d="M322 139l35 -141q-47 -18 -110 -18q-81 0 -124.5 45.5t-43.5 128.5v95l-36 -22l-63 102l99 62v353l198 20v-253l52 31l63 -102l-115 -70v-208q0 -27 24 -27q11 0 21 4z" />
    <glyph glyph-name="Nacute" unicode="&#x143;" horiz-adv-x="651" 
d="M608 0h-258l-152 508l3 -22q11 -73 17.5 -133.5t6.5 -136.5v-216h-182v696h253l158 -510l-3 21q-12 69 -18.5 128.5t-6.5 137.5v223h182v-696zM408 984l70 -144l-254 -91l-50 99z" />
    <glyph glyph-name="nacute" unicode="&#x144;" horiz-adv-x="572" 
d="M496.5 512q38.5 -42 38.5 -118v-394h-198v358q0 30 -7.5 41t-22.5 11q-33 0 -67 -53v-357h-198v534h173l14 -55q37 39 75.5 57t86.5 18q67 0 105.5 -42zM359 856l74 -144l-251 -99l-53 99z" />
    <glyph glyph-name="Ncommaaccent" unicode="&#x145;" horiz-adv-x="651" 
d="M608 0h-258l-152 508l3 -22q11 -73 17.5 -133.5t6.5 -136.5v-216h-182v696h253l158 -510l-3 21q-12 69 -18.5 128.5t-6.5 137.5v223h182v-696zM392 -88q26 -26 26 -65q0 -21 -6 -39t-21 -49l-50 -101h-94l25 114q-38 29 -38 75q0 38 26 64.5t66 26.5t66 -26z" />
    <glyph glyph-name="ncommaaccent" unicode="&#x146;" horiz-adv-x="572" 
d="M496.5 512q38.5 -42 38.5 -118v-394h-198v358q0 30 -7.5 41t-22.5 11q-33 0 -67 -53v-357h-198v534h173l14 -55q37 39 75.5 57t86.5 18q67 0 105.5 -42zM352 -88q26 -26 26 -65q0 -21 -6 -39t-21 -49l-50 -101h-94l25 114q-38 29 -38 75q0 38 26 64.5t66 26.5t66 -26z
" />
    <glyph glyph-name="Ncaron" unicode="&#x147;" horiz-adv-x="651" 
d="M608 0h-258l-152 508l3 -22q11 -73 17.5 -133.5t6.5 -136.5v-216h-182v696h253l158 -510l-3 21q-12 69 -18.5 128.5t-6.5 137.5v223h182v-696zM463 965l67 -77l-145 -141h-118l-145 141l67 77l137 -86z" />
    <glyph glyph-name="ncaron" unicode="&#x148;" horiz-adv-x="572" 
d="M496.5 512q38.5 -42 38.5 -118v-394h-198v358q0 30 -7.5 41t-22.5 11q-33 0 -67 -53v-357h-198v534h173l14 -55q37 39 75.5 57t86.5 18q67 0 105.5 -42zM428 830l67 -77l-145 -151h-118l-145 151l67 77l137 -96z" />
    <glyph glyph-name="napostrophe" unicode="&#x149;" horiz-adv-x="706" 
d="M157 742.5q22 -21.5 22 -53.5q0 -18 -5.5 -34t-17.5 -40l-41 -80h-79l21 91q-32 25 -32 63q0 31 22.5 53t54.5 22q33 0 55 -21.5zM630.5 512q38.5 -42 38.5 -118v-394h-198v358q0 30 -7.5 41t-22.5 11q-33 0 -67 -53v-357h-198v534h173l14 -55q37 39 75.5 57t86.5 18
q67 0 105.5 -42z" />
    <glyph glyph-name="Eng" unicode="&#x14a;" horiz-adv-x="651" 
d="M608 696v-712q0 -103 -62 -157t-169 -54q-95 0 -157 45l64 120q22 -11 35.5 -15.5t32.5 -4.5q24 0 37 13.5t13 39.5v29h-52l-152 508l3 -22q11 -73 17.5 -133.5t6.5 -136.5v-216h-182v696h253l158 -510l-3 21q-12 69 -18.5 128.5t-6.5 137.5v223h182z" />
    <glyph glyph-name="eng" unicode="&#x14b;" horiz-adv-x="572" 
d="M496.5 512q38.5 -42 38.5 -118v-410q0 -103 -60.5 -157t-163.5 -54q-96 0 -158 45l64 113q21 -10 35 -14t33 -4q25 0 38.5 13.5t13.5 39.5v392q0 30 -7.5 41t-22.5 11q-33 0 -67 -53v-357h-198v534h173l14 -55q37 39 75.5 57t86.5 18q67 0 105.5 -42z" />
    <glyph glyph-name="Omacron" unicode="&#x14c;" horiz-adv-x="690" 
d="M585.5 619.5q84.5 -96.5 84.5 -270.5q0 -113 -38 -196t-111 -128t-176 -45q-156 0 -240.5 97.5t-84.5 271.5q0 113 38 195.5t111 127t176 44.5q156 0 240.5 -96.5zM260 519.5q-26 -50.5 -26 -170.5t26 -171.5t85 -51.5q60 0 85.5 51t25.5 172q0 120 -26 170.5t-85 50.5
t-85 -50.5zM507 774h-325v134h325v-134z" />
    <glyph glyph-name="omacron" unicode="&#x14d;" horiz-adv-x="584" 
d="M493.5 479q73.5 -75 73.5 -213q0 -86 -33.5 -151t-95.5 -100t-146 -35q-128 0 -201.5 75t-73.5 213q0 86 33.5 151t95.5 100t146 35q128 0 201.5 -75zM237 378q-17 -34 -17 -110q0 -79 17 -112.5t55 -33.5t55 34t17 110q0 79 -17 112.5t-55 33.5t-55 -34zM454 648h-325
v134h325v-134z" />
    <glyph glyph-name="Obreve" unicode="&#x14e;" horiz-adv-x="690" 
d="M585.5 619.5q84.5 -96.5 84.5 -270.5q0 -113 -38 -196t-111 -128t-176 -45q-156 0 -240.5 97.5t-84.5 271.5q0 113 38 195.5t111 127t176 44.5q156 0 240.5 -96.5zM260 519.5q-26 -50.5 -26 -170.5t26 -171.5t85 -51.5q60 0 85.5 51t25.5 172q0 120 -26 170.5t-85 50.5
t-85 -50.5zM214 800.5q-47 54.5 -54 131.5l103 17q9 -30 29.5 -49.5t52.5 -19.5t52.5 19.5t29.5 49.5l103 -17q-7 -77 -54 -131.5t-131 -54.5t-131 54.5z" />
    <glyph glyph-name="obreve" unicode="&#x14f;" horiz-adv-x="584" 
d="M493.5 479q73.5 -75 73.5 -213q0 -86 -33.5 -151t-95.5 -100t-146 -35q-128 0 -201.5 75t-73.5 213q0 86 33.5 151t95.5 100t146 35q128 0 201.5 -75zM237 378q-17 -34 -17 -110q0 -79 17 -112.5t55 -33.5t55 34t17 110q0 79 -17 112.5t-55 33.5t-55 -34zM160.5 682
q-46.5 56 -53.5 140l103 17q9 -37 29.5 -58t52.5 -21t52.5 21t29.5 58l103 -17q-7 -84 -53.5 -140t-131.5 -56t-131.5 56z" />
    <glyph glyph-name="Ohungarumlaut" unicode="&#x150;" horiz-adv-x="690" 
d="M585.5 619.5q84.5 -96.5 84.5 -270.5q0 -113 -38 -196t-111 -128t-176 -45q-156 0 -240.5 97.5t-84.5 271.5q0 113 38 195.5t111 127t176 44.5q156 0 240.5 -96.5zM260 519.5q-26 -50.5 -26 -170.5t26 -171.5t85 -51.5q60 0 85.5 51t25.5 172q0 120 -26 170.5t-85 50.5
t-85 -50.5zM296 1003l125 -56l-123 -197l-98 39zM486 1003l123 -61l-131 -196l-96 46z" />
    <glyph glyph-name="ohungarumlaut" unicode="&#x151;" horiz-adv-x="584" 
d="M493.5 479q73.5 -75 73.5 -213q0 -86 -33.5 -151t-95.5 -100t-146 -35q-128 0 -201.5 75t-73.5 213q0 86 33.5 151t95.5 100t146 35q128 0 201.5 -75zM237 378q-17 -34 -17 -110q0 -79 17 -112.5t55 -33.5t55 34t17 110q0 79 -17 112.5t-55 33.5t-55 -34zM231 877
l125 -56l-123 -197l-98 39zM421 877l123 -61l-131 -196l-96 46z" />
    <glyph glyph-name="OE" unicode="&#x152;" horiz-adv-x="910" 
d="M593 144h292v-144h-451q-48 -20 -107 -20q-95 0 -164 44t-106 127t-37 198q0 112 37 195t106 127.5t164 44.5q62 0 111 -20h452l-21 -143h-275q37 -56 50 -130h197v-139h-196q-13 -80 -52 -140zM412 177.5q24 51.5 24 171.5q0 118 -24.5 169.5t-76.5 51.5t-76.5 -51.5
t-24.5 -169.5q0 -119 24.5 -171t76.5 -52q53 0 77 51.5z" />
    <glyph glyph-name="oe" unicode="&#x153;" horiz-adv-x="902" 
d="M886 211h-324q8 -54 33.5 -72.5t73.5 -18.5q28 0 57 11.5t64 35.5l80 -108q-97 -79 -220 -79q-115 0 -185 70q-67 -70 -174 -70q-128 0 -201 75t-73 213q0 86 33.5 150.5t95.5 100t145 35.5q101 0 172 -68q66 68 165 68q79 0 138 -33t91.5 -96t32.5 -151q0 -25 -4 -63z
M695 330q-1 47 -14.5 73t-48.5 26q-33 0 -49.5 -23t-21.5 -83h134v7zM345 156q17 34 17 112q0 75 -17 109.5t-54 34.5t-54 -34.5t-17 -109.5q0 -78 17 -112t54 -34t54 34z" />
    <glyph glyph-name="Racute" unicode="&#x154;" horiz-adv-x="624" 
d="M287 248h-38v-248h-206v696h255q151 0 225 -53.5t74 -167.5q0 -65 -29 -108t-94 -81l170 -286h-228zM249 386h54q42 0 63 22t21 67q0 80 -94 80h-44v-169zM384 984l70 -144l-254 -91l-50 99z" />
    <glyph glyph-name="racute" unicode="&#x155;" horiz-adv-x="410" 
d="M420 542l-31 -191q-27 8 -49 8q-44 0 -65.5 -29t-34.5 -87v-243h-198v534h173l16 -100q17 53 54 85t81 32q26 0 54 -9zM299 856l74 -144l-251 -99l-53 99z" />
    <glyph glyph-name="Rcommaaccent" unicode="&#x156;" horiz-adv-x="624" 
d="M287 248h-38v-248h-206v696h255q151 0 225 -53.5t74 -167.5q0 -65 -29 -108t-94 -81l170 -286h-228zM249 386h54q42 0 63 22t21 67q0 80 -94 80h-44v-169zM378 -88q26 -26 26 -65q0 -21 -6 -39t-21 -49l-50 -101h-94l25 114q-38 29 -38 75q0 38 26 64.5t66 26.5t66 -26z
" />
    <glyph glyph-name="rcommaaccent" unicode="&#x157;" horiz-adv-x="410" 
d="M420 542l-31 -191q-27 8 -49 8q-44 0 -65.5 -29t-34.5 -87v-243h-198v534h173l16 -100q17 53 54 85t81 32q26 0 54 -9zM207 -88q26 -26 26 -65q0 -21 -6 -39t-21 -49l-50 -101h-94l25 114q-38 29 -38 75q0 38 26 64.5t66 26.5t66 -26z" />
    <glyph glyph-name="Rcaron" unicode="&#x158;" horiz-adv-x="624" 
d="M287 248h-38v-248h-206v696h255q151 0 225 -53.5t74 -167.5q0 -65 -29 -108t-94 -81l170 -286h-228zM249 386h54q42 0 63 22t21 67q0 80 -94 80h-44v-169zM439 965l67 -77l-145 -141h-118l-145 141l67 77l137 -86z" />
    <glyph glyph-name="rcaron" unicode="&#x159;" horiz-adv-x="410" 
d="M420 542l-31 -191q-27 8 -49 8q-44 0 -65.5 -29t-34.5 -87v-243h-198v534h173l16 -100q17 53 54 85t81 32q26 0 54 -9zM368 830l67 -77l-145 -151h-118l-145 151l67 77l137 -96z" />
    <glyph glyph-name="Sacute" unicode="&#x15a;" horiz-adv-x="588" 
d="M556 621l-91 -107q-70 56 -149 56q-37 0 -56 -13t-19 -37q0 -18 10.5 -29.5t35 -21.5t79.5 -28q110 -35 158.5 -88t48.5 -145q0 -67 -35.5 -118.5t-101.5 -80.5t-156 -29q-92 0 -162 29t-118 76l101 111q79 -68 171 -68q43 0 65 17.5t22 45.5q0 21 -9.5 35t-33.5 26
t-70 26q-121 38 -169 91.5t-48 133.5q0 65 35 113t96.5 74t138.5 26q159 0 257 -95zM389 984l70 -144l-254 -91l-50 99z" />
    <glyph glyph-name="sacute" unicode="&#x15b;" horiz-adv-x="493" 
d="M369.5 535.5q54.5 -18.5 91.5 -50.5l-70 -107q-29 18 -62 28.5t-65 10.5q-45 0 -45 -24q0 -10 6 -16.5t28.5 -16t72.5 -24.5q80 -25 118.5 -63.5t38.5 -108.5q0 -54 -32.5 -96t-90 -65t-130.5 -23q-70 0 -131.5 22.5t-103.5 62.5l94 104q30 -24 65.5 -38.5t70.5 -14.5
q27 0 41.5 8.5t14.5 24.5q0 14 -6.5 21.5t-26.5 15t-70 22.5q-155 46 -155 173q0 49 27.5 88t80 62t125.5 23q59 0 113.5 -18.5zM319 856l74 -144l-251 -99l-53 99z" />
    <glyph glyph-name="Scircumflex" unicode="&#x15c;" horiz-adv-x="588" 
d="M556 621l-91 -107q-70 56 -149 56q-37 0 -56 -13t-19 -37q0 -18 10.5 -29.5t35 -21.5t79.5 -28q110 -35 158.5 -88t48.5 -145q0 -67 -35.5 -118.5t-101.5 -80.5t-156 -29q-92 0 -162 29t-118 76l101 111q79 -68 171 -68q43 0 65 17.5t22 45.5q0 21 -9.5 35t-33.5 26
t-70 26q-121 38 -169 91.5t-48 133.5q0 65 35 113t96.5 74t138.5 26q159 0 257 -95zM170 752l-67 77l145 141h118l145 -141l-67 -77l-137 86z" />
    <glyph glyph-name="scircumflex" unicode="&#x15d;" horiz-adv-x="493" 
d="M369.5 535.5q54.5 -18.5 91.5 -50.5l-70 -107q-29 18 -62 28.5t-65 10.5q-45 0 -45 -24q0 -10 6 -16.5t28.5 -16t72.5 -24.5q80 -25 118.5 -63.5t38.5 -108.5q0 -54 -32.5 -96t-90 -65t-130.5 -23q-70 0 -131.5 22.5t-103.5 62.5l94 104q30 -24 65.5 -38.5t70.5 -14.5
q27 0 41.5 8.5t14.5 24.5q0 14 -6.5 21.5t-26.5 15t-70 22.5q-155 46 -155 173q0 49 27.5 88t80 62t125.5 23q59 0 113.5 -18.5zM114 612l-67 77l145 151h118l145 -151l-67 -77l-137 96z" />
    <glyph glyph-name="Scedilla" unicode="&#x15e;" horiz-adv-x="588" 
d="M512 58.5q-61 -60.5 -170 -74.5v-27q110 -14 110 -108q0 -54 -44 -89t-120 -35q-37 0 -69.5 9.5t-55.5 24.5l43 86q33 -18 64 -18q45 0 45 24q0 16 -22 22.5t-72 6.5l13 102q-140 13 -234 103l101 111q79 -68 171 -68q43 0 65 17.5t22 45.5q0 21 -9.5 35t-33.5 26t-70 26
q-121 38 -169 91.5t-48 133.5q0 65 35 113t96.5 74t138.5 26q159 0 257 -95l-91 -107q-70 56 -149 56q-37 0 -56 -13t-19 -37q0 -18 10.5 -29.5t35 -21.5t79.5 -28q110 -35 158.5 -88t48.5 -145q0 -89 -61 -149.5z" />
    <glyph glyph-name="scedilla" unicode="&#x15f;" horiz-adv-x="493" 
d="M434 48.5q-49 -47.5 -132 -62.5v-29q110 -14 110 -108q0 -54 -44 -89t-120 -35q-37 0 -69.5 9.5t-55.5 24.5l43 86q33 -18 64 -18q45 0 45 24q0 16 -22 22.5t-72 6.5l13 102q-59 5 -111 27t-88 56l94 104q30 -24 65.5 -38.5t70.5 -14.5q27 0 41.5 8.5t14.5 24.5
q0 14 -6.5 21.5t-26.5 15t-70 22.5q-155 46 -155 173q0 49 27.5 88t80 62t125.5 23q59 0 113.5 -18.5t91.5 -50.5l-70 -107q-29 18 -62 28.5t-65 10.5q-45 0 -45 -24q0 -10 6 -16.5t28.5 -16t72.5 -24.5q80 -25 118.5 -63.5t38.5 -108.5q0 -68 -49 -115.5z" />
    <glyph glyph-name="Scaron" unicode="&#x160;" horiz-adv-x="588" 
d="M556 621l-91 -107q-70 56 -149 56q-37 0 -56 -13t-19 -37q0 -18 10.5 -29.5t35 -21.5t79.5 -28q110 -35 158.5 -88t48.5 -145q0 -67 -35.5 -118.5t-101.5 -80.5t-156 -29q-92 0 -162 29t-118 76l101 111q79 -68 171 -68q43 0 65 17.5t22 45.5q0 21 -9.5 35t-33.5 26
t-70 26q-121 38 -169 91.5t-48 133.5q0 65 35 113t96.5 74t138.5 26q159 0 257 -95zM444 965l67 -77l-145 -141h-118l-145 141l67 77l137 -86z" />
    <glyph glyph-name="scaron" unicode="&#x161;" horiz-adv-x="493" 
d="M369.5 535.5q54.5 -18.5 91.5 -50.5l-70 -107q-29 18 -62 28.5t-65 10.5q-45 0 -45 -24q0 -10 6 -16.5t28.5 -16t72.5 -24.5q80 -25 118.5 -63.5t38.5 -108.5q0 -54 -32.5 -96t-90 -65t-130.5 -23q-70 0 -131.5 22.5t-103.5 62.5l94 104q30 -24 65.5 -38.5t70.5 -14.5
q27 0 41.5 8.5t14.5 24.5q0 14 -6.5 21.5t-26.5 15t-70 22.5q-155 46 -155 173q0 49 27.5 88t80 62t125.5 23q59 0 113.5 -18.5zM388 830l67 -77l-145 -151h-118l-145 151l67 77l137 -96z" />
    <glyph glyph-name="uni0162" unicode="&#x162;" horiz-adv-x="554" 
d="M490 -151q0 -54 -44 -89t-120 -35q-36 0 -69 10t-56 24l43 86q33 -18 62 -18q24 0 35.5 5.5t11.5 19.5q0 15 -22 21.5t-72 6.5l15 120h-100v542h-169v154h554l-21 -154h-158v-585q110 -14 110 -108z" />
    <glyph glyph-name="uni0163" unicode="&#x163;" horiz-adv-x="401" 
d="M400 -151q0 -54 -44 -89t-120 -35q-37 0 -69.5 9.5t-55.5 24.5l43 86q33 -18 64 -18q45 0 45 24q0 16 -22 22.5t-72 6.5l14 110q-121 36 -121 207v203h-64v134h64v112l198 23v-135h120l-20 -134h-100v-201q0 -35 11 -49.5t31 -14.5q25 0 50 14l64 -123
q-25 -17 -58.5 -28.5t-67.5 -15.5v-25q110 -14 110 -108z" />
    <glyph glyph-name="Tcaron" unicode="&#x164;" horiz-adv-x="554" 
d="M559 696l-21 -154h-158v-542h-206v542h-169v154h554zM414 965l67 -77l-145 -141h-118l-145 141l67 77l137 -86z" />
    <glyph glyph-name="tcaron" unicode="&#x165;" horiz-adv-x="401" 
d="M443 798l-58 -234l-108 16l25 239zM352 149l64 -123q-31 -22 -75.5 -34t-84.5 -12q-99 1 -146.5 55.5t-47.5 161.5v203h-64v134h64v112l198 23v-135h120l-20 -134h-100v-201q0 -35 11 -49.5t31 -14.5q25 0 50 14z" />
    <glyph glyph-name="Tbar" unicode="&#x166;" horiz-adv-x="554" 
d="M538 542h-158v-151h109v-106h-109v-285h-206v285h-110v106h110v151h-169v154h554z" />
    <glyph glyph-name="tbar" unicode="&#x167;" horiz-adv-x="401" 
d="M416 26q-31 -22 -75.5 -34t-84.5 -12q-99 1 -146.5 55.5t-47.5 161.5v43h-57v124h57v36h-64v134h64v112l198 23v-135h120l-20 -134h-100v-36h100v-124h-100v-41q0 -35 11 -49.5t31 -14.5q25 0 50 14z" />
    <glyph glyph-name="Utilde" unicode="&#x168;" horiz-adv-x="644" 
d="M611 236q0 -73 -32 -131t-97 -91.5t-160 -33.5q-143 0 -216 69t-73 187v460h206v-454q0 -59 19.5 -86.5t63.5 -27.5t63.5 27.5t19.5 86.5v454h206v-460zM339.5 755q-16.5 7 -35.5 20q-12 8 -20 12t-17 4q-18 0 -29 -10t-24 -33l-93 45q21 59 57.5 97.5t83.5 38.5
q25 0 42.5 -7t36.5 -20q12 -8 20 -12t17 -4q17 0 28 10t24 33l93 -45q-21 -60 -58 -98t-85 -38q-24 0 -40.5 7z" />
    <glyph glyph-name="utilde" unicode="&#x169;" horiz-adv-x="566" 
d="M524 0h-173l-7 58q-55 -78 -158 -78q-75 0 -112 45t-37 125v384h198v-358q0 -29 8.5 -40.5t24.5 -11.5q14 0 29.5 11t28.5 33v366h198v-534zM298.5 629q-16.5 7 -35.5 20q-12 8 -20 12t-17 4q-18 0 -29 -10t-24 -33l-93 45q21 59 57.5 97.5t83.5 38.5q25 0 42.5 -7
t36.5 -20q12 -8 20 -12t17 -4q17 0 28 10t24 33l93 -45q-21 -60 -58 -98t-85 -38q-24 0 -40.5 7z" />
    <glyph glyph-name="Umacron" unicode="&#x16a;" horiz-adv-x="644" 
d="M611 236q0 -73 -32 -131t-97 -91.5t-160 -33.5q-143 0 -216 69t-73 187v460h206v-454q0 -59 19.5 -86.5t63.5 -27.5t63.5 27.5t19.5 86.5v454h206v-460zM484 774h-325v134h325v-134z" />
    <glyph glyph-name="umacron" unicode="&#x16b;" horiz-adv-x="566" 
d="M524 0h-173l-7 58q-55 -78 -158 -78q-75 0 -112 45t-37 125v384h198v-358q0 -29 8.5 -40.5t24.5 -11.5q14 0 29.5 11t28.5 33v366h198v-534zM443 648h-325v134h325v-134z" />
    <glyph glyph-name="Ubreve" unicode="&#x16c;" horiz-adv-x="644" 
d="M611 236q0 -73 -32 -131t-97 -91.5t-160 -33.5q-143 0 -216 69t-73 187v460h206v-454q0 -59 19.5 -86.5t63.5 -27.5t63.5 27.5t19.5 86.5v454h206v-460zM191 800.5q-47 54.5 -54 131.5l103 17q9 -30 29.5 -49.5t52.5 -19.5t52.5 19.5t29.5 49.5l103 -17
q-7 -77 -54 -131.5t-131 -54.5t-131 54.5z" />
    <glyph glyph-name="ubreve" unicode="&#x16d;" horiz-adv-x="566" 
d="M524 0h-173l-7 58q-55 -78 -158 -78q-75 0 -112 45t-37 125v384h198v-358q0 -29 8.5 -40.5t24.5 -11.5q14 0 29.5 11t28.5 33v366h198v-534zM149.5 682q-46.5 56 -53.5 140l103 17q9 -37 29.5 -58t52.5 -21t52.5 21t29.5 58l103 -17q-7 -84 -53.5 -140t-131.5 -56
t-131.5 56z" />
    <glyph glyph-name="Uring" unicode="&#x16e;" horiz-adv-x="644" 
d="M611 236q0 -73 -32 -131t-97 -91.5t-160 -33.5q-143 0 -216 69t-73 187v460h206v-454q0 -59 19.5 -86.5t63.5 -27.5t63.5 27.5t19.5 86.5v454h206v-460zM404 992q35 -20 53.5 -53t18.5 -73t-18.5 -73.5t-53.5 -53.5t-82 -20t-82 20t-53.5 53.5t-18.5 73.5t18.5 73
t53.5 53t82 20t82 -20zM293 900.5q-11 -11.5 -11 -34.5t11 -34.5t29 -11.5t29 11.5t11 34.5t-11 34.5t-29 11.5t-29 -11.5z" />
    <glyph glyph-name="uring" unicode="&#x16f;" horiz-adv-x="566" 
d="M524 0h-173l-7 58q-55 -78 -158 -78q-75 0 -112 45t-37 125v384h198v-358q0 -29 8.5 -40.5t24.5 -11.5q14 0 29.5 11t28.5 33v366h198v-534zM363 866q35 -20 53.5 -53t18.5 -73t-18.5 -73.5t-53.5 -53.5t-82 -20t-82 20t-53.5 53.5t-18.5 73.5t18.5 73t53.5 53t82 20
t82 -20zM252 774.5q-11 -11.5 -11 -34.5t11 -34.5t29 -11.5t29 11.5t11 34.5t-11 34.5t-29 11.5t-29 -11.5z" />
    <glyph glyph-name="Uhungarumlaut" unicode="&#x170;" horiz-adv-x="644" 
d="M611 236q0 -73 -32 -131t-97 -91.5t-160 -33.5q-143 0 -216 69t-73 187v460h206v-454q0 -59 19.5 -86.5t63.5 -27.5t63.5 27.5t19.5 86.5v454h206v-460zM273 1003l125 -56l-123 -197l-98 39zM463 1003l123 -61l-131 -196l-96 46z" />
    <glyph glyph-name="uhungarumlaut" unicode="&#x171;" horiz-adv-x="566" 
d="M524 0h-173l-7 58q-55 -78 -158 -78q-75 0 -112 45t-37 125v384h198v-358q0 -29 8.5 -40.5t24.5 -11.5q14 0 29.5 11t28.5 33v366h198v-534zM220 877l125 -56l-123 -197l-98 39zM410 877l123 -61l-131 -196l-96 46z" />
    <glyph glyph-name="Uogonek" unicode="&#x172;" horiz-adv-x="644" 
d="M611 696v-460q0 -82 -41 -145t-120 -91q-65 -22 -90 -47t-25 -48q0 -44 51 -44q26 0 61 8l-12 -115q-35 -8 -74 -8q-70 0 -115 34t-45 92q0 72 75 110q-120 11 -181.5 78.5t-61.5 175.5v460h206v-454q0 -59 19.5 -86.5t63.5 -27.5t63.5 27.5t19.5 86.5v454h206z" />
    <glyph glyph-name="uogonek" unicode="&#x173;" horiz-adv-x="566" 
d="M434.5 -47q-25.5 -25 -25.5 -48q0 -44 51 -44q26 0 61 8l-12 -115q-35 -8 -74 -8q-70 0 -115 34t-45 92q0 80 76 130l-7 56q-55 -78 -158 -78q-75 0 -112 45t-37 125v384h198v-358q0 -29 8.5 -40.5t24.5 -11.5q14 0 29.5 11t28.5 33v366h198v-534q-64 -22 -89.5 -47z" />
    <glyph glyph-name="Wcircumflex" unicode="&#x174;" horiz-adv-x="859" 
d="M859 696l-101 -696h-268l-62 500l-69 -500h-262l-97 696h206l44 -547l74 547h215l62 -547l60 547h198zM295 752l-67 77l145 141h118l145 -141l-67 -77l-137 86z" />
    <glyph glyph-name="wcircumflex" unicode="&#x175;" horiz-adv-x="768" 
d="M773 534l-105 -534h-227l-58 358l-55 -358h-226l-107 534h200l32 -383l70 383h185l56 -383l45 383h190zM247 612l-67 77l145 151h118l145 -151l-67 -77l-137 96z" />
    <glyph glyph-name="Ycircumflex" unicode="&#x176;" horiz-adv-x="620" 
d="M635 696l-222 -439v-257h-206v256l-222 440h225l103 -284l104 284h218zM173 752l-67 77l145 141h118l145 -141l-67 -77l-137 86z" />
    <glyph glyph-name="ycircumflex" unicode="&#x177;" horiz-adv-x="534" 
d="M385 1q-34 -111 -116 -168t-216 -61l-21 135q77 8 114.5 28t58.5 65h-68l-152 534h210l67 -413l83 413h204zM130 612l-67 77l145 151h118l145 -151l-67 -77l-137 96z" />
    <glyph glyph-name="Ydieresis" unicode="&#x178;" horiz-adv-x="620" 
d="M635 696l-222 -439v-257h-206v256l-222 440h225l103 -284l104 284h218zM252.5 917q27.5 -27 27.5 -65q0 -39 -27.5 -66t-67.5 -27q-39 0 -67 27t-28 66q0 38 28 65t67 27q40 0 67.5 -27zM497.5 917q27.5 -27 27.5 -65q0 -39 -27.5 -66t-67.5 -27q-39 0 -67 27t-28 66
q0 38 28 65t67 27q40 0 67.5 -27z" />
    <glyph glyph-name="Zacute" unicode="&#x179;" horiz-adv-x="557" 
d="M533 696v-153l-277 -382h286l-20 -161h-512v151l286 389h-258v156h495zM361 984l70 -144l-254 -91l-50 99z" />
    <glyph glyph-name="zacute" unicode="&#x17a;" horiz-adv-x="472" 
d="M455 534v-137l-219 -251h226l-17 -146h-440v138l222 252h-202v144h430zM309 856l74 -144l-251 -99l-53 99z" />
    <glyph glyph-name="Zdotaccent" unicode="&#x17b;" horiz-adv-x="557" 
d="M533 696v-153l-277 -382h286l-20 -161h-512v151l286 389h-258v156h495zM358.5 924.5q31.5 -30.5 31.5 -75.5t-31.5 -75.5t-79.5 -30.5t-79.5 30.5t-31.5 75.5t31.5 75.5t79.5 30.5t79.5 -30.5z" />
    <glyph glyph-name="zdotaccent" unicode="&#x17c;" horiz-adv-x="472" 
d="M455 534v-137l-219 -251h226l-17 -146h-440v138l222 252h-202v144h430zM320.5 798.5q31.5 -30.5 31.5 -75.5t-31.5 -75.5t-79.5 -30.5t-79.5 30.5t-31.5 75.5t31.5 75.5t79.5 30.5t79.5 -30.5z" />
    <glyph glyph-name="Zcaron" unicode="&#x17d;" horiz-adv-x="557" 
d="M533 696v-153l-277 -382h286l-20 -161h-512v151l286 389h-258v156h495zM416 965l67 -77l-145 -141h-118l-145 141l67 77l137 -86z" />
    <glyph glyph-name="zcaron" unicode="&#x17e;" horiz-adv-x="472" 
d="M455 534v-137l-219 -251h226l-17 -146h-440v138l222 252h-202v144h430zM378 830l67 -77l-145 -151h-118l-145 151l67 77l137 -96z" />
    <glyph glyph-name="longs" unicode="&#x17f;" horiz-adv-x="369" 
d="M381 753.5q43 -10.5 72 -26.5l-52 -125q-37 20 -78 20q-29 0 -42 -15t-13 -52v-555h-198v400h-72v134h72v31q0 87 58 143t168 56q42 0 85 -10.5z" />
    <glyph glyph-name="uni0180" unicode="&#x180;" horiz-adv-x="609" 
d="M537 478.5q50 -75.5 50 -212.5q0 -82 -25.5 -147t-74 -102t-114.5 -37q-43 0 -78.5 17.5t-59.5 48.5l-7 -46h-176v590h-52v106h52v48l198 20v-68h122v-106h-122v-103q22 30 60 48.5t80 18.5q97 0 147 -75.5zM365.5 154q18.5 33 18.5 112q0 86 -16.5 116t-47.5 30
q-41 0 -70 -50v-202q23 -39 63 -39q34 0 52.5 33z" />
    <glyph glyph-name="uni0181" unicode="&#x181;" horiz-adv-x="799" 
d="M741 317.5q43 -37.5 43 -111.5q0 -115 -83.5 -160.5t-236.5 -45.5h-244v553h-25q-41 0 -41 -37q0 -14 3.5 -27.5t11.5 -33.5l-123 -52q-21 33 -33.5 63.5t-12.5 63.5q0 78 56.5 122t149.5 44h231q155 0 236.5 -41.5t81.5 -138.5q0 -62 -36 -97.5t-90 -49.5
q69 -14 112 -51.5zM426 555v-128h35q47 0 66 15.5t19 52.5q0 31 -20.5 45.5t-69.5 14.5h-30zM545 161q27 16 27 59q0 40 -24.5 58.5t-73.5 18.5h-48v-152h40q52 0 79 16z" />
    <glyph glyph-name="uni0182" unicode="&#x182;" horiz-adv-x="606" 
d="M523 400q73 -56 73 -165q0 -113 -76 -174t-199 -61h-278v696h468l-20 -153h-242v-87h64q137 0 210 -56zM360 168.5q22 23.5 22 64.5q0 85 -92 85h-41v-173h45q44 0 66 23.5z" />
    <glyph glyph-name="uni0183" unicode="&#x183;" horiz-adv-x="599" 
d="M526.5 460.5q50.5 -73.5 50.5 -204.5q0 -77 -25.5 -140t-74 -99.5t-114.5 -36.5q-43 0 -78.5 17.5t-59.5 48.5l-7 -46h-176v744h412l-20 -139h-194v-138q22 30 59.5 48.5t75.5 18.5q101 0 151.5 -73.5zM374 256q0 79 -16.5 107.5t-46.5 28.5q-43 0 -71 -50v-182
q23 -39 65 -39q69 0 69 135z" />
    <glyph glyph-name="uni0184" unicode="&#x184;" horiz-adv-x="641" 
d="M558 412q73 -57 73 -170q0 -118 -75.5 -180t-199.5 -62h-278v472l-78 56q66 68 114 168h170v-227h64q137 0 210 -57zM395.5 169.5q21.5 24.5 21.5 70.5q0 91 -92 91h-41v-186h45q45 0 66.5 24.5z" />
    <glyph glyph-name="uni0185" unicode="&#x185;" horiz-adv-x="553" 
d="M484 325q64 -46 64 -141q0 -88 -63.5 -136t-172.5 -48h-243v319l-79 57q69 70 114 158h163v-163h18q135 0 199 -46zM334.5 140.5q14.5 17.5 14.5 47.5q0 32 -15.5 47.5t-51.5 15.5h-15v-128h23q30 0 44.5 17.5z" />
    <glyph glyph-name="uni0186" unicode="&#x186;" horiz-adv-x="584" 
d="M411.5 672.5q72.5 -43.5 112.5 -126t40 -196.5q0 -118 -40.5 -201.5t-115 -126t-174.5 -42.5q-71 0 -130.5 27t-103.5 70l89 113q37 -28 67 -41.5t67 -13.5q61 0 94 51t33 164q0 114 -30 166t-88 52q-36 0 -65.5 -12.5t-60.5 -36.5l-98 115q48 40 105 61t131 21
q95 0 167.5 -43.5z" />
    <glyph glyph-name="uni0187" unicode="&#x187;" horiz-adv-x="584" 
d="M736 826l-52 -122q-36 17 -64 17q-23 0 -33.5 -13t-10.5 -41v-33l-87 -102q-31 18 -60 27t-69 9q-60 0 -93 -55t-33 -163t34 -161.5t98 -53.5q33 0 62 14.5t66 43.5l90 -116q-42 -42 -101.5 -69.5t-128.5 -27.5q-102 0 -177 42.5t-116 125.5t-41 202q0 112 41.5 195
t110.5 127t150 44q50 0 86 -15q5 77 49.5 119.5t131.5 42.5q82 0 147 -37z" />
    <glyph glyph-name="uni0188" unicode="&#x188;" horiz-adv-x="479" 
d="M649 727l-52 -122q-36 17 -64 17q-23 0 -33.5 -13t-10.5 -41v-85l-71 -100q-47 22 -101 22q-48 0 -71 -32t-23 -110q0 -75 22.5 -102.5t65.5 -27.5q23 0 43 7.5t50 26.5l85 -121q-81 -66 -189 -66q-87 0 -151 35.5t-98 100t-34 147.5t33 149.5t90 104t125 37.5
q26 0 56 -7v38q0 85 44.5 132t136.5 47q82 0 147 -37z" />
    <glyph glyph-name="uni0189" unicode="&#x189;" horiz-adv-x="671" 
d="M550 621.5q101 -74.5 101 -270.5q0 -193 -97 -272t-261 -79h-235v295h-48v116h48v285h223q168 0 269 -74.5zM382 164q29 19 43 63.5t14 123.5q0 78 -14.5 121.5t-43.5 61t-75 17.5h-42v-140h121v-116h-121v-150h41q48 0 77 19z" />
    <glyph glyph-name="uni018A" unicode="&#x18a;" horiz-adv-x="833" 
d="M712 621.5q101 -74.5 101 -270.5q0 -193 -97 -272t-261 -79h-235v553h-25q-41 0 -41 -37q0 -14 3.5 -27.5t11.5 -33.5l-123 -52q-21 33 -33.5 63.5t-12.5 63.5q0 78 56.5 122t149.5 44h237q168 0 269 -74.5zM544 164q29 19 43 63.5t14 123.5q0 78 -14.5 121.5t-43.5 61
t-75 17.5h-42v-406h41q48 0 77 19z" />
    <glyph glyph-name="uni018B" unicode="&#x18b;" horiz-adv-x="606" 
d="M563 0h-281q-124 0 -198 58t-74 172q0 108 74 167t209 59h64v87h-254v153h460v-696zM357 145v173h-41q-92 0 -92 -88q0 -40 22 -62.5t66 -22.5h45z" />
    <glyph glyph-name="uni018C" unicode="&#x18c;" horiz-adv-x="601" 
d="M559 0h-176l-7 55q-57 -75 -151 -75q-101 0 -152 75.5t-51 204.5q0 78 27.5 140.5t79.5 98t121 35.5q30 0 59.5 -11t51.5 -31v113h-204v139h402v-744zM361 169v194q-15 15 -28 22.5t-30 7.5q-35 0 -56.5 -32.5t-21.5 -102.5q0 -81 18 -108.5t51 -27.5q40 0 67 47z" />
    <glyph glyph-name="uni018D" unicode="&#x18d;" horiz-adv-x="576" 
d="M486 12.5q20 -32.5 20 -77.5q0 -71 -58.5 -116.5t-179.5 -45.5q-62 0 -113.5 18t-85.5 47l87 100q51 -32 101 -32q63 0 63 35q0 13 -5.5 22t-24 19t-58.5 26q-115 45 -165 107.5t-50 167.5q0 85 33.5 146t94.5 93t143 32q127 0 199 -69.5t72 -192.5q0 -69 -38 -123
t-116 -89q61 -35 81 -67.5zM226 211q6 -25 25 -43t59 -39q30 31 39 66t9 87q0 69 -16.5 99.5t-52.5 30.5q-35 0 -52 -30.5t-17 -99.5q0 -46 6 -71z" />
    <glyph glyph-name="uni018E" unicode="&#x18e;" horiz-adv-x="520" 
d="M30 696h447v-696h-452v144h246v140h-202v139h202v130h-241v143z" />
    <glyph glyph-name="uni018F" unicode="&#x18f;" horiz-adv-x="634" 
d="M534 622.5q80 -93.5 80 -272.5t-80 -274.5t-225 -95.5q-153 0 -226 96t-73 264q0 39 7 76h390q-6 154 -123 154q-45 0 -78 -13.5t-68 -38.5l-89 107q54 46 115.5 68.5t140.5 22.5q149 0 229 -93.5zM381.5 161.5q24.5 35.5 25.5 119.5h-200q0 -83 26.5 -119t75.5 -36
q48 0 72.5 35.5z" />
    <glyph glyph-name="uni0190" unicode="&#x190;" horiz-adv-x="553" 
d="M431 692q58 -24 109 -72l-95 -100q-58 52 -120 52q-80 0 -80 -66q0 -34 22 -52t65 -18h81l-23 -141h-54q-53 0 -80 -22.5t-27 -63.5t26 -62t71 -21q36 0 66 14t64 44l107 -104q-95 -100 -259 -100q-85 0 -150.5 26t-102 74.5t-36.5 112.5q0 77 47.5 120.5t138.5 53.5
q-85 17 -125.5 60t-40.5 103q0 54 34 96.5t94 66t136 23.5q74 0 132 -24z" />
    <glyph glyph-name="uni0191" unicode="&#x191;" horiz-adv-x="485" 
d="M249 553v-152h189v-143h-189v-274q0 -103 -62 -157t-169 -54q-95 0 -157 45l64 120q22 -11 35.5 -15.5t32.5 -4.5q24 0 37 13.5t13 39.5v725h442l-21 -143h-215z" />
    <glyph glyph-name="florin" unicode="&#x192;" horiz-adv-x="390" 
d="M286.5 607.5q-13.5 -14.5 -13.5 -52.5v-21h124l-22 -134h-102v-323q0 -130 -64 -198.5t-178 -105.5l-68 144q39 18 62 35t36.5 44t13.5 69v335h-80v134h80v31q0 87 58 143t168 56q48 0 93 -10.5t80 -26.5l-52 -125q-45 20 -84 20q-38 0 -51.5 -14.5z" />
    <glyph glyph-name="uni0193" unicode="&#x193;" horiz-adv-x="626" 
d="M778 826l-52 -122q-36 17 -64 17q-23 0 -33.5 -13t-10.5 -41v-42l-94 -97q-39 22 -71.5 33t-69.5 11q-73 0 -112 -55.5t-39 -168.5q0 -85 12 -133.5t37.5 -68.5t67.5 -20q37 0 71 17v127h-70l-19 139h287v-349q-55 -38 -126 -59t-137 -21q-171 0 -253 93.5t-82 275.5
q0 114 45 197t119.5 126.5t163.5 43.5q54 0 102 -19q4 79 48.5 122.5t132.5 43.5q82 0 147 -37z" />
    <glyph glyph-name="uni0194" unicode="&#x194;" horiz-adv-x="579" 
d="M394 106q35 -54 52 -100.5t17 -94.5q0 -64 -40.5 -101t-129.5 -37q-87 0 -128.5 37t-41.5 101q0 44 16 87.5t54 107.5l-218 590h217l101 -459l100 459h211zM314 -42.5q-6 16.5 -21 48.5q-27 -56 -27 -83q0 -29 27 -29t27 30q0 17 -6 33.5z" />
    <glyph glyph-name="uni0195" unicode="&#x195;" horiz-adv-x="861" 
d="M827.5 391.5q8.5 -69.5 8.5 -147.5q0 -90 -39 -149.5t-101.5 -87t-135.5 -27.5q-97 0 -160 52t-63 159v167q0 30 -7.5 41t-22.5 11q-33 0 -67 -53v-357h-198v744l198 20v-278q34 36 70 52t81 16q67 0 105.5 -42t38.5 -118v-204q0 -38 10.5 -53t30.5 -15q28 0 45 33
t17 104q0 113 -27 275h194q14 -73 22.5 -142.5z" />
    <glyph glyph-name="uni0196" unicode="&#x196;" horiz-adv-x="406" 
d="M421 25q-62 -45 -157 -45q-107 0 -169 54t-62 157v505h206v-518q0 -26 13 -39.5t37 -13.5q19 0 32.5 4.5t35.5 15.5z" />
    <glyph glyph-name="uni0197" unicode="&#x197;" horiz-adv-x="340" 
d="M340 435v-150h-67v-285h-206v285h-67v150h67v261h206v-261h67z" />
    <glyph glyph-name="uni0198" unicode="&#x198;" horiz-adv-x="675" 
d="M255 371l120 209q44 76 86.5 106t113.5 30q69 0 120 -39l-49 -113q-1 1 -11.5 5.5t-26.5 4.5q-19 0 -31.5 -9.5t-29.5 -38.5l-83 -139l215 -387h-234zM249 696v-696h-206v696h206z" />
    <glyph glyph-name="uni0199" unicode="&#x199;" horiz-adv-x="576" 
d="M253 607q-13 -15 -13 -52v-555h-198v565q0 87 58 143t168 56q42 0 85 -10.5t72 -26.5l-52 -123q-39 18 -78 18q-29 0 -42 -15zM442 300l149 -300h-219l-128 292l143 242h196z" />
    <glyph glyph-name="uni019A" unicode="&#x19a;" horiz-adv-x="350" 
d="M350 -2q-47 -18 -110 -18q-81 0 -124.5 45.5t-43.5 128.5v150h-72v135h72v305l198 20v-325h70v-135h-70v-142q0 -27 24 -27q11 0 21 4z" />
    <glyph glyph-name="uni019B" unicode="&#x19b;" horiz-adv-x="553" 
d="M495 196q29 -85 78 -156l-193 -60q-43 77 -66 157.5t-45 212.5l-72 -370l-197 44l154 460h96q-7 30 -20 63l-53 -38l-100 65l65 49l3 2q-33 10 -87 16l22 121q63 -8 107 -19.5t79 -30.5l74 55l71 -91l-59 -42q48 -68 75 -187q39 -166 68 -251z" />
    <glyph glyph-name="uni019C" unicode="&#x19c;" horiz-adv-x="904" 
d="M861 696v-696h-181l-14 55q-37 -40 -73 -57.5t-82 -17.5q-50 0 -87.5 23t-57.5 64q-40 -46 -78 -66.5t-88 -20.5q-78 0 -122.5 52.5t-44.5 137.5v526h206v-515q0 -24 10 -38t29 -14q13 0 25.5 10.5t24.5 24t16 18.5v514h206v-515q0 -24 10 -38t28 -14t33.5 12.5
t33.5 40.5v514h206z" />
    <glyph glyph-name="uni019D" unicode="&#x19d;" horiz-adv-x="651" 
d="M608 696v-696h-258l-152 508l3 -22q11 -73 17.5 -133.5t6.5 -136.5v-232q0 -103 -56.5 -157t-152.5 -54q-95 0 -157 45l64 115q22 -11 35.5 -15.5t32.5 -4.5q25 0 38.5 13.5t13.5 39.5v730h253l158 -510l-3 21q-12 69 -18.5 128.5t-6.5 137.5v223h182z" />
    <glyph glyph-name="uni019E" unicode="&#x19e;" horiz-adv-x="572" 
d="M496.5 512q38.5 -42 38.5 -118v-621l-198 20v565q0 30 -7.5 41t-22.5 11q-33 0 -67 -53v-357h-198v534h173l14 -55q37 39 75.5 57t86.5 18q67 0 105.5 -42z" />
    <glyph glyph-name="uni019F" unicode="&#x19f;" horiz-adv-x="690" 
d="M585.5 619.5q84.5 -96.5 84.5 -270.5q0 -113 -38 -196t-111 -128t-176 -45q-156 0 -240.5 97.5t-84.5 271.5q0 113 38 195.5t111 127t176 44.5q156 0 240.5 -96.5zM265 531q-28 -39 -34 -127h228q-6 88 -34 127t-80 39t-80 -39zM426.5 166.5q27.5 40.5 33.5 131.5h-230
q6 -91 34 -131.5t81 -40.5q54 0 81.5 40.5z" />
    <glyph glyph-name="Ohorn" unicode="&#x1a0;" horiz-adv-x="723" 
d="M714 592.5q-29 -33.5 -82 -44.5q38 -84 38 -199q0 -113 -38 -196t-111 -128t-176 -45q-156 0 -240.5 97.5t-84.5 271.5q0 113 38 195.5t111 127t176 44.5q144 0 227 -83q24 3 34 17t10 43q0 31 -12 65l120 15q19 -40 19 -92q0 -55 -29 -88.5zM430.5 177q25.5 51 25.5 172
q0 120 -26 170.5t-85 50.5t-85 -50.5t-26 -170.5t26 -171.5t85 -51.5q60 0 85.5 51z" />
    <glyph glyph-name="ohorn" unicode="&#x1a1;" horiz-adv-x="643" 
d="M633.5 429.5q-29.5 -33.5 -84.5 -44.5q18 -51 18 -119q0 -86 -33.5 -151t-95.5 -100t-146 -35q-128 0 -201.5 75t-73.5 213q0 86 33.5 151t95.5 100t146 35q134 0 207 -82q20 4 28.5 18t8.5 41q0 31 -12 65l120 15q19 -40 19 -92q0 -56 -29.5 -89.5zM347 156
q17 34 17 110q0 79 -17 112.5t-55 33.5t-55 -34t-17 -110q0 -79 17 -112.5t55 -33.5t55 34z" />
    <glyph glyph-name="uni01A2" unicode="&#x1a2;" horiz-adv-x="981" 
d="M876.5 662q61.5 -54 61.5 -157v-720h-206v728q0 63 -50 63q-30 0 -61 -13q49 -87 49 -214q0 -113 -38 -196t-111 -128t-176 -45q-156 0 -240.5 97.5t-84.5 271.5q0 113 38 195.5t111 127t176 44.5q109 0 188 -54q80 54 177 54q105 0 166.5 -54zM430.5 177
q25.5 51 25.5 172q0 120 -26 170.5t-85 50.5t-85 -50.5t-26 -170.5t26 -171.5t85 -51.5q60 0 85.5 51z" />
    <glyph glyph-name="uni01A3" unicode="&#x1a3;" horiz-adv-x="852" 
d="M751.5 500q58.5 -54 58.5 -157v-570l-198 20v568q0 28 -12 40.5t-36 12.5q-12 0 -27 -3q30 -63 30 -145q0 -86 -33.5 -151t-95.5 -100t-146 -35q-128 0 -201.5 75t-73.5 213q0 86 33.5 151t95.5 100t146 35t149 -37q36 20 71.5 28.5t82.5 8.5q98 0 156.5 -54zM347 156
q17 34 17 110q0 79 -17 112.5t-55 33.5t-55 -34t-17 -110q0 -79 17 -112.5t55 -33.5t55 34z" />
    <glyph glyph-name="uni01A4" unicode="&#x1a4;" horiz-adv-x="788" 
d="M693.5 636.5q79.5 -59.5 79.5 -174.5q0 -119 -75.5 -182t-203.5 -63h-68v-217h-206v553h-25q-41 0 -41 -37q0 -14 3.5 -27.5t11.5 -33.5l-123 -52q-21 33 -33.5 63.5t-12.5 63.5q0 78 56.5 122t149.5 44h265q143 0 222.5 -59.5zM563 462q0 91 -95 91h-42v-191h48
q89 0 89 100z" />
    <glyph glyph-name="uni01A5" unicode="&#x1a5;" horiz-adv-x="599" 
d="M526 479.5q51 -74.5 51 -210.5q0 -83 -26.5 -148.5t-75 -103t-111.5 -37.5q-76 0 -124 53v-240l-198 -20v792q0 87 58 143t168 56q42 0 85 -10.5t72 -26.5l-52 -123q-39 18 -78 18q-29 0 -42 -15t-13 -52v-63q30 33 65 47.5t68 14.5q102 0 153 -74.5zM374 266
q0 62 -8.5 93.5t-22.5 42t-37 10.5q-38 0 -66 -50v-204q13 -20 27 -28.5t32 -8.5q75 0 75 145z" />
    <glyph glyph-name="uni01A6" unicode="&#x1a6;" horiz-adv-x="624" 
d="M287 138h-38v-138h-206v696h206v-110h49q151 0 225 -53.5t74 -167.5q0 -65 -29 -108t-94 -81l170 -286h-228zM249 276h54q42 0 63 22t21 67q0 80 -94 80h-44v-169z" />
    <glyph glyph-name="uni01A7" unicode="&#x1a7;" horiz-adv-x="578" 
d="M438 690q60 -26 93 -74t33 -111q0 -78 -51 -129.5t-171 -88.5q-65 -20 -89 -41.5t-24 -52.5q0 -62 81 -62q86 0 167 65l101 -111q-51 -46 -122.5 -75.5t-162.5 -29.5q-84 0 -147 29t-97 80.5t-34 118.5q0 87 48.5 138t158.5 86q75 24 102.5 42.5t27.5 45.5
q0 23 -18.5 36.5t-51.5 13.5q-44 0 -81.5 -14t-72.5 -42l-91 107q106 95 262 95q79 0 139 -26z" />
    <glyph glyph-name="uni01A8" unicode="&#x1a8;" horiz-adv-x="484" 
d="M368.5 531q49.5 -23 75.5 -63t26 -89q0 -66 -39.5 -103t-120.5 -62q-43 -13 -64 -22.5t-27.5 -18.5t-6.5 -22q0 -17 14 -26t37 -9q32 0 67 14.5t65 38.5l94 -104q-42 -40 -103.5 -62.5t-131.5 -22.5q-72 0 -127.5 23t-86 63.5t-30.5 93.5q0 69 39.5 107t121.5 63
q47 14 68.5 23.5t28 17.5t6.5 20q0 26 -44 26q-32 0 -65.5 -10.5t-62.5 -28.5l-70 107q95 69 219 69q68 0 117.5 -23z" />
    <glyph glyph-name="uni01A9" unicode="&#x1a9;" horiz-adv-x="503" 
d="M493 696v-145h-257l148 -175v-68l-151 -160h260v-148h-483v144l174 196l-174 212v144h483z" />
    <glyph glyph-name="uni01AA" unicode="&#x1aa;" horiz-adv-x="460" 
d="M602 -182q-62 -45 -158 -45q-103 0 -163.5 54t-60.5 157v411q-31 -12 -65 -12q-78 0 -126.5 52t-48.5 137q0 55 25 98.5t73 68.5t115 25q71 0 122 -27t77 -74t26 -108v-589q0 -26 13.5 -39.5t38.5 -13.5q19 0 33 4t35 14zM220 518v68q0 46 -36 46q-40 0 -40 -57
q0 -31 12 -45.5t36 -14.5q15 0 28 3z" />
    <glyph glyph-name="uni01AB" unicode="&#x1ab;" horiz-adv-x="401" 
d="M416 26v-41q0 -104 -57 -157.5t-162 -53.5q-50 0 -92.5 12t-70.5 33l64 115q22 -10 41 -15t45 -5q64 0 64 53v13q-95 3 -140.5 57.5t-45.5 159.5v203h-64v134h64v112l198 23v-135h120l-20 -134h-100v-217q0 -32 12.5 -45t37.5 -13q22 0 51 7z" />
    <glyph glyph-name="uni01AC" unicode="&#x1ac;" horiz-adv-x="619" 
d="M603 542h-158v-542h-206v542h-44q-20 0 -30.5 -9.5t-10.5 -26.5q0 -13 3 -23.5t10 -27.5l-130 -52q-37 65 -37 127q0 78 58 122t157 44h409z" />
    <glyph glyph-name="uni01AD" unicode="&#x1ad;" horiz-adv-x="401" 
d="M416 26q-31 -22 -75.5 -34t-84.5 -12q-99 1 -146.5 55.5t-47.5 161.5v203h-64v134h64v31q0 87 53.5 143t154.5 56q79 0 144 -37l-52 -112q-36 17 -61 17q-21 0 -31 -13t-10 -41v-44h120l-20 -134h-100v-201q0 -35 11 -49.5t31 -14.5q25 0 50 14z" />
    <glyph glyph-name="uni01AE" unicode="&#x1ae;" horiz-adv-x="557" 
d="M562 -182q-62 -45 -157 -45q-107 0 -169 54t-62 157v558h-169v154h554l-21 -154h-158v-571q0 -26 13 -39.5t37 -13.5q19 0 32.5 4.5t35.5 15.5z" />
    <glyph glyph-name="Uhorn" unicode="&#x1af;" horiz-adv-x="755" 
d="M775 681q0 -68 -43.5 -103t-120.5 -35v-307q0 -73 -32 -131t-97 -91.5t-160 -33.5q-143 0 -216 69t-73 187v460h206v-454q0 -59 19.5 -86.5t63.5 -27.5t63.5 27.5t19.5 86.5v454h206v-62q20 4 28.5 18t8.5 41q0 31 -12 65l120 15q19 -40 19 -92z" />
    <glyph glyph-name="uhorn" unicode="&#x1b0;" horiz-adv-x="668" 
d="M688 519q0 -68 -43.5 -103t-120.5 -35v-381h-173l-7 58q-55 -78 -158 -78q-75 0 -112 45t-37 125v384h198v-358q0 -29 8.5 -40.5t24.5 -11.5q14 0 29.5 11t28.5 33v366h198v-62q20 4 28.5 18t8.5 41q0 31 -12 65l120 15q19 -40 19 -92z" />
    <glyph glyph-name="uni01B1" unicode="&#x1b1;" horiz-adv-x="690" 
d="M170.5 22q-73.5 42 -112 114t-38.5 158q0 176 133 260h-112v142h256v-132q-33 -50 -48 -108t-15 -162q0 -83 27 -125.5t84 -42.5t84 42.5t27 125.5q0 104 -15 162t-48 108v132h256v-142h-112q133 -83 133 -260q0 -86 -38.5 -158t-112 -114t-174.5 -42t-174.5 42z" />
    <glyph glyph-name="uni01B2" unicode="&#x1b2;" horiz-adv-x="644" 
d="M611 526v-240q0 -96 -38.5 -165t-109 -105t-163.5 -36q-82 0 -142.5 30t-92.5 83.5t-32 122.5v480h206v-482q0 -40 17.5 -63t50.5 -23q45 0 71.5 35.5t26.5 115.5v260q0 32 -26 32q-10 0 -21 -3l-27 131q46 17 107 17q173 0 173 -190z" />
    <glyph glyph-name="uni01B3" unicode="&#x1b3;" horiz-adv-x="661" 
d="M207 256l-222 440h225l103 -284l46 141q28 88 74.5 125.5t127.5 37.5q71 0 130 -35l-51 -119q-26 12 -49 12q-22 0 -35.5 -10.5t-24.5 -36.5l-118 -270v-257h-206v256z" />
    <glyph glyph-name="uni01B4" unicode="&#x1b4;" horiz-adv-x="543" 
d="M32 -93q77 8 114.5 28t58.5 65h-68l-152 534h210l67 -413l52 299q16 88 53.5 129t114.5 41q47 0 91 -13l-29 -131q-12 4 -23 4q-17 0 -27 -8.5t-15 -30.5l-79 -373q-29 -138 -117 -200t-230 -66z" />
    <glyph glyph-name="uni01B5" unicode="&#x1b5;" horiz-adv-x="557" 
d="M236 161h306l-20 -161h-512v141l112 146h-76v120h168l102 133h-278v156h495v-143l-111 -146h66v-120h-157z" />
    <glyph glyph-name="uni01B6" unicode="&#x1b6;" horiz-adv-x="472" 
d="M226 136h236l-17 -136h-440v128l84 98h-61v105h150l59 69h-212v134h430v-127l-64 -76h45v-105h-134z" />
    <glyph glyph-name="uni01B7" unicode="&#x1b7;" horiz-adv-x="565" 
d="M498 347.5q52 -51.5 52 -137.5q0 -64 -35 -116.5t-101.5 -83t-159.5 -30.5q-86 0 -147.5 28.5t-106.5 81.5l102 99q37 -33 68 -47t72 -14q43 0 69.5 23.5t26.5 67.5q0 40 -28.5 58.5t-76.5 18.5h-106v107l158 149h-240v144h463v-139l-156 -151q94 -7 146 -58.5z" />
    <glyph glyph-name="uni01B8" unicode="&#x1b8;" horiz-adv-x="565" 
d="M565 90q-47 -53 -109.5 -81.5t-151.5 -28.5q-90 0 -155 30t-99.5 82t-34.5 118q0 82 54.5 135t143.5 61l-156 151v139h463v-144h-237l155 -152v-104h-106q-49 0 -77 -22t-28 -61q0 -40 24.5 -62.5t65.5 -22.5q43 0 76.5 14.5t69.5 46.5z" />
    <glyph glyph-name="uni01B9" unicode="&#x1b9;" horiz-adv-x="527" 
d="M547 -117q-90 -110 -252 -110q-88 0 -152.5 31t-98.5 84.5t-34 119.5q0 92 53 144t150 63l-166 187v132h455v-144h-236l154 -179v-102h-101q-107 0 -107 -88q0 -49 27 -74.5t70 -25.5q38 0 69.5 13.5t69.5 45.5z" />
    <glyph glyph-name="uni01BA" unicode="&#x1ba;" horiz-adv-x="532" 
d="M75 -166q-48 41 -48 99t42.5 92t132.5 54q61 14 84.5 27t23.5 35q0 20 -17.5 29t-59.5 9h-121v97l135 124h-227v134h455v-122l-152 -127h9q85 0 132.5 -41t47.5 -110q0 -80 -53 -119.5t-145 -57.5q-66 -13 -87.5 -23.5t-21.5 -24.5q0 -18 38 -32l-40 -104q-80 20 -128 61
z" />
    <glyph glyph-name="uni01BB" unicode="&#x1bb;" horiz-adv-x="530" 
d="M510 148l-20 -148h-467v136l101 97h-70v120h183q32 38 44.5 66t12.5 56q0 34 -19 53.5t-53 19.5q-33 0 -59.5 -16.5t-54.5 -51.5l-113 90q43 58 106 92t143 34q81 0 138 -27t85.5 -72.5t28.5 -99.5q0 -39 -10 -72.5t-36 -71.5h46v-120h-154q-43 -42 -95 -85h263z" />
    <glyph glyph-name="uni01BC" unicode="&#x1bc;" horiz-adv-x="562" 
d="M479 558h-239v-114q49 21 99 21q56 0 101 -27t71 -79t26 -125q0 -77 -35 -134t-100.5 -88.5t-153.5 -31.5q-79 0 -140.5 30.5t-102.5 82.5l109 99q23 -31 55.5 -48.5t70.5 -17.5q46 0 70.5 26.5t24.5 79.5q0 102 -80 102q-35 0 -76 -24h-129v386h450z" />
    <glyph glyph-name="uni01BD" unicode="&#x1bd;" horiz-adv-x="496" 
d="M416 395h-190v-57q31 11 76 11q47 0 87 -20t63.5 -59.5t23.5 -94.5q0 -58 -31.5 -102.5t-87.5 -68.5t-129 -24q-72 0 -123.5 22.5t-94.5 64.5l98 103q36 -27 59.5 -37.5t53.5 -10.5t45.5 14t15.5 40q0 25 -12.5 37t-33.5 12q-22 0 -53 -11h-127v320h386z" />
    <glyph glyph-name="uni01BE" unicode="&#x1be;" horiz-adv-x="512" 
d="M462.5 359.5q32.5 -49.5 32.5 -131.5q0 -76 -33 -132t-92 -86t-136 -30q-143 0 -244 96l95 97q30 -27 57 -39t59 -12q42 0 67 27t25 79q0 61 -28 98t-90 52l-46 9v133h-66v106h66v118l198 20v-138h90v-106h-90v-78l36 -9q67 -24 99.5 -73.5z" />
    <glyph glyph-name="uni01BF" unicode="&#x1bf;" horiz-adv-x="594" 
d="M486.5 529q42.5 -25 66.5 -71t24 -107q0 -90 -35 -151.5t-92.5 -103t-148.5 -84.5l-61 -29v-190l-198 -20v761h176l9 -59q30 38 72 58.5t92 20.5q53 0 95.5 -25zM345 231.5q29 52.5 29 116.5q0 68 -54 68q-43 0 -80 -35v-261l25 20q51 39 80 91.5z" />
    <glyph glyph-name="uni01C0" unicode="&#x1c0;" horiz-adv-x="254" 
d="M211 761v-761h-168v744z" />
    <glyph glyph-name="uni01C1" unicode="&#x1c1;" horiz-adv-x="476" 
d="M211 761v-761h-168v744zM433 761v-761h-168v744z" />
    <glyph glyph-name="uni01C2" unicode="&#x1c2;" horiz-adv-x="340" 
d="M340 391h-86v-44h86v-105h-86v-242h-168v242h-86v105h86v44h-86v105h86v248l168 17v-265h86v-105z" />
    <glyph glyph-name="uni01C3" unicode="&#x1c3;" horiz-adv-x="292" 
d="M230 761v-511h-168v494zM219 155.5q30 -30.5 30 -72.5t-30 -72.5t-73 -30.5t-73 30.5t-30 72.5t30 72.5t73 30.5t73 -30.5z" />
    <glyph glyph-name="uni01C4" unicode="&#x1c4;" horiz-adv-x="1188" 
d="M535 621.5q101 -74.5 101 -270.5q0 -193 -97 -272t-261 -79h-235v696h223q168 0 269 -74.5zM249 551v-406h41q48 0 77 19t43 63.5t14 123.5q0 78 -14.5 121.5t-43.5 61t-75 17.5h-42zM1164 696v-153l-277 -382h286l-20 -161h-512v151l286 389h-258v156h495zM1047 965
l67 -77l-145 -141h-118l-145 141l67 77l137 -86z" />
    <glyph glyph-name="uni01C5" unicode="&#x1c5;" horiz-adv-x="1118" 
d="M535 621.5q101 -74.5 101 -270.5q0 -193 -97 -272t-261 -79h-235v696h223q168 0 269 -74.5zM249 551v-406h41q48 0 77 19t43 63.5t14 123.5q0 78 -14.5 121.5t-43.5 61t-75 17.5h-42zM1101 534v-137l-219 -251h226l-17 -146h-440v138l222 252h-202v144h430zM1024 830
l67 -77l-145 -151h-118l-145 151l67 77l137 -96z" />
    <glyph glyph-name="uni01C6" unicode="&#x1c6;" horiz-adv-x="1073" 
d="M559 744v-744h-176l-7 55q-57 -75 -151 -75q-101 0 -152 77t-51 213q0 82 28 146.5t78.5 101t116.5 36.5q69 0 116 -42v252zM361 169v214q-14 15 -28 22.5t-31 7.5q-35 0 -56 -34.5t-21 -110.5q0 -88 17.5 -117t49.5 -29q42 0 69 47zM1056 534v-137l-219 -251h226
l-17 -146h-440v138l222 252h-202v144h430zM979 830l67 -77l-145 -151h-118l-145 151l67 77l137 -96z" />
    <glyph glyph-name="uni01C7" unicode="&#x1c7;" horiz-adv-x="822" 
d="M249 696v-538h263l-21 -158h-448v696h206zM781 111q0 -91 -35 -150.5t-88.5 -92.5t-125.5 -57l-55 145q43 16 64 38.5t27.5 51t6.5 72.5v578h206v-585z" />
    <glyph glyph-name="uni01C8" unicode="&#x1c8;" horiz-adv-x="789" 
d="M249 696v-538h263l-21 -158h-448v696h206zM747 77q0 -130 -64 -198.5t-178 -105.5l-68 144q39 18 62 35t36.5 44t13.5 69v469h198v-457zM727.5 798.5q31.5 -30.5 31.5 -75.5t-31.5 -75.5t-79.5 -30.5t-79.5 30.5t-31.5 75.5t31.5 75.5t79.5 30.5t79.5 -30.5z" />
    <glyph glyph-name="uni01C9" unicode="&#x1c9;" horiz-adv-x="582" 
d="M80.5 25.5q-43.5 45.5 -43.5 128.5v590l198 20v-602q0 -27 24 -27q11 0 21 4l35 -141q-47 -18 -110 -18q-81 0 -124.5 45.5zM540 77q0 -130 -64 -198.5t-178 -105.5l-68 144q39 18 62 35t36.5 44t13.5 69v469h198v-457zM520.5 798.5q31.5 -30.5 31.5 -75.5t-31.5 -75.5
t-79.5 -30.5t-79.5 30.5t-31.5 75.5t31.5 75.5t79.5 30.5t79.5 -30.5z" />
    <glyph glyph-name="uni01CA" unicode="&#x1ca;" horiz-adv-x="976" 
d="M608 0h-258l-152 508l3 -22q11 -73 17.5 -133.5t6.5 -136.5v-216h-182v696h253l158 -510l-3 21q-12 69 -18.5 128.5t-6.5 137.5v223h182v-696zM935 111q0 -91 -35 -150.5t-88.5 -92.5t-125.5 -57l-55 145q43 16 64 38.5t27.5 51t6.5 72.5v578h206v-585z" />
    <glyph glyph-name="uni01CB" unicode="&#x1cb;" horiz-adv-x="933" 
d="M608 0h-258l-152 508l3 -22q11 -73 17.5 -133.5t6.5 -136.5v-216h-182v696h253l158 -510l-3 21q-12 69 -18.5 128.5t-6.5 137.5v223h182v-696zM891 77q0 -130 -64 -198.5t-178 -105.5l-68 144q39 18 62 35t36.5 44t13.5 69v469h198v-457zM871.5 798.5
q31.5 -30.5 31.5 -75.5t-31.5 -75.5t-79.5 -30.5t-79.5 30.5t-31.5 75.5t31.5 75.5t79.5 30.5t79.5 -30.5z" />
    <glyph glyph-name="uni01CC" unicode="&#x1cc;" horiz-adv-x="854" 
d="M496.5 512q38.5 -42 38.5 -118v-394h-198v358q0 30 -7.5 41t-22.5 11q-33 0 -67 -53v-357h-198v534h173l14 -55q37 39 75.5 57t86.5 18q67 0 105.5 -42zM812 77q0 -130 -64 -198.5t-178 -105.5l-68 144q39 18 62 35t36.5 44t13.5 69v469h198v-457zM792.5 798.5
q31.5 -30.5 31.5 -75.5t-31.5 -75.5t-79.5 -30.5t-79.5 30.5t-31.5 75.5t31.5 75.5t79.5 30.5t79.5 -30.5z" />
    <glyph glyph-name="uni01CD" unicode="&#x1cd;" horiz-adv-x="601" 
d="M408 0l-27 135h-165l-26 -135h-215l203 696h246l202 -696h-218zM245 279h107l-54 273zM438 965l67 -77l-145 -141h-118l-145 141l67 77l137 -86z" />
    <glyph glyph-name="uni01CE" unicode="&#x1ce;" horiz-adv-x="551" 
d="M511 131.5q7 -13.5 25 -20.5l-40 -127q-54 4 -88 20.5t-56 53.5q-52 -78 -161 -78q-79 0 -127.5 47.5t-48.5 122.5q0 89 66 136t192 47h38v13q0 40 -16 54t-61 14q-24 0 -61.5 -7.5t-76.5 -20.5l-43 126q49 20 106.5 31t104.5 11q126 0 183 -48.5t57 -148.5v-184
q0 -28 7 -41.5zM285.5 128q15.5 9 25.5 23v79h-21q-42 0 -62 -15t-20 -46q0 -23 12 -36.5t32 -13.5q18 0 33.5 9zM414 830l67 -77l-145 -151h-118l-145 151l67 77l137 -96z" />
    <glyph glyph-name="uni01CF" unicode="&#x1cf;" horiz-adv-x="292" 
d="M249 696v-696h-206v696h206zM283 965l67 -77l-145 -141h-118l-145 141l67 77l137 -86z" />
    <glyph glyph-name="uni01D0" unicode="&#x1d0;" horiz-adv-x="282" 
d="M240 534v-534h-198v534h198zM278 830l67 -77l-145 -151h-118l-145 151l67 77l137 -96z" />
    <glyph glyph-name="uni01D1" unicode="&#x1d1;" horiz-adv-x="690" 
d="M585.5 619.5q84.5 -96.5 84.5 -270.5q0 -113 -38 -196t-111 -128t-176 -45q-156 0 -240.5 97.5t-84.5 271.5q0 113 38 195.5t111 127t176 44.5q156 0 240.5 -96.5zM260 519.5q-26 -50.5 -26 -170.5t26 -171.5t85 -51.5q60 0 85.5 51t25.5 172q0 120 -26 170.5t-85 50.5
t-85 -50.5zM482 965l67 -77l-145 -141h-118l-145 141l67 77l137 -86z" />
    <glyph glyph-name="uni01D2" unicode="&#x1d2;" horiz-adv-x="584" 
d="M493.5 479q73.5 -75 73.5 -213q0 -86 -33.5 -151t-95.5 -100t-146 -35q-128 0 -201.5 75t-73.5 213q0 86 33.5 151t95.5 100t146 35q128 0 201.5 -75zM237 378q-17 -34 -17 -110q0 -79 17 -112.5t55 -33.5t55 34t17 110q0 79 -17 112.5t-55 33.5t-55 -34zM429 830l67 -77
l-145 -151h-118l-145 151l67 77l137 -96z" />
    <glyph glyph-name="uni01D3" unicode="&#x1d3;" horiz-adv-x="644" 
d="M611 236q0 -73 -32 -131t-97 -91.5t-160 -33.5q-143 0 -216 69t-73 187v460h206v-454q0 -59 19.5 -86.5t63.5 -27.5t63.5 27.5t19.5 86.5v454h206v-460zM459 965l67 -77l-145 -141h-118l-145 141l67 77l137 -86z" />
    <glyph glyph-name="uni01D4" unicode="&#x1d4;" horiz-adv-x="566" 
d="M524 0h-173l-7 58q-55 -78 -158 -78q-75 0 -112 45t-37 125v384h198v-358q0 -29 8.5 -40.5t24.5 -11.5q14 0 29.5 11t28.5 33v366h198v-534zM418 830l67 -77l-145 -151h-118l-145 151l67 77l137 -96z" />
    <glyph glyph-name="uni01D5" unicode="&#x1d5;" horiz-adv-x="644" 
d="M611 236q0 -73 -32 -131t-97 -91.5t-160 -33.5q-143 0 -216 69t-73 187v460h206v-454q0 -59 19.5 -86.5t63.5 -27.5t63.5 27.5t19.5 86.5v454h206v-460zM266.5 903q27.5 -27 27.5 -65q0 -39 -27.5 -66t-67.5 -27q-39 0 -67 27t-28 66q0 38 28 65t67 27q40 0 67.5 -27z
M511.5 903q27.5 -27 27.5 -65q0 -39 -27.5 -66t-67.5 -27q-39 0 -67 27t-28 66q0 38 28 65t67 27q40 0 67.5 -27zM488 963h-325v134h325v-134z" />
    <glyph glyph-name="uni01D6" unicode="&#x1d6;" horiz-adv-x="566" 
d="M524 0h-173l-7 58q-55 -78 -158 -78q-75 0 -112 45t-37 125v384h198v-358q0 -29 8.5 -40.5t24.5 -11.5q14 0 29.5 11t28.5 33v366h198v-534zM224.5 746q27.5 -27 27.5 -65q0 -39 -27.5 -66t-67.5 -27q-39 0 -67 27t-28 66q0 38 28 65t67 27q40 0 67.5 -27zM469.5 746
q27.5 -27 27.5 -65q0 -39 -27.5 -66t-67.5 -27q-39 0 -67 27t-28 66q0 38 28 65t67 27q40 0 67.5 -27zM442 807h-325v134h325v-134z" />
    <glyph glyph-name="uni01D7" unicode="&#x1d7;" horiz-adv-x="644" 
d="M611 236q0 -73 -32 -131t-97 -91.5t-160 -33.5q-143 0 -216 69t-73 187v460h206v-454q0 -59 19.5 -86.5t63.5 -27.5t63.5 27.5t19.5 86.5v454h206v-460zM386 1146l104 -102l-171 -149l-73 65zM256 907q28 -27 28 -65q0 -39 -28 -66t-67 -27q-40 0 -67.5 27t-27.5 66
q0 38 27.5 65t67.5 27q39 0 67 -27zM521 907q28 -27 28 -65q0 -39 -28 -66t-67 -27q-40 0 -67.5 27t-27.5 66q0 38 27.5 65t67.5 27q39 0 67 -27z" />
    <glyph glyph-name="uni01D8" unicode="&#x1d8;" horiz-adv-x="566" 
d="M524 0h-173l-7 58q-55 -78 -158 -78q-75 0 -112 45t-37 125v384h198v-358q0 -29 8.5 -40.5t24.5 -11.5q14 0 29.5 11t28.5 33v366h198v-534zM345 984l104 -102l-171 -149l-73 65zM215 745q28 -27 28 -65q0 -39 -28 -66t-67 -27q-40 0 -67.5 27t-27.5 66q0 38 27.5 65
t67.5 27q39 0 67 -27zM480 745q28 -27 28 -65q0 -39 -28 -66t-67 -27q-40 0 -67.5 27t-27.5 66q0 38 27.5 65t67.5 27q39 0 67 -27z" />
    <glyph glyph-name="uni01D9" unicode="&#x1d9;" horiz-adv-x="644" 
d="M611 236q0 -73 -32 -131t-97 -91.5t-160 -33.5q-143 0 -216 69t-73 187v460h206v-454q0 -59 19.5 -86.5t63.5 -27.5t63.5 27.5t19.5 86.5v454h206v-460zM457 1147l67 -77l-145 -141h-118l-145 141l67 77l137 -86zM256 907q28 -27 28 -65q0 -39 -28 -66t-67 -27
q-40 0 -67.5 27t-27.5 66q0 38 27.5 65t67.5 27q39 0 67 -27zM521 907q28 -27 28 -65q0 -39 -28 -66t-67 -27q-40 0 -67.5 27t-27.5 66q0 38 27.5 65t67.5 27q39 0 67 -27z" />
    <glyph glyph-name="uni01DA" unicode="&#x1da;" horiz-adv-x="566" 
d="M524 0h-173l-7 58q-55 -78 -158 -78q-75 0 -112 45t-37 125v384h198v-358q0 -29 8.5 -40.5t24.5 -11.5q14 0 29.5 11t28.5 33v366h198v-534zM418 985l67 -77l-145 -141h-118l-145 141l67 77l137 -86zM215.5 745q27.5 -27 27.5 -65q0 -39 -27.5 -66t-67.5 -27
q-39 0 -67 27t-28 66q0 38 28 65t67 27q40 0 67.5 -27zM480.5 745q27.5 -27 27.5 -65q0 -39 -27.5 -66t-67.5 -27q-39 0 -67 27t-28 66q0 38 28 65t67 27q40 0 67.5 -27z" />
    <glyph glyph-name="uni01DB" unicode="&#x1db;" horiz-adv-x="644" 
d="M611 236q0 -73 -32 -131t-97 -91.5t-160 -33.5q-143 0 -216 69t-73 187v460h206v-454q0 -59 19.5 -86.5t63.5 -27.5t63.5 27.5t19.5 86.5v454h206v-460zM259 1146l140 -186l-73 -65l-171 149zM256.5 907q27.5 -27 27.5 -65q0 -39 -27.5 -66t-67.5 -27q-39 0 -67 27
t-28 66q0 38 28 65t67 27q40 0 67.5 -27zM521.5 907q27.5 -27 27.5 -65q0 -39 -27.5 -66t-67.5 -27q-39 0 -67 27t-28 66q0 38 28 65t67 27q40 0 67.5 -27z" />
    <glyph glyph-name="uni01DC" unicode="&#x1dc;" horiz-adv-x="566" 
d="M524 0h-173l-7 58q-55 -78 -158 -78q-75 0 -112 45t-37 125v384h198v-358q0 -29 8.5 -40.5t24.5 -11.5q14 0 29.5 11t28.5 33v366h198v-534zM218 984l140 -186l-73 -65l-171 149zM215.5 745q27.5 -27 27.5 -65q0 -39 -27.5 -66t-67.5 -27q-39 0 -67 27t-28 66q0 38 28 65
t67 27q40 0 67.5 -27zM480.5 745q27.5 -27 27.5 -65q0 -39 -27.5 -66t-67.5 -27q-39 0 -67 27t-28 66q0 38 28 65t67 27q40 0 67.5 -27z" />
    <glyph glyph-name="uni01DD" unicode="&#x1dd;" horiz-adv-x="557" 
d="M472 476q68 -78 68 -208q0 -80 -30.5 -145.5t-90.5 -104t-145 -38.5q-79 0 -138 33t-91.5 96t-32.5 151q0 25 4 63h338q-4 49 -27 72.5t-66 23.5q-36 0 -67.5 -9.5t-66.5 -31.5l-80 105q44 34 97.5 52.5t124.5 18.5q135 0 203 -78zM329.5 137.5q19.5 22.5 24.5 73.5h-157
v-7q2 -41 21 -65t56 -24q36 0 55.5 22.5z" />
    <glyph glyph-name="uni01DE" unicode="&#x1de;" horiz-adv-x="601" 
d="M408 0l-27 135h-165l-26 -135h-215l203 696h246l202 -696h-218zM245 279h107l-54 273zM245.5 903q27.5 -27 27.5 -65q0 -39 -27.5 -66t-67.5 -27q-39 0 -67 27t-28 66q0 38 28 65t67 27q40 0 67.5 -27zM490.5 903q27.5 -27 27.5 -65q0 -39 -27.5 -66t-67.5 -27
q-39 0 -67 27t-28 66q0 38 28 65t67 27q40 0 67.5 -27zM467 963h-325v134h325v-134z" />
    <glyph glyph-name="uni01DF" unicode="&#x1df;" horiz-adv-x="551" 
d="M511 131.5q7 -13.5 25 -20.5l-40 -127q-54 4 -88 20.5t-56 53.5q-52 -78 -161 -78q-79 0 -127.5 47.5t-48.5 122.5q0 89 66 136t192 47h38v13q0 40 -16 54t-61 14q-24 0 -61.5 -7.5t-76.5 -20.5l-43 126q49 20 106.5 31t104.5 11q126 0 183 -48.5t57 -148.5v-184
q0 -28 7 -41.5zM285.5 128q15.5 9 25.5 23v79h-21q-42 0 -62 -15t-20 -46q0 -23 12 -36.5t32 -13.5q18 0 33.5 9zM220.5 746q27.5 -27 27.5 -65q0 -39 -27.5 -66t-67.5 -27q-39 0 -67 27t-28 66q0 38 28 65t67 27q40 0 67.5 -27zM465.5 746q27.5 -27 27.5 -65
q0 -39 -27.5 -66t-67.5 -27q-39 0 -67 27t-28 66q0 38 28 65t67 27q40 0 67.5 -27zM438 807h-325v134h325v-134z" />
    <glyph glyph-name="uni01E0" unicode="&#x1e0;" horiz-adv-x="601" 
d="M408 0l-27 135h-165l-26 -135h-215l203 696h246l202 -696h-218zM245 279h107l-54 273zM376.5 914.5q31.5 -30.5 31.5 -75.5t-31.5 -75.5t-79.5 -30.5t-79.5 30.5t-31.5 75.5t31.5 75.5t79.5 30.5t79.5 -30.5zM461 963h-325v134h325v-134z" />
    <glyph glyph-name="uni01E1" unicode="&#x1e1;" horiz-adv-x="551" 
d="M511 131.5q7 -13.5 25 -20.5l-40 -127q-54 4 -88 20.5t-56 53.5q-52 -78 -161 -78q-79 0 -127.5 47.5t-48.5 122.5q0 89 66 136t192 47h38v13q0 40 -16 54t-61 14q-24 0 -61.5 -7.5t-76.5 -20.5l-43 126q49 20 106.5 31t104.5 11q126 0 183 -48.5t57 -148.5v-184
q0 -28 7 -41.5zM285.5 128q15.5 9 25.5 23v79h-21q-42 0 -62 -15t-20 -46q0 -23 12 -36.5t32 -13.5q18 0 33.5 9zM356.5 768.5q31.5 -30.5 31.5 -75.5t-31.5 -75.5t-79.5 -30.5t-79.5 30.5t-31.5 75.5t31.5 75.5t79.5 30.5t79.5 -30.5zM439 825h-325v134h325v-134z" />
    <glyph glyph-name="uni01E2" unicode="&#x1e2;" horiz-adv-x="863" 
d="M610 144h233v-144h-407l-18 135h-183l-41 -135h-224l271 696h567l-21 -143h-247l23 -132h236v-139h-213zM279 279h119l-36 270zM651 774h-325v134h325v-134z" />
    <glyph glyph-name="uni01E3" unicode="&#x1e3;" horiz-adv-x="859" 
d="M843 211h-324q8 -54 33.5 -72.5t73.5 -18.5q28 0 57 11.5t64 35.5l80 -108q-97 -79 -220 -79q-74 0 -130 23.5t-93 64.5q-62 -88 -189 -88q-83 0 -131.5 47.5t-48.5 122.5q0 89 67.5 136t198.5 47h38v11q0 40 -16 54t-61 14q-24 0 -61.5 -7.5t-76.5 -20.5l-43 128
q49 20 106.5 31t104.5 11q110 0 165 -61q66 61 164 61q71 0 127 -33t87.5 -96.5t31.5 -150.5q0 -25 -4 -63zM652 330q-1 47 -14.5 73t-48.5 26q-33 0 -49.5 -23t-21.5 -83h134v7zM299.5 131q15.5 12 31.5 35q-7 30 -8 54v5h-23q-41 0 -60 -14t-19 -46q0 -21 11 -33.5
t31 -12.5q21 0 36.5 12zM592 648h-325v134h325v-134z" />
    <glyph glyph-name="uni01E4" unicode="&#x1e4;" horiz-adv-x="680" 
d="M680 181h-62v-121q-55 -38 -126 -59t-137 -21q-171 0 -253 93.5t-82 275.5q0 115 45 198t125 126t181 43q144 0 247 -91l-99 -104q-38 27 -68 39t-68 12q-73 0 -112 -55.5t-39 -168.5q0 -85 12 -133.5t37.5 -68.5t67.5 -20q22 0 42.5 4t48.5 13v38h-100v105h100v34h-93
l-16 114h287v-148h62v-105z" />
    <glyph glyph-name="uni01E5" unicode="&#x1e5;" horiz-adv-x="570" 
d="M610 -83h-53q-18 -68 -92.5 -106t-198.5 -38q-105 0 -164.5 22t-83 61t-23.5 95h177q0 -26 7.5 -39t28.5 -18.5t64 -5.5q46 0 73 7t38 22h-113v60h115q-17 26 -79 26h-74q-92 0 -136 27t-44 69q0 30 18.5 55t49.5 43q-54 29 -77 66t-23 90q0 95 68 148t183 53
q76 -3 136.5 19.5t119.5 62.5l43 -138q-53 -24 -152 -24q54 -23 79 -54.5t25 -85.5q0 -50 -29 -90.5t-82.5 -63t-125.5 -22.5q-39 0 -57 3q-12 -6 -12 -19q0 -10 9.5 -15t42.5 -5h77q93 0 150.5 -39.5t65.5 -105.5h49v-60zM233 408q-17 -18 -17 -51q0 -36 17 -54.5t44 -18.5
q61 0 61 76q0 35 -15 50.5t-46 15.5q-27 0 -44 -18z" />
    <glyph glyph-name="Gcaron" unicode="&#x1e6;" horiz-adv-x="653" 
d="M508.5 691q62.5 -25 109.5 -66l-100 -104q-37 27 -67 39t-68 12q-73 0 -112 -55.5t-39 -168.5q0 -85 12 -133.5t37.5 -68.5t67.5 -20q37 0 71 17v127h-70l-19 139h287v-349q-55 -38 -126 -59t-137 -21q-171 0 -253 93.5t-82 275.5q0 115 45 198t125 126t181 43
q75 0 137.5 -25zM487 965l67 -77l-145 -141h-118l-145 141l67 77l137 -86z" />
    <glyph glyph-name="gcaron" unicode="&#x1e7;" horiz-adv-x="570" 
d="M570 498q-53 -24 -152 -24q54 -23 79 -54.5t25 -85.5q0 -50 -29 -90.5t-82.5 -63t-125.5 -22.5q-39 0 -57 3q-12 -6 -12 -19q0 -11 10 -18t42 -7h77q66 0 115 -20t75.5 -56.5t26.5 -82.5q0 -86 -76.5 -135.5t-219.5 -49.5q-105 0 -164.5 22t-83 61t-23.5 95h177
q0 -21 8 -32t29 -16t63 -5q54 0 72.5 12.5t18.5 33.5q0 17 -13.5 28t-43.5 11h-74q-92 0 -136 29.5t-44 77.5q0 31 19 60t49 47q-54 29 -77 66t-23 90q0 95 68 148t183 53q76 -3 136.5 19.5t119.5 62.5zM233 408q-17 -18 -17 -51q0 -36 17 -54.5t44 -18.5q61 0 61 76
q0 35 -15 50.5t-46 15.5q-27 0 -44 -18zM422 830l67 -77l-145 -151h-118l-145 151l67 77l137 -96z" />
    <glyph glyph-name="uni01E8" unicode="&#x1e8;" horiz-adv-x="659" 
d="M249 696v-696h-206v696h206zM661 696l-197 -309l215 -387h-234l-190 371l194 325h212zM467 965l67 -77l-145 -141h-118l-145 141l67 77l137 -86z" />
    <glyph glyph-name="uni01E9" unicode="&#x1e9;" horiz-adv-x="576" 
d="M240 764v-764h-198v744zM583 534l-141 -234l149 -300h-219l-128 292l143 242h196zM444 1013l67 -77l-145 -141h-118l-145 141l67 77l137 -86z" />
    <glyph glyph-name="uni01EA" unicode="&#x1ea;" horiz-adv-x="690" 
d="M618 125.5q-52 -90.5 -149 -125.5q-64 -21 -89.5 -46.5t-25.5 -48.5q0 -44 51 -44q26 0 61 8l-12 -115q-35 -8 -74 -8q-70 0 -115 34t-45 92q0 68 54 114q-123 21 -188.5 115.5t-65.5 247.5q0 113 38 195.5t111 127t176 44.5q156 0 240.5 -96.5t84.5 -270.5
q0 -133 -52 -223.5zM260 519.5q-26 -50.5 -26 -170.5t26 -171.5t85 -51.5q60 0 85.5 51t25.5 172q0 120 -26 170.5t-85 50.5t-85 -50.5z" />
    <glyph glyph-name="uni01EB" unicode="&#x1eb;" horiz-adv-x="584" 
d="M311 -51q-21 -23 -21 -44q0 -44 51 -44q26 0 61 8l-12 -115q-35 -8 -74 -8q-70 0 -115 34t-45 92q0 69 57 116q-93 21 -144.5 93t-51.5 187q0 86 33.5 151t95.5 100t146 35q128 0 201.5 -75t73.5 -213q0 -104 -48 -175.5t-134 -97.5q-53 -21 -74 -44zM237 378
q-17 -34 -17 -110q0 -79 17 -112.5t55 -33.5t55 34t17 110q0 79 -17 112.5t-55 33.5t-55 -34z" />
    <glyph glyph-name="uni01EC" unicode="&#x1ec;" horiz-adv-x="690" 
d="M507 908v-134h-325v134h325zM618 125.5q-52 -90.5 -149 -125.5q-64 -21 -89.5 -46.5t-25.5 -48.5q0 -44 51 -44q26 0 61 8l-12 -115q-35 -8 -74 -8q-70 0 -115 34t-45 92q0 68 54 114q-123 21 -188.5 115.5t-65.5 247.5q0 113 38 195.5t111 127t176 44.5
q156 0 240.5 -96.5t84.5 -270.5q0 -133 -52 -223.5zM260 519.5q-26 -50.5 -26 -170.5t26 -171.5t85 -51.5q60 0 85.5 51t25.5 172q0 120 -26 170.5t-85 50.5t-85 -50.5z" />
    <glyph glyph-name="uni01ED" unicode="&#x1ed;" horiz-adv-x="584" 
d="M454 782v-134h-325v134h325zM311 -51q-21 -23 -21 -44q0 -44 51 -44q26 0 61 8l-12 -115q-35 -8 -74 -8q-70 0 -115 34t-45 92q0 69 57 116q-93 21 -144.5 93t-51.5 187q0 86 33.5 151t95.5 100t146 35q128 0 201.5 -75t73.5 -213q0 -104 -48 -175.5t-134 -97.5
q-53 -21 -74 -44zM237 378q-17 -34 -17 -110q0 -79 17 -112.5t55 -33.5t55 34t17 110q0 79 -17 112.5t-55 33.5t-55 -34z" />
    <glyph glyph-name="uni01EE" unicode="&#x1ee;" horiz-adv-x="565" 
d="M498 347.5q52 -51.5 52 -137.5q0 -64 -35 -116.5t-101.5 -83t-159.5 -30.5q-86 0 -147.5 28.5t-106.5 81.5l102 99q37 -33 68 -47t72 -14q43 0 69.5 23.5t26.5 67.5q0 40 -28.5 58.5t-76.5 18.5h-106v107l158 149h-240v144h463v-139l-156 -151q94 -7 146 -58.5zM414 965
l67 -77l-145 -141h-118l-145 141l67 77l137 -86z" />
    <glyph glyph-name="uni01EF" unicode="&#x1ef;" horiz-adv-x="527" 
d="M464.5 154.5q52.5 -50.5 52.5 -143.5q0 -67 -34 -121t-98.5 -85.5t-153.5 -31.5q-161 0 -251 110l102 99q36 -32 67 -46.5t68 -14.5q43 0 70.5 26t27.5 78q0 45 -27.5 64.5t-79.5 19.5h-101v107l150 174h-232v144h455v-132l-166 -187q98 -10 150.5 -60.5zM390 830l67 -77
l-145 -151h-118l-145 151l67 77l137 -96z" />
    <glyph glyph-name="uni01F0" unicode="&#x1f0;" horiz-adv-x="282" 
d="M240 77q0 -130 -64 -198.5t-178 -105.5l-68 144q39 18 62 35t36.5 44t13.5 69v469h198v-457zM278 830l67 -77l-145 -151h-118l-145 151l67 77l137 -96z" />
    <glyph glyph-name="uni01F1" unicode="&#x1f1;" horiz-adv-x="1188" 
d="M535 621.5q101 -74.5 101 -270.5q0 -193 -97 -272t-261 -79h-235v696h223q168 0 269 -74.5zM249 551v-406h41q48 0 77 19t43 63.5t14 123.5q0 78 -14.5 121.5t-43.5 61t-75 17.5h-42zM1164 696v-153l-277 -382h286l-20 -161h-512v151l286 389h-258v156h495z" />
    <glyph glyph-name="uni01F2" unicode="&#x1f2;" horiz-adv-x="1118" 
d="M535 621.5q101 -74.5 101 -270.5q0 -193 -97 -272t-261 -79h-235v696h223q168 0 269 -74.5zM249 551v-406h41q48 0 77 19t43 63.5t14 123.5q0 78 -14.5 121.5t-43.5 61t-75 17.5h-42zM1101 534v-137l-219 -251h226l-17 -146h-440v138l222 252h-202v144h430z" />
    <glyph glyph-name="uni01F3" unicode="&#x1f3;" horiz-adv-x="1073" 
d="M559 744v-744h-176l-7 55q-57 -75 -151 -75q-101 0 -152 77t-51 213q0 82 28 146.5t78.5 101t116.5 36.5q69 0 116 -42v252zM361 169v214q-14 15 -28 22.5t-31 7.5q-35 0 -56 -34.5t-21 -110.5q0 -88 17.5 -117t49.5 -29q42 0 69 47zM1056 534v-137l-219 -251h226
l-17 -146h-440v138l222 252h-202v144h430z" />
    <glyph glyph-name="uni01F4" unicode="&#x1f4;" horiz-adv-x="653" 
d="M508.5 691q62.5 -25 109.5 -66l-100 -104q-37 27 -67 39t-68 12q-73 0 -112 -55.5t-39 -168.5q0 -85 12 -133.5t37.5 -68.5t67.5 -20q37 0 71 17v127h-70l-19 139h287v-349q-55 -38 -126 -59t-137 -21q-171 0 -253 93.5t-82 275.5q0 115 45 198t125 126t181 43
q75 0 137.5 -25zM432 984l70 -144l-254 -91l-50 99z" />
    <glyph glyph-name="uni01F5" unicode="&#x1f5;" horiz-adv-x="570" 
d="M570 498q-53 -24 -152 -24q54 -23 79 -54.5t25 -85.5q0 -50 -29 -90.5t-82.5 -63t-125.5 -22.5q-39 0 -57 3q-12 -6 -12 -19q0 -11 10 -18t42 -7h77q66 0 115 -20t75.5 -56.5t26.5 -82.5q0 -86 -76.5 -135.5t-219.5 -49.5q-105 0 -164.5 22t-83 61t-23.5 95h177
q0 -21 8 -32t29 -16t63 -5q54 0 72.5 12.5t18.5 33.5q0 17 -13.5 28t-43.5 11h-74q-92 0 -136 29.5t-44 77.5q0 31 19 60t49 47q-54 29 -77 66t-23 90q0 95 68 148t183 53q76 -3 136.5 19.5t119.5 62.5zM233 408q-17 -18 -17 -51q0 -36 17 -54.5t44 -18.5q61 0 61 76
q0 35 -15 50.5t-46 15.5q-27 0 -44 -18zM353 856l74 -144l-251 -99l-53 99z" />
    <glyph glyph-name="uni01F6" unicode="&#x1f6;" horiz-adv-x="940" 
d="M906.5 391.5q8.5 -69.5 8.5 -147.5q0 -90 -39 -149.5t-101.5 -87t-135.5 -27.5q-103 0 -167 51.5t-64 159.5v90h-159v-281h-206v696h206v-257h159v257h206v-506q0 -38 10.5 -53t30.5 -15q28 0 45 33t17 104q0 113 -27 275h194q14 -73 22.5 -142.5z" />
    <glyph glyph-name="uni01F7" unicode="&#x1f7;" horiz-adv-x="611" 
d="M501.5 691.5q43.5 -24.5 69 -69t25.5 -101.5q0 -82 -35.5 -137t-94.5 -90t-149 -67l-68 -24v-203h-206v696h206v-38q28 28 68.5 43t88.5 15q52 0 95.5 -24.5zM358.5 416.5q27.5 38.5 27.5 89.5q0 32 -17 49.5t-45 17.5q-40 0 -75 -27v-206l16 7q66 31 93.5 69.5z" />
    <glyph glyph-name="uni01F8" unicode="&#x1f8;" horiz-adv-x="651" 
d="M608 0h-258l-152 508l3 -22q11 -73 17.5 -133.5t6.5 -136.5v-216h-182v696h253l158 -510l-3 21q-12 69 -18.5 128.5t-6.5 137.5v223h182v-696zM245 984l233 -136l-50 -99l-254 91z" />
    <glyph glyph-name="uni01F9" unicode="&#x1f9;" horiz-adv-x="572" 
d="M496.5 512q38.5 -42 38.5 -118v-394h-198v358q0 30 -7.5 41t-22.5 11q-33 0 -67 -53v-357h-198v534h173l14 -55q37 39 75.5 57t86.5 18q67 0 105.5 -42zM223 856l230 -144l-53 -99l-251 99z" />
    <glyph glyph-name="Aringacute" unicode="&#x1fa;" horiz-adv-x="601" 
d="M408 0l-27 135h-165l-26 -135h-215l203 696h246l202 -696h-218zM245 279h107l-54 273zM383 987q35 -20 53.5 -53t18.5 -73t-18.5 -73.5t-53.5 -53.5t-82 -20t-82 20t-53.5 53.5t-18.5 73.5t18.5 73t53.5 53t82 20t82 -20zM272 895.5q-11 -11.5 -11 -34.5t11 -34.5
t29 -11.5t29 11.5t11 34.5t-11 34.5t-29 11.5t-29 -11.5zM383 1245l70 -144l-254 -91l-50 99z" />
    <glyph glyph-name="aringacute" unicode="&#x1fb;" horiz-adv-x="551" 
d="M429 960l-254 -91l-50 99l234 136zM193 593q-35 20 -53.5 53.5t-18.5 73.5t18.5 73t53.5 53t82 20t82 -20t53.5 -53t18.5 -73t-18.5 -73.5t-53.5 -53.5t-82 -20t-82 20zM246 754.5q-11 -11.5 -11 -34.5t11 -34.5t29 -11.5t29 11.5t11 34.5t-11 34.5t-29 11.5t-29 -11.5z
M511 131.5q7 -13.5 25 -20.5l-40 -127q-54 4 -88 20.5t-56 53.5q-52 -78 -161 -78q-79 0 -127.5 47.5t-48.5 122.5q0 89 66 136t192 47h38v13q0 40 -16 54t-61 14q-24 0 -61.5 -7.5t-76.5 -20.5l-43 126q49 20 106.5 31t104.5 11q126 0 183 -48.5t57 -148.5v-184
q0 -28 7 -41.5zM285.5 128q15.5 9 25.5 23v79h-21q-42 0 -62 -15t-20 -46q0 -23 12 -36.5t32 -13.5q18 0 33.5 9z" />
    <glyph glyph-name="AEacute" unicode="&#x1fc;" horiz-adv-x="863" 
d="M610 144h233v-144h-407l-18 135h-183l-41 -135h-224l271 696h567l-21 -143h-247l23 -132h236v-139h-213zM279 279h119l-36 270zM571 984l70 -144l-254 -91l-50 99z" />
    <glyph glyph-name="aeacute" unicode="&#x1fd;" horiz-adv-x="859" 
d="M843 211h-324q8 -54 33.5 -72.5t73.5 -18.5q28 0 57 11.5t64 35.5l80 -108q-97 -79 -220 -79q-74 0 -130 23.5t-93 64.5q-62 -88 -189 -88q-83 0 -131.5 47.5t-48.5 122.5q0 89 67.5 136t198.5 47h38v11q0 40 -16 54t-61 14q-24 0 -61.5 -7.5t-76.5 -20.5l-43 128
q49 20 106.5 31t104.5 11q110 0 165 -61q66 61 164 61q71 0 127 -33t87.5 -96.5t31.5 -150.5q0 -25 -4 -63zM652 330q-1 47 -14.5 73t-48.5 26q-33 0 -49.5 -23t-21.5 -83h134v7zM299.5 131q15.5 12 31.5 35q-7 30 -8 54v5h-23q-41 0 -60 -14t-19 -46q0 -21 11 -33.5
t31 -12.5q21 0 36.5 12zM498 856l74 -144l-251 -99l-53 99z" />
    <glyph glyph-name="Oslashacute" unicode="&#x1fe;" horiz-adv-x="690" 
d="M634.5 542q35.5 -81 35.5 -193q0 -113 -38 -196t-111 -128t-176 -45q-13 0 -39 2l-37 -121l-150 40l40 129q-68 44 -103.5 125.5t-35.5 193.5q0 113 38 195.5t111 127t176 44.5q13 0 39 -2l37 119l150 -40l-40 -126q68 -44 103.5 -125zM260 519.5q-26 -50.5 -26 -170.5
q0 -107 15 -157l114 377q-6 1 -18 1q-59 0 -85 -50.5zM430.5 177q25.5 51 25.5 172q0 106 -15 155l-113 -377q5 -1 17 -1q60 0 85.5 51zM427 1029l70 -144l-254 -91l-50 99z" />
    <glyph glyph-name="oslashacute" unicode="&#x1ff;" horiz-adv-x="584" 
d="M537.5 414.5q29.5 -62.5 29.5 -148.5t-33.5 -151t-95.5 -100t-146 -35q-15 0 -22 1l-37 -119l-140 41l38 119q-55 36 -84.5 98t-29.5 148t33.5 151t95.5 100t146 35q15 0 22 -1l39 120l140 -41l-40 -120q55 -35 84.5 -97.5zM223 377q-23 -35 -23 -109t13 -106l83 250h-4
q-46 0 -69 -35zM361 157q23 35 23 109t-13 106l-83 -250h4q46 0 69 35zM360 856l74 -144l-251 -99l-53 99z" />
    <glyph glyph-name="uni0200" unicode="&#x200;" horiz-adv-x="601" 
d="M408 0l-27 135h-165l-26 -135h-215l203 696h246l202 -696h-218zM245 279h107l-54 273zM165 1003l104 -211l-96 -46l-131 196zM355 1003l96 -214l-98 -39l-123 197z" />
    <glyph glyph-name="uni0201" unicode="&#x201;" horiz-adv-x="551" 
d="M511 131.5q7 -13.5 25 -20.5l-40 -127q-54 4 -88 20.5t-56 53.5q-52 -78 -161 -78q-79 0 -127.5 47.5t-48.5 122.5q0 89 66 136t192 47h38v13q0 40 -16 54t-61 14q-24 0 -61.5 -7.5t-76.5 -20.5l-43 126q49 20 106.5 31t104.5 11q126 0 183 -48.5t57 -148.5v-184
q0 -28 7 -41.5zM285.5 128q15.5 9 25.5 23v79h-21q-42 0 -62 -15t-20 -46q0 -23 12 -36.5t32 -13.5q18 0 33.5 9zM155 877l104 -211l-96 -46l-131 196zM345 877l96 -214l-98 -39l-123 197z" />
    <glyph glyph-name="uni0202" unicode="&#x202;" horiz-adv-x="601" 
d="M408 0l-27 135h-165l-26 -135h-215l203 696h246l202 -696h-218zM245 279h107l-54 273zM432.5 913q46.5 -56 53.5 -140l-103 -17q-9 37 -29.5 58t-52.5 21t-52.5 -21t-29.5 -58l-103 17q7 84 53.5 140t131.5 56t131.5 -56z" />
    <glyph glyph-name="uni0203" unicode="&#x203;" horiz-adv-x="551" 
d="M511 131.5q7 -13.5 25 -20.5l-40 -127q-54 4 -88 20.5t-56 53.5q-52 -78 -161 -78q-79 0 -127.5 47.5t-48.5 122.5q0 89 66 136t192 47h38v13q0 40 -16 54t-61 14q-24 0 -61.5 -7.5t-76.5 -20.5l-43 126q49 20 106.5 31t104.5 11q126 0 183 -48.5t57 -148.5v-184
q0 -28 7 -41.5zM285.5 128q15.5 9 25.5 23v79h-21q-42 0 -62 -15t-20 -46q0 -23 12 -36.5t32 -13.5q18 0 33.5 9zM408.5 751q46.5 -56 53.5 -140l-103 -17q-9 37 -29.5 58t-52.5 21t-52.5 -21t-29.5 -58l-103 17q7 84 53.5 140t131.5 56t131.5 -56z" />
    <glyph glyph-name="uni0204" unicode="&#x204;" horiz-adv-x="520" 
d="M500 696l-21 -143h-230v-130h202v-139h-202v-140h246v-144h-452v696h457zM136 1003l104 -211l-96 -46l-131 196zM326 1003l96 -214l-98 -39l-123 197z" />
    <glyph glyph-name="uni0205" unicode="&#x205;" horiz-adv-x="557" 
d="M541 211h-324q8 -54 33.5 -72.5t73.5 -18.5q28 0 57 11.5t64 35.5l80 -108q-97 -79 -220 -79q-142 0 -215 78.5t-73 207.5q0 80 30.5 145.5t90.5 104t145 38.5q79 0 138 -33t91.5 -96t32.5 -151q0 -25 -4 -63zM350 330q-1 47 -14.5 73t-48.5 26q-33 0 -49.5 -23
t-21.5 -83h134v7zM163 877l104 -211l-96 -46l-131 196zM353 877l96 -214l-98 -39l-123 197z" />
    <glyph glyph-name="uni0206" unicode="&#x206;" horiz-adv-x="520" 
d="M500 696l-21 -143h-230v-130h202v-139h-202v-140h246v-144h-452v696h457zM403.5 913q46.5 -56 53.5 -140l-103 -17q-9 37 -29.5 58t-52.5 21t-52.5 -21t-29.5 -58l-103 17q7 84 53.5 140t131.5 56t131.5 -56z" />
    <glyph glyph-name="uni0207" unicode="&#x207;" horiz-adv-x="557" 
d="M541 211h-324q8 -54 33.5 -72.5t73.5 -18.5q28 0 57 11.5t64 35.5l80 -108q-97 -79 -220 -79q-142 0 -215 78.5t-73 207.5q0 80 30.5 145.5t90.5 104t145 38.5q79 0 138 -33t91.5 -96t32.5 -151q0 -25 -4 -63zM350 330q-1 47 -14.5 73t-48.5 26q-33 0 -49.5 -23
t-21.5 -83h134v7zM416.5 751q46.5 -56 53.5 -140l-103 -17q-9 37 -29.5 58t-52.5 21t-52.5 -21t-29.5 -58l-103 17q7 84 53.5 140t131.5 56t131.5 -56z" />
    <glyph glyph-name="uni0208" unicode="&#x208;" horiz-adv-x="292" 
d="M249 696v-696h-206v696h206zM10 1003l104 -211l-96 -46l-131 196zM200 1003l96 -214l-98 -39l-123 197z" />
    <glyph glyph-name="uni0209" unicode="&#x209;" horiz-adv-x="282" 
d="M240 534v-534h-198v534h198zM19 877l104 -211l-96 -46l-131 196zM209 877l96 -214l-98 -39l-123 197z" />
    <glyph glyph-name="uni020A" unicode="&#x20a;" horiz-adv-x="292" 
d="M249 696v-696h-206v696h206zM277.5 913q46.5 -56 53.5 -140l-103 -17q-9 37 -29.5 58t-52.5 21t-52.5 -21t-29.5 -58l-103 17q7 84 53.5 140t131.5 56t131.5 -56z" />
    <glyph glyph-name="uni020B" unicode="&#x20b;" horiz-adv-x="282" 
d="M240 534v-534h-198v534h198zM272.5 751q46.5 -56 53.5 -140l-103 -17q-9 37 -29.5 58t-52.5 21t-52.5 -21t-29.5 -58l-103 17q7 84 53.5 140t131.5 56t131.5 -56z" />
    <glyph glyph-name="uni020C" unicode="&#x20c;" horiz-adv-x="690" 
d="M585.5 619.5q84.5 -96.5 84.5 -270.5q0 -113 -38 -196t-111 -128t-176 -45q-156 0 -240.5 97.5t-84.5 271.5q0 113 38 195.5t111 127t176 44.5q156 0 240.5 -96.5zM260 519.5q-26 -50.5 -26 -170.5t26 -171.5t85 -51.5q60 0 85.5 51t25.5 172q0 120 -26 170.5t-85 50.5
t-85 -50.5zM209 1003l104 -211l-96 -46l-131 196zM399 1003l96 -214l-98 -39l-123 197z" />
    <glyph glyph-name="uni020D" unicode="&#x20d;" horiz-adv-x="584" 
d="M493.5 479q73.5 -75 73.5 -213q0 -86 -33.5 -151t-95.5 -100t-146 -35q-128 0 -201.5 75t-73.5 213q0 86 33.5 151t95.5 100t146 35q128 0 201.5 -75zM237 378q-17 -34 -17 -110q0 -79 17 -112.5t55 -33.5t55 34t17 110q0 79 -17 112.5t-55 33.5t-55 -34zM170 877
l104 -211l-96 -46l-131 196zM360 877l96 -214l-98 -39l-123 197z" />
    <glyph glyph-name="uni020E" unicode="&#x20e;" horiz-adv-x="690" 
d="M585.5 619.5q84.5 -96.5 84.5 -270.5q0 -113 -38 -196t-111 -128t-176 -45q-156 0 -240.5 97.5t-84.5 271.5q0 113 38 195.5t111 127t176 44.5q156 0 240.5 -96.5zM260 519.5q-26 -50.5 -26 -170.5t26 -171.5t85 -51.5q60 0 85.5 51t25.5 172q0 120 -26 170.5t-85 50.5
t-85 -50.5zM476.5 913q46.5 -56 53.5 -140l-103 -17q-9 37 -29.5 58t-52.5 21t-52.5 -21t-29.5 -58l-103 17q7 84 53.5 140t131.5 56t131.5 -56z" />
    <glyph glyph-name="uni020F" unicode="&#x20f;" horiz-adv-x="584" 
d="M493.5 479q73.5 -75 73.5 -213q0 -86 -33.5 -151t-95.5 -100t-146 -35q-128 0 -201.5 75t-73.5 213q0 86 33.5 151t95.5 100t146 35q128 0 201.5 -75zM237 378q-17 -34 -17 -110q0 -79 17 -112.5t55 -33.5t55 34t17 110q0 79 -17 112.5t-55 33.5t-55 -34zM423.5 751
q46.5 -56 53.5 -140l-103 -17q-9 37 -29.5 58t-52.5 21t-52.5 -21t-29.5 -58l-103 17q7 84 53.5 140t131.5 56t131.5 -56z" />
    <glyph glyph-name="uni0210" unicode="&#x210;" horiz-adv-x="624" 
d="M287 248h-38v-248h-206v696h255q151 0 225 -53.5t74 -167.5q0 -65 -29 -108t-94 -81l170 -286h-228zM249 386h54q42 0 63 22t21 67q0 80 -94 80h-44v-169zM166 1003l104 -211l-96 -46l-131 196zM356 1003l96 -214l-98 -39l-123 197z" />
    <glyph glyph-name="uni0211" unicode="&#x211;" horiz-adv-x="410" 
d="M420 542l-31 -191q-27 8 -49 8q-44 0 -65.5 -29t-34.5 -87v-243h-198v534h173l16 -100q17 53 54 85t81 32q26 0 54 -9zM109 877l104 -211l-96 -46l-131 196zM299 877l96 -214l-98 -39l-123 197z" />
    <glyph glyph-name="uni0212" unicode="&#x212;" horiz-adv-x="624" 
d="M287 248h-38v-248h-206v696h255q151 0 225 -53.5t74 -167.5q0 -65 -29 -108t-94 -81l170 -286h-228zM249 386h54q42 0 63 22t21 67q0 80 -94 80h-44v-169zM433.5 913q46.5 -56 53.5 -140l-103 -17q-9 37 -29.5 58t-52.5 21t-52.5 -21t-29.5 -58l-103 17q7 84 53.5 140
t131.5 56t131.5 -56z" />
    <glyph glyph-name="uni0213" unicode="&#x213;" horiz-adv-x="410" 
d="M420 542l-31 -191q-27 8 -49 8q-44 0 -65.5 -29t-34.5 -87v-243h-198v534h173l16 -100q17 53 54 85t81 32q26 0 54 -9zM362.5 751q46.5 -56 53.5 -140l-103 -17q-9 37 -29.5 58t-52.5 21t-52.5 -21t-29.5 -58l-103 17q7 84 53.5 140t131.5 56t131.5 -56z" />
    <glyph glyph-name="uni0214" unicode="&#x214;" horiz-adv-x="644" 
d="M611 236q0 -73 -32 -131t-97 -91.5t-160 -33.5q-143 0 -216 69t-73 187v460h206v-454q0 -59 19.5 -86.5t63.5 -27.5t63.5 27.5t19.5 86.5v454h206v-460zM186 1003l104 -211l-96 -46l-131 196zM376 1003l96 -214l-98 -39l-123 197z" />
    <glyph glyph-name="uni0215" unicode="&#x215;" horiz-adv-x="566" 
d="M524 0h-173l-7 58q-55 -78 -158 -78q-75 0 -112 45t-37 125v384h198v-358q0 -29 8.5 -40.5t24.5 -11.5q14 0 29.5 11t28.5 33v366h198v-534zM159 877l104 -211l-96 -46l-131 196zM349 877l96 -214l-98 -39l-123 197z" />
    <glyph glyph-name="uni0216" unicode="&#x216;" horiz-adv-x="644" 
d="M611 236q0 -73 -32 -131t-97 -91.5t-160 -33.5q-143 0 -216 69t-73 187v460h206v-454q0 -59 19.5 -86.5t63.5 -27.5t63.5 27.5t19.5 86.5v454h206v-460zM453.5 913q46.5 -56 53.5 -140l-103 -17q-9 37 -29.5 58t-52.5 21t-52.5 -21t-29.5 -58l-103 17q7 84 53.5 140
t131.5 56t131.5 -56z" />
    <glyph glyph-name="uni0217" unicode="&#x217;" horiz-adv-x="566" 
d="M524 0h-173l-7 58q-55 -78 -158 -78q-75 0 -112 45t-37 125v384h198v-358q0 -29 8.5 -40.5t24.5 -11.5q14 0 29.5 11t28.5 33v366h198v-534zM412.5 751q46.5 -56 53.5 -140l-103 -17q-9 37 -29.5 58t-52.5 21t-52.5 -21t-29.5 -58l-103 17q7 84 53.5 140t131.5 56
t131.5 -56z" />
    <glyph glyph-name="Scommaaccent" unicode="&#x218;" horiz-adv-x="588" 
d="M556 621l-91 -107q-70 56 -149 56q-37 0 -56 -13t-19 -37q0 -18 10.5 -29.5t35 -21.5t79.5 -28q110 -35 158.5 -88t48.5 -145q0 -67 -35.5 -118.5t-101.5 -80.5t-156 -29q-92 0 -162 29t-118 76l101 111q79 -68 171 -68q43 0 65 17.5t22 45.5q0 21 -9.5 35t-33.5 26
t-70 26q-121 38 -169 91.5t-48 133.5q0 65 35 113t96.5 74t138.5 26q159 0 257 -95zM359 -88q26 -26 26 -65q0 -21 -6 -39t-21 -49l-50 -101h-94l25 114q-38 29 -38 75q0 38 26 64.5t66 26.5t66 -26z" />
    <glyph glyph-name="scommaaccent" unicode="&#x219;" horiz-adv-x="493" 
d="M369.5 535.5q54.5 -18.5 91.5 -50.5l-70 -107q-29 18 -62 28.5t-65 10.5q-45 0 -45 -24q0 -10 6 -16.5t28.5 -16t72.5 -24.5q80 -25 118.5 -63.5t38.5 -108.5q0 -54 -32.5 -96t-90 -65t-130.5 -23q-70 0 -131.5 22.5t-103.5 62.5l94 104q30 -24 65.5 -38.5t70.5 -14.5
q27 0 41.5 8.5t14.5 24.5q0 14 -6.5 21.5t-26.5 15t-70 22.5q-155 46 -155 173q0 49 27.5 88t80 62t125.5 23q59 0 113.5 -18.5zM312 -88q26 -26 26 -65q0 -21 -6 -39t-21 -49l-50 -101h-94l25 114q-38 29 -38 75q0 38 26 64.5t66 26.5t66 -26z" />
    <glyph glyph-name="uni021A" unicode="&#x21a;" horiz-adv-x="554" 
d="M559 696l-21 -154h-158v-542h-206v542h-169v154h554zM343 -88q26 -26 26 -65q0 -21 -6 -39t-21 -49l-50 -101h-94l25 114q-38 29 -38 75q0 38 26 64.5t66 26.5t66 -26z" />
    <glyph glyph-name="uni021B" unicode="&#x21b;" horiz-adv-x="401" 
d="M416 26q-31 -22 -75.5 -34t-84.5 -12q-99 1 -146.5 55.5t-47.5 161.5v203h-64v134h64v112l198 23v-135h120l-20 -134h-100v-201q0 -35 11 -49.5t31 -14.5q25 0 50 14zM300 -88q26 -26 26 -65q0 -21 -6 -39t-21 -49l-50 -101h-94l25 114q-38 29 -38 75q0 38 26 64.5
t66 26.5t66 -26z" />
    <glyph glyph-name="uni021C" unicode="&#x21c;" horiz-adv-x="530" 
d="M374.5 692q57.5 -24 89 -67t31.5 -100q0 -63 -40.5 -107t-125.5 -61q93 -10 139.5 -49t46.5 -114q0 -106 -107.5 -188.5t-337.5 -125.5l-16 146q101 29 155 56.5t73 56t19 66.5q0 80 -107 80h-77l23 141h58q87 0 87 75q0 71 -75 71q-62 0 -128 -52l-92 100q101 96 251 96
q76 0 133.5 -24z" />
    <glyph glyph-name="uni021D" unicode="&#x21d;" horiz-adv-x="481" 
d="M377.5 512.5q61.5 -41.5 61.5 -113.5q0 -96 -123 -125q148 -12 148 -121q0 -88 -106 -157t-303 -106l-17 126q121 37 171.5 69.5t51.5 75.5q0 19 -13.5 30t-39.5 11h-91l11 120h47q36 0 50.5 13t14.5 40q0 47 -50 47q-29 0 -53.5 -7.5t-51.5 -22.5l-90 99q93 63 225 63
q96 0 157.5 -41.5z" />
    <glyph glyph-name="uni021E" unicode="&#x21e;" horiz-adv-x="657" 
d="M408 0v281h-159v-281h-206v696h206v-257h159v257h206v-696h-206zM466 965l67 -77l-145 -141h-118l-145 141l67 77l137 -86z" />
    <glyph glyph-name="uni021F" unicode="&#x21f;" horiz-adv-x="572" 
d="M496.5 512q38.5 -42 38.5 -118v-394h-198v358q0 30 -7.5 41t-22.5 11q-33 0 -67 -53v-357h-198v744l198 20v-278q34 36 70 52t81 16q67 0 105.5 -42zM423 1013l67 -77l-145 -141h-118l-145 141l67 77l137 -86z" />
    <glyph glyph-name="uni0220" unicode="&#x220;" horiz-adv-x="643" 
d="M559.5 666q45.5 -50 45.5 -130v-751h-206v720q0 32 -11.5 47t-38.5 15q-28 0 -51 -12.5t-49 -40.5v-514h-206v696h181l14 -57q45 41 87.5 59t102.5 18q86 0 131.5 -50z" />
    <glyph glyph-name="uni0221" unicode="&#x221;" horiz-adv-x="819" 
d="M782.5 225.5q36.5 -32.5 36.5 -88.5q0 -79 -57 -118t-147 -39q-15 0 -41 2l-33 -72l-89 34l30 62q-55 25 -87 75q-32 -49 -73 -75t-97 -26q-101 0 -152 77t-51 213q0 83 27.5 147.5t79 100.5t121.5 36q30 0 59.5 -11t51.5 -31v252l198 -20v-524q0 -31 4 -48
q23 46 52.5 66t75.5 20q55 0 91.5 -32.5zM364 174q-3 21 -3 46v163q-15 15 -28 22.5t-30 7.5q-36 0 -57 -34.5t-21 -110.5q0 -61 9 -93t23.5 -42.5t36.5 -10.5q41 0 70 52zM680 121.5q11 6.5 11 19.5q0 10 -5.5 15.5t-15.5 5.5q-12 0 -20.5 -9.5t-19.5 -36.5q7 -1 22 -1
q17 0 28 6.5z" />
    <glyph glyph-name="uni0222" unicode="&#x222;" horiz-adv-x="650" 
d="M630 223q0 -66 -37.5 -122t-106.5 -88.5t-161 -32.5t-161.5 32t-106.5 87t-37 124q0 64 32.5 109.5t93.5 71.5q-88 46 -88 150v142h206v-156q0 -38 13 -56t48 -18t48 18t13 56v156h206v-142q0 -49 -23 -87t-66 -61q127 -52 127 -183zM392.5 153q23.5 27 23.5 73t-24 74
t-67 28t-67 -28t-24 -74t24 -73t67 -27q44 0 67.5 27z" />
    <glyph glyph-name="uni0223" unicode="&#x223;" horiz-adv-x="578" 
d="M561 231q0 -71 -31.5 -128t-93 -90t-147.5 -33t-147.5 32t-93 89t-31.5 130q0 137 110 189q-72 39 -72 140v184h194v-224q0 -23 9 -35.5t31 -12.5q24 0 32 10.5t8 37.5v224h194v-184q0 -93 -76 -137q114 -49 114 -192zM343.5 149q16.5 28 16.5 85t-17 86t-54 29t-54 -29
t-17 -86q0 -56 17 -84.5t54 -28.5q38 0 54.5 28z" />
    <glyph glyph-name="uni0224" unicode="&#x224;" horiz-adv-x="548" 
d="M533 543l-277 -382h277v-177q0 -103 -62 -157t-169 -54q-95 0 -157 45l64 120q22 -11 36.5 -15.5t36.5 -4.5q55 0 55 53v29h-327v151l286 389h-258v156h495v-153z" />
    <glyph glyph-name="uni0225" unicode="&#x225;" horiz-adv-x="465" 
d="M455 397l-219 -251h219v-162q0 -103 -61 -157t-165 -54q-94 0 -156 45l64 115q22 -11 36.5 -15.5t38.5 -4.5q25 0 40 13.5t15 39.5v34h-262v138l222 252h-202v144h430v-137z" />
    <glyph glyph-name="uni0226" unicode="&#x226;" horiz-adv-x="601" 
d="M408 0l-27 135h-165l-26 -135h-215l203 696h246l202 -696h-218zM245 279h107l-54 273zM380.5 924.5q31.5 -30.5 31.5 -75.5t-31.5 -75.5t-79.5 -30.5t-79.5 30.5t-31.5 75.5t31.5 75.5t79.5 30.5t79.5 -30.5z" />
    <glyph glyph-name="uni0227" unicode="&#x227;" horiz-adv-x="551" 
d="M511 131.5q7 -13.5 25 -20.5l-40 -127q-54 4 -88 20.5t-56 53.5q-52 -78 -161 -78q-79 0 -127.5 47.5t-48.5 122.5q0 89 66 136t192 47h38v13q0 40 -16 54t-61 14q-24 0 -61.5 -7.5t-76.5 -20.5l-43 126q49 20 106.5 31t104.5 11q126 0 183 -48.5t57 -148.5v-184
q0 -28 7 -41.5zM285.5 128q15.5 9 25.5 23v79h-21q-42 0 -62 -15t-20 -46q0 -23 12 -36.5t32 -13.5q18 0 33.5 9zM356.5 798.5q31.5 -30.5 31.5 -75.5t-31.5 -75.5t-79.5 -30.5t-79.5 30.5t-31.5 75.5t31.5 75.5t79.5 30.5t79.5 -30.5z" />
    <glyph glyph-name="uni0228" unicode="&#x228;" horiz-adv-x="520" 
d="M249 144h246v-144h-177v-43q110 -14 110 -108q0 -54 -44 -89t-120 -35q-37 0 -69.5 9.5t-55.5 24.5l43 86q33 -18 64 -18q45 0 45 24q0 16 -22 22.5t-72 6.5l15 120h-169v696h457l-21 -143h-230v-130h202v-139h-202v-140z" />
    <glyph glyph-name="uni0229" unicode="&#x229;" horiz-adv-x="557" 
d="M541 211h-324q8 -54 33.5 -72.5t73.5 -18.5q28 0 57 11.5t64 35.5l80 -108q-78 -64 -175 -76v-26q110 -14 110 -108q0 -54 -44 -89t-120 -35q-37 0 -69.5 9.5t-55.5 24.5l43 86q33 -18 64 -18q45 0 45 24q0 16 -22 22.5t-72 6.5l13 105q-111 17 -168 92t-57 189
q0 80 30.5 145.5t90.5 104t145 38.5q79 0 138 -33t91.5 -96t32.5 -151q0 -25 -4 -63zM350 330q-1 47 -14.5 73t-48.5 26q-33 0 -49.5 -23t-21.5 -83h134v7z" />
    <glyph glyph-name="uni022A" unicode="&#x22a;" horiz-adv-x="690" 
d="M585.5 619.5q84.5 -96.5 84.5 -270.5q0 -113 -38 -196t-111 -128t-176 -45q-156 0 -240.5 97.5t-84.5 271.5q0 113 38 195.5t111 127t176 44.5q156 0 240.5 -96.5zM260 519.5q-26 -50.5 -26 -170.5t26 -171.5t85 -51.5q60 0 85.5 51t25.5 172q0 120 -26 170.5t-85 50.5
t-85 -50.5zM289.5 903q27.5 -27 27.5 -65q0 -39 -27.5 -66t-67.5 -27q-39 0 -67 27t-28 66q0 38 28 65t67 27q40 0 67.5 -27zM534.5 903q27.5 -27 27.5 -65q0 -39 -27.5 -66t-67.5 -27q-39 0 -67 27t-28 66q0 38 28 65t67 27q40 0 67.5 -27zM511 963h-325v134h325v-134z" />
    <glyph glyph-name="uni022B" unicode="&#x22b;" horiz-adv-x="584" 
d="M493.5 479q73.5 -75 73.5 -213q0 -86 -33.5 -151t-95.5 -100t-146 -35q-128 0 -201.5 75t-73.5 213q0 86 33.5 151t95.5 100t146 35q128 0 201.5 -75zM237 378q-17 -34 -17 -110q0 -79 17 -112.5t55 -33.5t55 34t17 110q0 79 -17 112.5t-55 33.5t-55 -34zM235.5 746
q27.5 -27 27.5 -65q0 -39 -27.5 -66t-67.5 -27q-39 0 -67 27t-28 66q0 38 28 65t67 27q40 0 67.5 -27zM480.5 746q27.5 -27 27.5 -65q0 -39 -27.5 -66t-67.5 -27q-39 0 -67 27t-28 66q0 38 28 65t67 27q40 0 67.5 -27zM453 807h-325v134h325v-134z" />
    <glyph glyph-name="uni022C" unicode="&#x22c;" horiz-adv-x="690" 
d="M585.5 619.5q84.5 -96.5 84.5 -270.5q0 -113 -38 -196t-111 -128t-176 -45q-156 0 -240.5 97.5t-84.5 271.5q0 113 38 195.5t111 127t176 44.5q156 0 240.5 -96.5zM260 519.5q-26 -50.5 -26 -170.5t26 -171.5t85 -51.5q60 0 85.5 51t25.5 172q0 120 -26 170.5t-85 50.5
t-85 -50.5zM362.5 761q-16.5 7 -35.5 20q-12 8 -20 12t-17 4q-18 0 -29 -10t-24 -33l-93 45q21 59 57.5 97.5t83.5 38.5q25 0 42.5 -7t36.5 -20q12 -8 20 -12t17 -4q17 0 28 10t24 33l93 -45q-21 -60 -58 -98t-85 -38q-24 0 -40.5 7zM507 962h-325v134h325v-134z" />
    <glyph glyph-name="uni022D" unicode="&#x22d;" horiz-adv-x="584" 
d="M493.5 479q73.5 -75 73.5 -213q0 -86 -33.5 -151t-95.5 -100t-146 -35q-128 0 -201.5 75t-73.5 213q0 86 33.5 151t95.5 100t146 35q128 0 201.5 -75zM237 378q-17 -34 -17 -110q0 -79 17 -112.5t55 -33.5t55 34t17 110q0 79 -17 112.5t-55 33.5t-55 -34zM309.5 599
q-16.5 7 -35.5 20q-12 8 -20 12t-17 4q-18 0 -29 -10t-24 -33l-93 45q21 59 57.5 97.5t83.5 38.5q25 0 42.5 -7t36.5 -20q12 -8 20 -12t17 -4q17 0 28 10t24 33l93 -45q-21 -60 -58 -98t-85 -38q-24 0 -40.5 7zM454 844h-325v134h325v-134z" />
    <glyph glyph-name="uni022E" unicode="&#x22e;" horiz-adv-x="690" 
d="M585.5 619.5q84.5 -96.5 84.5 -270.5q0 -113 -38 -196t-111 -128t-176 -45q-156 0 -240.5 97.5t-84.5 271.5q0 113 38 195.5t111 127t176 44.5q156 0 240.5 -96.5zM260 519.5q-26 -50.5 -26 -170.5t26 -171.5t85 -51.5q60 0 85.5 51t25.5 172q0 120 -26 170.5t-85 50.5
t-85 -50.5zM424.5 924.5q31.5 -30.5 31.5 -75.5t-31.5 -75.5t-79.5 -30.5t-79.5 30.5t-31.5 75.5t31.5 75.5t79.5 30.5t79.5 -30.5z" />
    <glyph glyph-name="uni022F" unicode="&#x22f;" horiz-adv-x="584" 
d="M493.5 479q73.5 -75 73.5 -213q0 -86 -33.5 -151t-95.5 -100t-146 -35q-128 0 -201.5 75t-73.5 213q0 86 33.5 151t95.5 100t146 35q128 0 201.5 -75zM237 378q-17 -34 -17 -110q0 -79 17 -112.5t55 -33.5t55 34t17 110q0 79 -17 112.5t-55 33.5t-55 -34zM371.5 798.5
q31.5 -30.5 31.5 -75.5t-31.5 -75.5t-79.5 -30.5t-79.5 30.5t-31.5 75.5t31.5 75.5t79.5 30.5t79.5 -30.5z" />
    <glyph glyph-name="uni0230" unicode="&#x230;" horiz-adv-x="690" 
d="M585.5 619.5q84.5 -96.5 84.5 -270.5q0 -113 -38 -196t-111 -128t-176 -45q-156 0 -240.5 97.5t-84.5 271.5q0 113 38 195.5t111 127t176 44.5q156 0 240.5 -96.5zM260 519.5q-26 -50.5 -26 -170.5t26 -171.5t85 -51.5q60 0 85.5 51t25.5 172q0 120 -26 170.5t-85 50.5
t-85 -50.5zM420.5 914.5q31.5 -30.5 31.5 -75.5t-31.5 -75.5t-79.5 -30.5t-79.5 30.5t-31.5 75.5t31.5 75.5t79.5 30.5t79.5 -30.5zM505 963h-325v134h325v-134z" />
    <glyph glyph-name="uni0231" unicode="&#x231;" horiz-adv-x="584" 
d="M493.5 479q73.5 -75 73.5 -213q0 -86 -33.5 -151t-95.5 -100t-146 -35q-128 0 -201.5 75t-73.5 213q0 86 33.5 151t95.5 100t146 35q128 0 201.5 -75zM237 378q-17 -34 -17 -110q0 -79 17 -112.5t55 -33.5t55 34t17 110q0 79 -17 112.5t-55 33.5t-55 -34zM371.5 768.5
q31.5 -30.5 31.5 -75.5t-31.5 -75.5t-79.5 -30.5t-79.5 30.5t-31.5 75.5t31.5 75.5t79.5 30.5t79.5 -30.5zM454 825h-325v134h325v-134z" />
    <glyph glyph-name="uni0232" unicode="&#x232;" horiz-adv-x="620" 
d="M635 696l-222 -439v-257h-206v256l-222 440h225l103 -284l104 284h218zM472 774h-325v134h325v-134z" />
    <glyph glyph-name="uni0233" unicode="&#x233;" horiz-adv-x="534" 
d="M385 1q-34 -111 -116 -168t-216 -61l-21 135q77 8 114.5 28t58.5 65h-68l-152 534h210l67 -413l83 413h204zM429 648h-325v134h325v-134z" />
    <glyph glyph-name="uni0234" unicode="&#x234;" horiz-adv-x="495" 
d="M458.5 225.5q36.5 -32.5 36.5 -88.5q0 -79 -57 -118t-147 -39q-15 0 -41 2l-33 -72l-89 34l30 62q-56 26 -88.5 78.5t-32.5 135.5v524l198 20v-544q0 -31 4 -48q23 46 52.5 66t75.5 20q55 0 91.5 -32.5zM356 121.5q11 6.5 11 19.5q0 10 -5.5 15.5t-15.5 5.5
q-12 0 -20.5 -9.5t-19.5 -36.5q7 -1 22 -1q17 0 28 6.5z" />
    <glyph glyph-name="uni0235" unicode="&#x235;" horiz-adv-x="795" 
d="M758.5 225.5q36.5 -32.5 36.5 -88.5q0 -79 -57 -118t-147 -39q-15 0 -41 2l-33 -72l-89 34l30 62q-56 26 -88.5 78.5t-32.5 135.5v138q0 30 -7.5 41t-22.5 11q-33 0 -67 -53v-357h-198v534h173l14 -55q37 39 75.5 57t86.5 18q67 0 105.5 -42t38.5 -118v-174q0 -31 4 -48
q23 46 52.5 66t75.5 20q55 0 91.5 -32.5zM656 121.5q11 6.5 11 19.5q0 10 -5.5 15.5t-15.5 5.5q-12 0 -20.5 -9.5t-19.5 -36.5q7 -1 22 -1q17 0 28 6.5z" />
    <glyph glyph-name="uni0236" unicode="&#x236;" horiz-adv-x="520" 
d="M483.5 225.5q36.5 -32.5 36.5 -88.5q0 -79 -57 -118t-147 -39q-15 0 -41 2l-33 -72l-89 34l30 62q-56 26 -88.5 78.5t-32.5 135.5v180h-64v134h64v112l198 23v-135h120l-20 -134h-100v-180q0 -31 4 -48q23 46 52.5 66t75.5 20q55 0 91.5 -32.5zM381 121.5q11 6.5 11 19.5
q0 10 -5.5 15.5t-15.5 5.5q-12 0 -20.5 -9.5t-19.5 -36.5q7 -1 22 -1q17 0 28 6.5z" />
    <glyph glyph-name="uni0237" unicode="&#x237;" horiz-adv-x="282" 
d="M240 77q0 -130 -64 -198.5t-178 -105.5l-68 144q39 18 62 35t36.5 44t13.5 69v469h198v-457z" />
    <glyph glyph-name="uni0238" unicode="&#x238;" horiz-adv-x="878" 
d="M809 478q47 -76 47 -212q0 -81 -25.5 -146.5t-71.5 -102.5t-107 -37q-38 0 -71.5 18.5t-55.5 53.5l-8 -52h-154l-8 55q-55 -75 -140 -75q-94 0 -143.5 77.5t-49.5 212.5q0 82 26.5 146.5t74 101t107.5 36.5q32 0 60.5 -14t50.5 -43v247l198 20v-278q23 31 58.5 49.5
t76.5 18.5q88 0 135 -76zM312.5 134q15.5 12 28.5 35v210q-25 34 -53 34t-45.5 -34.5t-17.5 -110.5q0 -86 16.5 -116t42.5 -30q13 0 28.5 12zM636.5 154.5q16.5 33.5 16.5 111.5q0 85 -15 115.5t-39 30.5q-32 0 -60 -43v-205q12 -20 26.5 -31.5t28.5 -11.5q26 0 42.5 33.5z
" />
    <glyph glyph-name="uni0239" unicode="&#x239;" horiz-adv-x="878" 
d="M807.5 478.5q48.5 -75.5 48.5 -209.5q0 -82 -26 -148t-71 -103.5t-100 -37.5q-35 0 -67.5 16t-52.5 46v-249l-198 -20v263q-49 -56 -129 -56q-93 0 -141.5 77.5t-48.5 212.5q0 82 26.5 146.5t74.5 101t109 36.5q73 0 124 -74l8 54h153l9 -58q31 44 63.5 61t77.5 17
q92 0 140.5 -75.5zM311.5 133.5q15.5 11.5 29.5 35.5v203q-13 22 -25.5 31.5t-28.5 9.5q-28 0 -45 -34.5t-17 -110.5q0 -86 16 -116t40 -30q15 0 30.5 11.5zM635.5 156.5q17.5 35.5 17.5 109.5q0 61 -6.5 93t-17.5 42.5t-28 10.5q-14 0 -31 -11t-31 -33v-204
q13 -23 26.5 -33t29.5 -10q23 0 40.5 35.5z" />
    <glyph glyph-name="uni023A" unicode="&#x23a;" horiz-adv-x="601" 
d="M428 0l-31 135h-97l-56 -212l-66 15l52 197h-30l-30 -135h-195l203 696h200l17 63l65 -15l-24 -90l190 -654h-198zM230 269h35l55 206l-22 97zM335 269h32l-15 65z" />
    <glyph glyph-name="uni023B" unicode="&#x23b;" horiz-adv-x="584" 
d="M482.5 7.5q-59.5 -27.5 -127.5 -27.5q-39 0 -74 6l-17 -63l-66 15l18 66q-94 37 -145 125t-51 221q0 114 42 196.5t117 126t173 43.5q27 0 51 -3l12 46l65 -15l-12 -47q60 -21 108 -63l-95 -112q-32 22 -51 31l-108 -411q18 -7 43 -7q34 0 63.5 14t65.5 42l90 -114
q-42 -42 -101.5 -69.5zM265 193l100 375h-3q-61 0 -94.5 -55t-33.5 -163q0 -103 31 -157z" />
    <glyph glyph-name="uni023C" unicode="&#x23c;" horiz-adv-x="479" 
d="M354 140.5q20 7.5 50 26.5l85 -121q-81 -66 -189 -66q-15 0 -39 2l-16 -59l-63 15l15 57q-85 28 -132.5 98.5t-47.5 169.5q0 84 34.5 150t97.5 103.5t146 37.5q25 0 49 -3l14 53l62 -15l-14 -54q46 -19 83 -52l-82 -115q-18 15 -39 25l-68 -260h11q23 0 43 7.5zM242 166
l63 239q-41 -2 -61.5 -34.5t-20.5 -107.5q0 -65 19 -97z" />
    <glyph glyph-name="uni023D" unicode="&#x23d;" horiz-adv-x="546" 
d="M273 158h263l-21 -158h-448v288h-67v150h67v258h206v-258h67v-150h-67v-130z" />
    <glyph glyph-name="uni023E" unicode="&#x23e;" horiz-adv-x="554" 
d="M538 552h-82l-91 -178v-374h-176v30l-55 -107l-53 28l108 211v390h-184v144h458l32 63l53 -28l-18 -35h29zM365 505l24 47h-24v-47z" />
    <glyph glyph-name="uni023F" unicode="&#x23f;" horiz-adv-x="493" 
d="M444 -78l33 -118q-43 -30 -109 -30q-55 0 -94 18.5t-66.5 46.5t-66.5 79q-33 42 -53.5 66t-48.5 48q-26 16 -44 33l84 104q77 -53 146 -53q27 0 41.5 8.5t14.5 24.5q0 14 -6.5 21.5t-26.5 15t-70 22.5q-155 46 -155 173q0 49 27.5 88t80 62t125.5 23q59 0 113.5 -18.5
t91.5 -50.5l-70 -107q-29 18 -62 28.5t-65 10.5q-45 0 -45 -24q0 -10 6 -16.5t28.5 -16t72.5 -24.5q80 -25 118.5 -63.5t38.5 -108.5q0 -76 -60.5 -125.5t-159.5 -57.5q28 -13 58 -37q21 -16 36.5 -23t38.5 -7q22 0 48 8z" />
    <glyph glyph-name="uni0240" unicode="&#x240;" horiz-adv-x="457" 
d="M314.5 -211.5q-34.5 14.5 -56 35.5t-51.5 57q-31 38 -54 60t-59.5 39t-88.5 20v138l222 252h-202v144h430v-137l-266 -294q51 -20 81 -49t62 -73q27 -36 45 -51.5t46 -15.5q22 0 35.5 3.5t15.5 4.5l33 -118q-43 -30 -109 -30q-49 0 -83.5 14.5z" />
    <glyph glyph-name="uni0241" unicode="&#x241;" horiz-adv-x="535" 
d="M145 337l45 13q62 18 87.5 48t25.5 85q0 41 -22 65t-62 24q-32 0 -61 -12.5t-63 -39.5l-95 100q101 96 251 96q81 0 140.5 -27.5t91.5 -78t32 -117.5q0 -76 -32.5 -123t-104.5 -77l-27 -11v-282h-206v337z" />
    <glyph glyph-name="uni0242" unicode="&#x242;" horiz-adv-x="476" 
d="M106 206l40 12q53 16 80 41.5t27 69.5q0 39 -20.5 61t-53.5 22q-28 0 -50 -10.5t-48 -32.5l-91 95q90 90 214 90q75 0 132 -28t88.5 -78.5t31.5 -116.5q0 -67 -29.5 -107t-92.5 -63l-30 -11v-150h-198v206z" />
    <glyph glyph-name="uni0243" unicode="&#x243;" horiz-adv-x="638" 
d="M580 317.5q43 -37.5 43 -111.5q0 -115 -83.5 -160.5t-236.5 -45.5h-244v180h-49v86h49v430h217q155 0 236.5 -41.5t81.5 -138.5q0 -62 -36 -97.5t-90 -49.5q69 -14 112 -51.5zM265 555v-128h35q47 0 66 15.5t19 52.5q0 31 -20.5 45.5t-69.5 14.5h-30zM384 161
q27 16 27 59q0 40 -24.5 58.5t-73.5 18.5h-48v-31h90v-86h-90v-35h40q52 0 79 16z" />
    <glyph glyph-name="uni0244" unicode="&#x244;" horiz-adv-x="676" 
d="M676 495h-49v-259q0 -73 -32 -131t-97 -91.5t-160 -33.5q-143 0 -216 69t-73 187v259h-49v106h49v95h206v-95h166v95h206v-95h49v-106zM421 495h-166v-253q0 -59 19.5 -86.5t63.5 -27.5t63.5 27.5t19.5 86.5v253z" />
    <glyph glyph-name="uni0245" unicode="&#x245;" horiz-adv-x="601" 
d="M424 696l202 -696h-218l-109 552l-109 -552h-215l203 696h246z" />
    <glyph glyph-name="uni0246" unicode="&#x246;" horiz-adv-x="520" 
d="M349 284l-37 -140h183v-144h-221l-20 -77l-66 15l16 62h-161v696h345l17 63l65 -15l-13 -48h43l-21 -143h-59l-34 -130h65v-139h-102zM249 553v-130h67l35 130h-102zM249 284v-115l30 115h-30z" />
    <glyph glyph-name="uni0247" unicode="&#x247;" horiz-adv-x="557" 
d="M300 216l-24 -93q21 -3 48 -3q28 0 57 11.5t64 35.5l80 -108q-97 -79 -220 -79q-31 0 -66 5l-16 -62l-59 15l16 62q-81 30 -122 100t-41 166q0 80 30.5 145.5t90.5 104t145 38.5q22 0 43 -3l14 53l58 -15l-13 -51q76 -28 118 -95.5t42 -168.5q0 -20 -4 -58h-241z
M221 408.5q-21 -25.5 -25 -90.5h68l31 116h-8q-45 0 -66 -25.5zM369 377q-5 21 -18 35l-24 -94h48v7q-1 31 -6 52zM237 216h-40q4 -43 23 -65z" />
    <glyph glyph-name="uni0248" unicode="&#x248;" horiz-adv-x="351" 
d="M351 268h-67v-157q0 -91 -35 -150.5t-88.5 -92.5t-125.5 -57l-55 145q43 16 64 38.5t27.5 51t6.5 72.5v150h-67v150h67v278h206v-278h67v-150z" />
    <glyph glyph-name="uni0249" unicode="&#x249;" horiz-adv-x="342" 
d="M342 194h-69v-117q0 -130 -64 -198.5t-178 -105.5l-68 144q39 18 62 35t36.5 44t13.5 69v129h-73v135h73v205h198v-205h69v-135zM253.5 798.5q31.5 -30.5 31.5 -75.5t-31.5 -75.5t-79.5 -30.5t-79.5 30.5t-31.5 75.5t31.5 75.5t79.5 30.5t79.5 -30.5z" />
    <glyph glyph-name="uni024A" unicode="&#x24a;" horiz-adv-x="675" 
d="M814 -182q-62 -45 -157 -45q-107 0 -169 54t-62 157v42q-51 -46 -131 -46q-84 0 -146 43.5t-95.5 124.5t-33.5 191q0 116 35.5 201t98 130.5t143.5 45.5q84 0 146 -57l5 37h184v-725q0 -26 13 -39.5t37 -13.5q19 0 32.5 4.5t35.5 15.5zM426 150v388q-34 32 -83 32
q-56 0 -82.5 -53t-26.5 -178q0 -120 26.5 -169t82.5 -49q47 0 83 29z" />
    <glyph glyph-name="uni024B" unicode="&#x24b;" horiz-adv-x="601" 
d="M639 -209q-18 -8 -47.5 -13t-62.5 -5q-81 0 -124.5 45t-43.5 129v93q-53 -60 -136 -60q-101 0 -152 77t-51 213q0 83 27.5 147.5t79 100.5t121.5 36q34 0 66.5 -14t60.5 -43l9 37h173v-579q0 -27 24 -27q11 0 21 4zM361 169v214q-15 15 -28 22.5t-30 7.5q-36 0 -57 -34.5
t-21 -110.5q0 -61 9 -93t23.5 -42.5t36.5 -10.5q40 0 67 47z" />
    <glyph glyph-name="uni024C" unicode="&#x24c;" horiz-adv-x="640" 
d="M303 248h-38v-248h-206v248h-49v138h49v310h255q151 0 225 -53.5t74 -167.5q0 -65 -29 -108t-94 -81l170 -286h-228zM265 555v-169h54q42 0 63 22t21 67q0 80 -94 80h-44z" />
    <glyph glyph-name="uni024D" unicode="&#x24d;" horiz-adv-x="438" 
d="M448 542l-31 -191q-27 8 -49 8q-43 0 -64.5 -27.5t-34.5 -82.5h71v-135h-72v-114h-198v114h-70v135h70v285h173l16 -100q17 53 54 85t81 32q25 0 54 -9z" />
    <glyph glyph-name="uni024E" unicode="&#x24e;" horiz-adv-x="621" 
d="M598 621h38v-106h-92l-130 -258v-257h-206v256l-131 259h-92v106h39l-38 75h215l28 -75h171l28 75h208zM314 392l46 123h-92z" />
    <glyph glyph-name="uni024F" unicode="&#x24f;" horiz-adv-x="564" 
d="M522 399h40v-105h-72l-90 -293q-34 -111 -116 -168t-216 -61l-21 135q77 8 114.5 28t58.5 65h-68l-84 294h-68v105h38l-38 135h210l22 -135h101l27 135h204zM277 121l35 173h-63z" />
    <glyph glyph-name="uni0250" unicode="&#x250;" horiz-adv-x="551" 
d="M378.5 127.5q37.5 7.5 76.5 20.5l43 -126q-49 -20 -106.5 -31t-104.5 -11q-126 0 -183 48.5t-57 148.5v184q0 28 -7 41.5t-25 20.5l40 127q54 -4 88 -20.5t56 -53.5q52 78 161 78q79 0 127.5 -47.5t48.5 -122.5q0 -89 -66 -136t-192 -47h-38v-13q0 -40 16 -54t61 -14
q24 0 61.5 7.5zM265.5 406q-15.5 -9 -25.5 -23v-79h21q42 0 62 15t20 46q0 23 -12 36.5t-32 13.5q-18 0 -33.5 -9z" />
    <glyph glyph-name="uni0251" unicode="&#x251;" horiz-adv-x="596" 
d="M559 150.5q9 -17.5 32 -29.5l-56 -141q-59 8 -96 27.5t-58 53.5q-30 -37 -70 -59t-88 -22q-101 0 -153.5 77.5t-52.5 212.5q0 83 27.5 147.5t78.5 100.5t120 36q77 0 125 -57l9 37h173v-332q0 -34 9 -51.5zM352 169v213q-14 16 -28.5 23.5t-32.5 7.5q-71 0 -71 -145
q0 -87 17 -116.5t47 -29.5q41 0 68 47z" />
    <glyph glyph-name="uni0252" unicode="&#x252;" horiz-adv-x="596" 
d="M526.5 476.5q52.5 -77.5 52.5 -212.5q0 -83 -27.5 -147.5t-78.5 -100.5t-120 -36q-77 0 -125 57l-9 -37h-173v332q0 34 -9 51.5t-32 29.5l56 141q59 -8 96 -27.5t58 -53.5q30 37 70 59t88 22q101 0 153.5 -77.5zM376 266q0 87 -17 116.5t-47 29.5q-41 0 -68 -47v-213
q14 -16 28.5 -23.5t32.5 -7.5q71 0 71 145z" />
    <glyph glyph-name="uni0253" unicode="&#x253;" horiz-adv-x="599" 
d="M526.5 479q50.5 -75 50.5 -213q0 -82 -25.5 -147t-74 -102t-114.5 -37q-43 0 -78.5 17.5t-59.5 48.5l-7 -46h-176v565q0 87 58 143t168 56q42 0 85 -10.5t72 -26.5l-52 -123q-39 18 -78 18q-29 0 -42 -15t-13 -52v-68q22 30 59.5 48.5t75.5 18.5q101 0 151.5 -75z
M356 154q18 33 18 112q0 86 -16.5 116t-46.5 30q-43 0 -71 -50v-202q23 -39 65 -39q33 0 51 33z" />
    <glyph glyph-name="uni0254" unicode="&#x254;" horiz-adv-x="471" 
d="M74.5 -4.5q-45.5 15.5 -84.5 45.5l88 113q24 -17 44 -24.5t45 -7.5q43 0 63.5 34.5t20.5 109.5q0 78 -19 112t-59 34q-49 0 -96 -32l-82 108q77 66 193 66q123 0 194.5 -74.5t71.5 -213.5q0 -87 -33 -151.5t-95 -99.5t-147 -35q-59 0 -104.5 15.5z" />
    <glyph glyph-name="uni0255" unicode="&#x255;" horiz-adv-x="509" 
d="M476 233.5q38 -33.5 38 -93.5q0 -80 -56.5 -120t-142.5 -40q-41 0 -70 6l-34 -76l-89 34l34 72q-67 32 -103 96.5t-36 150.5q0 84 34.5 150t97.5 103.5t146 37.5q114 0 194 -71l-82 -115q-46 37 -94 37q-46 0 -68 -32t-22 -110q0 -50 11 -87q24 49 60 70t87 21
q57 0 95 -33.5zM386 147q0 24 -25 24q-34 0 -59 -51q20 -5 38 -5q46 0 46 32z" />
    <glyph glyph-name="uni0256" unicode="&#x256;" horiz-adv-x="601" 
d="M743 -182q-62 -45 -158 -45q-103 0 -163.5 54t-60.5 157v54q-54 -58 -136 -58q-101 0 -152 77t-51 213q0 83 27.5 147.5t79 100.5t121.5 36q30 0 59.5 -11t51.5 -31v252l198 -20v-778q0 -26 13.5 -39.5t38.5 -13.5q19 0 33 4t35 14zM361 169v214q-15 15 -28 22.5t-30 7.5
q-36 0 -57 -34.5t-21 -110.5q0 -61 9 -93t23.5 -42.5t36.5 -10.5q40 0 67 47z" />
    <glyph glyph-name="uni0257" unicode="&#x257;" horiz-adv-x="601" 
d="M719 727l-52 -122q-36 17 -64 17q-23 0 -33.5 -13t-10.5 -41v-568h-176l-7 55q-57 -75 -151 -75q-101 0 -152 77t-51 213q0 83 27.5 147.5t79 100.5t121.5 36q30 0 59.5 -11t51.5 -31v53q0 87 54 143t157 56q82 0 147 -37zM361 169v214q-15 15 -28 22.5t-30 7.5
q-36 0 -57 -34.5t-21 -110.5q0 -61 9 -93t23.5 -42.5t36.5 -10.5q40 0 67 47z" />
    <glyph glyph-name="uni0258" unicode="&#x258;" horiz-adv-x="557" 
d="M473.5 475.5q66.5 -78.5 66.5 -209.5q0 -129 -73 -207.5t-215 -78.5q-123 0 -220 79l80 108q35 -24 64 -35.5t57 -11.5q48 0 73.5 18.5t33.5 72.5h-324q-4 38 -4 63q0 88 32.5 151t92 96t137.5 33q133 0 199.5 -78.5zM207 323h134q-4 63 -19 84.5t-49 21.5q-37 0 -51 -26
t-15 -73v-7z" />
    <glyph glyph-name="uni0259" unicode="&#x259;" horiz-adv-x="557" 
d="M472 476q68 -78 68 -208q0 -80 -30.5 -145.5t-90.5 -104t-145 -38.5q-79 0 -138 33t-91.5 96t-32.5 151q0 25 4 63h338q-4 49 -27 72.5t-66 23.5q-36 0 -67.5 -9.5t-66.5 -31.5l-80 105q44 34 97.5 52.5t124.5 18.5q135 0 203 -78zM329.5 137.5q19.5 22.5 24.5 73.5h-157
v-7q2 -41 21 -65t56 -24q36 0 55.5 22.5z" />
    <glyph glyph-name="uni025A" unicode="&#x25a;" horiz-adv-x="857" 
d="M867 340q-55 -37 -130 -37q-71 0 -112.5 30.5t-54.5 84.5l-1 4l-48 -29q19 -54 19 -125q0 -80 -30.5 -145.5t-90.5 -104t-145 -38.5q-79 0 -138 33t-91.5 96t-32.5 151q0 25 4 63h338q-4 49 -27 72.5t-66 23.5q-36 0 -67.5 -9.5t-66.5 -31.5l-80 105q44 34 97.5 52.5
t124.5 18.5q124 0 196 -70l94 50h158v-53q0 -23 12 -34.5t32 -11.5q21 0 37 5.5t19 6.5zM329.5 137.5q19.5 22.5 24.5 73.5h-157v-7q2 -41 21 -65t56 -24q36 0 55.5 22.5z" />
    <glyph glyph-name="uni025B" unicode="&#x25b;" horiz-adv-x="488" 
d="M479 487l-77 -98q-30 17 -55.5 25t-54.5 8q-25 0 -40.5 -11t-15.5 -31q0 -22 14 -35t43 -13h70l-18 -120h-60q-34 0 -49.5 -12.5t-15.5 -34.5q0 -49 73 -49q27 0 55 8.5t65 28.5l80 -108q-89 -65 -233 -65q-108 0 -175.5 43.5t-67.5 123.5q0 119 148 137
q-128 26 -128 122q0 68 62.5 108t164.5 40q127 0 215 -67z" />
    <glyph glyph-name="uni025C" unicode="&#x25c;" horiz-adv-x="496" 
d="M347.5 535.5q49.5 -18.5 78 -52.5t28.5 -79q0 -91 -123 -120q74 -10 111 -42t37 -90q0 -84 -69.5 -128t-189.5 -44q-136 0 -225 63l91 107q35 -20 63.5 -27t63.5 -7q63 0 63 49q0 47 -63 47h-91l11 120h67q55 0 55 48q0 20 -13 31t-37 11q-29 0 -54 -8t-51 -24l-90 101
q93 63 225 63q63 0 112.5 -18.5z" />
    <glyph glyph-name="uni025D" unicode="&#x25d;" horiz-adv-x="787" 
d="M797 340q-55 -37 -130 -37q-71 0 -112.5 30.5t-54.5 84.5l-1 4l-45 -27q-6 -83 -123 -111q74 -10 111 -42t37 -90q0 -84 -69.5 -128t-189.5 -44q-136 0 -225 63l91 107q35 -20 63.5 -27t63.5 -7q63 0 63 49q0 47 -63 47h-91l11 120h67q55 0 55 48q0 20 -13 31t-37 11
q-29 0 -54 -8t-51 -24l-90 101q93 63 225 63q57 0 104 -15.5t76 -43.5l74 39h158v-53q0 -23 12 -34.5t32 -11.5q21 0 37 5.5t19 6.5z" />
    <glyph glyph-name="uni025E" unicode="&#x25e;" horiz-adv-x="576" 
d="M90 54.5q-73 74.5 -73 213.5q0 87 33.5 151.5t96.5 99.5t151 35q107 0 171.5 -40.5t64.5 -109.5q0 -91 -123 -120q74 -10 111 -42t37 -90q0 -84 -70 -128t-191 -44q-135 0 -208 74.5zM361 167q0 24 -14.5 34.5t-48.5 10.5h-31l11 120h7q55 0 55 46q0 21 -12.5 32.5
t-35.5 11.5q-43 0 -61.5 -35.5t-18.5 -118.5q0 -59 7 -91t25.5 -46.5t54.5 -14.5q62 0 62 51z" />
    <glyph glyph-name="uni025F" unicode="&#x25f;" horiz-adv-x="342" 
d="M342 194h-69v-117q0 -130 -64 -198.5t-178 -105.5l-68 144q39 18 62 35t36.5 44t13.5 69v129h-73v135h73v205h198v-205h69v-135z" />
    <glyph glyph-name="uni0260" unicode="&#x260;" horiz-adv-x="601" 
d="M719 727l-52 -122q-36 17 -64 17q-23 0 -33.5 -13t-10.5 -41v-544q0 -129 -71.5 -190t-205.5 -61q-126 0 -210 53l58 119q64 -32 134 -32q50 0 73.5 20.5t23.5 62.5v62q-54 -58 -136 -58q-101 0 -152 75.5t-51 204.5q0 78 27.5 140.5t79.5 98t121 35.5q61 0 111 -43v54
q0 87 54 143t157 56q82 0 147 -37zM361 189v194q-15 15 -28 22.5t-30 7.5q-35 0 -56.5 -32.5t-21.5 -102.5q0 -81 18 -108.5t51 -27.5q40 0 67 47z" />
    <glyph glyph-name="uni0261" unicode="&#x261;" horiz-adv-x="601" 
d="M559 534v-510q0 -129 -71.5 -190t-205.5 -61q-126 0 -210 53l58 119q64 -32 134 -32q50 0 73.5 20.5t23.5 62.5v62q-54 -58 -136 -58q-101 0 -152 75.5t-51 204.5q0 78 27.5 140.5t79.5 98t121 35.5q71 0 127 -57l9 37h173zM361 189v194q-15 15 -28 22.5t-30 7.5
q-35 0 -56.5 -32.5t-21.5 -102.5q0 -81 18 -108.5t51 -27.5q40 0 67 47z" />
    <glyph glyph-name="uni0262" unicode="&#x262;" 
d="M433.5 533.5q53.5 -20.5 96.5 -57.5l-91 -98q-30 21 -57.5 31t-59.5 10q-102 0 -102 -150q0 -86 19.5 -118.5t60.5 -32.5q30 0 55 9v69h-52l-18 124h253v-268q-50 -31 -111.5 -50.5t-129.5 -19.5q-143 0 -211.5 71t-68.5 217q0 86 37 150.5t103.5 99t150.5 34.5
q72 0 125.5 -20.5z" />
    <glyph glyph-name="uni0263" unicode="&#x263;" horiz-adv-x="534" 
d="M363 93q39 -59 56 -100t17 -85q0 -63 -40 -99t-126 -36q-85 0 -125.5 36t-40.5 99q0 41 16 81.5t57 103.5l-192 441h210l75 -316l75 316h204zM290.5 -52q-6.5 16 -20.5 44q-27 -51 -27 -76q0 -13 7 -20.5t20 -7.5q27 0 27 29q0 15 -6.5 31z" />
    <glyph glyph-name="uni0264" unicode="&#x264;" horiz-adv-x="582" 
d="M542 546q27 -8 55 -24l-54 -114q-9 4 -19 6.5t-23 2.5q-16 0 -27.5 -8t-21.5 -27l-69 -131q31 -46 45 -78.5t14 -69.5q0 -55 -37.5 -89t-113.5 -34q-73 0 -112 34.5t-39 88.5q0 33 13.5 65.5t44.5 83.5l-68 130q-10 20 -21 27.5t-28 7.5q-13 0 -23 -2.5t-19 -6.5l-54 114
q28 16 55 24t62 8q65 0 101 -32.5t66 -107.5l22 -55l22 55q30 75 66 107.5t101 32.5q35 0 62 -8zM308 134.5q-5 10.5 -17 32.5q-3 -6 -9.5 -17.5t-9.5 -20.5t-3 -17q0 -22 22 -22t22 22q0 12 -5 22.5z" />
    <glyph glyph-name="uni0265" unicode="&#x265;" horiz-adv-x="572" 
d="M530 534v-761l-198 20v255q-34 -36 -70 -52t-81 -16q-67 0 -105.5 42t-38.5 118v394h198v-358q0 -30 7.5 -41t22.5 -11q33 0 67 53v357h198z" />
    <glyph glyph-name="uni0266" unicode="&#x266;" horiz-adv-x="572" 
d="M496.5 512q38.5 -42 38.5 -118v-394h-198v358q0 30 -7.5 41t-22.5 11q-33 0 -67 -53v-357h-198v565q0 87 58 143t168 56q42 0 85 -10.5t72 -26.5l-52 -123q-39 18 -78 18q-29 0 -42 -15t-13 -52v-69q34 36 70 52t81 16q67 0 105.5 -42z" />
    <glyph glyph-name="uni0267" unicode="&#x267;" horiz-adv-x="572" 
d="M496.5 512q38.5 -42 38.5 -118v-410q0 -103 -60.5 -157t-163.5 -54q-96 0 -158 45l64 113q21 -10 35 -14t33 -4q25 0 38.5 13.5t13.5 39.5v392q0 30 -7.5 41t-22.5 11q-33 0 -67 -53v-357h-198v565q0 87 58 143t168 56q42 0 85 -10.5t72 -26.5l-52 -123q-39 18 -78 18
q-29 0 -42 -15t-13 -52v-69q34 36 70 52t81 16q67 0 105.5 -42z" />
    <glyph glyph-name="uni0268" unicode="&#x268;" horiz-adv-x="340" 
d="M90.5 647.5q-31.5 30.5 -31.5 75.5t31.5 75.5t79.5 30.5t79.5 -30.5t31.5 -75.5t-31.5 -75.5t-79.5 -30.5t-79.5 30.5zM340 349v-135h-71v-214h-198v214h-71v135h71v185h198v-185h71z" />
    <glyph glyph-name="uni0269" unicode="&#x269;" horiz-adv-x="300" 
d="M80.5 25.5q-43.5 45.5 -43.5 128.5v380h198v-372q0 -27 24 -27q9 0 21 3l35 -140q-47 -18 -110 -18q-81 0 -124.5 45.5z" />
    <glyph glyph-name="uni026A" unicode="&#x26a;" horiz-adv-x="340" 
d="M330 396h-61v-256h61v-140h-320v140h61v256h-61v138h320v-138z" />
    <glyph glyph-name="uni026B" unicode="&#x26b;" horiz-adv-x="500" 
d="M441.5 305q-38.5 -39 -94.5 -43v-100q0 -27 24 -27q11 0 21 4l35 -141q-47 -18 -110 -18q-81 0 -124.5 45.5t-43.5 128.5v167q-18 -2 -29 -11.5t-19 -21.5t-11 -16l-100 50q31 62 67.5 100.5t91.5 43.5v278l198 20v-357q19 1 30 10t20.5 21t13.5 17l99 -48
q-30 -63 -68.5 -102z" />
    <glyph glyph-name="uni026C" unicode="&#x26c;" horiz-adv-x="465" 
d="M409 139l35 -141q-47 -18 -110 -18q-81 0 -124.5 45.5t-43.5 128.5v79q-89 2 -132.5 37.5t-43.5 97.5q0 59 37 91.5t99 32.5q22 0 40 -5v257l198 20v-427q32 3 68 10l13 -96q-40 -11 -81 -14v-75q0 -27 24 -27q11 0 21 4zM166 333v61q-13 3 -25 3q-13 0 -20.5 -7.5
t-7.5 -19.5q0 -37 53 -37z" />
    <glyph glyph-name="uni026D" unicode="&#x26d;" horiz-adv-x="282" 
d="M424 -182q-62 -45 -158 -45q-103 0 -163.5 54t-60.5 157v760l198 20v-798q0 -26 13.5 -39.5t38.5 -13.5q19 0 33 4t35 14z" />
    <glyph glyph-name="uni026E" unicode="&#x26e;" horiz-adv-x="736" 
d="M673 154.5q53 -50.5 53 -143.5q0 -67 -34 -121t-98.5 -85.5t-153.5 -31.5q-128 0 -211 70l88 117q27 -20 53 -29.5t56 -9.5q43 0 70.5 26t27.5 78q0 45 -27.5 64.5t-79.5 19.5h-101v107l150 174h-231v-228q0 -27 24 -27q11 0 21 4l35 -141q-47 -18 -110 -18
q-81 0 -124.5 45.5t-43.5 128.5v590l198 20v-230h454v-132l-166 -187q97 -10 150 -60.5z" />
    <glyph glyph-name="uni026F" unicode="&#x26f;" horiz-adv-x="837" 
d="M795 534v-534h-173l-14 54q-32 -39 -69.5 -56.5t-85.5 -17.5q-42 0 -73 20t-47 57q-34 -40 -72 -58.5t-88 -18.5q-61 0 -98.5 42.5t-37.5 117.5v394h198v-358q0 -29 7 -40.5t20 -11.5q15 0 29 13.5t26 39.5v357h198v-358q0 -29 7 -40.5t20 -11.5q15 0 29 13.5t26 39.5
v357h198z" />
    <glyph glyph-name="uni0270" unicode="&#x270;" horiz-adv-x="837" 
d="M795 534v-761l-198 20v248q-31 -31 -65.5 -46t-78.5 -15q-42 0 -73 20t-47 57q-34 -40 -72 -58.5t-88 -18.5q-61 0 -98.5 42.5t-37.5 117.5v394h198v-358q0 -29 7 -40.5t20 -11.5q15 0 29 13.5t26 39.5v357h198v-358q0 -29 7 -40.5t20 -11.5q15 0 29 13.5t26 39.5v357
h198z" />
    <glyph glyph-name="uni0271" unicode="&#x271;" horiz-adv-x="837" 
d="M762.5 511.5q37.5 -42.5 37.5 -117.5v-410q0 -103 -61 -157t-165 -54q-94 0 -156 45l64 115q22 -11 35.5 -15.5t32.5 -4.5q25 0 38.5 13.5t13.5 39.5v392q0 29 -7 40.5t-20 11.5q-15 0 -29 -13.5t-26 -39.5v-357h-198v358q0 29 -7 40.5t-20 11.5q-15 0 -29 -13.5
t-26 -39.5v-357h-198v534h173l14 -54q32 39 69.5 56.5t85.5 17.5q42 0 73 -20t47 -57q34 40 72 58.5t88 18.5q61 0 98.5 -42.5z" />
    <glyph glyph-name="uni0272" unicode="&#x272;" horiz-adv-x="572" 
d="M496.5 512q38.5 -42 38.5 -118v-394h-198v358q0 30 -7.5 41t-22.5 11q-33 0 -67 -53v-373q0 -103 -60.5 -157t-163.5 -54q-96 0 -158 45l64 113q21 -10 35 -14t33 -4q25 0 38.5 13.5t13.5 39.5v568h173l14 -55q37 39 75.5 57t86.5 18q67 0 105.5 -42z" />
    <glyph glyph-name="uni0273" unicode="&#x273;" horiz-adv-x="572" 
d="M719 -182q-62 -45 -158 -45q-103 0 -163.5 54t-60.5 157v374q0 30 -7.5 41t-22.5 11q-33 0 -67 -53v-357h-198v534h173l14 -55q37 39 75.5 57t86.5 18q67 0 105.5 -42t38.5 -118v-428q0 -26 13.5 -39.5t38.5 -13.5q19 0 33 4t35 14z" />
    <glyph glyph-name="uni0274" unicode="&#x274;" horiz-adv-x="583" 
d="M541 0h-233l-124 369q15 -71 23 -127.5t8 -126.5v-115h-173v534h230l127 -368l-6 31q-13 69 -19 116t-6 114v107h173v-534z" />
    <glyph glyph-name="uni0275" unicode="&#x275;" horiz-adv-x="584" 
d="M493.5 479q73.5 -75 73.5 -213q0 -86 -33.5 -151t-95.5 -100t-146 -35q-128 0 -201.5 75t-73.5 213q0 86 33.5 151t95.5 100t146 35q128 0 201.5 -75zM240 392.5q-18 -22.5 -23 -71.5h150q-5 50 -23 72t-52 22t-52 -22.5zM345 143.5q18 24.5 23 77.5h-152q4 -54 22 -78
t54 -24q35 0 53 24.5z" />
    <glyph glyph-name="uni0276" unicode="&#x276;" horiz-adv-x="777" 
d="M518 133h237v-133h-355q-51 -20 -108 -20q-128 0 -201.5 75t-73.5 213q0 86 33.5 151t95.5 100t146 35q50 0 110 -20h360l-20 -132h-223q22 -35 31 -68h169v-128h-168q-10 -38 -33 -73zM346 156q16 34 16 112t-16.5 111t-53.5 33q-38 0 -55 -34t-17 -110q0 -79 17 -112.5
t55 -33.5t54 34z" />
    <glyph glyph-name="uni0277" unicode="&#x277;" horiz-adv-x="766" 
d="M652 478q97 -76 97 -234q0 -131 -55.5 -197.5t-149.5 -66.5q-68 0 -107 27.5t-55 91.5q-18 -64 -55 -91.5t-103 -27.5q-98 0 -152.5 66t-54.5 198q0 158 98 234t269 76t268 -76zM546 153q11 31 11 103q0 80 -40.5 123t-132.5 43q-94 0 -134.5 -43t-40.5 -123
q0 -71 12 -102.5t36 -31.5q18 0 26.5 13.5t8.5 54.5v105l182 24v-129q0 -41 9.5 -54.5t28.5 -13.5q23 0 34 31z" />
    <glyph glyph-name="uni0278" unicode="&#x278;" horiz-adv-x="684" 
d="M605.5 82.5q-64.5 -64.5 -165.5 -76.5l-1 -213l-198 -20l1 233q-99 12 -163.5 73.5t-64.5 184.5q0 122 63.5 186.5t163.5 76.5v217l198 20v-236q101 -11 166 -72.5t65 -185.5q0 -123 -64.5 -187.5zM466.5 164q15.5 34 15.5 106q0 73 -16 103.5t-47 36.5v-285
q32 5 47.5 39zM262 125v283q-30 -5 -45 -38.5t-15 -105.5q0 -122 60 -139z" />
    <glyph glyph-name="uni0279" unicode="&#x279;" horiz-adv-x="410" 
d="M368 534v-534h-173l-16 100q-17 -53 -54 -85t-81 -32q-26 0 -54 9l31 191q27 -8 49 -8q44 0 65.5 29t34.5 87v243h198z" />
    <glyph glyph-name="uni027A" unicode="&#x27a;" horiz-adv-x="410" 
d="M368 744v-744h-173l-16 100q-17 -53 -54 -85t-81 -32q-26 0 -54 9l31 191q27 -8 49 -8q44 0 65.5 29t34.5 87v473z" />
    <glyph glyph-name="uni027B" unicode="&#x27b;" horiz-adv-x="410" 
d="M552 -182q-62 -45 -158 -45q-103 0 -163.5 54t-60.5 157v93q-19 -43 -53 -68.5t-73 -25.5q-26 0 -54 9l31 191q27 -8 49 -8q44 0 65.5 29t34.5 87v243h198v-568q0 -26 13.5 -39.5t38.5 -13.5q19 0 33 4t35 14z" />
    <glyph glyph-name="uni027C" unicode="&#x27c;" horiz-adv-x="410" 
d="M420 542l-31 -191q-27 8 -49 8q-44 0 -65.5 -29t-34.5 -87v-450l-198 -20v761h173l16 -100q17 53 54 85t81 32q26 0 54 -9z" />
    <glyph glyph-name="uni027D" unicode="&#x27d;" horiz-adv-x="410" 
d="M424 -182q-62 -45 -158 -45q-103 0 -163.5 54t-60.5 157v550h173l16 -100q17 53 54 85t81 32q26 0 54 -9l-31 -191q-27 8 -49 8q-44 0 -65.5 -29t-34.5 -87v-277q0 -26 13.5 -39.5t38.5 -13.5q19 0 33 4t35 14z" />
    <glyph glyph-name="uni027E" unicode="&#x27e;" horiz-adv-x="407" 
d="M419 509l-64 -113q-21 10 -35 14t-33 4q-25 0 -38.5 -13.5t-13.5 -39.5v-361h-198v343q0 103 60.5 157t163.5 54q96 0 158 -45z" />
    <glyph glyph-name="uni027F" unicode="&#x27f;" horiz-adv-x="407" 
d="M309.5 500q60.5 -54 60.5 -157v-343h-198v361q0 26 -13.5 39.5t-38.5 13.5q-19 0 -33 -4t-35 -14l-64 113q62 45 158 45q103 0 163.5 -54z" />
    <glyph glyph-name="uni0280" unicode="&#x280;" horiz-adv-x="532" 
d="M255 172h-25v-172h-188v534h220q242 0 242 -184q0 -50 -19.5 -88.5t-59.5 -61.5l122 -200h-204zM230 283h25q32 0 46 14.5t14 53.5q0 37 -13.5 50t-44.5 13h-27v-131z" />
    <glyph glyph-name="uni0281" unicode="&#x281;" horiz-adv-x="532" 
d="M484.5 273q19.5 -38 19.5 -86q0 -187 -242 -187h-220v534h188v-172h25l88 172h204l-122 -200q40 -23 59.5 -61zM301.5 133.5q13.5 13.5 13.5 52.5q0 36 -14 50.5t-46 14.5h-25v-131h27q31 0 44.5 13.5z" />
    <glyph glyph-name="uni0282" unicode="&#x282;" horiz-adv-x="493" 
d="M163 -7v-26q0 -53 64 -53q26 0 45 5t41 15l64 -115q-28 -21 -70.5 -33t-92.5 -12q-105 0 -162 53.5t-57 157.5v80l78 87q70 -36 150 -36q58 0 58 33q0 14 -6.5 21.5t-26.5 15t-70 22.5q-155 46 -155 173q0 49 27.5 88t80 62t125.5 23q59 0 113.5 -18.5t91.5 -50.5
l-70 -107q-28 18 -60.5 28.5t-58.5 10.5q-53 0 -53 -24q0 -10 6 -16.5t28.5 -16t72.5 -24.5q80 -25 118.5 -63.5t38.5 -108.5q0 -54 -30.5 -96t-82.5 -65t-116 -23q-53 0 -91 13z" />
    <glyph glyph-name="uni0283" unicode="&#x283;" horiz-adv-x="282" 
d="M400 727l-52 -122q-36 17 -64 17q-23 0 -33.5 -13t-10.5 -41v-584q0 -103 -60.5 -157t-163.5 -54q-96 0 -158 45l64 113q21 -10 35 -14t33 -4q25 0 38.5 13.5t13.5 39.5v599q0 87 54 143t157 56q82 0 147 -37z" />
    <glyph glyph-name="uni0284" unicode="&#x284;" horiz-adv-x="342" 
d="M338 135v-135h-72q-18 -91 -78.5 -143t-156.5 -84l-65 131q45 18 71 40.5t34 55.5h-73v135h77v430q0 87 54 143t157 56q82 0 147 -37l-52 -122q-36 17 -64 17q-23 0 -33.5 -13t-10.5 -41v-433h65z" />
    <glyph glyph-name="uni0285" unicode="&#x285;" horiz-adv-x="512" 
d="M527 25q-62 -45 -158 -45q-103 0 -163.5 54t-60.5 157v167q0 28 -10.5 41t-33.5 13q-28 0 -64 -17l-52 122q65 37 147 37q103 0 157 -56t54 -143v-182q0 -26 13.5 -39.5t38.5 -13.5q19 0 33 4t35 14z" />
    <glyph glyph-name="uni0286" unicode="&#x286;" horiz-adv-x="360" 
d="M316 0q48 -16 95 -41l-33 -76q-29 13 -78 30q-23 -71 -76 -105.5t-140 -34.5q-77 0 -118 32.5t-41 91.5q0 65 43.5 100t118.5 35q22 0 33 -1v534q0 87 54 143t157 56q82 0 147 -37l-52 -122q-36 17 -64 17q-23 0 -33.5 -13t-10.5 -41v-511q0 -21 -2 -57zM105 -115.5
q12 17.5 14 59.5q-10 1 -33 1q-55 0 -55 -42q0 -17 9.5 -26.5t27.5 -9.5q25 0 37 17.5z" />
    <glyph glyph-name="uni0287" unicode="&#x287;" horiz-adv-x="401" 
d="M403 0h-64v-112l-198 -23v135h-120l20 134h100v201q0 35 -11 49.5t-31 14.5q-25 0 -50 -14l-64 123q31 22 75.5 34t84.5 12q99 -1 146.5 -55.5t47.5 -161.5v-203h64v-134z" />
    <glyph glyph-name="uni0288" unicode="&#x288;" horiz-adv-x="401" 
d="M444 -182q-62 -45 -158 -45q-103 0 -163.5 54t-60.5 157v416h-64v134h64v112l198 23v-135h120l-20 -134h-100v-434q0 -26 13.5 -39.5t38.5 -13.5q19 0 33 4t35 14z" />
    <glyph glyph-name="uni0289" unicode="&#x289;" horiz-adv-x="622" 
d="M622 284h-70v-284h-173l-7 58q-55 -78 -158 -78q-75 0 -112 45t-37 125v134h-70v115h70v135h198v-135h91v135h198v-135h70v-115zM354 284h-91v-108q0 -29 8.5 -40.5t24.5 -11.5q14 0 29.5 11t28.5 33v116z" />
    <glyph glyph-name="uni028A" unicode="&#x28a;" horiz-adv-x="583" 
d="M144.5 12q-62.5 32 -95 85.5t-32.5 118.5q0 66 29 110.5t81 75.5h-94v132h229v-121q-43 -56 -43 -171q0 -63 18 -94t55 -31q38 0 55.5 31t17.5 94q0 115 -44 171v121h229v-132h-93q52 -31 80.5 -75.5t28.5 -110.5q0 -65 -32 -119t-94 -85.5t-148 -31.5q-85 0 -147.5 32z
" />
    <glyph glyph-name="uni028B" unicode="&#x28b;" 
d="M101 30.5q-64 50.5 -64 150.5v353h198v-344q0 -38 11 -53t33 -15q63 0 63 114v146q0 27 -24 27q-8 0 -16 -2l-25 134q44 13 95 13q80 0 124 -45t44 -135v-130q0 -134 -77.5 -199t-198.5 -65q-99 0 -163 50.5z" />
    <glyph glyph-name="uni028C" unicode="&#x28c;" horiz-adv-x="526" 
d="M-15 0l159 534h234l163 -534h-215l-67 391l-74 -391h-200z" />
    <glyph glyph-name="uni028D" unicode="&#x28d;" horiz-adv-x="768" 
d="M-5 0l105 534h227l58 -358l55 358h226l107 -534h-200l-32 383l-70 -383h-185l-56 383l-45 -383h-190z" />
    <glyph glyph-name="uni028E" unicode="&#x28e;" horiz-adv-x="534" 
d="M149 533q34 112 116.5 168.5t215.5 60.5l17 -129q-79 -7 -117 -30t-57 -69h73l152 -534h-210l-67 413l-83 -413h-204z" />
    <glyph glyph-name="uni028F" unicode="&#x28f;" horiz-adv-x="522" 
d="M542 534l-182 -345v-189h-198v188l-182 346h211l73 -223l73 223h205z" />
    <glyph glyph-name="uni0290" unicode="&#x290;" horiz-adv-x="472" 
d="M646 -182q-62 -45 -156 -45q-100 0 -158 54t-58 157v16h-269v138l222 252h-202v144h430v-137l-219 -251h226v-180q0 -26 13.5 -39.5t38.5 -13.5q19 0 32.5 4.5t35.5 15.5z" />
    <glyph glyph-name="uni0291" unicode="&#x291;" horiz-adv-x="599" 
d="M575.5 261.5q38.5 -35.5 38.5 -96.5q0 -79 -55 -122.5t-171 -42.5q-6 -30 -6 -99v-33h-105q0 78 6 132h-278v138l222 252h-202v144h430v-127l-229 -261h77q24 81 68 116t106 35q60 0 98.5 -35.5zM486 178q0 10 -6.5 16.5t-18.5 6.5q-38 0 -54 -55h27q52 0 52 32z" />
    <glyph glyph-name="uni0292" unicode="&#x292;" horiz-adv-x="527" 
d="M464.5 154.5q52.5 -50.5 52.5 -143.5q0 -67 -34 -121t-98.5 -85.5t-153.5 -31.5q-161 0 -251 110l102 99q36 -32 67 -46.5t68 -14.5q43 0 70.5 26t27.5 78q0 45 -27.5 64.5t-79.5 19.5h-101v107l150 174h-232v144h455v-132l-166 -187q98 -10 150.5 -60.5z" />
    <glyph glyph-name="uni0293" unicode="&#x293;" horiz-adv-x="527" 
d="M473.5 -121.5q-43.5 -58.5 -128.5 -85.5l27 -56l-89 -34l-33 72q-30 -2 -49 -2q-100 0 -160.5 44t-60.5 124q0 63 37.5 97t95.5 34q53 0 87.5 -26.5t65.5 -90.5l8 -17q41 23 41 92q0 49 -27 69t-80 20h-101v107l153 164h-235v144h455v-132l-166 -177q203 -22 203 -209
q0 -79 -43.5 -137.5zM124.5 -72.5q16.5 -6.5 63.5 -6.5q-15 30 -27 42.5t-28 12.5q-25 0 -25 -25q0 -17 16.5 -23.5z" />
    <glyph glyph-name="uni0294" unicode="&#x294;" horiz-adv-x="500" 
d="M129 357l32 10q63 20 92.5 55.5t29.5 93.5q0 52 -25 79t-67 27q-32 0 -59 -12t-57 -39l-95 97q101 96 244 96q77 0 136 -29.5t92 -85t33 -130.5q0 -81 -33.5 -128.5t-102.5 -78.5l-22 -10v-302h-198v357z" />
    <glyph glyph-name="uni0295" unicode="&#x295;" horiz-adv-x="500" 
d="M173 0v302l-22 10q-69 31 -102.5 78.5t-33.5 129.5q0 74 34.5 129.5t95 85t136.5 29.5q73 0 130.5 -24t108.5 -72l-95 -97q-28 26 -55 38.5t-59 12.5q-42 0 -68 -28t-26 -81q0 -56 29.5 -91t92.5 -55l32 -10v-357h-198z" />
    <glyph glyph-name="uni0296" unicode="&#x296;" horiz-adv-x="512" 
d="M327 764v-322l36 -9q67 -24 99.5 -73.5t32.5 -131.5q0 -76 -33 -132t-92 -86t-136 -30q-143 0 -244 96l95 97q30 -27 57 -39t59 -12q42 0 67 27t25 79q0 61 -28 98t-90 52l-46 9v357z" />
    <glyph glyph-name="uni0297" unicode="&#x297;" horiz-adv-x="484" 
d="M494 483l-79 -110q-46 32 -87 32q-51 0 -75.5 -56.5t-24.5 -188.5q0 -128 23.5 -181t68.5 -53q23 0 42.5 7.5t46.5 25.5l85 -120q-81 -66 -180 -66q-141 0 -216.5 102t-75.5 285q0 121 35 209.5t101 136.5t157 48q106 0 179 -71z" />
    <glyph glyph-name="uni0298" unicode="&#x298;" horiz-adv-x="801" 
d="M600.5 670.5q86.5 -45.5 133.5 -129t47 -192.5q0 -105 -47.5 -189t-134 -132t-198.5 -48q-113 0 -199.5 46t-134 130t-47.5 193q0 105 47.5 188.5t134.5 131t199 47.5q113 0 199.5 -45.5zM214 349q0 -237 187 -237q92 0 139 57.5t47 179.5q0 119 -50.5 177t-135.5 58
q-187 0 -187 -235zM465 407.5q25 -24.5 25 -60.5t-25 -60t-64 -24t-64 24t-25 60t25 60.5t64 24.5t64 -24.5z" />
    <glyph glyph-name="uni0299" unicode="&#x299;" horiz-adv-x="552" 
d="M535 161q0 -80 -66.5 -120.5t-180.5 -40.5h-246v529q139 25 232 25q114 0 176.5 -36.5t62.5 -108.5q0 -45 -29 -74.5t-86 -39.5q137 -17 137 -134zM240 434v-105h30q23 0 36.5 14t13.5 39t-13 39t-38 14q-16 0 -29 -1zM333 181q0 27 -13.5 41.5t-39.5 14.5h-40v-114h40
q53 0 53 58z" />
    <glyph glyph-name="uni029A" unicode="&#x29a;" horiz-adv-x="576" 
d="M87 24q-70 44 -70 128q0 58 37 90t111 42q-123 29 -123 120q0 69 64.5 109.5t171.5 40.5q88 0 151 -35t96.5 -99.5t33.5 -151.5q0 -139 -73 -213.5t-208 -74.5q-121 0 -191 44zM331.5 130.5q18.5 14.5 25.5 46.5t7 91q0 83 -18.5 118.5t-61.5 35.5q-23 0 -35.5 -11.5
t-12.5 -32.5q0 -46 55 -46h7l11 -120h-31q-34 0 -48.5 -10.5t-14.5 -34.5q0 -51 62 -51q36 0 54.5 14.5z" />
    <glyph glyph-name="uni029B" unicode="&#x29b;" 
d="M689 727l-51 -122q-36 17 -64 17q-23 0 -33.5 -13t-10.5 -41v-92l-81 -88q-36 17 -62 24t-62 7q-105 0 -105 -150q0 -86 19.5 -118.5t60.5 -32.5q30 0 55 9v69h-52l-18 124h253v-268q-45 -33 -106 -51.5t-132 -18.5q-145 0 -214 72t-69 216q0 85 36 149.5t97.5 99.5
t134.5 35q41 0 77 -11v42q0 85 44.5 132t136.5 47q83 0 146 -37z" />
    <glyph glyph-name="uni029C" unicode="&#x29c;" horiz-adv-x="582" 
d="M342 0v199h-102v-199h-198v534h198v-193h102v193h198v-534h-198z" />
    <glyph glyph-name="uni029D" unicode="&#x29d;" horiz-adv-x="361" 
d="M378 -117q-29 13 -78 30q-23 -71 -76 -105.5t-140 -34.5q-77 0 -118 32.5t-41 91.5q0 65 43.5 100t118.5 35q22 0 33 -1v503h198v-477q0 -21 -2 -57q48 -16 95 -41zM105 -115.5q12 17.5 14 59.5q-10 1 -33 1q-55 0 -55 -42q0 -17 9.5 -26.5t27.5 -9.5q25 0 37 17.5z
M298.5 798.5q31.5 -30.5 31.5 -75.5t-31.5 -75.5t-79.5 -30.5t-79.5 30.5t-31.5 75.5t31.5 75.5t79.5 30.5t79.5 -30.5z" />
    <glyph glyph-name="uni029E" unicode="&#x29e;" horiz-adv-x="576" 
d="M-7 0l141 234l-149 300h219l128 -292l-143 -242h-196zM336 -207v741h198v-761z" />
    <glyph glyph-name="uni029F" unicode="&#x29f;" horiz-adv-x="459" 
d="M240 534v-386h214l-20 -148h-392v534h198z" />
    <glyph glyph-name="uni02A0" unicode="&#x2a0;" horiz-adv-x="601" 
d="M719 727l-52 -122q-36 17 -64 17q-23 0 -33.5 -13t-10.5 -41v-795l-198 20v247q-53 -60 -136 -60q-101 0 -152 77t-51 213q0 83 27 147.5t76.5 100.5t114.5 36q78 0 121 -52v63q0 87 54 143t157 56q82 0 147 -37zM361 169v214q-15 15 -28 22.5t-30 7.5q-36 0 -57 -34.5
t-21 -110.5q0 -61 9 -93t23.5 -42.5t36.5 -10.5q40 0 67 47z" />
    <glyph glyph-name="uni02A1" unicode="&#x2a1;" horiz-adv-x="500" 
d="M327 302v-76h90v-106h-90v-120h-198v120h-66v106h66v131l32 10q63 20 92.5 55.5t29.5 93.5q0 52 -25 79t-67 27q-32 0 -59 -12t-57 -39l-95 97q101 96 244 96q77 0 136 -29.5t92 -85t33 -130.5q0 -81 -33.5 -128.5t-102.5 -78.5z" />
    <glyph glyph-name="uni02A2" unicode="&#x2a2;" horiz-adv-x="500" 
d="M371 226h66v-106h-66v-120h-198v120h-90v106h90v76l-22 10q-69 31 -102.5 78.5t-33.5 129.5q0 74 34.5 129.5t95 85t136.5 29.5q73 0 130.5 -24t108.5 -72l-95 -97q-28 26 -55 38.5t-59 12.5q-42 0 -68 -28t-26 -81q0 -56 29.5 -91t92.5 -55l32 -10v-131z" />
    <glyph glyph-name="uni02A3" unicode="&#x2a3;" horiz-adv-x="1022" 
d="M1012 146l-17 -146h-612l-7 55q-57 -75 -151 -75q-101 0 -152 77t-51 213q0 82 28 146.5t78.5 101t116.5 36.5q69 0 116 -42v252l198 -20v-210h446v-137l-229 -251h236zM361 169v214q-14 15 -28 22.5t-31 7.5q-35 0 -56 -34.5t-21 -110.5q0 -88 17.5 -117t49.5 -29
q42 0 69 47zM559 390v-253l228 253h-228z" />
    <glyph glyph-name="uni02A4" unicode="&#x2a4;" horiz-adv-x="1060" 
d="M997.5 154.5q52.5 -50.5 52.5 -143.5q0 -67 -34 -121t-98.5 -85.5t-153.5 -31.5q-161 0 -251 110l102 99q36 -32 67 -46.5t68 -14.5q43 0 70.5 26t27.5 78q0 45 -27.5 64.5t-79.5 19.5h-101v107l150 174h-231v-390h-176l-7 55q-57 -75 -151 -75q-101 0 -152 77t-51 213
q0 82 28 146.5t78.5 101t116.5 36.5q69 0 116 -42v252l198 -20v-210h454v-132l-166 -187q98 -10 150.5 -60.5zM361 169v214q-14 15 -28 22.5t-31 7.5q-35 0 -56 -34.5t-21 -110.5q0 -88 17.5 -117t49.5 -29q42 0 69 47z" />
    <glyph glyph-name="uni02A5" unicode="&#x2a5;" horiz-adv-x="1149" 
d="M1125.5 261.5q38.5 -35.5 38.5 -96.5q0 -79 -55 -122.5t-171 -42.5q-6 -30 -6 -99v-33h-105q0 78 6 132h-450l-7 55q-57 -75 -151 -75q-101 0 -152 77t-51 213q0 82 28 146.5t78.5 101t116.5 36.5q69 0 116 -42v252l198 -20v-210h446v-127l-239 -261h87q24 81 68 116
t106 35q60 0 98.5 -35.5zM361 169v214q-14 15 -28 22.5t-31 7.5q-35 0 -56 -34.5t-21 -110.5q0 -88 17.5 -117t49.5 -29q42 0 69 47zM559 390v-248l228 248h-228zM1036 178q0 10 -6.5 16.5t-18.5 6.5q-38 0 -54 -55h27q52 0 52 32z" />
    <glyph glyph-name="uni02A6" unicode="&#x2a6;" horiz-adv-x="777" 
d="M733 273q34 -39 34 -101q0 -94 -86.5 -143t-254.5 -49q-193 0 -278.5 64.5t-85.5 202.5v153h-64v134h64v112l198 23v-135h90l-20 -134h-70v-151q0 -73 40 -103t126 -30q77 0 107.5 9.5t30.5 31.5q0 18 -14 29.5t-60 26.5q-73 24 -106.5 61t-33.5 104q0 50 24.5 90
t72.5 63t114 23q54 0 102 -17t84 -48l-63 -103q-26 15 -55.5 23t-55.5 8q-45 0 -45 -26q0 -13 18.5 -24.5t78.5 -30.5q74 -24 108 -63z" />
    <glyph glyph-name="uni02A7" unicode="&#x2a7;" horiz-adv-x="602" 
d="M720 727l-52 -122q-36 17 -64 17q-23 0 -33.5 -13t-10.5 -41v-584q0 -103 -60.5 -157t-163.5 -54q-96 0 -158 45l64 113q21 -10 35 -14t33 -4q25 0 38.5 13.5t13.5 39.5v31q-48 -17 -96 -17q-102 1 -153 56t-51 161v203h-64v134h64v112l198 23v-135h102v31q0 87 54 143
t157 56q82 0 147 -37zM275 148.5q15 -13.5 46 -13.5q22 0 41 3v262h-102v-205q0 -33 15 -46.5z" />
    <glyph glyph-name="uni02A8" unicode="&#x2a8;" horiz-adv-x="851" 
d="M818 233.5q38 -33.5 38 -93.5q0 -80 -56.5 -120t-142.5 -40q-118 0 -199 62q-116 -62 -202 -62q-99 1 -146.5 55.5t-47.5 161.5v203h-64v134h64v112l198 23v-135h120l-20 -134h-100v-201q0 -36 12.5 -50t39.5 -14q32 0 69 9q-22 55 -22 119q0 84 34.5 150t97.5 103.5
t146 37.5q114 0 194 -71l-82 -115q-46 37 -94 37q-46 0 -68 -32t-22 -110q0 -26 3 -47q37 29 74 40t81 11q57 0 95 -33.5zM728 147q0 24 -25 24q-36 0 -91 -40q25 -16 70 -16q46 0 46 32z" />
    <glyph glyph-name="uni02A9" unicode="&#x2a9;" horiz-adv-x="887" 
d="M811.5 512q38.5 -42 38.5 -118v-410q0 -103 -60.5 -157t-163.5 -54q-96 0 -158 45l64 113q21 -10 35 -14t33 -4q25 0 38.5 13.5t13.5 39.5v392q0 30 -7.5 41t-22.5 11q-33 0 -67 -53v-357h-198v400h-89v-400h-198v400h-72v134h72v31q0 87 58 143t168 56q42 0 85 -10.5
t72 -26.5l-52 -125q-37 20 -78 20q-29 0 -42 -15t-13 -52v-21h262l14 -55q37 39 75.5 57t86.5 18q67 0 105.5 -42z" />
    <glyph glyph-name="uni02AA" unicode="&#x2aa;" horiz-adv-x="707" 
d="M164.5 10.5q-72.5 30.5 -100 83.5t-27.5 130v520l198 20v-548q0 -55 30.5 -77.5t100.5 -22.5q78 0 113 9.5t35 31.5q0 11 -6 18.5t-25.5 15.5t-62.5 22q-73 24 -106.5 61t-33.5 104q0 50 24.5 90t72.5 63t114 23q54 0 102 -17t84 -48l-63 -103q-26 15 -55.5 23t-55.5 8
q-45 0 -45 -26q0 -13 18.5 -24.5t78.5 -30.5q74 -24 108 -63t34 -101q0 -93 -84.5 -142.5t-246.5 -49.5q-129 0 -201.5 30.5z" />
    <glyph glyph-name="uni02AB" unicode="&#x2ab;" horiz-adv-x="746" 
d="M719 0h-403q-48 -20 -111 -20q-81 0 -124.5 45.5t-43.5 128.5v590l198 20v-602q0 -27 24 -27q11 0 21 4l221 251h-202v144h430v-137l-219 -251h226z" />
    <glyph glyph-name="uni02AC" unicode="&#x2ac;" horiz-adv-x="470" 
d="M440 669l-57 -269h-114l-29 194l-34 -194h-111l-64 269h81l42 -211l35 211h104l34 -212l36 212h77zM440 269l-57 -269h-114l-29 194l-34 -194h-111l-64 269h81l42 -211l35 211h104l34 -212l36 212h77z" />
    <glyph glyph-name="uni02AD" unicode="&#x2ad;" horiz-adv-x="380" 
d="M30 400v174h320v-174h-113v80h-94v-80h-113zM30 0v174h320v-174h-113v80h-94v-80h-113z" />
    <glyph glyph-name="uni02AE" unicode="&#x2ae;" horiz-adv-x="707" 
d="M665 534v-761l-198 20v255q-34 -36 -70 -52t-81 -16q-67 0 -105.5 42t-38.5 118v222q0 26 -13.5 39.5t-38.5 13.5q-19 0 -33 -4t-35 -14l-64 113q62 45 158 45q103 0 163.5 -54t60.5 -157v-168q0 -30 7.5 -41t22.5 -11q33 0 67 53v357h198z" />
    <glyph glyph-name="uni02AF" unicode="&#x2af;" horiz-adv-x="707" 
d="M849 -182q-62 -45 -158 -45q-103 0 -163.5 54t-60.5 157v64q-34 -36 -70 -52t-81 -16q-67 0 -105.5 42t-38.5 118v222q0 26 -13.5 39.5t-38.5 13.5q-19 0 -33 -4t-35 -14l-64 113q62 45 158 45q103 0 163.5 -54t60.5 -157v-168q0 -30 7.5 -41t22.5 -11q33 0 67 53v357
h198v-568q0 -26 13.5 -39.5t38.5 -13.5q19 0 33 4t35 14z" />
    <glyph glyph-name="uni02B0" unicode="&#x2b0;" horiz-adv-x="314" 
d="M261.5 652.5q22.5 -20.5 22.5 -59.5v-193h-87v174q0 20 -7.5 27.5t-21.5 7.5q-12 0 -24 -6t-27 -18v-185h-87v372l87 9v-138q33 30 80 30q42 0 64.5 -20.5z" />
    <glyph glyph-name="uni02B1" unicode="&#x2b1;" horiz-adv-x="314" 
d="M261.5 652.5q22.5 -20.5 22.5 -59.5v-193h-87v174q0 20 -7.5 27.5t-21.5 7.5q-12 0 -24 -6t-27 -18v-185h-87v293q0 38 28.5 62t79.5 24q19 0 41.5 -4.5t39.5 -11.5l-23 -56q-27 8 -51 8q-28 0 -28 -26v-46q33 30 80 30q42 0 64.5 -20.5z" />
    <glyph glyph-name="uni02B2" unicode="&#x2b2;" horiz-adv-x="216" 
d="M171.5 796.5q14.5 -14.5 14.5 -36.5t-14.5 -36.5t-39.5 -14.5q-24 0 -39.5 15t-15.5 36t15.5 36t39.5 15q25 0 39.5 -14.5zM175 427q0 -62 -29 -90t-93 -46l-23 56q32 14 45 29t13 49v240h87v-238z" />
    <glyph glyph-name="uni02B4" unicode="&#x2b4;" horiz-adv-x="252" 
d="M222 666v-266h-65l-17 56q-10 -30 -29.5 -46.5t-47.5 -16.5q-21 0 -33 5l13 78q11 -4 27 -4q26 0 40.5 19t24.5 57v118h87z" />
    <glyph glyph-name="uni02B7" unicode="&#x2b7;" horiz-adv-x="470" 
d="M440 669l-57 -269h-114l-29 194l-34 -194h-111l-64 269h81l42 -211l35 211h104l34 -212l36 212h77z" />
    <glyph glyph-name="uni02B8" unicode="&#x2b8;" horiz-adv-x="365" 
d="M227 394q-20 -52 -56.5 -80t-102.5 -34l-11 57q42 8 61.5 21t32.5 42h-23l-98 269h85l65 -215l71 215h84z" />
    <glyph glyph-name="uni02B9" unicode="&#x2b9;" horiz-adv-x="328" 
d="M40 406l78 290h170l-122 -290h-126z" />
    <glyph glyph-name="uni02BA" unicode="&#x2ba;" horiz-adv-x="548" 
d="M40 406l78 290h170l-122 -290h-126zM260 406l78 290h170l-122 -290h-126z" />
    </font>
</defs>
</svg>
