<?xml version="1.0" standalone="no"?>
<!DOCTYPE svg PUBLIC "-//W3C//DTD SVG 1.1//EN" "http://www.w3.org/Graphics/SVG/1.1/DTD/svg11.dtd" >
<svg xmlns="http://www.w3.org/2000/svg" xmlns:xlink="http://www.w3.org/1999/xlink" version="1.1">
<metadata>
Created by FontForge 20170731 at Wed Mar 22 18:01:19 2017
 By Aleksey,,,
Copyright 2014 Pria Ravichandran (pria.ravichandran@gmail.com)
</metadata>
<defs>
<font id="Catamaran-Black" horiz-adv-x="610" >
  <font-face 
    font-family="Catamaran Black"
    font-weight="900"
    font-stretch="normal"
    units-per-em="1000"
    panose-1="0 0 10 0 0 0 0 0 0 0"
    ascent="770"
    descent="-230"
    x-height="484"
    cap-height="680"
    bbox="-662 -395 2698 1320"
    underline-thickness="50"
    underline-position="-175"
    unicode-range="U+000D-FB02"
  />
<missing-glyph horiz-adv-x="697" 
d="M94 696v-696h508v696h-508zM440 573v-451h-185v451h185z" />
    <glyph glyph-name=".notdef" horiz-adv-x="697" 
d="M94 696v-696h508v696h-508zM440 573v-451h-185v451h185z" />
    <glyph glyph-name="uni0000" horiz-adv-x="0" 
 />
    <glyph glyph-name="uni0000" horiz-adv-x="0" 
 />
    <glyph glyph-name="nonmarkingreturn" unicode="&#xd;" horiz-adv-x="0" 
 />
    <glyph glyph-name="space" unicode=" " horiz-adv-x="220" 
 />
    <glyph glyph-name="exclam" unicode="!" horiz-adv-x="243" 
d="M51 248l142 -40l20 506h-182zM56.5 156.5q-26.5 -26.5 -26.5 -65.5t26.5 -65t65.5 -26q38 0 64.5 26t26.5 65t-26.5 65.5t-64.5 26.5q-39 0 -65.5 -26.5z" />
    <glyph glyph-name="quotedbl" unicode="&#x22;" horiz-adv-x="453" 
d="M56 713.5q-27 -28.5 -27 -63.5q0 -24 12 -45t31 -33q-3 -12 -19.5 -27t-32.5 -24l36 -80q67 25 112 80t45 114q0 47 -26.5 77t-65.5 30q-38 0 -65 -28.5zM266 713.5q-27 -28.5 -27 -63.5q0 -24 12 -45t31 -33q-3 -12 -19.5 -27t-32.5 -24l36 -80q67 25 112 80t45 114
q0 47 -26.5 77t-65.5 30q-38 0 -65 -28.5z" />
    <glyph glyph-name="numbersign" unicode="#" horiz-adv-x="647" 
d="M433 517l-22 -91h-95l22 91h-149l-22 -91h-137l11 -133h94l-18 -78h-87l11 -133h44l-21 -92l147 -5l23 97h95l-21 -92l147 -5l23 97h139l-10 133h-97l18 78h89l-10 133h-47l22 91h-149zM379 293l-18 -78h-95l18 78h95z" />
    <glyph glyph-name="dollar" unicode="$" horiz-adv-x="547" 
d="M432 664q29 -12 51 -27l-54 -123q-53 18 -81.5 24t-62.5 6q-30 0 -48.5 -14t-18.5 -34q0 -15 15.5 -26.5t51.5 -30.5l36 -20q63 -36 105 -66.5t71.5 -72t29.5 -93.5q0 -55 -30.5 -99.5t-86.5 -70.5v-139h-119v110q-11 -1 -35 -1h-13v-106h-118v125q-54 14 -92 36l60 137
q27 -16 74.5 -29.5t83.5 -13.5q40 0 64 16.5t24 36.5q0 13 -17.5 25.5t-56.5 35.5l-31 18q-68 40 -106 66.5t-68 68.5t-30 95q1 56 32.5 101t88.5 69v121l118 10v-106h14q20 0 30 -1v97l119 10v-135z" />
    <glyph glyph-name="percent" unicode="%" horiz-adv-x="974" 
d="M542 706l-298 -706h187l299 706h-188zM66 385.5q46 -48.5 129 -48.5q85 0 136 48.5t51 131.5q0 85 -48 135t-134 50q-83 0 -131.5 -49.5t-48.5 -133.5q0 -85 46 -133.5zM202 578q23 0 32.5 -15.5t9.5 -45.5t-11 -44.5t-35 -14.5q-21 0 -30.5 15t-9.5 46q0 59 44 59z
M638 49.5q46 -48.5 129 -48.5q85 0 136 48.5t51 131.5q0 85 -48 135t-134 50q-83 0 -131.5 -49.5t-48.5 -133.5q0 -85 46 -133.5zM774 242q23 0 32.5 -15.5t9.5 -45.5t-11 -44.5t-35 -14.5q-21 0 -30.5 15t-9.5 46q0 59 44 59z" />
    <glyph glyph-name="ampersand" unicode="&#x26;" horiz-adv-x="689" 
d="M309 696q-65 0 -116.5 -28t-80.5 -74.5t-29 -100.5q0 -56 33 -106q-39 -34 -62.5 -81t-23.5 -94q0 -77 36.5 -130t98.5 -79.5t140 -26.5q95 0 183 69l74 -64l107 132l-76 64q45 88 56 180l-160 64q-9 -65 -33 -128l-129 110q-38 34 -52 52t-14 35q0 22 19 39.5t53 17.5
q64 0 129 -36l49 124q-85 61 -202 61zM309 126q-44 0 -67.5 24.5t-23.5 67.5q0 28 12 52l138 -120q-30 -24 -59 -24z" />
    <glyph glyph-name="quotesingle" unicode="'" horiz-adv-x="243" 
d="M56 713.5q-27 -28.5 -27 -63.5q0 -24 12 -45t31 -33q-3 -12 -19.5 -27t-32.5 -24l36 -80q67 25 112 80t45 114q0 47 -26.5 77t-65.5 30q-38 0 -65 -28.5z" />
    <glyph glyph-name="parenleft" unicode="(" horiz-adv-x="370" 
d="M264 148q-32 97 -32 174q0 74 32 168t76 155l-163 37q-63 -90 -95 -178.5t-32 -182.5q0 -97 33 -188.5t94 -171.5l162 38q-43 52 -75 149z" />
    <glyph glyph-name="parenright" unicode=")" horiz-adv-x="370" 
d="M106 495q32 -97 32 -174q0 -74 -32 -168t-76 -155l163 -37q63 90 95 178.5t32 182.5q0 97 -33 188.5t-94 171.5l-162 -38q43 -52 75 -149z" />
    <glyph glyph-name="asterisk" unicode="*" horiz-adv-x="424" 
d="M285 782h-144v-96l-97 28l-34 -129l94 -17l-72 -91l117 -74l63 93l63 -93l117 74l-72 91l94 17l-34 129l-95 -28v96z" />
    <glyph glyph-name="plus" unicode="+" horiz-adv-x="583" 
d="M543 345h-167v185h-168v-185h-178l11 -143h167v-194l168 -8v202h177z" />
    <glyph glyph-name="comma" unicode="," horiz-adv-x="243" 
d="M56 118.5q-27 -28.5 -27 -63.5q0 -24 12 -45t31 -33q-3 -12 -19.5 -27t-32.5 -24l36 -80q67 25 112 80t45 114q0 47 -26.5 77t-65.5 30q-38 0 -65 -28.5z" />
    <glyph glyph-name="hyphen" unicode="-" horiz-adv-x="352" 
d="M312 345h-282l11 -143h281z" />
    <glyph glyph-name="period" unicode="." horiz-adv-x="243" 
d="M186.5 26q26.5 26 26.5 65t-26.5 65.5t-64.5 26.5q-39 0 -65.5 -26.5t-26.5 -65.5t26.5 -65t65.5 -26q38 0 64.5 26z" />
    <glyph glyph-name="slash" unicode="/" horiz-adv-x="506" 
d="M308 706l-298 -706h187l299 706h-188z" />
    <glyph glyph-name="zero" unicode="0" horiz-adv-x="678" 
d="M61 131q41 -68 113.5 -106.5t163.5 -38.5q92 0 165 38.5t114 107t41 154.5q0 84 -41 151t-114 104.5t-164 37.5t-164 -38t-114 -105.5t-41 -151.5q0 -85 41 -153zM245 390.5q37 40.5 93 40.5q58 0 95 -41.5t37 -106.5t-37 -107t-94 -42t-94 43t-37 110q0 63 37 103.5z
" />
    <glyph glyph-name="one" unicode="1" horiz-adv-x="439" 
d="M379 0v566h-121l-248 -107l71 -146l116 50v-363h182z" />
    <glyph glyph-name="two" unicode="2" horiz-adv-x="497" 
d="M38 527l23 -148q34 19 79 35t85 16q39 0 61 -12t22 -36q0 -21 -17.5 -41.5t-53.5 -51.5q-16 -12 -23 -19l-189 -164v-106h452l-12 143h-182l41 35q75 63 110.5 114.5t35.5 110.5q0 91 -63.5 133.5t-175.5 42.5q-106 0 -193 -52z" />
    <glyph glyph-name="three" unicode="3" horiz-adv-x="536" 
d="M21 505l87 -123q72 49 129 49q37 0 56 -12.5t19 -32.5q0 -25 -26 -40.5t-68 -15.5h-82l15 -143h103q31 0 50 -16t19 -45q0 -26 -22.5 -41.5t-56.5 -15.5q-36 0 -70.5 11.5t-76.5 38.5l-97 -121q56 -36 121.5 -56t121.5 -20q79 0 140 25.5t94.5 70.5t33.5 103
q0 43 -25 86.5t-61 64.5q28 15 51.5 55t23.5 75q0 52 -30.5 92t-86 62.5t-128.5 22.5q-140 0 -234 -74z" />
    <glyph glyph-name="four" unicode="4" horiz-adv-x="611" 
d="M591 197h-100v374h-136l-345 -384l21 -133h278v-117h182v117h91zM309 297v-100h-85z" />
    <glyph glyph-name="five" unicode="5" horiz-adv-x="533" 
d="M247 210q16 13 38 13q28 0 46 -18.5t18 -50.5q0 -35 -24.5 -56.5t-62.5 -21.5q-35 0 -69 12t-82 38l-91 -129q49 -34 116 -55t123 -21q77 0 134.5 29.5t88.5 82.5t31 121q0 60 -24.5 110t-71.5 80t-112 30q-34 0 -62 -16v65h223l18 143h-394l-19 -386h153q7 17 23 30z
" />
    <glyph glyph-name="six" unicode="6" horiz-adv-x="585" 
d="M446 372.5q56 -25.5 87.5 -72t31.5 -105.5q0 -60 -30.5 -107.5t-88 -74t-134.5 -26.5q-85 0 -151.5 34t-103.5 94.5t-37 136.5q0 140 75.5 223t178 117.5t206.5 41.5l18 -167l-36 -5q-74 -10 -124 -24.5t-84 -51.5q32 12 65 12q71 0 127 -25.5zM356 155.5
q21 21.5 21 53.5q0 31 -23.5 51t-58.5 20q-39 0 -84 -32q3 -51 29 -82.5t67 -31.5q28 0 49 21.5z" />
    <glyph glyph-name="seven" unicode="7" horiz-adv-x="518" 
d="M289 -77l209 571l-34 72h-454l17 -143h272l-191 -453z" />
    <glyph glyph-name="eight" unicode="8" horiz-adv-x="572" 
d="M163 620q-56 -23 -88.5 -65.5t-32.5 -97.5q0 -32 17.5 -62.5t43.5 -53.5q-36 -25 -59.5 -64t-23.5 -80q0 -98 72.5 -154t194.5 -56q82 0 142 26.5t91.5 74t31.5 109.5q0 41 -23 79.5t-59 63.5q26 22 43 53.5t17 63.5q0 55 -33 97.5t-88.5 65.5t-121.5 23q-68 0 -124 -23z
M326.5 479q14.5 -15 14.5 -32q0 -20 -14.5 -37t-39.5 -21q-26 4 -41 20.5t-15 36.5q0 17 14.5 32.5t39.5 15.5q27 0 41.5 -15zM343.5 253q21.5 -24 21.5 -48q0 -27 -24.5 -48.5t-54.5 -21.5t-54 21.5t-24 48.5q0 24 21 48t58 30q35 -6 56.5 -30z" />
    <glyph glyph-name="nine" unicode="9" horiz-adv-x="585" 
d="M424.5 545q66.5 -34 103.5 -94.5t37 -136.5q0 -140 -75.5 -223t-178 -117.5t-206.5 -41.5l-18 167l36 5q74 10 124 24.5t84 51.5q-31 -12 -65 -12q-71 0 -127 25.5t-87.5 72t-31.5 105.5q0 60 30.5 107.5t88 74t134.5 26.5q85 0 151.5 -34zM231.5 306q23.5 -20 58.5 -20
q39 0 84 32q-3 51 -29 82.5t-67 31.5q-28 0 -49 -21.5t-21 -53.5q0 -31 23.5 -51z" />
    <glyph glyph-name="colon" unicode=":" horiz-adv-x="243" 
d="M186.5 319q26.5 26 26.5 65t-26.5 65.5t-64.5 26.5q-39 0 -65.5 -26.5t-26.5 -65.5t26.5 -65t65.5 -26q38 0 64.5 26zM186.5 26q26.5 26 26.5 65t-26.5 65.5t-64.5 26.5q-39 0 -65.5 -26.5t-26.5 -65.5t26.5 -65t65.5 -26q38 0 64.5 26z" />
    <glyph glyph-name="semicolon" unicode=";" horiz-adv-x="244" 
d="M57.5 449.5q-26.5 -26.5 -26.5 -65.5t26.5 -65t65.5 -26q38 0 64.5 26t26.5 65t-26.5 65.5t-64.5 26.5q-39 0 -65.5 -26.5zM56 154.5q-27 -28.5 -27 -63.5q0 -24 12 -45t31 -33q-3 -12 -19.5 -27t-32.5 -24l36 -80q67 25 112 80t45 114q0 47 -26.5 77t-65.5 30
q-38 0 -65 -28.5z" />
    <glyph glyph-name="less" unicode="&#x3c;" horiz-adv-x="382" 
d="M362 157l-135 96l135 95l-33 157l-299 -212v-81l299 -214z" />
    <glyph glyph-name="equal" unicode="=" horiz-adv-x="543" 
d="M503 426h-473l11 -133h472zM503 215h-473l11 -133h472z" />
    <glyph glyph-name="greater" unicode="&#x3e;" horiz-adv-x="382" 
d="M352 291l-299 214l-33 -159l135 -96l-135 -95l33 -157l299 212v81z" />
    <glyph glyph-name="question" unicode="?" horiz-adv-x="467" 
d="M10 649l23 -149q94 53 165 53q22 0 36.5 -11.5t14.5 -29.5q0 -27 -42.5 -58t-108.5 -52l7 -159l143 -39l12 115q93 33 135 80t42 110q0 57 -29.5 100.5t-83.5 67.5t-123 24q-100 0 -191 -52zM101.5 156.5q-26.5 -26.5 -26.5 -65.5t26.5 -65t65.5 -26q38 0 64.5 26
t26.5 65t-26.5 65.5t-64.5 26.5q-39 0 -65.5 -26.5z" />
    <glyph glyph-name="at" unicode="@" horiz-adv-x="812" 
d="M548 444h-89q-59 0 -113 -20t-89.5 -68t-35.5 -127t47 -125.5t140 -46.5q41 0 79 19q26 -22 70 -22q56 0 110.5 30.5t89.5 88.5t35 136q0 86 -47 159.5t-129.5 117.5t-182.5 44q-127 0 -220.5 -54.5t-143 -144.5t-49.5 -193q0 -110 54 -189t143.5 -119.5t196.5 -40.5
q60 0 111.5 9.5t108.5 39.5l-44 101q-30 -11 -82 -17t-85 -6q-66 0 -121.5 24.5t-89 73t-33.5 117.5q0 78 33.5 138t92.5 92.5t134 32.5q69 0 114.5 -26.5t67.5 -69.5t22 -94q0 -33 -13.5 -58.5t-31 -40t-27.5 -14.5q-6 0 -5 9l23 183zM427 225q-1 -10 -6.5 -18t-14.5 -8
q-19 0 -29 11.5t-10 26.5q0 39 18.5 63.5t54.5 24.5z" />
    <glyph glyph-name="A" unicode="A" horiz-adv-x="711" 
d="M265 680l-255 -680h181l47 134h235l49 -144l179 18l-254 672h-182zM421 277h-133l65 185z" />
    <glyph glyph-name="B" unicode="B" horiz-adv-x="645" 
d="M543.5 47.5q81.5 47.5 81.5 155.5q0 47 -24.5 88t-66.5 70q29 29 46 58t17 65q0 98 -79.5 147t-200.5 49h-237v-680h257q125 0 206.5 47.5zM383 521q26 -16 26 -46q0 -26 -30.5 -39.5t-75.5 -13.5h-41v115h49q46 0 72 -16zM411 260q26 -19 26 -53q0 -31 -26 -47.5
t-70 -16.5h-79v136h77q46 0 72 -19z" />
    <glyph glyph-name="C" unicode="C" horiz-adv-x="596" 
d="M485.5 678q-54.5 15 -106.5 15q-100 0 -179.5 -45.5t-124.5 -126.5t-45 -184t42.5 -182t122.5 -123.5t188 -44.5q53 0 108.5 13.5t94.5 36.5l-69 136q-62 -37 -129 -37q-43 0 -82.5 24.5t-63.5 70.5t-24 107q0 60 23.5 107t61 73t78.5 26q34 0 62.5 -6t81.5 -24l54 123
q-39 26 -93.5 41z" />
    <glyph glyph-name="D" unicode="D" horiz-adv-x="739" 
d="M553 42q74 42 115 120t41 182q0 98 -37 174t-109.5 119t-174.5 43h-308v-680h304q95 0 169 42zM483.5 483.5q37.5 -53.5 37.5 -139.5q0 -97 -41.5 -149t-107.5 -52h-110v394h117q67 0 104.5 -53.5z" />
    <glyph glyph-name="E" unicode="E" horiz-adv-x="598" 
d="M578 0l-17 143h-299v127h226l-17 143h-209v124h286l-17 143h-451v-680h498z" />
    <glyph glyph-name="F" unicode="F" horiz-adv-x="558" 
d="M471 400h-209v136h276l-17 143h-441v-679h182v257h226z" />
    <glyph glyph-name="G" unicode="G" horiz-adv-x="666" 
d="M462 259v-117q-34 -6 -64 -6q-46 0 -87 21t-67 66.5t-26 114.5q0 66 27.5 112.5t70 70t85.5 23.5q38 0 76 -6.5t88 -23.5l54 123q-38 26 -101.5 41t-118.5 15q-101 0 -185.5 -43t-134 -124t-49.5 -189q0 -109 44.5 -188t126.5 -120.5t192 -41.5q57 0 126.5 13.5
t106.5 36.5v355h-265l-16 -133h117z" />
    <glyph glyph-name="H" unicode="H" horiz-adv-x="762" 
d="M682 0v680h-182v-271h-238v277l-182 -6v-680h182v266h238v-266h182z" />
    <glyph glyph-name="I" unicode="I" horiz-adv-x="342" 
d="M262 0v680h-182v-680h182z" />
    <glyph glyph-name="J" unicode="J" horiz-adv-x="345" 
d="M76.5 81.5q-16.5 -23.5 -66.5 -43.5l74 -144q73 23 113.5 47.5t59 58t18.5 84.5v596h-182v-543q0 -32 -16.5 -55.5z" />
    <glyph glyph-name="K" unicode="K" horiz-adv-x="730" 
d="M489 0l-174 254l-53 -50v-204h-182v680h182v-236l273 251l141 -102l-231 -216l275 -377h-231z" />
    <glyph glyph-name="L" unicode="L" horiz-adv-x="578" 
d="M551 143h-289v537h-182v-680h488z" />
    <glyph glyph-name="M" unicode="M" horiz-adv-x="799" 
d="M445 205l92 124v-329h182v680h-121l-188 -259l-205 259h-125v-680h182v329l110 -134z" />
    <glyph glyph-name="N" unicode="N" horiz-adv-x="773" 
d="M262 0v358l261 -358h170v680h-182v-369l-262 369h-169v-680h182z" />
    <glyph glyph-name="O" unicode="O" horiz-adv-x="763" 
d="M200 648.5q-80 -45.5 -125 -127t-45 -184.5q0 -98 43 -178t122.5 -126.5t185.5 -46.5q103 0 183 45.5t124.5 127t44.5 185.5q0 98 -42.5 178t-122 126t-187.5 46q-101 0 -181 -45.5zM239.5 444.5q22.5 46.5 60 72t83.5 25.5q74 0 118.5 -55.5t44.5 -142.5
q0 -99 -46.5 -152.5t-119.5 -53.5q-76 0 -119.5 56t-43.5 144q0 60 22.5 106.5z" />
    <glyph glyph-name="P" unicode="P" horiz-adv-x="666" 
d="M262 198h96q77 0 142.5 26t105.5 79.5t40 131.5q0 79 -37.5 134.5t-101 83t-141.5 27.5h-286v-680h182v198zM431.5 509q26.5 -28 26.5 -74q0 -40 -27 -67t-69 -27h-100v196h98q45 0 71.5 -28z" />
    <glyph glyph-name="Q" unicode="Q" horiz-adv-x="763" 
d="M713.5 217q-19.5 -59 -56.5 -106l60 -66l-112 -97l-67 70q-70 -32 -157 -32q-106 0 -185.5 46.5t-122.5 126.5t-43 178q0 103 45 184.5t125 127t181 45.5q108 0 187.5 -46t122 -126t42.5 -178q0 -68 -19.5 -127zM419 142l-83 87l120 102l75 -82q15 39 15 95
q0 87 -44.5 142.5t-118.5 55.5q-46 0 -83.5 -25.5t-60 -72t-22.5 -106.5q0 -88 43.5 -144t119.5 -56q23 0 39 4z" />
    <glyph glyph-name="R" unicode="R" horiz-adv-x="714" 
d="M80 0h182v214h121l110 -214h211l-150 268q43 29 67.5 74.5t24.5 105.5q0 116 -79 174t-201 58h-286v-680zM432.5 514.5q25.5 -22.5 25.5 -66.5q0 -40 -27 -65.5t-69 -25.5h-100v180h98q47 0 72.5 -22.5z" />
    <glyph glyph-name="S" unicode="S" horiz-adv-x="547" 
d="M137.5 3q65.5 -16 118.5 -16q82 0 143.5 26t94.5 71t33 103q0 52 -29.5 93.5t-71.5 72t-105 66.5l-36 20q-36 19 -51.5 30.5t-15.5 26.5q0 20 18.5 34t48.5 14q34 0 62.5 -6t81.5 -24l54 123q-39 26 -93.5 41t-106.5 15q-76 0 -133 -25t-88.5 -69.5t-31.5 -100.5
q0 -53 30 -95t68 -68.5t106 -66.5l31 -18q39 -23 56.5 -35.5t17.5 -25.5q0 -20 -24 -36.5t-64 -16.5q-36 0 -83.5 13.5t-74.5 29.5l-60 -137q39 -23 104.5 -39z" />
    <glyph glyph-name="T" unicode="T" horiz-adv-x="619" 
d="M592 680h-582v-143h200v-537h182v537h217z" />
    <glyph glyph-name="U" unicode="U" horiz-adv-x="750" 
d="M70 680v-420q0 -87 38 -148.5t107 -93.5t160 -32t160 32t107 93.5t38 148.5v420h-182v-411q0 -62 -34 -96.5t-89 -34.5t-89 34.5t-34 96.5v411h-182z" />
    <glyph glyph-name="V" unicode="V" horiz-adv-x="711" 
d="M189 690l-179 -18l254 -672h182l255 680h-181l-162 -462z" />
    <glyph glyph-name="W" unicode="W" horiz-adv-x="1000" 
d="M990 680l-195 -680h-182l-112 427l-105 -427h-182l-204 672l179 18l119 -472l102 462h181l116 -462l102 462h181z" />
    <glyph glyph-name="X" unicode="X" horiz-adv-x="715" 
d="M225 0l137 186l110 -186h233l-228 345l227 335h-226l-116 -182l-137 207l-196 -57l218 -310l-237 -338h215z" />
    <glyph glyph-name="Y" unicode="Y" horiz-adv-x="654" 
d="M408 0v266l236 414h-187l-141 -245l-132 259l-174 -48l216 -378v-268h182z" />
    <glyph glyph-name="Z" unicode="Z" horiz-adv-x="584" 
d="M554 143h-334l354 408l-19 129h-516l17 -143h301l-347 -409l20 -128h541z" />
    <glyph glyph-name="bracketleft" unicode="[" horiz-adv-x="478" 
d="M100 -87h368l-17 143h-169v497h170l16 143h-368v-783z" />
    <glyph glyph-name="backslash" unicode="\" horiz-adv-x="506" 
d="M496 0l-298 710h-188l299 -710h187z" />
    <glyph glyph-name="bracketright" unicode="]" horiz-adv-x="478" 
d="M378 696h-368l16 -143h170v-497h-169l-17 -143h368v783z" />
    <glyph glyph-name="asciicircum" unicode="^" horiz-adv-x="475" 
d="M240 253l52 -112h173l-155 283h-144l-156 -283h177z" />
    <glyph glyph-name="underscore" unicode="_" horiz-adv-x="456" 
d="M416 143h-386l11 -143h385z" />
    <glyph glyph-name="grave" unicode="`" horiz-adv-x="266" 
d="M124 588l132 22l-66 177h-180z" />
    <glyph glyph-name="a" unicode="a" horiz-adv-x="509" 
d="M158.5 345.5q34.5 8.5 58.5 8.5q26 0 42.5 -14t20.5 -42h-58q-190 0 -190 -142q0 -77 46 -122t136 -45q61 0 109 61l52 -50h88v300q0 94 -52 148t-149 54q-56 0 -114 -13.5t-100 -32.5l48 -131q28 12 62.5 20.5zM195.5 187q11.5 11 29.5 11h56v-46q-33 -27 -64 -27
q-14 0 -23.5 9.5t-9.5 24.5q0 17 11.5 28z" />
    <glyph glyph-name="b" unicode="b" horiz-adv-x="583" 
d="M494.5 438q68.5 -64 68.5 -189q0 -127 -69.5 -193.5t-187.5 -66.5q-67 0 -123 42l-31 -31h-92v695l182 11v-217q37 13 72 13q112 0 180.5 -64zM352 161q23 32 23 87t-23 84.5t-66 29.5q-21 0 -44 -15v-205q29 -13 52 -13q35 0 58 32z" />
    <glyph glyph-name="c" unicode="c" horiz-adv-x="457" 
d="M285 502q-78 0 -138 -31t-93.5 -90t-33.5 -139q0 -120 72.5 -186.5t192.5 -66.5q104 0 166 49l-51 125q-28 -15 -50 -20.5t-47 -5.5q-39 0 -67 28t-28 77q0 50 28.5 81t66.5 31q26 0 47 -5.5t50 -20.5l51 125q-62 49 -166 49z" />
    <glyph glyph-name="d" unicode="d" horiz-adv-x="583" 
d="M523 706v-706h-92l-27 35q-30 -21 -64.5 -33.5t-70.5 -12.5q-112 0 -180.5 64t-68.5 189q0 127 69.5 193.5t187.5 66.5q34 0 64 -10v203zM231 158.5q23 -29.5 66 -29.5q22 0 44 15v205q-29 13 -52 13q-35 0 -58 -32t-23 -87t23 -84.5z" />
    <glyph glyph-name="e" unicode="e" horiz-adv-x="533" 
d="M513 250q0 70 -26.5 127t-78.5 91t-127 34q-74 0 -133.5 -31.5t-93.5 -90.5t-34 -138q0 -80 37 -137.5t102.5 -86.5t150.5 -29q59 0 115.5 15t86.5 37l-51 123q-64 -33 -133 -33q-45 0 -72.5 17.5t-37.5 48.5h295v53zM231.5 335q19.5 21 44.5 21q31 0 47 -22t16 -47h-126
q-1 27 18.5 48z" />
    <glyph glyph-name="f" unicode="f" horiz-adv-x="451" 
d="M90 322v-322h182v322h151l-17 143h-134v25q0 30 15.5 47.5t41.5 17.5q36 0 70 -19l52 124q-19 16 -59.5 29.5t-74.5 13.5q-60 0 -112 -22t-83.5 -65.5t-31.5 -105.5v-45h-80v-143h80z" />
    <glyph glyph-name="g" unicode="g" horiz-adv-x="579" 
d="M523 484v-500q0 -62 -33.5 -110.5t-94 -76t-139.5 -27.5q-42 0 -111 14.5t-111 41.5l55 128q44 -22 81 -29.5t73 -7.5q43 0 70.5 19.5t27.5 48.5v17q-37 -13 -72 -13q-112 0 -180.5 64t-68.5 189q0 127 69.5 193.5t187.5 66.5q72 0 131 -48l24 30h91zM341 144v205
q-29 13 -52 13q-35 0 -58 -32t-23 -87t23 -84.5t66 -29.5q22 0 44 15z" />
    <glyph glyph-name="h" unicode="h" horiz-adv-x="620" 
d="M530 449.5q44 -51.5 44 -136.5v-313h-182v296q0 58 -52 58q-16 0 -45 -8.5t-53 -19.5v-326h-182v695l182 11v-247q84 42 156 42q88 0 132 -51.5z" />
    <glyph glyph-name="i" unicode="i" horiz-adv-x="282" 
d="M210.5 580q29.5 29 29.5 69q0 41 -29.5 70.5t-70.5 29.5q-40 0 -69 -29.5t-29 -70.5q0 -40 29 -69t69 -29q41 0 70.5 29zM232 0v485h-182v-485h182z" />
    <glyph glyph-name="j" unicode="j" horiz-adv-x="302" 
d="M88.5 580.5q-30.5 29.5 -30.5 68.5q0 41 29 70.5t69 29.5q41 0 70.5 -29.5t29.5 -70.5q0 -40 -29.5 -69t-70.5 -29q-37 0 -67.5 29.5zM248 2q0 -53 -17 -87.5t-57 -60t-112 -48.5l-72 131q34 12 50.5 25.5t21 28.5t4.5 38v456h182v-483z" />
    <glyph glyph-name="k" unicode="k" horiz-adv-x="567" 
d="M242 0v156l33 25l96 -181h196l-164 277l129 97l-109 125l-181 -153v360l-182 -11v-695h182z" />
    <glyph glyph-name="l" unicode="l" horiz-adv-x="302" 
d="M242 0v706l-182 -11v-695h182z" />
    <glyph glyph-name="m" unicode="m" horiz-adv-x="921" 
d="M875 313v-313h-182v296q0 28 -8.5 43t-38.5 15q-13 0 -41 -9t-51 -19v-13v-313h-182v296q0 28 -8.5 43t-38.5 15q-13 0 -41.5 -9t-51.5 -19v-326h-182v485h108l32 -50q106 66 193 66q96 0 138 -60q99 60 183 60q171 0 171 -188z" />
    <glyph glyph-name="n" unicode="n" 
d="M232 326q24 11 53 19.5t45 8.5q28 0 40 -16.5t12 -41.5v-296h182v313q0 85 -44 136.5t-132 51.5q-92 0 -198 -66l-32 50h-108v-485h182v326z" />
    <glyph glyph-name="o" unicode="o" horiz-adv-x="590" 
d="M533.5 104q-36.5 -57 -100 -86t-142.5 -29q-122 0 -196.5 65.5t-74.5 190.5q0 79 36.5 137.5t99 89t139.5 30.5q81 0 143 -30t97 -89t35 -143q0 -79 -36.5 -136zM359 163q23 26 23 77q0 50 -22.5 82t-62.5 32q-42 0 -65.5 -29t-23.5 -80q0 -50 22 -79t63 -29q43 0 66 26z
" />
    <glyph glyph-name="p" unicode="p" horiz-adv-x="579" 
d="M490.5 438q68.5 -64 68.5 -189q0 -127 -69.5 -193.5t-187.5 -66.5q-34 0 -64 10v-208l-182 -10v703h91l28 -28q30 21 64.5 33.5t70.5 12.5q112 0 180.5 -64zM348 161q23 32 23 87t-23 84.5t-66 29.5q-21 0 -44 -15v-205q29 -13 52 -13q35 0 58 32z" />
    <glyph glyph-name="q" unicode="q" horiz-adv-x="579" 
d="M523 484v-692l-182 -11v221q-37 -13 -72 -13q-112 0 -180.5 64t-68.5 189q0 127 69.5 193.5t187.5 66.5q70 0 129 -46l26 28h91zM341 144v205q-29 13 -52 13q-35 0 -58 -32t-23 -87t23 -84.5t66 -29.5q22 0 44 15z" />
    <glyph glyph-name="r" unicode="r" horiz-adv-x="395" 
d="M232 285q31 24 74 39t79 15l-37 146q-38 0 -83 -18t-80 -42l-44 59h-91v-484h182v285z" />
    <glyph glyph-name="s" unicode="s" horiz-adv-x="451" 
d="M122.5 3q63.5 -14 106.5 -14q100 0 151 42.5t51 119.5q0 60 -47.5 97.5t-122.5 63.5q-23 8 -37 16t-14 14q0 10 14 16t36 6q26 0 57.5 -8t61.5 -21l51 115q-37 29 -88.5 40.5t-94.5 11.5q-101 0 -158 -43t-57 -119q0 -60 48.5 -97t124.5 -64q21 -7 34.5 -15.5t13.5 -14.5
q0 -10 -12 -16t-30 -6q-26 0 -67.5 10t-70.5 24l-51 -115q37 -29 100.5 -43z" />
    <glyph glyph-name="t" unicode="t" horiz-adv-x="456" 
d="M267 465v156l-182 -25v-131h-75v-143h75v-140q0 -62 31.5 -105.5t83.5 -65.5t112 -22q34 0 74.5 13.5t59.5 29.5l-52 124q-34 -19 -70 -19q-26 0 -41.5 17.5t-15.5 47.5v120h144l-17 143h-127z" />
    <glyph glyph-name="u" unicode="u" 
d="M378 158q-24 -11 -53 -19.5t-45 -8.5q-28 0 -40 16.5t-12 41.5v296h-182v-313q0 -85 44 -136.5t132 -51.5q92 0 198 66l52 -50h88v485h-182v-326z" />
    <glyph glyph-name="v" unicode="v" horiz-adv-x="569" 
d="M368 0l191 485h-181l-93 -274l-97 292l-168 -48l176 -455h172z" />
    <glyph glyph-name="w" unicode="w" horiz-adv-x="812" 
d="M641 0l161 485h-181l-63 -275l-72 275h-171l-67 -275l-70 293l-168 -48l148 -455h166l75 251l76 -251h166z" />
    <glyph glyph-name="x" unicode="x" horiz-adv-x="557" 
d="M215 0l63 104l65 -104h204l-165 231l165 254h-201l-74 -117l-85 132l-176 -42l157 -217l-158 -241h205z" />
    <glyph glyph-name="y" unicode="y" horiz-adv-x="561" 
d="M140.5 -38.5q-32.5 -17.5 -84.5 -39.5l61 -141q74 16 136 60t85 102l213 542h-181l-93 -274l-99 292l-168 -48l174 -446l-4 -11q-7 -19 -39.5 -36.5z" />
    <glyph glyph-name="z" unicode="z" horiz-adv-x="452" 
d="M417 485h-387l17 -143h160l-199 -248l22 -94h414l-17 143h-197l196 241z" />
    <glyph glyph-name="braceleft" unicode="{" horiz-adv-x="349" 
d="M276.5 334q9.5 13 9.5 38q0 20 -4.5 32.5t-13.5 26.5q-8 12 -12.5 23t-4.5 28q0 35 38 35h37l13 142h-113q-72 0 -107 -33.5t-35 -92.5q0 -17 5 -34.5t14 -40.5q14 -31 14 -47q0 -17 -12.5 -27.5t-29.5 -10.5h-45v-126h45q17 0 29.5 -10.5t12.5 -27.5q0 -9 -4.5 -22.5
t-9.5 -26.5q-10 -25 -14.5 -40.5t-4.5 -32.5q0 -59 35 -92.5t107 -33.5h113l-13 142h-37q-38 0 -38 35q0 17 4 28t13 26q9 14 13.5 25.5t4.5 30.5q0 24 -10 38t-24 24q15 11 24.5 24z" />
    <glyph glyph-name="bar" unicode="|" horiz-adv-x="342" 
d="M80 713v-713l182 -16v713z" />
    <glyph glyph-name="braceright" unicode="}" horiz-adv-x="349" 
d="M72.5 286q-9.5 -13 -9.5 -38q0 -19 4.5 -30.5t13.5 -25.5q8 -14 12.5 -25t4.5 -29q0 -35 -38 -35h-37l-13 -142h113q72 0 107 33.5t35 92.5q0 17 -5 33t-15 44q-13 33 -13 45q0 17 12.5 27.5t29.5 10.5h45v126h-45q-17 0 -29.5 10.5t-12.5 27.5q0 11 6.5 28.5t7.5 20.5
q9 24 14 40t5 33q0 59 -35 92.5t-107 33.5h-113l13 -142h37q38 0 38 -35q0 -17 -4 -28t-13 -26q-9 -14 -13.5 -25.5t-4.5 -30.5q0 -24 10 -38t24 -24q-15 -11 -24.5 -24z" />
    <glyph glyph-name="asciitilde" unicode="~" horiz-adv-x="565" 
d="M173 175q0 17 13.5 33t31.5 16q24 0 44.5 -4.5t46.5 -12.5q32 -9 50 -13t40 -4q72 0 104 56.5t32 153.5h-126q0 -17 -12 -33t-30 -16q-31 0 -86 17q-22 6 -46.5 11.5t-44.5 5.5q-76 0 -118 -58.5t-42 -151.5h143z" />
    <glyph glyph-name="uni00A0" unicode="&#xa0;" horiz-adv-x="220" 
 />
    <glyph glyph-name="exclamdown" unicode="&#xa1;" horiz-adv-x="243" 
d="M186.5 557.5q26.5 26.5 26.5 65.5t-26.5 65t-65.5 26q-38 0 -64.5 -26t-26.5 -65t26.5 -65.5t64.5 -26.5q39 0 65.5 26.5zM192 466l-142 40l-20 -506h182z" />
    <glyph glyph-name="cent" unicode="&#xa2;" horiz-adv-x="457" 
d="M350 142.5q22 5.5 50 20.5l51 -125q-37 -29 -89 -41v-122h-150v121q-89 18 -140.5 82t-51.5 164t51.5 166t140.5 86v124l150 13v-137q52 -12 89 -41l-51 -125q-29 15 -50 20.5t-47 5.5q-38 0 -66.5 -31t-28.5 -81q0 -49 28 -77t67 -28q25 0 47 5.5z" />
    <glyph glyph-name="sterling" unicode="&#xa3;" horiz-adv-x="522" 
d="M512 0l-17 143h-197q5 22 5 45v80h150l-17 143h-133v60q0 30 17.5 47.5t49.5 17.5q14 0 34 -5t36 -14l52 124q-19 16 -59.5 29.5t-74.5 13.5q-64 0 -118 -22t-86.5 -65.5t-32.5 -105.5v-80h-81v-143h81v-60q0 -31 -19 -47.5t-63 -17.5l10 -143h463z" />
    <glyph glyph-name="currency" unicode="&#xa4;" horiz-adv-x="813" 
d="M654 136q26 54 26 116q0 59 -25 114l116 114l-125 124l-112 -118q-27 13 -60.5 19.5t-67.5 6.5q-33 0 -66.5 -7t-60.5 -20l-107 114l-142 -118l129 -116q-26 -54 -26 -116q0 -59 25 -114l-116 -114l125 -124l112 118q54 -25 128 -27q33 1 66.5 8t60.5 20l107 -114
l142 118zM474.5 185.5q-26.5 -26.5 -67.5 -26.5q-40 0 -67 26t-28 65q1 39 27 65.5t67 26.5q40 0 67.5 -26t27.5 -65t-26.5 -65.5z" />
    <glyph glyph-name="yen" unicode="&#xa5;" horiz-adv-x="654" 
d="M556 200h-148v-38h138l10 -116h-148v-46h-182v46h-118l-10 116h128v38h-118l-10 116h101l-189 330l174 48l132 -259l141 245h187l-207 -364h109z" />
    <glyph glyph-name="brokenbar" unicode="&#xa6;" horiz-adv-x="342" 
d="M80 713v-303l182 -16v303zM80 303v-303l182 -16v303z" />
    <glyph glyph-name="section" unicode="&#xa7;" horiz-adv-x="710" 
d="M647 158.5q-43 -49.5 -120 -70.5v-7q0 -58 -33 -103t-94.5 -71t-143.5 -26q-53 0 -118.5 16t-104.5 39l60 137q27 -16 74.5 -29.5t83.5 -13.5q40 0 64 16.5t24 36.5q0 13 -17.5 25.5t-56.5 35.5l-31 18q-68 40 -106 66.5t-68 68.5t-30 95q1 67 44 116t119 68v9
q0 56 31.5 100.5t88.5 69.5t133 25q52 0 106.5 -15t93.5 -41l-54 -123q-53 18 -81.5 24t-62.5 6q-30 0 -48.5 -14t-18.5 -34q0 -15 15.5 -26.5t51.5 -30.5l36 -20q63 -36 105 -66.5t71.5 -72t29.5 -93.5q0 -66 -43 -115.5zM450 227q24 6 38 20t14 29q0 13 -17.5 25.5
t-56.5 35.5l-31 18l-20 12q-68 39 -105 70q-24 -3 -39 -16.5t-15 -30.5q0 -15 15.5 -26.5t51.5 -30.5l36 -20q87 -49 129 -86z" />
    <glyph glyph-name="dieresis" unicode="&#xa8;" horiz-adv-x="398" 
d="M153 627q24 24 24 59q0 34 -24 58.5t-60 24.5q-33 0 -58 -24.5t-25 -58.5q0 -35 24.5 -59t58.5 -24q36 0 60 24zM364 627q24 24 24 59q0 34 -24 58.5t-60 24.5q-33 0 -58 -24.5t-25 -58.5q0 -35 24.5 -59t58.5 -24q36 0 60 24z" />
    <glyph glyph-name="copyright" unicode="&#xa9;" horiz-adv-x="825" 
d="M755.5 529q-49.5 87 -139 137t-204.5 50q-114 0 -203.5 -50t-139 -137t-49.5 -193q0 -104 49.5 -190.5t139 -137t203.5 -50.5q115 0 204.5 50.5t139 137t49.5 190.5q0 106 -49.5 193zM187 467.5q32 58.5 90.5 92t134.5 33.5q83 0 140.5 -33t86.5 -91t29 -132
q0 -72 -31.5 -130t-90 -91.5t-134.5 -33.5t-134.5 33.5t-90.5 91.5t-32 130t32 130.5zM569 158l-44 109q-24 -13 -44 -18t-41 -5q-34 0 -58.5 24.5t-24.5 67.5q0 44 24.5 71t58.5 27q23 0 41.5 -5t43.5 -18l44 109q-54 43 -145 43q-68 0 -120.5 -27.5t-81.5 -79t-29 -120.5
q0 -104 63 -162.5t168 -58.5q91 0 145 43z" />
    <glyph glyph-name="ordfeminine" unicode="&#xaa;" horiz-adv-x="347" 
d="M110.5 574q24.5 6 41.5 6q25 0 37 -16h-34q-63 0 -99 -27t-36 -81q0 -56 33 -87.5t97 -31.5q29 0 54.5 9t41.5 25l23 -27h58v214q0 67 -37 105.5t-106 38.5q-40 0 -81.5 -9.5t-71.5 -23.5l35 -110q20 9 44.5 15zM144.5 471.5q6.5 3.5 16.5 3.5h36v-5q-7 -9 -17.5 -14
t-21.5 -5q-9 0 -14.5 3t-5.5 7q0 7 6.5 10.5z" />
    <glyph glyph-name="guillemotleft" unicode="&#xab;" horiz-adv-x="421" 
d="M30 224l157 -151l33 106l-66 68l66 67l-33 107l-157 -152v-45zM211 224l157 -151l33 106l-66 68l66 67l-33 107l-157 -152v-45z" />
    <glyph glyph-name="logicalnot" unicode="&#xac;" horiz-adv-x="554" 
d="M506 424h-496l13 -143h333v-164l168 -7v247z" />
    <glyph glyph-name="softhyphen" unicode="&#xad;" horiz-adv-x="120" 
 />
    <glyph glyph-name="registered" unicode="&#xae;" horiz-adv-x="723" 
d="M661 648.5q-42 77.5 -119.5 122t-180.5 44.5q-102 0 -179.5 -44.5t-119.5 -122t-42 -173.5q0 -94 42 -171t119.5 -121.5t179.5 -44.5q103 0 180.5 44.5t119.5 121.5t42 171q0 96 -42 173.5zM158.5 597q27.5 53 80 83t122.5 30t122.5 -30t80.5 -83t28 -121q0 -67 -28 -120
t-80.5 -83.5t-122.5 -30.5t-122.5 30.5t-80 83.5t-27.5 120q0 68 27.5 121zM459 436q26 16 42 41t16 57q0 60 -45 91t-109 31h-149v-356h105v112h36l43 -112h119zM388.5 565.5q12.5 -8.5 12.5 -31.5q0 -20 -14 -31t-37 -11h-31v82h31q26 0 38.5 -8.5z" />
    <glyph glyph-name="macron" unicode="&#xaf;" horiz-adv-x="310" 
d="M10 613h290l-10 143h-280v-143z" />
    <glyph glyph-name="degree" unicode="&#xb0;" horiz-adv-x="295" 
d="M79 702.5q-32 -17.5 -50.5 -48t-18.5 -66.5q0 -37 18.5 -67t50 -47t69.5 -17q36 0 67.5 17t50.5 47.5t19 66.5t-19 66t-50.5 48t-67.5 18q-37 0 -69 -17.5zM167.5 568q-7.5 -8 -18.5 -8q-10 0 -18 9t-8 19t8 18t18 8q11 0 18.5 -8.5t7.5 -19.5q0 -10 -7.5 -18z" />
    <glyph glyph-name="plusminus" unicode="&#xb1;" horiz-adv-x="545" 
d="M505 415h-157v155h-148v-155h-168l11 -123h157v-135l148 -8v143h167zM503 123h-473l11 -123h472z" />
    <glyph glyph-name="twosuperior" unicode="&#xb2;" horiz-adv-x="384" 
d="M93 756.5q-39 -14.5 -78 -40.5l58 -90q35 18 56 26t45 8q25 0 38.5 -8.5t13.5 -21.5q-2 -37 -63 -90l-128 -113v-90h329l-12 107h-123l23 21q51 46 73 87.5t22 90.5q0 52 -41.5 90t-125.5 38q-48 0 -87 -14.5z" />
    <glyph glyph-name="threesuperior" unicode="&#xb3;" horiz-adv-x="408" 
d="M16 716l65 -93q54 37 96 37q28 0 42.5 -9.5t14.5 -24.5q0 -19 -19 -30t-52 -11h-61l11 -108h77q23 0 37.5 -12t14.5 -33q0 -19 -17 -31t-42 -12q-26 0 -52 9t-58 29l-73 -91q42 -27 91 -42t91 -15q59 0 105 19t71 52.5t25 77.5q0 32 -19 64.5t-46 48.5q20 10 38 40.5
t18 56.5q0 60 -50 96.5t-133 36.5q-104 0 -175 -55z" />
    <glyph glyph-name="acute" unicode="&#xb4;" horiz-adv-x="266" 
d="M142 588l114 199h-180l-66 -177z" />
    <glyph glyph-name="mu" unicode="&#xb5;" horiz-adv-x="620" 
d="M570 484v-485h-108l-32 50q-103 -64 -192 -66v-192l-182 -10v703h182v-296q0 -25 12 -41.5t40 -16.5q16 0 45 8.5t53 19.5v326h182z" />
    <glyph glyph-name="paragraph" unicode="&#xb6;" horiz-adv-x="1053" 
d="M534 537h179v-537h182v537h138v143h-718q-132 0 -213.5 -59t-81.5 -182q0 -82 42 -138t111.5 -83t154.5 -27h25v-191h181v537z" />
    <glyph glyph-name="periodcentered" unicode="&#xb7;" horiz-adv-x="243" 
d="M186.5 198q26.5 26 26.5 65t-26.5 65.5t-64.5 26.5q-39 0 -65.5 -26.5t-26.5 -65.5t26.5 -65t65.5 -26q38 0 64.5 26z" />
    <glyph glyph-name="cedilla" unicode="&#xb8;" horiz-adv-x="277" 
d="M135 -132q0 -9 -9 -13.5t-22 -4.5q-17 0 -56 15l-38 -86q25 -19 56 -30t60 -11q57 0 99 32.5t42 87.5q0 31 -17 61.5t-51 41.5l20 52h-126l-43 -107q85 -9 85 -38z" />
    <glyph glyph-name="onesuperior" unicode="&#xb9;" horiz-adv-x="336" 
d="M276 337v427h-91l-175 -81l35 -117l94 42v-271h137z" />
    <glyph glyph-name="ordmasculine" unicode="&#xba;" horiz-adv-x="402" 
d="M68.5 652.5q-48.5 -49.5 -48.5 -133.5q0 -85 46 -133.5t129 -48.5q85 0 136 48.5t51 131.5q0 85 -48 135t-134 50q-83 0 -131.5 -49.5zM234.5 562.5q9.5 -15.5 9.5 -45.5t-11 -44.5t-35 -14.5q-21 0 -30.5 15t-9.5 46q0 59 44 59q23 0 32.5 -15.5z" />
    <glyph glyph-name="guillemotright" unicode="&#xbb;" horiz-adv-x="421" 
d="M210 270l-157 151l-33 -106l66 -68l-66 -67l33 -107l157 152v45zM391 270l-157 151l-33 -106l66 -68l-66 -67l33 -107l157 152v45z" />
    <glyph glyph-name="onequarter" unicode="&#xbc;" horiz-adv-x="987" 
d="M276 764h-91l-175 -81l35 -117l94 42v-271h137v427zM69 -134h167l597 834h-168zM960 -75l7 111h-78v290h-105l-268 -298l16 -103h216v-91h141v91h71zM748 36h-66l66 77v-77z" />
    <glyph glyph-name="onehalf" unicode="&#xbd;" horiz-adv-x="980" 
d="M276 337v427h-91l-175 -81l35 -117l94 42v-271h137zM665 700l-596 -834h167l597 834h-168zM689 310.5q-39 -14.5 -78 -40.5l58 -90q35 18 56 26t45 8q25 0 38.5 -8.5t13.5 -21.5q-2 -37 -63 -90l-128 -113v-90h329l-12 107h-123l23 21q51 46 73 87.5t22 90.5
q0 52 -41.5 90t-125.5 38q-48 0 -87 -14.5z" />
    <glyph glyph-name="threequarters" unicode="&#xbe;" horiz-adv-x="993" 
d="M16 716l65 -93q54 37 96 37q28 0 42.5 -9.5t14.5 -24.5q0 -19 -19 -30t-52 -11h-61l11 -108h77q23 0 37.5 -12t14.5 -33q0 -19 -17 -31t-42 -12q-26 0 -52 9t-58 29l-73 -91q42 -27 91 -42t91 -15q59 0 105 19t71 52.5t25 77.5q0 32 -19 64.5t-46 48.5q20 10 38 40.5
t18 56.5q0 60 -50 96.5t-133 36.5q-104 0 -175 -55zM677 700l-596 -834h167l597 834h-168zM895 326h-105l-268 -298l16 -103h216v-91h141v91h71l7 111h-78v290zM688 36l66 77v-77h-66z" />
    <glyph glyph-name="questiondown" unicode="&#xbf;" horiz-adv-x="467" 
d="M365.5 507.5q26.5 26.5 26.5 65.5t-26.5 65t-65.5 26q-38 0 -64.5 -26t-26.5 -65t26.5 -65.5t64.5 -26.5q39 0 65.5 26.5zM457 15l-23 149q-94 -53 -165 -53q-22 0 -36.5 11.5t-14.5 29.5q0 27 42.5 58t108.5 52l-7 159l-143 39l-12 -115q-93 -33 -135 -80t-42 -110
q0 -57 29.5 -100.5t83.5 -67.5t123 -24q100 0 191 52z" />
    <glyph glyph-name="Agrave" unicode="&#xc0;" horiz-adv-x="711" 
d="M265 680l-255 -680h181l47 134h235l49 -144l179 18l-254 672h-182zM421 277h-133l65 185zM320 733l132 22l-66 177h-180z" />
    <glyph glyph-name="Aacute" unicode="&#xc1;" horiz-adv-x="711" 
d="M265 680l-255 -680h181l47 134h235l49 -144l179 18l-254 672h-182zM421 277h-133l65 185zM415 733l114 199h-180l-66 -177z" />
    <glyph glyph-name="Acircumflex" unicode="&#xc2;" horiz-adv-x="711" 
d="M265 680l-255 -680h181l47 134h235l49 -144l179 18l-254 672h-182zM421 277h-133l65 185zM361 801l52 -62l173 20l-174 179h-107l-174 -179l177 -20z" />
    <glyph glyph-name="Atilde" unicode="&#xc3;" horiz-adv-x="711" 
d="M265 680l-255 -680h181l47 134h235l49 -144l179 18l-254 672h-182zM421 277h-133l65 185zM411 886q-7 -10 -15 -10q-13 0 -22.5 4t-24.5 12q-14 9 -25.5 13.5t-27.5 4.5q-53 0 -90 -38.5t-37 -121.5h126q0 9 7 19t15 10q14 0 23 -4t23 -12q14 -9 25.5 -13.5t28.5 -4.5
q52 0 87.5 38.5t35.5 121.5h-122q0 -9 -7 -19z" />
    <glyph glyph-name="Adieresis" unicode="&#xc4;" horiz-adv-x="711" 
d="M265 680l-255 -680h181l47 134h235l49 -144l179 18l-254 672h-182zM421 277h-133l65 185zM315 777q24 24 24 59q0 34 -24 58.5t-60 24.5q-33 0 -58 -24.5t-25 -58.5q0 -35 24.5 -59t58.5 -24q36 0 60 24zM526 777q24 24 24 59q0 34 -24 58.5t-60 24.5q-33 0 -58 -24.5
t-25 -58.5q0 -35 24.5 -59t58.5 -24q36 0 60 24z" />
    <glyph glyph-name="Aring" unicode="&#xc5;" horiz-adv-x="711" 
d="M265 680l-255 -680h181l47 134h235l49 -144l179 18l-254 672h-182zM421 277h-133l65 185zM271.5 942q-36.5 -34 -36.5 -83q0 -50 36 -82.5t87 -32.5q50 0 86.5 32.5t36.5 82.5q0 32 -17 59t-45.5 42.5t-60.5 15.5q-50 0 -86.5 -34zM339 838q-9 9 -9 21t9 20t21 8t20 -8
t8 -20t-8 -21t-20 -9t-21 9z" />
    <glyph glyph-name="AE" unicode="&#xc6;" horiz-adv-x="987" 
d="M185 -13l92 141h192v-128h498l-17 143h-299v127h226l-17 143h-209v124h286l-17 143h-451l-459 -667zM469 399v-128h-91z" />
    <glyph glyph-name="Ccedilla" unicode="&#xc7;" horiz-adv-x="596" 
d="M485 -80.5q17 -30.5 17 -61.5q0 -55 -42 -87.5t-99 -32.5q-29 0 -60 11t-56 30l38 86q39 -15 56 -15q13 0 22 4.5t9 13.5q0 29 -85 38l34 85q-90 13 -155 60t-99.5 120.5t-34.5 165.5q0 103 45 184t124.5 126.5t179.5 45.5q52 0 106.5 -15t93.5 -41l-54 -123
q-53 18 -81.5 24t-62.5 6q-41 0 -78.5 -26t-61 -73t-23.5 -107q0 -61 24 -107t63.5 -70.5t82.5 -24.5q67 0 129 37l69 -136q-53 -33 -140 -45l-12 -31q34 -11 51 -41.5z" />
    <glyph glyph-name="Egrave" unicode="&#xc8;" horiz-adv-x="598" 
d="M578 0l-17 143h-299v127h226l-17 143h-209v124h286l-17 143h-451v-680h498zM296 733l132 22l-66 177h-180z" />
    <glyph glyph-name="Eacute" unicode="&#xc9;" horiz-adv-x="598" 
d="M578 0l-17 143h-299v127h226l-17 143h-209v124h286l-17 143h-451v-680h498zM391 733l114 199h-180l-66 -177z" />
    <glyph glyph-name="Ecircumflex" unicode="&#xca;" horiz-adv-x="598" 
d="M578 0l-17 143h-299v127h226l-17 143h-209v124h286l-17 143h-451v-680h498zM337 801l52 -62l173 20l-174 179h-107l-174 -179l177 -20z" />
    <glyph glyph-name="Edieresis" unicode="&#xcb;" horiz-adv-x="598" 
d="M578 0l-17 143h-299v127h226l-17 143h-209v124h286l-17 143h-451v-680h498zM291 777q24 24 24 59q0 34 -24 58.5t-60 24.5q-33 0 -58 -24.5t-25 -58.5q0 -35 24.5 -59t58.5 -24q36 0 60 24zM502 777q24 24 24 59q0 34 -24 58.5t-60 24.5q-33 0 -58 -24.5t-25 -58.5
q0 -35 24.5 -59t58.5 -24q36 0 60 24z" />
    <glyph glyph-name="Igrave" unicode="&#xcc;" horiz-adv-x="342" 
d="M262 0v680h-182v-680h182zM135 733l132 22l-66 177h-180z" />
    <glyph glyph-name="Iacute" unicode="&#xcd;" horiz-adv-x="342" 
d="M262 0v680h-182v-680h182zM230 733l114 199h-180l-66 -177z" />
    <glyph glyph-name="Icircumflex" unicode="&#xce;" horiz-adv-x="342" 
d="M262 0v680h-182v-680h182zM176 801l52 -62l173 20l-174 179h-107l-174 -179l177 -20z" />
    <glyph glyph-name="Idieresis" unicode="&#xcf;" horiz-adv-x="342" 
d="M262 0v680h-182v-680h182zM130 777q24 24 24 59q0 34 -24 58.5t-60 24.5q-33 0 -58 -24.5t-25 -58.5q0 -35 24.5 -59t58.5 -24q36 0 60 24zM341 777q24 24 24 59q0 34 -24 58.5t-60 24.5q-33 0 -58 -24.5t-25 -58.5q0 -35 24.5 -59t58.5 -24q36 0 60 24z" />
    <glyph glyph-name="Eth" unicode="&#xd0;" horiz-adv-x="739" 
d="M562.5 637q72.5 -43 109.5 -119t37 -174q0 -104 -41 -182t-115 -120t-169 -42h-304v270h-63l-17 143h80v267h308q102 0 174.5 -43zM479.5 195q41.5 52 41.5 149q0 86 -37.5 139.5t-104.5 53.5h-117v-124h107l17 -143h-124v-127h110q66 0 107.5 52z" />
    <glyph glyph-name="Ntilde" unicode="&#xd1;" horiz-adv-x="773" 
d="M262 0v358l261 -358h170v680h-182v-369l-262 369h-169v-680h182zM433 886q-7 -10 -15 -10q-13 0 -22.5 4t-24.5 12q-14 9 -25.5 13.5t-27.5 4.5q-53 0 -90 -38.5t-37 -121.5h126q0 9 7 19t15 10q14 0 23 -4t23 -12q14 -9 25.5 -13.5t28.5 -4.5q52 0 87.5 38.5t35.5 121.5
h-122q0 -9 -7 -19z" />
    <glyph glyph-name="Ograve" unicode="&#xd2;" horiz-adv-x="763" 
d="M200 648.5q-80 -45.5 -125 -127t-45 -184.5q0 -98 43 -178t122.5 -126.5t185.5 -46.5q103 0 183 45.5t124.5 127t44.5 185.5q0 98 -42.5 178t-122 126t-187.5 46q-101 0 -181 -45.5zM239.5 444.5q22.5 46.5 60 72t83.5 25.5q74 0 118.5 -55.5t44.5 -142.5
q0 -99 -46.5 -152.5t-119.5 -53.5q-76 0 -119.5 56t-43.5 144q0 60 22.5 106.5zM341 733l132 22l-66 177h-180z" />
    <glyph glyph-name="Oacute" unicode="&#xd3;" horiz-adv-x="763" 
d="M200 648.5q-80 -45.5 -125 -127t-45 -184.5q0 -98 43 -178t122.5 -126.5t185.5 -46.5q103 0 183 45.5t124.5 127t44.5 185.5q0 98 -42.5 178t-122 126t-187.5 46q-101 0 -181 -45.5zM239.5 444.5q22.5 46.5 60 72t83.5 25.5q74 0 118.5 -55.5t44.5 -142.5
q0 -99 -46.5 -152.5t-119.5 -53.5q-76 0 -119.5 56t-43.5 144q0 60 22.5 106.5zM436 733l114 199h-180l-66 -177z" />
    <glyph glyph-name="Ocircumflex" unicode="&#xd4;" horiz-adv-x="763" 
d="M200 648.5q-80 -45.5 -125 -127t-45 -184.5q0 -98 43 -178t122.5 -126.5t185.5 -46.5q103 0 183 45.5t124.5 127t44.5 185.5q0 98 -42.5 178t-122 126t-187.5 46q-101 0 -181 -45.5zM239.5 444.5q22.5 46.5 60 72t83.5 25.5q74 0 118.5 -55.5t44.5 -142.5
q0 -99 -46.5 -152.5t-119.5 -53.5q-76 0 -119.5 56t-43.5 144q0 60 22.5 106.5zM382 801l52 -62l173 20l-174 179h-107l-174 -179l177 -20z" />
    <glyph glyph-name="Otilde" unicode="&#xd5;" horiz-adv-x="763" 
d="M200 648.5q-80 -45.5 -125 -127t-45 -184.5q0 -98 43 -178t122.5 -126.5t185.5 -46.5q103 0 183 45.5t124.5 127t44.5 185.5q0 98 -42.5 178t-122 126t-187.5 46q-101 0 -181 -45.5zM239.5 444.5q22.5 46.5 60 72t83.5 25.5q74 0 118.5 -55.5t44.5 -142.5
q0 -99 -46.5 -152.5t-119.5 -53.5q-76 0 -119.5 56t-43.5 144q0 60 22.5 106.5zM432 886q-7 -10 -15 -10q-13 0 -22.5 4t-24.5 12q-14 9 -25.5 13.5t-27.5 4.5q-53 0 -90 -38.5t-37 -121.5h126q0 9 7 19t15 10q14 0 23 -4t23 -12q14 -9 25.5 -13.5t28.5 -4.5q52 0 87.5 38.5
t35.5 121.5h-122q0 -9 -7 -19z" />
    <glyph glyph-name="Odieresis" unicode="&#xd6;" horiz-adv-x="763" 
d="M200 648.5q-80 -45.5 -125 -127t-45 -184.5q0 -98 43 -178t122.5 -126.5t185.5 -46.5q103 0 183 45.5t124.5 127t44.5 185.5q0 98 -42.5 178t-122 126t-187.5 46q-101 0 -181 -45.5zM239.5 444.5q22.5 46.5 60 72t83.5 25.5q74 0 118.5 -55.5t44.5 -142.5
q0 -99 -46.5 -152.5t-119.5 -53.5q-76 0 -119.5 56t-43.5 144q0 60 22.5 106.5zM336 777q24 24 24 59q0 34 -24 58.5t-60 24.5q-33 0 -58 -24.5t-25 -58.5q0 -35 24.5 -59t58.5 -24q36 0 60 24zM547 777q24 24 24 59q0 34 -24 58.5t-60 24.5q-33 0 -58 -24.5t-25 -58.5
q0 -35 24.5 -59t58.5 -24q36 0 60 24z" />
    <glyph glyph-name="multiply" unicode="&#xd7;" horiz-adv-x="607" 
d="M385 250l175 -221h-181l-76 106l-88 -106h-185l192 234l-175 221h181l75 -106l89 106h185z" />
    <glyph glyph-name="Oslash" unicode="&#xd8;" horiz-adv-x="763" 
d="M568.5 648q79.5 -46 122 -126t42.5 -178q0 -104 -44.5 -185.5t-124.5 -127t-183 -45.5q-106 0 -185.5 46.5t-122.5 126.5t-43 178q0 103 45 184.5t125 127t181 45.5q108 0 187.5 -46zM299.5 516.5q-37.5 -25.5 -60 -72t-22.5 -106.5q0 -85 40 -139l141 342q-5 1 -15 1
q-46 0 -83.5 -25.5zM499.5 191.5q46.5 53.5 46.5 152.5q0 76 -34 129l-145 -335h13q73 0 119.5 53.5z" />
    <glyph glyph-name="Ugrave" unicode="&#xd9;" horiz-adv-x="750" 
d="M70 680v-420q0 -87 38 -148.5t107 -93.5t160 -32t160 32t107 93.5t38 148.5v420h-182v-411q0 -62 -34 -96.5t-89 -34.5t-89 34.5t-34 96.5v411h-182zM335 733l132 22l-66 177h-180z" />
    <glyph glyph-name="Uacute" unicode="&#xda;" horiz-adv-x="750" 
d="M70 680v-420q0 -87 38 -148.5t107 -93.5t160 -32t160 32t107 93.5t38 148.5v420h-182v-411q0 -62 -34 -96.5t-89 -34.5t-89 34.5t-34 96.5v411h-182zM430 733l114 199h-180l-66 -177z" />
    <glyph glyph-name="Ucircumflex" unicode="&#xdb;" horiz-adv-x="750" 
d="M70 680v-420q0 -87 38 -148.5t107 -93.5t160 -32t160 32t107 93.5t38 148.5v420h-182v-411q0 -62 -34 -96.5t-89 -34.5t-89 34.5t-34 96.5v411h-182zM376 801l52 -62l173 20l-174 179h-107l-174 -179l177 -20z" />
    <glyph glyph-name="Udieresis" unicode="&#xdc;" horiz-adv-x="750" 
d="M70 680v-420q0 -87 38 -148.5t107 -93.5t160 -32t160 32t107 93.5t38 148.5v420h-182v-411q0 -62 -34 -96.5t-89 -34.5t-89 34.5t-34 96.5v411h-182zM330 777q24 24 24 59q0 34 -24 58.5t-60 24.5q-33 0 -58 -24.5t-25 -58.5q0 -35 24.5 -59t58.5 -24q36 0 60 24z
M541 777q24 24 24 59q0 34 -24 58.5t-60 24.5q-33 0 -58 -24.5t-25 -58.5q0 -35 24.5 -59t58.5 -24q36 0 60 24z" />
    <glyph glyph-name="Yacute" unicode="&#xdd;" horiz-adv-x="654" 
d="M408 0v266l236 414h-187l-141 -245l-132 259l-174 -48l216 -378v-268h182zM371 733l114 199h-180l-66 -177z" />
    <glyph glyph-name="Thorn" unicode="&#xde;" horiz-adv-x="666" 
d="M507.5 572.5q63.5 -27.5 101 -83t37.5 -134.5q0 -78 -40 -131.5t-105.5 -79.5t-142.5 -26h-96v-118h-182v680h182v-80h104q78 0 141.5 -27.5zM431 288q27 27 27 67q0 46 -26.5 74t-71.5 28h-98v-196h100q42 0 69 27z" />
    <glyph glyph-name="germandbls" unicode="&#xdf;" horiz-adv-x="660" 
d="M242 0v457q0 43 27 67.5t60 24.5q38 0 61.5 -19t23.5 -45q0 -25 -26.5 -47t-60.5 -22h-27v-130h79q28 0 47 -19t19 -53q0 -30 -21.5 -47.5t-52.5 -17.5h-76v-149h93q72 0 126.5 24.5t85 69.5t30.5 106q0 52 -29 99.5t-72 64.5q34 23 50.5 62t16.5 77q0 59 -35 104.5
t-97.5 70t-140.5 24.5q-79 0 -138.5 -32t-92 -88.5t-32.5 -129.5v-452h182z" />
    <glyph glyph-name="agrave" unicode="&#xe0;" horiz-adv-x="509" 
d="M158.5 345.5q34.5 8.5 58.5 8.5q26 0 42.5 -14t20.5 -42h-58q-190 0 -190 -142q0 -77 46 -122t136 -45q61 0 109 61l52 -50h88v300q0 94 -52 148t-149 54q-56 0 -114 -13.5t-100 -32.5l48 -131q28 12 62.5 20.5zM195.5 187q11.5 11 29.5 11h56v-46q-33 -27 -64 -27
q-14 0 -23.5 9.5t-9.5 24.5q0 17 11.5 28zM217 588l132 22l-66 177h-180z" />
    <glyph glyph-name="aacute" unicode="&#xe1;" horiz-adv-x="509" 
d="M158.5 345.5q34.5 8.5 58.5 8.5q26 0 42.5 -14t20.5 -42h-58q-190 0 -190 -142q0 -77 46 -122t136 -45q61 0 109 61l52 -50h88v300q0 94 -52 148t-149 54q-56 0 -114 -13.5t-100 -32.5l48 -131q28 12 62.5 20.5zM195.5 187q11.5 11 29.5 11h56v-46q-33 -27 -64 -27
q-14 0 -23.5 9.5t-9.5 24.5q0 17 11.5 28zM301 588l114 199h-180l-66 -177z" />
    <glyph glyph-name="acircumflex" unicode="&#xe2;" horiz-adv-x="509" 
d="M158.5 345.5q34.5 8.5 58.5 8.5q26 0 42.5 -14t20.5 -42h-58q-190 0 -190 -142q0 -77 46 -122t136 -45q61 0 109 61l52 -50h88v300q0 94 -52 148t-149 54q-56 0 -114 -13.5t-100 -32.5l48 -131q28 12 62.5 20.5zM195.5 187q11.5 11 29.5 11h56v-46q-33 -27 -64 -27
q-14 0 -23.5 9.5t-9.5 24.5q0 17 11.5 28zM261 650l52 -62l173 20l-174 179h-107l-174 -179l177 -20z" />
    <glyph glyph-name="atilde" unicode="&#xe3;" horiz-adv-x="509" 
d="M158.5 345.5q34.5 8.5 58.5 8.5q26 0 42.5 -14t20.5 -42h-58q-190 0 -190 -142q0 -77 46 -122t136 -45q61 0 109 61l52 -50h88v300q0 94 -52 148t-149 54q-56 0 -114 -13.5t-100 -32.5l48 -131q28 12 62.5 20.5zM195.5 187q11.5 11 29.5 11h56v-46q-33 -27 -64 -27
q-14 0 -23.5 9.5t-9.5 24.5q0 17 11.5 28zM306 736q-7 -10 -15 -10q-13 0 -22.5 4t-24.5 12q-14 9 -25.5 13.5t-27.5 4.5q-53 0 -90 -38.5t-37 -121.5h126q0 9 7 19t15 10q14 0 23 -4t23 -12q14 -9 25.5 -13.5t28.5 -4.5q52 0 87.5 38.5t35.5 121.5h-122q0 -9 -7 -19z" />
    <glyph glyph-name="adieresis" unicode="&#xe4;" horiz-adv-x="509" 
d="M158.5 345.5q34.5 8.5 58.5 8.5q26 0 42.5 -14t20.5 -42h-58q-190 0 -190 -142q0 -77 46 -122t136 -45q61 0 109 61l52 -50h88v300q0 94 -52 148t-149 54q-56 0 -114 -13.5t-100 -32.5l48 -131q28 12 62.5 20.5zM195.5 187q11.5 11 29.5 11h56v-46q-33 -27 -64 -27
q-14 0 -23.5 9.5t-9.5 24.5q0 17 11.5 28zM211 627q24 24 24 59q0 34 -24 58.5t-60 24.5q-33 0 -58 -24.5t-25 -58.5q0 -35 24.5 -59t58.5 -24q36 0 60 24zM422 627q24 24 24 59q0 34 -24 58.5t-60 24.5q-33 0 -58 -24.5t-25 -58.5q0 -35 24.5 -59t58.5 -24q36 0 60 24z" />
    <glyph glyph-name="aring" unicode="&#xe5;" horiz-adv-x="509" 
d="M158.5 345.5q34.5 8.5 58.5 8.5q26 0 42.5 -14t20.5 -42h-58q-190 0 -190 -142q0 -77 46 -122t136 -45q61 0 109 61l52 -50h88v300q0 94 -52 148t-149 54q-56 0 -114 -13.5t-100 -32.5l48 -131q28 12 62.5 20.5zM195.5 187q11.5 11 29.5 11h56v-46q-33 -27 -64 -27
q-14 0 -23.5 9.5t-9.5 24.5q0 17 11.5 28zM173.5 792q-36.5 -34 -36.5 -83q0 -50 36 -82.5t87 -32.5q50 0 86.5 32.5t36.5 82.5q0 32 -17 59t-45.5 42.5t-60.5 15.5q-50 0 -86.5 -34zM241 688q-9 9 -9 21t9 20t21 8t20 -8t8 -20t-8 -21t-20 -9t-21 9z" />
    <glyph glyph-name="ae" unicode="&#xe6;" horiz-adv-x="793" 
d="M773 197h-295q10 -31 37.5 -48.5t72.5 -17.5q69 0 133 33l51 -123q-30 -22 -86.5 -37t-115.5 -15q-123 0 -200 59q-27 -26 -63 -42.5t-93 -16.5q-90 0 -136 45t-46 122q0 142 190 142h58q-4 28 -20.5 42t-42.5 14q-24 0 -58.5 -8.5t-62.5 -20.5l-48 131q42 19 100 32.5
t114 13.5q82 0 132 -39q66 39 147 39q75 0 127 -34t78.5 -91t26.5 -127v-53zM599 287q0 25 -16 47t-47 22q-25 0 -44.5 -21t-18.5 -48h126zM193.5 134.5q9.5 -9.5 23.5 -9.5q24 0 41.5 7.5t35.5 20.5q-8 23 -11 45h-58q-18 0 -29.5 -11t-11.5 -28q0 -15 9.5 -24.5z" />
    <glyph glyph-name="ccedilla" unicode="&#xe7;" horiz-adv-x="457" 
d="M347 -6l-13 -33q34 -11 51 -41.5t17 -61.5q0 -55 -42 -87.5t-99 -32.5q-29 0 -60 11t-56 30l38 86q39 -15 56 -15q13 0 22 4.5t9 13.5q0 29 -85 38l36 89q-93 16 -147 80t-54 167q0 80 33.5 139t93.5 90t138 31q104 0 166 -49l-51 -125q-29 15 -50 20.5t-47 5.5
q-38 0 -66.5 -31t-28.5 -81q0 -49 28 -77t67 -28q25 0 47 5.5t50 20.5l51 -125q-41 -33 -104 -44z" />
    <glyph glyph-name="egrave" unicode="&#xe8;" horiz-adv-x="533" 
d="M513 250q0 70 -26.5 127t-78.5 91t-127 34q-74 0 -133.5 -31.5t-93.5 -90.5t-34 -138q0 -80 37 -137.5t102.5 -86.5t150.5 -29q59 0 115.5 15t86.5 37l-51 123q-64 -33 -133 -33q-45 0 -72.5 17.5t-37.5 48.5h295v53zM231.5 335q19.5 21 44.5 21q31 0 47 -22t16 -47h-126
q-1 27 18.5 48zM238 588l132 22l-66 177h-180z" />
    <glyph glyph-name="eacute" unicode="&#xe9;" horiz-adv-x="533" 
d="M513 250q0 70 -26.5 127t-78.5 91t-127 34q-74 0 -133.5 -31.5t-93.5 -90.5t-34 -138q0 -80 37 -137.5t102.5 -86.5t150.5 -29q59 0 115.5 15t86.5 37l-51 123q-64 -33 -133 -33q-45 0 -72.5 17.5t-37.5 48.5h295v53zM231.5 335q19.5 21 44.5 21q31 0 47 -22t16 -47h-126
q-1 27 18.5 48zM322 588l114 199h-180l-66 -177z" />
    <glyph glyph-name="ecircumflex" unicode="&#xea;" horiz-adv-x="533" 
d="M513 250q0 70 -26.5 127t-78.5 91t-127 34q-74 0 -133.5 -31.5t-93.5 -90.5t-34 -138q0 -80 37 -137.5t102.5 -86.5t150.5 -29q59 0 115.5 15t86.5 37l-51 123q-64 -33 -133 -33q-45 0 -72.5 17.5t-37.5 48.5h295v53zM231.5 335q19.5 21 44.5 21q31 0 47 -22t16 -47h-126
q-1 27 18.5 48zM282 650l52 -62l173 20l-174 179h-107l-174 -179l177 -20z" />
    <glyph glyph-name="edieresis" unicode="&#xeb;" horiz-adv-x="533" 
d="M513 250q0 70 -26.5 127t-78.5 91t-127 34q-74 0 -133.5 -31.5t-93.5 -90.5t-34 -138q0 -80 37 -137.5t102.5 -86.5t150.5 -29q59 0 115.5 15t86.5 37l-51 123q-64 -33 -133 -33q-45 0 -72.5 17.5t-37.5 48.5h295v53zM231.5 335q19.5 21 44.5 21q31 0 47 -22t16 -47h-126
q-1 27 18.5 48zM232 627q24 24 24 59q0 34 -24 58.5t-60 24.5q-33 0 -58 -24.5t-25 -58.5q0 -35 24.5 -59t58.5 -24q36 0 60 24zM443 627q24 24 24 59q0 34 -24 58.5t-60 24.5q-33 0 -58 -24.5t-25 -58.5q0 -35 24.5 -59t58.5 -24q36 0 60 24z" />
    <glyph glyph-name="igrave" unicode="&#xec;" horiz-adv-x="282" 
d="M232 0v485h-182v-485h182zM99 588l132 22l-66 177h-180z" />
    <glyph glyph-name="iacute" unicode="&#xed;" horiz-adv-x="282" 
d="M232 0v485h-182v-485h182zM183 588l114 199h-180l-66 -177z" />
    <glyph glyph-name="icircumflex" unicode="&#xee;" horiz-adv-x="282" 
d="M232 0v485h-182v-485h182zM143 650l52 -62l173 20l-174 179h-107l-174 -179l177 -20z" />
    <glyph glyph-name="idieresis" unicode="&#xef;" horiz-adv-x="282" 
d="M232 0v485h-182v-485h182zM93 627q24 24 24 59q0 34 -24 58.5t-60 24.5q-33 0 -58 -24.5t-25 -58.5q0 -35 24.5 -59t58.5 -24q36 0 60 24zM304 627q24 24 24 59q0 34 -24 58.5t-60 24.5q-33 0 -58 -24.5t-25 -58.5q0 -35 24.5 -59t58.5 -24q36 0 60 24z" />
    <glyph glyph-name="eth" unicode="&#xf0;" horiz-adv-x="590" 
d="M525.5 444.5q44.5 -93.5 44.5 -190.5q0 -80 -34 -140t-95 -92.5t-139 -32.5q-80 0 -144 28.5t-101 86t-37 141.5q0 78 35.5 136.5t94 89.5t125.5 31q11 0 17 -1q-18 21 -41 41l-145 -68l-50 106l71 34q-33 13 -74 24l61 112q90 -20 168 -61l130 63l54 -110l-68 -32
q83 -72 127.5 -165.5zM359 163q23 26 23 77q0 52 -10 96q-39 18 -75 18q-42 0 -65.5 -29t-23.5 -80q0 -50 22 -79t63 -29q43 0 66 26z" />
    <glyph glyph-name="ntilde" unicode="&#xf1;" 
d="M232 326q24 11 53 19.5t45 8.5q28 0 40 -16.5t12 -41.5v-296h182v313q0 85 -44 136.5t-132 51.5q-92 0 -198 -66l-32 50h-108v-485h182v326zM401 736q-7 -10 -15 -10q-13 0 -22.5 4t-24.5 12q-14 9 -25.5 13.5t-27.5 4.5q-53 0 -90 -38.5t-37 -121.5h126q0 9 7 19t15 10
q14 0 23 -4t23 -12q14 -9 25.5 -13.5t28.5 -4.5q52 0 87.5 38.5t35.5 121.5h-122q0 -9 -7 -19z" />
    <glyph glyph-name="ograve" unicode="&#xf2;" horiz-adv-x="590" 
d="M533.5 104q-36.5 -57 -100 -86t-142.5 -29q-122 0 -196.5 65.5t-74.5 190.5q0 79 36.5 137.5t99 89t139.5 30.5q81 0 143 -30t97 -89t35 -143q0 -79 -36.5 -136zM359 163q23 26 23 77q0 50 -22.5 82t-62.5 32q-42 0 -65.5 -29t-23.5 -80q0 -50 22 -79t63 -29q43 0 66 26z
M251 588l132 22l-66 177h-180z" />
    <glyph glyph-name="oacute" unicode="&#xf3;" horiz-adv-x="590" 
d="M533.5 104q-36.5 -57 -100 -86t-142.5 -29q-122 0 -196.5 65.5t-74.5 190.5q0 79 36.5 137.5t99 89t139.5 30.5q81 0 143 -30t97 -89t35 -143q0 -79 -36.5 -136zM359 163q23 26 23 77q0 50 -22.5 82t-62.5 32q-42 0 -65.5 -29t-23.5 -80q0 -50 22 -79t63 -29q43 0 66 26z
M335 588l114 199h-180l-66 -177z" />
    <glyph glyph-name="ocircumflex" unicode="&#xf4;" horiz-adv-x="590" 
d="M533.5 104q-36.5 -57 -100 -86t-142.5 -29q-122 0 -196.5 65.5t-74.5 190.5q0 79 36.5 137.5t99 89t139.5 30.5q81 0 143 -30t97 -89t35 -143q0 -79 -36.5 -136zM359 163q23 26 23 77q0 50 -22.5 82t-62.5 32q-42 0 -65.5 -29t-23.5 -80q0 -50 22 -79t63 -29q43 0 66 26z
M295 650l52 -62l173 20l-174 179h-107l-174 -179l177 -20z" />
    <glyph glyph-name="otilde" unicode="&#xf5;" horiz-adv-x="590" 
d="M533.5 104q-36.5 -57 -100 -86t-142.5 -29q-122 0 -196.5 65.5t-74.5 190.5q0 79 36.5 137.5t99 89t139.5 30.5q81 0 143 -30t97 -89t35 -143q0 -79 -36.5 -136zM359 163q23 26 23 77q0 50 -22.5 82t-62.5 32q-42 0 -65.5 -29t-23.5 -80q0 -50 22 -79t63 -29q43 0 66 26z
M340 736q-7 -10 -15 -10q-13 0 -22.5 4t-24.5 12q-14 9 -25.5 13.5t-27.5 4.5q-53 0 -90 -38.5t-37 -121.5h126q0 9 7 19t15 10q14 0 23 -4t23 -12q14 -9 25.5 -13.5t28.5 -4.5q52 0 87.5 38.5t35.5 121.5h-122q0 -9 -7 -19z" />
    <glyph glyph-name="odieresis" unicode="&#xf6;" horiz-adv-x="590" 
d="M533.5 104q-36.5 -57 -100 -86t-142.5 -29q-122 0 -196.5 65.5t-74.5 190.5q0 79 36.5 137.5t99 89t139.5 30.5q81 0 143 -30t97 -89t35 -143q0 -79 -36.5 -136zM359 163q23 26 23 77q0 50 -22.5 82t-62.5 32q-42 0 -65.5 -29t-23.5 -80q0 -50 22 -79t63 -29q43 0 66 26z
M245 627q24 24 24 59q0 34 -24 58.5t-60 24.5q-33 0 -58 -24.5t-25 -58.5q0 -35 24.5 -59t58.5 -24q36 0 60 24zM456 627q24 24 24 59q0 34 -24 58.5t-60 24.5q-33 0 -58 -24.5t-25 -58.5q0 -35 24.5 -59t58.5 -24q36 0 60 24z" />
    <glyph glyph-name="divide" unicode="&#xf7;" horiz-adv-x="512" 
d="M320.5 394q26.5 26 26.5 65t-26.5 65.5t-64.5 26.5q-39 0 -65.5 -26.5t-26.5 -65.5t26.5 -65t65.5 -26q38 0 64.5 26zM472 340h-442l11 -133h441zM320.5 26q26.5 26 26.5 65t-26.5 65.5t-64.5 26.5q-39 0 -65.5 -26.5t-26.5 -65.5t26.5 -65t65.5 -26q38 0 64.5 26z" />
    <glyph glyph-name="oslash" unicode="&#xf8;" horiz-adv-x="590" 
d="M438 472q62 -30 97 -89t35 -143q0 -79 -36.5 -136t-100 -86t-142.5 -29q-122 0 -196.5 65.5t-74.5 190.5q0 79 36.5 137.5t99 89t139.5 30.5q81 0 143 -30zM231.5 325q-23.5 -29 -23.5 -80q0 -30 7 -50l87 159h-5q-42 0 -65.5 -29zM359 163q23 26 23 77q0 29 -7 49
l-86 -152h4q43 0 66 26z" />
    <glyph glyph-name="ugrave" unicode="&#xf9;" 
d="M378 158q-24 -11 -53 -19.5t-45 -8.5q-28 0 -40 16.5t-12 41.5v296h-182v-313q0 -85 44 -136.5t132 -51.5q92 0 198 66l52 -50h88v485h-182v-326zM261 588l132 22l-66 177h-180z" />
    <glyph glyph-name="uacute" unicode="&#xfa;" 
d="M378 158q-24 -11 -53 -19.5t-45 -8.5q-28 0 -40 16.5t-12 41.5v296h-182v-313q0 -85 44 -136.5t132 -51.5q92 0 198 66l52 -50h88v485h-182v-326zM345 588l114 199h-180l-66 -177z" />
    <glyph glyph-name="ucircumflex" unicode="&#xfb;" 
d="M378 158q-24 -11 -53 -19.5t-45 -8.5q-28 0 -40 16.5t-12 41.5v296h-182v-313q0 -85 44 -136.5t132 -51.5q92 0 198 66l52 -50h88v485h-182v-326zM305 650l52 -62l173 20l-174 179h-107l-174 -179l177 -20z" />
    <glyph glyph-name="udieresis" unicode="&#xfc;" 
d="M378 158q-24 -11 -53 -19.5t-45 -8.5q-28 0 -40 16.5t-12 41.5v296h-182v-313q0 -85 44 -136.5t132 -51.5q92 0 198 66l52 -50h88v485h-182v-326zM255 627q24 24 24 59q0 34 -24 58.5t-60 24.5q-33 0 -58 -24.5t-25 -58.5q0 -35 24.5 -59t58.5 -24q36 0 60 24zM466 627
q24 24 24 59q0 34 -24 58.5t-60 24.5q-33 0 -58 -24.5t-25 -58.5q0 -35 24.5 -59t58.5 -24q36 0 60 24z" />
    <glyph glyph-name="yacute" unicode="&#xfd;" horiz-adv-x="561" 
d="M140.5 -38.5q-32.5 -17.5 -84.5 -39.5l61 -141q74 16 136 60t85 102l213 542h-181l-93 -274l-99 292l-168 -48l174 -446l-4 -11q-7 -19 -39.5 -36.5zM317 588l114 199h-180l-66 -177z" />
    <glyph glyph-name="thorn" unicode="&#xfe;" horiz-adv-x="579" 
d="M490.5 438q68.5 -64 68.5 -189q0 -127 -69.5 -193.5t-187.5 -66.5q-28 0 -64 13v-211l-182 -10v914l182 11v-220q42 16 72 16q112 0 180.5 -64zM348 161q23 32 23 87t-23 84.5t-66 29.5q-21 0 -44 -15v-205q29 -13 52 -13q35 0 58 32z" />
    <glyph glyph-name="ydieresis" unicode="&#xff;" horiz-adv-x="561" 
d="M140.5 -38.5q-32.5 -17.5 -84.5 -39.5l61 -141q74 16 136 60t85 102l213 542h-181l-93 -274l-99 292l-168 -48l174 -446l-4 -11q-7 -19 -39.5 -36.5zM227 627q24 24 24 59q0 34 -24 58.5t-60 24.5q-33 0 -58 -24.5t-25 -58.5q0 -35 24.5 -59t58.5 -24q36 0 60 24z
M438 627q24 24 24 59q0 34 -24 58.5t-60 24.5q-33 0 -58 -24.5t-25 -58.5q0 -35 24.5 -59t58.5 -24q36 0 60 24z" />
    <glyph glyph-name="Amacron" unicode="&#x100;" horiz-adv-x="711" 
d="M265 680l-255 -680h181l47 134h235l49 -144l179 18l-254 672h-182zM421 277h-133l65 185zM212 763h290l-10 143h-280v-143z" />
    <glyph glyph-name="amacron" unicode="&#x101;" horiz-adv-x="509" 
d="M158.5 345.5q34.5 8.5 58.5 8.5q26 0 42.5 -14t20.5 -42h-58q-190 0 -190 -142q0 -77 46 -122t136 -45q61 0 109 61l52 -50h88v300q0 94 -52 148t-149 54q-56 0 -114 -13.5t-100 -32.5l48 -131q28 12 62.5 20.5zM195.5 187q11.5 11 29.5 11h56v-46q-33 -27 -64 -27
q-14 0 -23.5 9.5t-9.5 24.5q0 17 11.5 28zM109 613h290l-10 143h-280v-143z" />
    <glyph glyph-name="Abreve" unicode="&#x102;" horiz-adv-x="711" 
d="M265 680l-255 -680h181l47 134h235l49 -144l179 18l-254 672h-182zM421 277h-133l65 185zM397.5 887.5q-13.5 -15.5 -37.5 -15.5t-37.5 15.5t-13.5 40.5h-129q0 -86 49 -137t131 -52q82 1 131 52t49 137h-129q0 -25 -13.5 -40.5z" />
    <glyph glyph-name="abreve" unicode="&#x103;" horiz-adv-x="509" 
d="M158.5 345.5q34.5 8.5 58.5 8.5q26 0 42.5 -14t20.5 -42h-58q-190 0 -190 -142q0 -77 46 -122t136 -45q61 0 109 61l52 -50h88v300q0 94 -52 148t-149 54q-56 0 -114 -13.5t-100 -32.5l48 -131q28 12 62.5 20.5zM195.5 187q11.5 11 29.5 11h56v-46q-33 -27 -64 -27
q-14 0 -23.5 9.5t-9.5 24.5q0 17 11.5 28zM297.5 736.5q-13.5 -15.5 -37.5 -15.5t-37.5 15.5t-13.5 40.5h-129q0 -86 49 -137t131 -52q82 1 131 52t49 137h-129q0 -25 -13.5 -40.5z" />
    <glyph glyph-name="Aogonek" unicode="&#x104;" horiz-adv-x="711" 
d="M803 -189q-17 -20 -62.5 -33.5t-86.5 -13.5q-47 0 -80.5 20.5t-50.5 54t-17 72.5q0 15 5 37.5t12 41.5h-1l-49 144h-235l-47 -134h-181l255 680h182l254 -671v-1h-1q-11 -15 -21 -40.5t-10 -42.5q0 -12 8.5 -22t20.5 -10q11 0 21 4t23 16zM288 277h133l-68 185z" />
    <glyph glyph-name="aogonek" unicode="&#x105;" horiz-adv-x="509" 
d="M565 -198q-18 -21 -51 -34t-72 -13q-46 0 -79.5 20t-51 51.5t-17.5 65.5q0 33 7.5 64.5t34.5 81.5l-13 12q-48 -61 -109 -61q-90 0 -136 45t-46 122q0 142 190 142h58q-4 28 -20.5 42t-42.5 14q-24 0 -58.5 -8.5t-62.5 -20.5l-48 131q42 19 100 32.5t114 13.5
q97 0 149 -54t52 -148v-300q-11 -14 -21.5 -40t-10.5 -44q0 -12 8.5 -22t20.5 -10q11 0 21 4t23 16zM281 198h-56q-18 0 -29.5 -11t-11.5 -28q0 -15 9.5 -24.5t23.5 -9.5q31 0 64 27v46z" />
    <glyph glyph-name="Cacute" unicode="&#x106;" horiz-adv-x="596" 
d="M485.5 678q-54.5 15 -106.5 15q-100 0 -179.5 -45.5t-124.5 -126.5t-45 -184t42.5 -182t122.5 -123.5t188 -44.5q53 0 108.5 13.5t94.5 36.5l-69 136q-62 -37 -129 -37q-43 0 -82.5 24.5t-63.5 70.5t-24 107q0 60 23.5 107t61 73t78.5 26q34 0 62.5 -6t81.5 -24l54 123
q-39 26 -93.5 41zM435 733l114 199h-180l-66 -177z" />
    <glyph glyph-name="cacute" unicode="&#x107;" horiz-adv-x="457" 
d="M285 502q-78 0 -138 -31t-93.5 -90t-33.5 -139q0 -120 72.5 -186.5t192.5 -66.5q104 0 166 49l-51 125q-28 -15 -50 -20.5t-47 -5.5q-39 0 -67 28t-28 77q0 50 28.5 81t66.5 31q26 0 47 -5.5t50 -20.5l51 125q-62 49 -166 49zM301 588l114 199h-180l-66 -177z" />
    <glyph glyph-name="Ccaron" unicode="&#x10c;" horiz-adv-x="596" 
d="M485.5 678q-54.5 15 -106.5 15q-100 0 -179.5 -45.5t-124.5 -126.5t-45 -184t42.5 -182t122.5 -123.5t188 -44.5q53 0 108.5 13.5t94.5 36.5l-69 136q-62 -37 -129 -37q-43 0 -82.5 24.5t-63.5 70.5t-24 107q0 60 23.5 107t61 73t78.5 26q34 0 62.5 -6t81.5 -24l54 123
q-39 26 -93.5 41zM379 876l-53 62l-177 -20l174 -179h107l174 179l-173 20z" />
    <glyph glyph-name="ccaron" unicode="&#x10d;" horiz-adv-x="457" 
d="M285 502q-78 0 -138 -31t-93.5 -90t-33.5 -139q0 -120 72.5 -186.5t192.5 -66.5q104 0 166 49l-51 125q-28 -15 -50 -20.5t-47 -5.5q-39 0 -67 28t-28 77q0 50 28.5 81t66.5 31q26 0 47 -5.5t50 -20.5l51 125q-62 49 -166 49zM264 725l-53 62l-177 -20l174 -179h107
l174 179l-173 20z" />
    <glyph glyph-name="Dcaron" unicode="&#x10e;" horiz-adv-x="739" 
d="M553 42q74 42 115 120t41 182q0 98 -37 174t-109.5 119t-174.5 43h-308v-680h304q95 0 169 42zM483.5 483.5q37.5 -53.5 37.5 -139.5q0 -97 -41.5 -149t-107.5 -52h-110v394h117q67 0 104.5 -53.5zM359 876l-53 62l-177 -20l174 -179h107l174 179l-173 20z" />
    <glyph glyph-name="dcaron" unicode="&#x10f;" horiz-adv-x="796" 
d="M739.5 712q26.5 -30 26.5 -77q0 -59 -45 -114t-112 -80l-36 80q16 9 32.5 24t19.5 27q-19 12 -31 33t-12 45q0 35 27 63.5t65 28.5q39 0 65.5 -30zM341 695l182 11v-706h-92l-27 35q-30 -21 -64.5 -33.5t-70.5 -12.5q-112 0 -180.5 64t-68.5 189q0 127 69.5 193.5
t187.5 66.5q34 0 64 -10v203zM231 158.5q23 -29.5 66 -29.5q22 0 44 15v205q-29 13 -52 13q-35 0 -58 -32t-23 -87t23 -84.5z" />
    <glyph glyph-name="Dcroat" unicode="&#x110;" horiz-adv-x="739" 
d="M562.5 637q72.5 -43 109.5 -119t37 -174q0 -104 -41 -182t-115 -120t-169 -42h-304v270h-63l-17 143h80v267h308q102 0 174.5 -43zM479.5 195q41.5 52 41.5 149q0 86 -37.5 139.5t-104.5 53.5h-117v-124h107l17 -143h-124v-127h110q66 0 107.5 52z" />
    <glyph glyph-name="dcroat" unicode="&#x111;" horiz-adv-x="583" 
d="M583 550h-60v-550h-92l-28 37q-33 -21 -70 -34.5t-64 -13.5q-112 0 -180.5 64t-68.5 189q0 127 69.5 193.5t187.5 66.5q28 0 64 -13v61h-87l-17 113h104v32l182 11v-43h43zM231 158.5q23 -29.5 66 -29.5q22 0 44 15v205q-29 13 -52 13q-35 0 -58 -32t-23 -87t23 -84.5z
" />
    <glyph glyph-name="Emacron" unicode="&#x112;" horiz-adv-x="598" 
d="M578 0l-17 143h-299v127h226l-17 143h-209v124h286l-17 143h-451v-680h498zM188 763h290l-10 143h-280v-143z" />
    <glyph glyph-name="emacron" unicode="&#x113;" horiz-adv-x="533" 
d="M513 250q0 70 -26.5 127t-78.5 91t-127 34q-74 0 -133.5 -31.5t-93.5 -90.5t-34 -138q0 -80 37 -137.5t102.5 -86.5t150.5 -29q59 0 115.5 15t86.5 37l-51 123q-64 -33 -133 -33q-45 0 -72.5 17.5t-37.5 48.5h295v53zM231.5 335q19.5 21 44.5 21q31 0 47 -22t16 -47h-126
q-1 27 18.5 48zM130 613h290l-10 143h-280v-143z" />
    <glyph glyph-name="Edotaccent" unicode="&#x116;" horiz-adv-x="598" 
d="M578 0l-17 143h-299v127h226l-17 143h-209v124h286l-17 143h-451v-680h498zM402 770q25 26 25 66q0 39 -25.5 65.5t-64.5 26.5q-38 0 -65 -27t-27 -65q0 -39 26.5 -65.5t65.5 -26.5q40 0 65 26z" />
    <glyph glyph-name="edotaccent" unicode="&#x117;" horiz-adv-x="533" 
d="M513 250q0 70 -26.5 127t-78.5 91t-127 34q-74 0 -133.5 -31.5t-93.5 -90.5t-34 -138q0 -80 37 -137.5t102.5 -86.5t150.5 -29q59 0 115.5 15t86.5 37l-51 123q-64 -33 -133 -33q-45 0 -72.5 17.5t-37.5 48.5h295v53zM231.5 335q19.5 21 44.5 21q31 0 47 -22t16 -47h-126
q-1 27 18.5 48zM349 620q25 26 25 66q0 39 -25.5 65.5t-64.5 26.5q-38 0 -65 -27t-27 -65q0 -39 26.5 -65.5t65.5 -26.5q40 0 65 26z" />
    <glyph glyph-name="Eogonek" unicode="&#x118;" horiz-adv-x="598" 
d="M592 -193q-18 -21 -51 -34t-72 -13q-47 0 -80.5 20.5t-50.5 54t-17 72.5q0 17 7 45t16 48h-264v680h451l17 -143h-286v-124h209l17 -143h-226v-127h299l17 -143h-92q-10 -16 -19 -39.5t-9 -39.5q0 -12 8.5 -22t20.5 -10q11 0 21 4t23 16z" />
    <glyph glyph-name="eogonek" unicode="&#x119;" horiz-adv-x="533" 
d="M529 -193q-18 -21 -51 -34t-72 -13q-47 0 -80.5 20.5t-50.5 54t-17 72.5q0 16 5 39.5t13 43.5q-116 9 -186 74.5t-70 177.5q0 79 34 138t93.5 90.5t133.5 31.5q75 0 127 -34t78.5 -91t26.5 -127v-53h-295q10 -31 37.5 -48.5t72.5 -17.5q69 0 133 33l51 -123
q-31 -21 -85 -37q-11 -14 -21.5 -40t-10.5 -43q0 -12 8.5 -22t20.5 -10q11 0 21 4t23 16zM231.5 335q-19.5 -21 -18.5 -48h126q0 25 -16 47t-47 22q-25 0 -44.5 -21z" />
    <glyph glyph-name="Ecaron" unicode="&#x11a;" horiz-adv-x="598" 
d="M578 0l-17 143h-299v127h226l-17 143h-209v124h286l-17 143h-451v-680h498zM335 876l-53 62l-177 -20l174 -179h107l174 179l-173 20z" />
    <glyph glyph-name="ecaron" unicode="&#x11b;" horiz-adv-x="533" 
d="M513 250q0 70 -26.5 127t-78.5 91t-127 34q-74 0 -133.5 -31.5t-93.5 -90.5t-34 -138q0 -80 37 -137.5t102.5 -86.5t150.5 -29q59 0 115.5 15t86.5 37l-51 123q-64 -33 -133 -33q-45 0 -72.5 17.5t-37.5 48.5h295v53zM231.5 335q19.5 21 44.5 21q31 0 47 -22t16 -47h-126
q-1 27 18.5 48zM285 725l-53 62l-177 -20l174 -179h107l174 179l-173 20z" />
    <glyph glyph-name="Gbreve" unicode="&#x11e;" horiz-adv-x="666" 
d="M462 259v-117q-34 -6 -64 -6q-46 0 -87 21t-67 66.5t-26 114.5q0 66 27.5 112.5t70 70t85.5 23.5q38 0 76 -6.5t88 -23.5l54 123q-38 26 -101.5 41t-118.5 15q-101 0 -185.5 -43t-134 -124t-49.5 -189q0 -109 44.5 -188t126.5 -120.5t192 -41.5q57 0 126.5 13.5
t106.5 36.5v355h-265l-16 -133h117zM435.5 887.5q-13.5 -15.5 -37.5 -15.5t-37.5 15.5t-13.5 40.5h-129q0 -86 49 -137t131 -52q82 1 131 52t49 137h-129q0 -25 -13.5 -40.5z" />
    <glyph glyph-name="gbreve" unicode="&#x11f;" horiz-adv-x="579" 
d="M523 484v-500q0 -62 -33.5 -110.5t-94 -76t-139.5 -27.5q-42 0 -111 14.5t-111 41.5l55 128q44 -22 81 -29.5t73 -7.5q43 0 70.5 19.5t27.5 48.5v17q-37 -13 -72 -13q-112 0 -180.5 64t-68.5 189q0 127 69.5 193.5t187.5 66.5q72 0 131 -48l24 30h91zM341 144v205
q-29 13 -52 13q-35 0 -58 -32t-23 -87t23 -84.5t66 -29.5q22 0 44 15zM314.5 736.5q-13.5 -15.5 -37.5 -15.5t-37.5 15.5t-13.5 40.5h-129q0 -86 49 -137t131 -52q82 1 131 52t49 137h-129q0 -25 -13.5 -40.5z" />
    <glyph glyph-name="Gcommaaccent" unicode="&#x122;" horiz-adv-x="666" 
d="M462 259v-117q-34 -6 -64 -6q-46 0 -87 21t-67 66.5t-26 114.5q0 66 27.5 112.5t70 70t85.5 23.5q38 0 76 -6.5t88 -23.5l54 123q-38 26 -101.5 41t-118.5 15q-101 0 -185.5 -43t-134 -124t-49.5 -189q0 -109 44.5 -188t126.5 -120.5t192 -41.5q57 0 126.5 13.5
t106.5 36.5v355h-265l-16 -133h117zM330 -49.5q-27 -28.5 -27 -63.5q0 -24 12 -45t31 -33q-3 -12 -19.5 -27t-32.5 -24l36 -80q67 25 112 80t45 114q0 47 -26.5 77t-65.5 30q-38 0 -65 -28.5z" />
    <glyph glyph-name="gcommaaccent" unicode="&#x123;" horiz-adv-x="579" 
d="M207.5 571q-26.5 30 -26.5 77q0 59 45 114t112 80l36 -80q-16 -9 -32.5 -24t-19.5 -27q19 -12 31 -33t12 -45q0 -35 -27 -63.5t-65 -28.5q-39 0 -65.5 30zM523 484v-500q0 -62 -33.5 -110.5t-94 -76t-139.5 -27.5q-42 0 -111 14.5t-111 41.5l55 128q44 -22 81 -29.5
t73 -7.5q43 0 70.5 19.5t27.5 48.5v20q-42 -16 -72 -16q-112 0 -180.5 64t-68.5 189q0 127 69.5 193.5t187.5 66.5q25 0 61 -12.5t69 -36.5l25 31h91zM341 144v205q-29 13 -52 13q-35 0 -58 -32t-23 -87t23 -84.5t66 -29.5q22 0 44 15z" />
    <glyph glyph-name="Imacron" unicode="&#x12a;" horiz-adv-x="342" 
d="M262 0v680h-182v-680h182zM27 763h290l-10 143h-280v-143z" />
    <glyph glyph-name="imacron" unicode="&#x12b;" horiz-adv-x="282" 
d="M232 0v485h-182v-485h182zM-9 613h290l-10 143h-280v-143z" />
    <glyph glyph-name="Iogonek" unicode="&#x12e;" horiz-adv-x="342" 
d="M336 -198q-18 -21 -51 -34t-72 -13q-47 0 -80.5 20.5t-50.5 54t-17 72.5q0 22 4 51.5t11 46.5v680h182v-680q-23 -13 -41.5 -31t-18.5 -53q0 -12 8.5 -22t20.5 -10q11 0 21 4t23 16z" />
    <glyph glyph-name="iogonek" unicode="&#x12f;" horiz-adv-x="282" 
d="M79.5 620.5q-26.5 26.5 -26.5 65.5q0 38 27 65t65 27q39 0 64.5 -26.5t25.5 -65.5q0 -40 -25 -66t-65 -26q-39 0 -65.5 26.5zM306 -198q-18 -21 -51 -34t-72 -13q-47 0 -80.5 20.5t-50.5 54t-17 72.5q0 22 4 51.5t11 46.5v485h182v-485q-23 -13 -41.5 -31t-18.5 -53
q0 -12 8.5 -22t20.5 -10q11 0 21 4t23 16z" />
    <glyph glyph-name="Idotaccent" unicode="&#x130;" horiz-adv-x="342" 
d="M262 0v680h-182v-680h182zM241 770q25 26 25 66q0 39 -25.5 65.5t-64.5 26.5q-38 0 -65 -27t-27 -65q0 -39 26.5 -65.5t65.5 -26.5q40 0 65 26z" />
    <glyph glyph-name="dotlessi" unicode="&#x131;" horiz-adv-x="282" 
d="M232 0v485h-182v-485h182z" />
    <glyph glyph-name="Kcommaaccent" unicode="&#x136;" horiz-adv-x="730" 
d="M489 0l-174 254l-53 -50v-204h-182v680h182v-236l273 251l141 -102l-231 -216l275 -377h-231zM313 -49.5q-27 -28.5 -27 -63.5q0 -24 12 -45t31 -33q-3 -12 -19.5 -27t-32.5 -24l36 -80q67 25 112 80t45 114q0 47 -26.5 77t-65.5 30q-38 0 -65 -28.5z" />
    <glyph glyph-name="kcommaaccent" unicode="&#x137;" horiz-adv-x="567" 
d="M242 0v156l33 25l96 -181h196l-164 277l129 97l-109 125l-181 -153v360l-182 -11v-695h182zM244 -49.5q-27 -28.5 -27 -63.5q0 -24 12 -45t31 -33q-3 -12 -19.5 -27t-32.5 -24l36 -80q67 25 112 80t45 114q0 47 -26.5 77t-65.5 30q-38 0 -65 -28.5z" />
    <glyph glyph-name="Lacute" unicode="&#x139;" horiz-adv-x="578" 
d="M551 143h-289v537h-182v-680h488zM317 733l114 199h-180l-66 -177z" />
    <glyph glyph-name="lacute" unicode="&#x13a;" horiz-adv-x="302" 
d="M216 733l114 199h-180l-66 -177zM242 0v706l-182 -11v-695h182z" />
    <glyph glyph-name="Lcommaaccent" unicode="&#x13b;" horiz-adv-x="578" 
d="M551 143h-289v537h-182v-680h488zM270 -49.5q-27 -28.5 -27 -63.5q0 -24 12 -45t31 -33q-3 -12 -19.5 -27t-32.5 -24l36 -80q67 25 112 80t45 114q0 47 -26.5 77t-65.5 30q-38 0 -65 -28.5z" />
    <glyph glyph-name="lcommaaccent" unicode="&#x13c;" horiz-adv-x="302" 
d="M242 0v706l-182 -11v-695h182zM95 -49.5q-27 -28.5 -27 -63.5q0 -24 12 -45t31 -33q-3 -12 -19.5 -27t-32.5 -24l36 -80q67 25 112 80t45 114q0 47 -26.5 77t-65.5 30q-38 0 -65 -28.5z" />
    <glyph glyph-name="Lcaron" unicode="&#x13d;" horiz-adv-x="578" 
d="M551 143h-289v537h-182v-680h488zM410 713.5q-27 -28.5 -27 -63.5q0 -24 12 -45t31 -33q-3 -12 -19.5 -27t-32.5 -24l36 -80q67 25 112 80t45 114q0 47 -26.5 77t-65.5 30q-38 0 -65 -28.5z" />
    <glyph glyph-name="lcaron" unicode="&#x13e;" horiz-adv-x="514" 
d="M327 713.5q-27 -28.5 -27 -63.5q0 -24 12 -45t31 -33q-3 -12 -19.5 -27t-32.5 -24l36 -80q67 25 112 80t45 114q0 47 -26.5 77t-65.5 30q-38 0 -65 -28.5zM242 0v706l-182 -11v-695h182z" />
    <glyph glyph-name="Lslash" unicode="&#x141;" horiz-adv-x="578" 
d="M80 0v181l-24 -14l-56 139l80 49v325h182v-214l132 81l73 -133l-205 -123v-148h289l17 -143h-488z" />
    <glyph glyph-name="lslash" unicode="&#x142;" horiz-adv-x="386" 
d="M345 555l-65 -45v196l-182 -11v-311l-98 -68l40 -160l58 40v-196h182v322l106 73z" />
    <glyph glyph-name="Nacute" unicode="&#x143;" horiz-adv-x="773" 
d="M262 0v358l261 -358h170v680h-182v-369l-262 369h-169v-680h182zM437 733l114 199h-180l-66 -177z" />
    <glyph glyph-name="nacute" unicode="&#x144;" 
d="M232 326q24 11 53 19.5t45 8.5q28 0 40 -16.5t12 -41.5v-296h182v313q0 85 -44 136.5t-132 51.5q-92 0 -198 -66l-32 50h-108v-485h182v326zM396 588l114 199h-180l-66 -177z" />
    <glyph glyph-name="Ncommaaccent" unicode="&#x145;" horiz-adv-x="773" 
d="M262 0v358l261 -358h170v680h-182v-369l-262 369h-169v-680h182zM331 -49.5q-27 -28.5 -27 -63.5q0 -24 12 -45t31 -33q-3 -12 -19.5 -27t-32.5 -24l36 -80q67 25 112 80t45 114q0 47 -26.5 77t-65.5 30q-38 0 -65 -28.5z" />
    <glyph glyph-name="ncommaaccent" unicode="&#x146;" 
d="M232 326q24 11 53 19.5t45 8.5q28 0 40 -16.5t12 -41.5v-296h182v313q0 85 -44 136.5t-132 51.5q-92 0 -198 -66l-32 50h-108v-485h182v326zM239 -49.5q-27 -28.5 -27 -63.5q0 -24 12 -45t31 -33q-3 -12 -19.5 -27t-32.5 -24l36 -80q67 25 112 80t45 114q0 47 -26.5 77
t-65.5 30q-38 0 -65 -28.5z" />
    <glyph glyph-name="Ncaron" unicode="&#x147;" horiz-adv-x="773" 
d="M262 0v358l261 -358h170v680h-182v-369l-262 369h-169v-680h182zM381 876l-53 62l-177 -20l174 -179h107l174 179l-173 20z" />
    <glyph glyph-name="ncaron" unicode="&#x148;" 
d="M232 326q24 11 53 19.5t45 8.5q28 0 40 -16.5t12 -41.5v-296h182v313q0 85 -44 136.5t-132 51.5q-92 0 -198 -66l-32 50h-108v-485h182v326zM359 725l-53 62l-177 -20l174 -179h107l174 179l-173 20z" />
    <glyph glyph-name="Omacron" unicode="&#x14c;" horiz-adv-x="763" 
d="M200 648.5q-80 -45.5 -125 -127t-45 -184.5q0 -98 43 -178t122.5 -126.5t185.5 -46.5q103 0 183 45.5t124.5 127t44.5 185.5q0 98 -42.5 178t-122 126t-187.5 46q-101 0 -181 -45.5zM239.5 444.5q22.5 46.5 60 72t83.5 25.5q74 0 118.5 -55.5t44.5 -142.5
q0 -99 -46.5 -152.5t-119.5 -53.5q-76 0 -119.5 56t-43.5 144q0 60 22.5 106.5zM233 763h290l-10 143h-280v-143z" />
    <glyph glyph-name="omacron" unicode="&#x14d;" horiz-adv-x="590" 
d="M533.5 104q-36.5 -57 -100 -86t-142.5 -29q-122 0 -196.5 65.5t-74.5 190.5q0 79 36.5 137.5t99 89t139.5 30.5q81 0 143 -30t97 -89t35 -143q0 -79 -36.5 -136zM359 163q23 26 23 77q0 50 -22.5 82t-62.5 32q-42 0 -65.5 -29t-23.5 -80q0 -50 22 -79t63 -29q43 0 66 26z
M143 613h290l-10 143h-280v-143z" />
    <glyph glyph-name="Ohungarumlaut" unicode="&#x150;" horiz-adv-x="763" 
d="M200 648.5q-80 -45.5 -125 -127t-45 -184.5q0 -98 43 -178t122.5 -126.5t185.5 -46.5q103 0 183 45.5t124.5 127t44.5 185.5q0 98 -42.5 178t-122 126t-187.5 46q-101 0 -181 -45.5zM239.5 444.5q22.5 46.5 60 72t83.5 25.5q74 0 118.5 -55.5t44.5 -142.5
q0 -99 -46.5 -152.5t-119.5 -53.5q-76 0 -119.5 56t-43.5 144q0 60 22.5 106.5zM311 733l114 199h-180l-66 -177zM558 733l114 199h-180l-66 -177z" />
    <glyph glyph-name="ohungarumlaut" unicode="&#x151;" horiz-adv-x="590" 
d="M533.5 104q-36.5 -57 -100 -86t-142.5 -29q-122 0 -196.5 65.5t-74.5 190.5q0 79 36.5 137.5t99 89t139.5 30.5q81 0 143 -30t97 -89t35 -143q0 -79 -36.5 -136zM359 163q23 26 23 77q0 50 -22.5 82t-62.5 32q-42 0 -65.5 -29t-23.5 -80q0 -50 22 -79t63 -29q43 0 66 26z
M222 588l114 199h-180l-66 -177zM469 588l114 199h-180l-66 -177z" />
    <glyph glyph-name="OE" unicode="&#x152;" horiz-adv-x="1032" 
d="M514 0v6q-66 -19 -131 -19q-108 0 -188 44.5t-122.5 123.5t-42.5 182t45 184t124.5 126.5t179.5 45.5q70 0 135 -24v11h451l17 -143h-286v-124h209l17 -143h-226v-127h299l17 -143h-498zM514 171v347q-47 16 -73.5 21t-59.5 5q-41 0 -78.5 -26t-61 -73t-23.5 -107
q0 -61 24 -107t63.5 -70.5t82.5 -24.5q65 0 126 35z" />
    <glyph glyph-name="oe" unicode="&#x153;" horiz-adv-x="856" 
d="M836 197h-295q10 -31 37.5 -48.5t72.5 -17.5q69 0 133 33l51 -123q-30 -22 -86.5 -37t-115.5 -15q-110 0 -184 47q-63 -47 -164 -47q-120 0 -192.5 66.5t-72.5 186.5q0 80 33.5 139t93.5 90t138 31q100 0 162 -46q66 46 157 46q75 0 127 -34t78.5 -91t26.5 -127v-53z
M662 287q0 25 -16 47t-47 22q-25 0 -44.5 -21t-18.5 -48h126zM236 165q28 -28 67 -28q31 0 57 9q-17 43 -17 96q0 58 18 103q-24 9 -58 9q-38 0 -66.5 -31t-28.5 -81q0 -49 28 -77z" />
    <glyph glyph-name="Racute" unicode="&#x154;" horiz-adv-x="714" 
d="M80 0h182v214h121l110 -214h211l-150 268q43 29 67.5 74.5t24.5 105.5q0 116 -79 174t-201 58h-286v-680zM432.5 514.5q25.5 -22.5 25.5 -66.5q0 -40 -27 -65.5t-69 -25.5h-100v180h98q47 0 72.5 -22.5zM415 733l114 199h-180l-66 -177z" />
    <glyph glyph-name="racute" unicode="&#x155;" horiz-adv-x="395" 
d="M232 285q31 24 74 39t79 15l-37 146q-38 0 -83 -18t-80 -42l-44 59h-91v-484h182v285zM245 588l114 199h-180l-66 -177z" />
    <glyph glyph-name="Rcommaaccent" unicode="&#x156;" horiz-adv-x="714" 
d="M80 0h182v214h121l110 -214h211l-150 268q43 29 67.5 74.5t24.5 105.5q0 116 -79 174t-201 58h-286v-680zM432.5 514.5q25.5 -22.5 25.5 -66.5q0 -40 -27 -65.5t-69 -25.5h-100v180h98q47 0 72.5 -22.5zM318 -49.5q-27 -28.5 -27 -63.5q0 -24 12 -45t31 -33
q-3 -12 -19.5 -27t-32.5 -24l36 -80q67 25 112 80t45 114q0 47 -26.5 77t-65.5 30q-38 0 -65 -28.5z" />
    <glyph glyph-name="rcommaaccent" unicode="&#x157;" horiz-adv-x="395" 
d="M232 285q31 24 74 39t79 15l-37 146q-38 0 -83 -18t-80 -42l-44 59h-91v-484h182v285zM76 -49.5q-27 -28.5 -27 -63.5q0 -24 12 -45t31 -33q-3 -12 -19.5 -27t-32.5 -24l36 -80q67 25 112 80t45 114q0 47 -26.5 77t-65.5 30q-38 0 -65 -28.5z" />
    <glyph glyph-name="Rcaron" unicode="&#x158;" horiz-adv-x="714" 
d="M80 0h182v214h121l110 -214h211l-150 268q43 29 67.5 74.5t24.5 105.5q0 116 -79 174t-201 58h-286v-680zM432.5 514.5q25.5 -22.5 25.5 -66.5q0 -40 -27 -65.5t-69 -25.5h-100v180h98q47 0 72.5 -22.5zM359 876l-53 62l-177 -20l174 -179h107l174 179l-173 20z" />
    <glyph glyph-name="rcaron" unicode="&#x159;" horiz-adv-x="395" 
d="M232 285q31 24 74 39t79 15l-37 146q-38 0 -83 -18t-80 -42l-44 59h-91v-484h182v285zM208 725l-53 62l-177 -20l174 -179h107l174 179l-173 20z" />
    <glyph glyph-name="Sacute" unicode="&#x15a;" horiz-adv-x="547" 
d="M137.5 3q65.5 -16 118.5 -16q82 0 143.5 26t94.5 71t33 103q0 52 -29.5 93.5t-71.5 72t-105 66.5l-36 20q-36 19 -51.5 30.5t-15.5 26.5q0 20 18.5 34t48.5 14q34 0 62.5 -6t81.5 -24l54 123q-39 26 -93.5 41t-106.5 15q-76 0 -133 -25t-88.5 -69.5t-31.5 -100.5
q0 -53 30 -95t68 -68.5t106 -66.5l31 -18q39 -23 56.5 -35.5t17.5 -25.5q0 -20 -24 -36.5t-64 -16.5q-36 0 -83.5 13.5t-74.5 29.5l-60 -137q39 -23 104.5 -39zM339 733l114 199h-180l-66 -177z" />
    <glyph glyph-name="sacute" unicode="&#x15b;" horiz-adv-x="451" 
d="M122.5 3q63.5 -14 106.5 -14q100 0 151 42.5t51 119.5q0 60 -47.5 97.5t-122.5 63.5q-23 8 -37 16t-14 14q0 10 14 16t36 6q26 0 57.5 -8t61.5 -21l51 115q-37 29 -88.5 40.5t-94.5 11.5q-101 0 -158 -43t-57 -119q0 -60 48.5 -97t124.5 -64q21 -7 34.5 -15.5t13.5 -14.5
q0 -10 -12 -16t-30 -6q-26 0 -67.5 10t-70.5 24l-51 -115q37 -29 100.5 -43zM287 588l114 199h-180l-66 -177z" />
    <glyph glyph-name="Scedilla" unicode="&#x15e;" horiz-adv-x="547" 
d="M471.5 58q-55.5 -53 -152.5 -67l-12 -30q34 -11 51 -41.5t17 -61.5q0 -55 -42 -87.5t-99 -32.5q-29 0 -60 11t-56 30l38 86q39 -15 56 -15q13 0 22 4.5t9 13.5q0 29 -85 38l35 86q-46 7 -89.5 20t-70.5 30l60 137q27 -16 74.5 -29.5t83.5 -13.5q40 0 64 16.5t24 36.5
q0 13 -17.5 25.5t-56.5 35.5l-31 18q-68 40 -106 66.5t-68 68.5t-30 95q0 56 31.5 100.5t88.5 69.5t133 25q52 0 106.5 -15t93.5 -41l-54 -123q-53 18 -81.5 24t-62.5 6q-30 0 -48.5 -14t-18.5 -34q0 -15 15.5 -26.5t51.5 -30.5l36 -20q63 -36 105 -66.5t71.5 -72
t29.5 -93.5q0 -76 -55.5 -129z" />
    <glyph glyph-name="scedilla" unicode="&#x15f;" horiz-adv-x="451" 
d="M396 47q-35 -40 -103 -53l-13 -33q34 -11 51 -41.5t17 -61.5q0 -55 -42 -87.5t-99 -32.5q-29 0 -60 11t-56 30l38 86q39 -15 56 -15q13 0 22 4.5t9 13.5q0 29 -85 38l36 89q-99 14 -145 51l51 115q29 -14 70.5 -24t67.5 -10q18 0 30 6t12 16q0 6 -13.5 14.5t-34.5 15.5
q-76 27 -124.5 64t-48.5 97q0 76 57 119t158 43q43 0 94.5 -11.5t88.5 -40.5l-51 -115q-30 13 -61.5 21t-57.5 8q-22 0 -36 -6t-14 -16q0 -6 14 -14t37 -16q75 -26 122.5 -63.5t47.5 -97.5q0 -64 -35 -104z" />
    <glyph glyph-name="Scaron" unicode="&#x160;" horiz-adv-x="547" 
d="M137.5 3q65.5 -16 118.5 -16q82 0 143.5 26t94.5 71t33 103q0 52 -29.5 93.5t-71.5 72t-105 66.5l-36 20q-36 19 -51.5 30.5t-15.5 26.5q0 20 18.5 34t48.5 14q34 0 62.5 -6t81.5 -24l54 123q-39 26 -93.5 41t-106.5 15q-76 0 -133 -25t-88.5 -69.5t-31.5 -100.5
q0 -53 30 -95t68 -68.5t106 -66.5l31 -18q39 -23 56.5 -35.5t17.5 -25.5q0 -20 -24 -36.5t-64 -16.5q-36 0 -83.5 13.5t-74.5 29.5l-60 -137q39 -23 104.5 -39zM283 876l-53 62l-177 -20l174 -179h107l174 179l-173 20z" />
    <glyph glyph-name="scaron" unicode="&#x161;" horiz-adv-x="451" 
d="M122.5 3q63.5 -14 106.5 -14q100 0 151 42.5t51 119.5q0 60 -47.5 97.5t-122.5 63.5q-23 8 -37 16t-14 14q0 10 14 16t36 6q26 0 57.5 -8t61.5 -21l51 115q-37 29 -88.5 40.5t-94.5 11.5q-101 0 -158 -43t-57 -119q0 -60 48.5 -97t124.5 -64q21 -7 34.5 -15.5t13.5 -14.5
q0 -10 -12 -16t-30 -6q-26 0 -67.5 10t-70.5 24l-51 -115q37 -29 100.5 -43zM250 725l-53 62l-177 -20l174 -179h107l174 179l-173 20z" />
    <glyph glyph-name="Tcedilla" unicode="&#x162;" horiz-adv-x="619" 
d="M408 -80.5q17 -30.5 17 -61.5q0 -55 -42 -87.5t-99 -32.5q-29 0 -60 11t-56 30l38 86q39 -15 56 -15q13 0 22 4.5t9 13.5q0 29 -85 38l38 94h-36v537h-200v143h582l17 -143h-217v-537h-20l-15 -39q34 -11 51 -41.5z" />
    <glyph glyph-name="tcedilla" unicode="&#x163;" horiz-adv-x="456" 
d="M371 -80.5q17 -30.5 17 -61.5q0 -55 -42 -87.5t-99 -32.5q-29 0 -60 11t-56 30l38 86q39 -15 56 -15q13 0 22 4.5t9 13.5q0 29 -85 38l40 100q-57 21 -91.5 66t-34.5 110v140h-75v143h75v131l182 25v-156h127l17 -143h-144v-120q0 -30 15.5 -47.5t41.5 -17.5q36 0 70 19
l52 -124q-16 -14 -49.5 -26t-65.5 -16l-11 -29q34 -11 51 -41.5z" />
    <glyph glyph-name="Tcaron" unicode="&#x164;" horiz-adv-x="619" 
d="M592 680h-582v-143h200v-537h182v537h217zM307 876l-53 62l-177 -20l174 -179h107l174 179l-173 20z" />
    <glyph glyph-name="tcaron" unicode="&#x165;" horiz-adv-x="641" 
d="M454 713.5q-27 -28.5 -27 -63.5q0 -24 12 -45t31 -33q-3 -12 -19.5 -27t-32.5 -24l36 -80q67 25 112 80t45 114q0 47 -26.5 77t-65.5 30q-38 0 -65 -28.5zM267 465v156l-182 -25v-131h-75v-143h75v-140q0 -62 31.5 -105.5t83.5 -65.5t112 -22q34 0 74.5 13.5t59.5 29.5
l-52 124q-34 -19 -70 -19q-26 0 -41.5 17.5t-15.5 47.5v120h144l-17 143h-127z" />
    <glyph glyph-name="Umacron" unicode="&#x16a;" horiz-adv-x="750" 
d="M70 680v-420q0 -87 38 -148.5t107 -93.5t160 -32t160 32t107 93.5t38 148.5v420h-182v-411q0 -62 -34 -96.5t-89 -34.5t-89 34.5t-34 96.5v411h-182zM227 763h290l-10 143h-280v-143z" />
    <glyph glyph-name="umacron" unicode="&#x16b;" 
d="M378 158q-24 -11 -53 -19.5t-45 -8.5q-28 0 -40 16.5t-12 41.5v296h-182v-313q0 -85 44 -136.5t132 -51.5q92 0 198 66l52 -50h88v485h-182v-326zM153 613h290l-10 143h-280v-143z" />
    <glyph glyph-name="Uring" unicode="&#x16e;" horiz-adv-x="750" 
d="M70 680v-420q0 -87 38 -148.5t107 -93.5t160 -32t160 32t107 93.5t38 148.5v420h-182v-411q0 -62 -34 -96.5t-89 -34.5t-89 34.5t-34 96.5v411h-182zM286.5 942q-36.5 -34 -36.5 -83q0 -50 36 -82.5t87 -32.5q50 0 86.5 32.5t36.5 82.5q0 32 -17 59t-45.5 42.5
t-60.5 15.5q-50 0 -86.5 -34zM354 838q-9 9 -9 21t9 20t21 8t20 -8t8 -20t-8 -21t-20 -9t-21 9z" />
    <glyph glyph-name="uring" unicode="&#x16f;" 
d="M378 158q-24 -11 -53 -19.5t-45 -8.5q-28 0 -40 16.5t-12 41.5v296h-182v-313q0 -85 44 -136.5t132 -51.5q92 0 198 66l52 -50h88v485h-182v-326zM217.5 792q-36.5 -34 -36.5 -83q0 -50 36 -82.5t87 -32.5q50 0 86.5 32.5t36.5 82.5q0 32 -17 59t-45.5 42.5t-60.5 15.5
q-50 0 -86.5 -34zM285 688q-9 9 -9 21t9 20t21 8t20 -8t8 -20t-8 -21t-20 -9t-21 9z" />
    <glyph glyph-name="Uhungarumlaut" unicode="&#x170;" horiz-adv-x="750" 
d="M70 680v-420q0 -87 38 -148.5t107 -93.5t160 -32t160 32t107 93.5t38 148.5v420h-182v-411q0 -62 -34 -96.5t-89 -34.5t-89 34.5t-34 96.5v411h-182zM305 733l114 199h-180l-66 -177zM552 733l114 199h-180l-66 -177z" />
    <glyph glyph-name="uhungarumlaut" unicode="&#x171;" 
d="M378 158q-24 -11 -53 -19.5t-45 -8.5q-28 0 -40 16.5t-12 41.5v296h-182v-313q0 -85 44 -136.5t132 -51.5q92 0 198 66l52 -50h88v485h-182v-326zM232 588l114 199h-180l-66 -177zM479 588l114 199h-180l-66 -177z" />
    <glyph glyph-name="Uogonek" unicode="&#x172;" horiz-adv-x="750" 
d="M680 680v-420q0 -114 -65 -184t-176 -86q-9 -16 -16 -35.5t-7 -33.5q0 -12 8.5 -22t20.5 -10q11 0 21 4t23 16l61 -102q-18 -21 -51 -34t-72 -13q-47 0 -80.5 20.5t-50.5 54t-17 72.5q0 15 5.5 40t13.5 45q-106 19 -167 88t-61 180v420h182v-411q0 -62 34 -96.5t89 -34.5
t89 34.5t34 96.5v411h182z" />
    <glyph glyph-name="uogonek" unicode="&#x173;" 
d="M662 -199q-18 -21 -51 -34t-72 -13q-46 0 -79.5 20t-51 51.5t-17.5 65.5q0 33 7.5 64.5t34.5 81.5l-13 12q-106 -66 -198 -66q-88 0 -132 51.5t-44 136.5v313h182v-296q0 -25 12 -41.5t40 -16.5q16 0 45 8.5t53 19.5v326h182v-485q-11 -14 -21.5 -40t-10.5 -44
q0 -12 8.5 -22t20.5 -10q11 0 21 4t23 16z" />
    <glyph glyph-name="Ydieresis" unicode="&#x178;" horiz-adv-x="654" 
d="M408 0v266l236 414h-187l-141 -245l-132 259l-174 -48l216 -378v-268h182zM271 777q24 24 24 59q0 34 -24 58.5t-60 24.5q-33 0 -58 -24.5t-25 -58.5q0 -35 24.5 -59t58.5 -24q36 0 60 24zM482 777q24 24 24 59q0 34 -24 58.5t-60 24.5q-33 0 -58 -24.5t-25 -58.5
q0 -35 24.5 -59t58.5 -24q36 0 60 24z" />
    <glyph glyph-name="Zacute" unicode="&#x179;" horiz-adv-x="584" 
d="M554 143h-334l354 408l-19 129h-516l17 -143h301l-347 -409l20 -128h541zM347 733l114 199h-180l-66 -177z" />
    <glyph glyph-name="zacute" unicode="&#x17a;" horiz-adv-x="452" 
d="M417 485h-387l17 -143h160l-199 -248l22 -94h414l-17 143h-197l196 241zM264 588l114 199h-180l-66 -177z" />
    <glyph glyph-name="Zdotaccent" unicode="&#x17b;" horiz-adv-x="584" 
d="M554 143h-334l354 408l-19 129h-516l17 -143h301l-347 -409l20 -128h541zM358 770q25 26 25 66q0 39 -25.5 65.5t-64.5 26.5q-38 0 -65 -27t-27 -65q0 -39 26.5 -65.5t65.5 -26.5q40 0 65 26z" />
    <glyph glyph-name="zdotaccent" unicode="&#x17c;" horiz-adv-x="452" 
d="M417 485h-387l17 -143h160l-199 -248l22 -94h414l-17 143h-197l196 241zM291 620q25 26 25 66q0 39 -25.5 65.5t-64.5 26.5q-38 0 -65 -27t-27 -65q0 -39 26.5 -65.5t65.5 -26.5q40 0 65 26z" />
    <glyph glyph-name="Zcaron" unicode="&#x17d;" horiz-adv-x="584" 
d="M554 143h-334l354 408l-19 129h-516l17 -143h301l-347 -409l20 -128h541zM291 876l-53 62l-177 -20l174 -179h107l174 179l-173 20z" />
    <glyph glyph-name="zcaron" unicode="&#x17e;" horiz-adv-x="452" 
d="M417 485h-387l17 -143h160l-199 -248l22 -94h414l-17 143h-197l196 241zM227 725l-53 62l-177 -20l174 -179h107l174 179l-173 20z" />
    <glyph glyph-name="florin" unicode="&#x192;" horiz-adv-x="560" 
d="M109 308h80v-218q0 -30 -17.5 -47.5t-49.5 -17.5q-14 0 -34 5t-36 14l-52 -124q19 -16 59.5 -29.5t74.5 -13.5q64 0 118 22t86.5 65.5t32.5 105.5v238h151l-17 143h-134v39q0 30 17.5 47.5t49.5 17.5q14 0 34 -5t36 -14l52 124q-19 16 -59.5 29.5t-74.5 13.5
q-64 0 -118 -22t-86.5 -65.5t-32.5 -105.5v-59h-80v-143z" />
    <glyph glyph-name="Scommaaccent" unicode="&#x218;" horiz-adv-x="547" 
d="M137.5 3q65.5 -16 118.5 -16q82 0 143.5 26t94.5 71t33 103q0 52 -29.5 93.5t-71.5 72t-105 66.5l-36 20q-36 19 -51.5 30.5t-15.5 26.5q0 20 18.5 34t48.5 14q34 0 62.5 -6t81.5 -24l54 123q-39 26 -93.5 41t-106.5 15q-76 0 -133 -25t-88.5 -69.5t-31.5 -100.5
q0 -53 30 -95t68 -68.5t106 -66.5l31 -18q39 -23 56.5 -35.5t17.5 -25.5q0 -20 -24 -36.5t-64 -16.5q-36 0 -83.5 13.5t-74.5 29.5l-60 -137q39 -23 104.5 -39zM193 -49.5q-27 -28.5 -27 -63.5q0 -24 12 -45t31 -33q-3 -12 -19.5 -27t-32.5 -24l36 -80q67 25 112 80t45 114
q0 47 -26.5 77t-65.5 30q-38 0 -65 -28.5z" />
    <glyph glyph-name="scommaaccent" unicode="&#x219;" horiz-adv-x="451" 
d="M122.5 3q63.5 -14 106.5 -14q100 0 151 42.5t51 119.5q0 60 -47.5 97.5t-122.5 63.5q-23 8 -37 16t-14 14q0 10 14 16t36 6q26 0 57.5 -8t61.5 -21l51 115q-37 29 -88.5 40.5t-94.5 11.5q-101 0 -158 -43t-57 -119q0 -60 48.5 -97t124.5 -64q21 -7 34.5 -15.5t13.5 -14.5
q0 -10 -12 -16t-30 -6q-26 0 -67.5 10t-70.5 24l-51 -115q37 -29 100.5 -43zM166 -49.5q-27 -28.5 -27 -63.5q0 -24 12 -45t31 -33q-3 -12 -19.5 -27t-32.5 -24l36 -80q67 25 112 80t45 114q0 47 -26.5 77t-65.5 30q-38 0 -65 -28.5z" />
    <glyph glyph-name="Tcommaaccent" unicode="&#x21a;" horiz-adv-x="619" 
d="M592 680h-582v-143h200v-537h182v537h217zM243 -49.5q-27 -28.5 -27 -63.5q0 -24 12 -45t31 -33q-3 -12 -19.5 -27t-32.5 -24l36 -80q67 25 112 80t45 114q0 47 -26.5 77t-65.5 30q-38 0 -65 -28.5z" />
    <glyph glyph-name="tcommaaccent" unicode="&#x21b;" horiz-adv-x="456" 
d="M267 465v156l-182 -25v-131h-75v-143h75v-140q0 -62 31.5 -105.5t83.5 -65.5t112 -22q34 0 74.5 13.5t59.5 29.5l-52 124q-34 -19 -70 -19q-26 0 -41.5 17.5t-15.5 47.5v120h144l-17 143h-127zM206 -49.5q-27 -28.5 -27 -63.5q0 -24 12 -45t31 -33q-3 -12 -19.5 -27
t-32.5 -24l36 -80q67 25 112 80t45 114q0 47 -26.5 77t-65.5 30q-38 0 -65 -28.5z" />
    <glyph glyph-name="circumflex" unicode="&#x2c6;" horiz-adv-x="475" 
d="M240 650l52 -62l173 20l-174 179h-107l-174 -179l177 -20z" />
    <glyph glyph-name="caron" unicode="&#x2c7;" horiz-adv-x="475" 
d="M240 725l-53 62l-177 -20l174 -179h107l174 179l-173 20z" />
    <glyph glyph-name="uni02C9" unicode="&#x2c9;" horiz-adv-x="310" 
d="M10 613h290l-10 143h-280v-143z" />
    <glyph glyph-name="breve" unicode="&#x2d8;" horiz-adv-x="380" 
d="M227.5 736.5q-13.5 -15.5 -37.5 -15.5t-37.5 15.5t-13.5 40.5h-129q0 -86 49 -137t131 -52q82 1 131 52t49 137h-129q0 -25 -13.5 -40.5z" />
    <glyph glyph-name="dotaccent" unicode="&#x2d9;" horiz-adv-x="202" 
d="M167 620q25 26 25 66q0 39 -25.5 65.5t-64.5 26.5q-38 0 -65 -27t-27 -65q0 -39 26.5 -65.5t65.5 -26.5q40 0 65 26z" />
    <glyph glyph-name="ring" unicode="&#x2da;" horiz-adv-x="266" 
d="M46.5 792q-36.5 -34 -36.5 -83q0 -50 36 -82.5t87 -32.5q50 0 86.5 32.5t36.5 82.5q0 32 -17 59t-45.5 42.5t-60.5 15.5q-50 0 -86.5 -34zM114 688q-9 9 -9 21t9 20t21 8t20 -8t8 -20t-8 -21t-20 -9t-21 9z" />
    <glyph glyph-name="ogonek" unicode="&#x2db;" horiz-adv-x="291" 
d="M17.5 -44q-7.5 -30 -7.5 -49q0 -39 17 -72.5t50.5 -54t80.5 -20.5q39 0 72 13t51 34l-61 102q-13 -12 -23 -16t-21 -4q-12 0 -20.5 10t-8.5 22q0 18 10.5 44t21.5 40h-144q-10 -19 -17.5 -49z" />
    <glyph glyph-name="tilde" unicode="&#x2dc;" horiz-adv-x="391" 
d="M252 736q-7 -10 -15 -10q-13 0 -22.5 4t-24.5 12q-14 9 -25.5 13.5t-27.5 4.5q-53 0 -90 -38.5t-37 -121.5h126q0 9 7 19t15 10q14 0 23 -4t23 -12q14 -9 25.5 -13.5t28.5 -4.5q52 0 87.5 38.5t35.5 121.5h-122q0 -9 -7 -19z" />
    <glyph glyph-name="hungarumlaut" unicode="&#x2dd;" horiz-adv-x="513" 
d="M142 588l114 199h-180l-66 -177zM389 588l114 199h-180l-66 -177z" />
    <glyph glyph-name="pi" unicode="&#x3c0;" horiz-adv-x="722" 
d="M292 0v342h138v-342h182v342h100v143h-702v-143h100v-342h182z" />
    <glyph glyph-name="tm_Anusvara" unicode="&#xb82;" horiz-adv-x="0" 
d="M107.5 662.5q42.5 40.5 42.5 102.5q0 63 -42.5 104t-107.5 41t-107 -41t-42 -104q0 -62 42 -102.5t107 -40.5t107.5 40.5zM-27.5 738q-10.5 11 -10.5 27q0 18 10.5 29t27.5 11q18 0 29.5 -11t11.5 -29q0 -16 -12 -27t-29 -11t-27.5 11z" />
    <glyph glyph-name="tm_Visarga" unicode="&#xb83;" horiz-adv-x="757" 
d="M485.5 306.5q42.5 40.5 42.5 102.5t-42.5 103.5t-107.5 41.5t-107 -41t-42 -104q0 -62 42 -102.5t107 -40.5t107.5 40.5zM350.5 381q-10.5 11 -10.5 28t10.5 28t27.5 11t28.5 -11t11.5 -28t-11.5 -28t-28.5 -11t-27.5 11zM296.5 27q42.5 41 42.5 103t-42.5 103.5
t-107.5 41.5t-107 -41t-42 -104q0 -62 42 -103t107 -41t107.5 41zM674.5 27q42.5 41 42.5 103t-42.5 103.5t-107.5 41.5t-107 -41t-42 -104q0 -62 42 -103t107 -41t107.5 41zM161.5 102q-10.5 11 -10.5 28t10.5 28t27.5 11t28.5 -11t11.5 -28t-11.5 -28t-28.5 -11t-27.5 11z
M539.5 102q-10.5 11 -10.5 28t10.5 28t27.5 11t28.5 -11t11.5 -28t-11.5 -28t-28.5 -11t-27.5 11z" />
    <glyph glyph-name="tm_A" unicode="&#xb85;" horiz-adv-x="1136" 
d="M1051 513v-639h-164v167h-188q-54 -86 -156.5 -135.5t-239.5 -49.5q-86 0 -149 22.5t-96 61.5t-33 89q0 64 44 102t123 38h384q4 23 4 55q0 74 -33.5 119.5t-88.5 52.5q18 -29 18 -65q-1 -61 -41 -100.5t-101 -39.5q-67 0 -110.5 40.5t-43.5 103.5q0 56 33.5 100.5t92 70
t132.5 25.5q88 0 159.5 -39.5t113 -110t41.5 -157.5q0 -31 -4 -55h139v344h164zM355 306q9 9 9 23q0 13 -8.5 21.5t-22.5 8.5t-23.5 -8.5t-9.5 -21.5q0 -14 9 -23t23 -9t23 9zM501 41h-289q-16 0 -23 -4t-7 -14q0 -12 30.5 -20.5t90.5 -8.5q130 0 198 47z" />
    <glyph glyph-name="tm_Aa" unicode="&#xb86;" horiz-adv-x="1341" 
d="M1244 94q43 -26 65 -70t22 -95q0 -88 -57 -157.5t-160 -109t-236 -39.5q-87 0 -148.5 24t-92.5 65.5t-31 93.5q0 42 23 76.5t65.5 54t100.5 19.5h21v-129h-21q-14 0 -23.5 -6.5t-9.5 -19.5q0 -18 25.5 -29t81.5 -11q290 0 290 162q0 26 -14.5 42.5t-35.5 16.5
q-27 0 -42.5 -17.5t-15.5 -44.5v-46h-164v167h-188q-54 -86 -156.5 -135.5t-239.5 -49.5q-86 0 -149 22.5t-96 61.5t-33 89q0 64 44 102t123 38h384q4 23 4 55q0 74 -33.5 119.5t-88.5 52.5q18 -29 18 -65q-1 -61 -41 -100.5t-101 -39.5q-67 0 -110.5 40.5t-43.5 103.5
q0 56 33.5 100.5t92 70t132.5 25.5q88 0 159.5 -39.5t113 -110t41.5 -157.5q0 -31 -4 -55h139v344h164v-414q42 21 89 21q61 0 104 -26zM355 306q9 9 9 23q0 13 -8.5 21.5t-22.5 8.5t-23.5 -8.5t-9.5 -21.5q0 -14 9 -23t23 -9t23 9zM501 41h-289q-16 0 -23 -4t-7 -14
q0 -12 30.5 -20.5t90.5 -8.5q130 0 198 47z" />
    <glyph glyph-name="tm_I" unicode="&#xb87;" horiz-adv-x="1161" 
d="M844.5 662.5q112.5 -48.5 174.5 -135t62 -195.5v-479l-164 -1v477q0 73 -40.5 128t-115.5 85.5t-174 30.5q-160 0 -244 -67.5t-84 -183.5q0 -89 44 -169q85 17 180 17q80 0 144 -13q34 68 34 145q0 41 -20 65.5t-57 28.5q18 -29 18 -65q-1 -61 -41 -100.5t-101 -39.5
q-68 0 -111.5 40.5t-43.5 103.5q0 56 33.5 100.5t92.5 70t133 25.5q77 0 136.5 -29.5t92.5 -81.5t33 -118q0 -105 -48 -196q58 -31 89.5 -74.5t31.5 -93.5q0 -63 -49.5 -99.5t-133.5 -36.5q-137 0 -257 44q-118 -44 -255 -44q-84 0 -134 36.5t-50 99.5q0 47 32 88.5t91 72.5
q-58 105 -58 223q0 113 61.5 201.5t175 138t265.5 49.5q145 0 257.5 -48.5zM488 299q12 12 12 30q0 17 -12 28.5t-30 11.5q-16 0 -28 -9q-15 -13 -15 -31t12 -30t31 -12q18 0 30 12zM389 44q36 -33 75 -56q43 25 80 59q-28 3 -59 3q-51 0 -96 -6zM700 -2q-35 -36 -80 -69
q35 -7 76 -7q17 0 28 6.5t11 16.5q0 28 -35 53zM299 -71q-42 29 -77 65q-37 -23 -37 -49q0 -10 10.5 -16.5t26.5 -6.5q42 0 77 7z" />
    <glyph glyph-name="tm_Ii" unicode="&#xb88;" horiz-adv-x="941" 
d="M511 0v384h-267v-384h-164v513h836l15 -129h-256v-384h-164zM445 130q27 26 27 66q0 41 -27 68t-68 27q-40 0 -66.5 -27t-26.5 -68q0 -40 26 -66t67 -26t68 26zM876 130q27 26 27 66q0 41 -27 68t-68 27q-40 0 -66.5 -27t-26.5 -68q0 -40 26 -66t67 -26t68 26z" />
    <glyph glyph-name="tm_U" unicode="&#xb89;" horiz-adv-x="1061" 
d="M1051 129v-129h-984v129h220q72 0 113 37t41 98q0 57 -34.5 93t-93.5 36q-19 0 -28 -1q29 -16 45 -44t16 -64q0 -37 -21 -67.5t-57.5 -47.5t-81.5 -17q-73 0 -119.5 40.5t-46.5 103.5q0 69 37.5 122.5t103.5 83t150 29.5q87 0 156 -34.5t107.5 -95t38.5 -137.5t-43 -135
h481zM216 263.5q11 10.5 11 26.5q0 17 -11 28t-28 11t-27.5 -11t-10.5 -28q0 -16 11 -26.5t28 -10.5q16 0 27 10.5z" />
    <glyph glyph-name="tm_Uu" unicode="&#xb8a;" horiz-adv-x="1601" 
d="M1591 129v-129h-1524v129h220q72 0 113 37t41 98q0 57 -34.5 93t-93.5 36q-19 0 -28 -1q29 -17 45 -44.5t16 -63.5q0 -37 -21 -67.5t-57.5 -47.5t-81.5 -17q-73 0 -119.5 40.5t-46.5 103.5q0 69 37.5 122.5t103.5 83t150 29.5q87 0 156 -34.5t107.5 -95t38.5 -137.5
t-43 -135h1021zM762.5 176q-50.5 23 -77.5 63t-27 88q0 60 30 106t88 72t139 26q84 0 142 -38v20h492l15 -120h-107l1 -220h-155v221h-92l1 -221h-155v151q0 21 -18 41t-48 33t-66 13q-57 0 -89.5 -23.5t-32.5 -60.5v-8q13 25 38 39.5t58 14.5q53 0 87 -29t34 -74
q0 -50 -39.5 -83.5t-100.5 -33.5q-67 0 -117.5 23zM216 263.5q11 10.5 11 26.5q0 17 -11 28t-28 11t-27.5 -11t-10.5 -28q0 -16 11 -26.5t28 -10.5q16 0 27 10.5zM871.5 288q-9.5 -9 -9.5 -22t9.5 -21.5t23.5 -8.5q13 0 22 8.5t9 21.5q0 14 -8.5 22.5t-22.5 8.5t-23.5 -9z
" />
    <glyph glyph-name="tm_E" unicode="&#xb8e;" horiz-adv-x="954" 
d="M944 384h-158v-384h-164v384h-222q-91 0 -138.5 -40t-47.5 -107q0 -23 4 -39q11 55 57 89t111 34q54 0 96.5 -20.5t66.5 -56.5t24 -81q0 -52 -26 -93.5t-75 -64.5t-115 -23q-91 0 -163 33t-113 91t-41 131q0 80 42.5 142.5t123.5 98t192 35.5h530zM345 191
q-13 -13 -13 -33t13 -33.5t34 -13.5q19 0 32 13.5t13 33.5t-12.5 33t-32.5 13q-21 0 -34 -13z" />
    <glyph glyph-name="tm_Ee" unicode="&#xb8f;" horiz-adv-x="954" 
d="M944 384h-158v-376q0 -44 -3.5 -72t-18.5 -49.5t-46 -28.5l-437 -108l-44 120l334 92q25 7 35.5 16t13 24.5t2.5 52.5v329h-222q-91 0 -138.5 -40t-47.5 -107q0 -23 4 -39q11 55 57 89t111 34q54 0 96.5 -20.5t66.5 -56.5t24 -81q0 -52 -26 -93.5t-75 -64.5t-115 -23
q-91 0 -163 33t-113 91t-41 131q0 80 42.5 142.5t123.5 98t192 35.5h530zM345 191q-13 -13 -13 -33t13 -33.5t34 -13.5q19 0 32 13.5t13 33.5t-12.5 33t-32.5 13q-21 0 -34 -13z" />
    <glyph glyph-name="tm_Ai" unicode="&#xb90;" horiz-adv-x="819" 
d="M727 101q21 -40 29.5 -66.5t8.5 -57.5q0 -81 -56.5 -131.5t-155.5 -50.5q-37 0 -75.5 14t-68.5 38q-31 -24 -73.5 -38t-88.5 -14q-61 0 -108 24.5t-73 68t-26 98.5q0 91 66 153t204 81l181 24q51 7 83 33t33 60q0 25 -13.5 40.5t-35.5 15.5q-24 0 -38.5 -14t-14.5 -36
v-69h-152v43q0 36 -19 56t-52 22q22 -26 20 -70q-1 -49 -37.5 -80.5t-92.5 -31.5q-58 0 -95 37.5t-37 96.5q0 56 29 98t79 64t112 22q109 0 169 -52q57 52 147 52q62 0 108 -25t70.5 -69t24.5 -100q0 -88 -71 -149.5t-217 -80.5l-181 -24q-47 -6 -72.5 -30t-25.5 -60
q0 -25 15.5 -43t39.5 -18q33 0 50 14t17 37v69h152v-69q0 -23 13.5 -37t38.5 -14q27 0 41 16t14 43q0 41 -35 104zM201 303.5q11 10.5 11 26.5q0 18 -10.5 29.5t-27.5 11.5t-28 -11.5t-11 -28.5t11 -27.5t28 -10.5q16 0 27 10.5z" />
    <glyph glyph-name="tm_O" unicode="&#xb92;" horiz-adv-x="898" 
d="M837.5 188.5q-25.5 -41.5 -71 -64.5t-102.5 -23q-32 0 -61 9q7 -24 29.5 -35t68.5 -11h101v-120h-91q-9 -48 -45 -85t-92 -57.5t-124 -20.5q-76 0 -136 25.5t-94 72.5t-34 108v31h155v-22q0 -36 29.5 -56.5t77.5 -20.5q44 0 74.5 16t35.5 41q-86 50 -86 175v118h128
q1 -18 12.5 -28.5t33.5 -10.5q20 0 32.5 14.5t12.5 37.5q0 32 -33.5 58t-91 41t-126.5 15q-67 0 -127.5 -15.5t-99.5 -41.5q5 1 16 1q60 0 99.5 -35t39.5 -90q0 -61 -43 -100.5t-110 -39.5q-51 0 -92 22.5t-64.5 63t-23.5 90.5q0 81 53.5 145.5t146 101t205.5 36.5
q116 0 213 -32.5t153.5 -90t56.5 -129.5q0 -52 -25.5 -93.5zM244.5 241.5q-11.5 11.5 -29.5 11.5q-19 0 -31 -11.5t-12 -28.5q0 -18 12 -30t30 -12q17 0 29 12t13 30q0 17 -11.5 28.5z" />
    <glyph glyph-name="tm_Oo" unicode="&#xb93;" horiz-adv-x="898" 
d="M837.5 188.5q-25.5 -41.5 -71 -64.5t-102.5 -23q-32 0 -61 9q7 -24 29.5 -35t68.5 -11h101v-120h-91q-10 -48 -47.5 -85t-96.5 -57.5t-130 -20.5q-76 0 -132 20t-86.5 56t-30.5 81q0 63 45.5 101.5t131.5 38.5h12v-119h-12q-10 0 -15 -5.5t-5 -14.5q0 -13 23 -21t69 -8
q52 0 86 18t36 47q-87 50 -87 176v118h128q1 -18 12.5 -28.5t33.5 -10.5q20 0 32.5 14.5t12.5 37.5q0 32 -33.5 58t-91 41t-126.5 15q-67 0 -127.5 -15.5t-99.5 -41.5q5 1 16 1q60 0 99.5 -35t39.5 -90q0 -61 -43 -100.5t-110 -39.5q-51 0 -92 22.5t-64.5 63t-23.5 90.5
q0 81 53.5 145.5t146 101t205.5 36.5q116 0 213 -32.5t153.5 -90t56.5 -129.5q0 -52 -25.5 -93.5zM244.5 241.5q-11.5 11.5 -29.5 11.5q-19 0 -31 -11.5t-12 -28.5q0 -18 12 -30t30 -12q17 0 29 12t13 30q0 17 -11.5 28.5z" />
    <glyph glyph-name="tm_Au" unicode="&#xb94;" horiz-adv-x="2178" 
d="M837.5 188.5q-25.5 -41.5 -71 -64.5t-102.5 -23q-32 0 -61 9q7 -24 29.5 -35t68.5 -11h101v-120h-91q-9 -48 -45 -85t-92 -57.5t-124 -20.5q-76 0 -136 25.5t-94 72.5t-34 108v31h155v-22q0 -36 29.5 -56.5t77.5 -20.5q44 0 74.5 16t35.5 41q-86 50 -86 175v118h128
q1 -18 12.5 -28.5t33.5 -10.5q20 0 32.5 14.5t12.5 37.5q0 32 -33.5 58t-91 41t-126.5 15q-67 0 -127.5 -15.5t-99.5 -41.5q5 1 16 1q60 0 99.5 -35t39.5 -90q0 -61 -43 -100.5t-110 -39.5q-51 0 -92 22.5t-64.5 63t-23.5 90.5q0 81 53.5 145.5t146 101t205.5 36.5
q116 0 213 -32.5t153.5 -90t56.5 -129.5q0 -52 -25.5 -93.5zM244.5 241.5q-11.5 11.5 -29.5 11.5q-19 0 -31 -11.5t-12 -28.5q0 -18 12 -30t30 -12q17 0 29 12t13 30q0 17 -11.5 28.5zM2168 384h-157v-384h-164v384h-168v-384h-164v219q0 50 -28.5 90t-77 62t-106.5 22
q-88 0 -139.5 -43.5t-51.5 -112.5q0 -23 4 -39q11 55 57 89t111 34q54 0 96.5 -20.5t66.5 -56.5t24 -81q0 -52 -26 -93.5t-75 -64.5t-115 -23q-91 0 -163 33t-113 91t-41 131q0 85 44 152t125 104.5t188 37.5q131 0 220 -70v52h638zM1243 191q-13 -13 -13 -33t13 -33.5
t34 -13.5q19 0 32 13.5t13 33.5t-12.5 33t-32.5 13q-21 0 -34 -13z" />
    <glyph glyph-name="tm_Ka" unicode="&#xb95;" horiz-adv-x="766" 
d="M649 298q47 -22 72 -61t25 -87t-25 -86t-72.5 -60t-111.5 -22v129q18 0 28 10.5t10 28.5q0 19 -9 30t-26 11h-12q-4 -66 -43 -113.5t-100.5 -71.5t-132.5 -24q-109 0 -165.5 48t-56.5 126q0 49 26 87t77 58v212h564l15 -129h-184v-64h11q63 0 110 -22zM373 384h-82v-64
h82v64zM331.5 136.5q34.5 16.5 40.5 54.5h-114q-26 0 -40 -9.5t-14 -25.5t14.5 -26t41.5 -10q37 0 71.5 16.5z" />
    <glyph glyph-name="tm_Nga" unicode="&#xb99;" horiz-adv-x="1082" 
d="M1002 513v-513h-662v129h168q43 0 64.5 13t21.5 36q0 19 -12 30.5t-31 11.5q-20 0 -33.5 -13t-13.5 -29v-11h-164v217h-96v-384h-164v513h566l15 -129h-157v-39q35 12 76 12q53 0 95.5 -23t66.5 -63.5t24 -89.5q0 -28 -9 -52h81v384h164z" />
    <glyph glyph-name="tm_Ca" unicode="&#xb9a;" horiz-adv-x="732" 
d="M712 191h-184q-4 -66 -43 -113.5t-100.5 -71.5t-132.5 -24q-109 0 -165.5 48t-56.5 126q0 49 26 87t77 58v212h564l15 -129h-184v-64h169zM373 384h-82v-64h82v64zM331.5 136.5q34.5 16.5 40.5 54.5h-114q-26 0 -40 -9.5t-14 -25.5t14.5 -26t41.5 -10q37 0 71.5 16.5z
" />
    <glyph glyph-name="tm_Ja" unicode="&#xb9c;" horiz-adv-x="819" 
d="M690.5 82q41.5 -21 65 -58t23.5 -83q0 -65 -49 -105.5t-132 -40.5h-63v119h39q19 0 30.5 8.5t11.5 21.5q0 14 -8 22t-23 8q-18 0 -34 -12.5t-44 -42.5q-35 -37 -65.5 -62t-77 -43.5t-108.5 -18.5q-66 0 -115 24.5t-75 68t-26 98.5q0 91 66 153t204 81l181 24q51 7 83 33
t33 60q0 25 -13.5 40.5t-35.5 15.5q-24 0 -38.5 -14t-14.5 -36v-69h-152v43q0 36 -19 56t-52 22q22 -26 20 -70q-1 -49 -37.5 -80.5t-92.5 -31.5q-58 0 -95 37.5t-37 96.5q0 56 29 98t79 64t112 22q109 0 169 -52q57 52 147 52q62 0 108 -25t70.5 -69t24.5 -100
q0 -88 -71 -149.5t-217 -80.5l-181 -24q-47 -6 -72.5 -30t-25.5 -60q0 -26 17 -43.5t47 -17.5q29 0 53.5 16.5t62.5 52.5q36 33 62 53t62 34.5t81 14.5q52 0 93.5 -21zM201 303.5q11 10.5 11 26.5q0 18 -10.5 29.5t-27.5 11.5t-28 -11.5t-11 -28.5t11 -27.5t28 -10.5
q16 0 27 10.5z" />
    <glyph glyph-name="tm_Nya" unicode="&#xb9e;" horiz-adv-x="1389" 
d="M1294.5 273q54.5 -64 54.5 -171q0 -118 -77.5 -210.5t-218.5 -145t-324 -52.5q-200 0 -351.5 61.5t-234.5 171.5t-83 252q0 92 40 184.5t106 159.5l169 -10q-64 -61 -103.5 -151t-39.5 -185q0 -103 58 -180.5t169.5 -121t267.5 -43.5q141 0 242.5 33.5t154.5 93.5t53 137
q0 48 -18.5 75.5t-48.5 27.5q-27 0 -45.5 -17.5t-18.5 -44.5v-137h-163v384h-205q-91 0 -138.5 -40t-47.5 -107q0 -23 4 -39q11 55 57 89t111 34q54 0 96.5 -20.5t66.5 -56.5t24 -81q0 -52 -26 -93.5t-75 -64.5t-115 -23q-90 0 -162.5 33t-113.5 91t-41 131q0 80 43 142.5
t124 98t192 35.5h512l15 -129h-158v-71q45 24 96 24q98 0 152.5 -64zM623.5 191q-13.5 -13 -13.5 -33t13.5 -33.5t34.5 -13.5q19 0 32 13.5t13 33.5t-12.5 33t-32.5 13q-21 0 -34.5 -13z" />
    <glyph glyph-name="tm_Tta" unicode="&#xb9f;" horiz-adv-x="739" 
d="M714 129h-470v389l-164 -5v-513h649z" />
    <glyph glyph-name="tm_Nna" unicode="&#xba3;" horiz-adv-x="1859" 
d="M1849 384h-157v-384h-164v384h-79q-34 0 -64 -6q70 -87 70 -199q0 -59 -26 -103.5t-73.5 -69t-109.5 -24.5q-63 0 -112 24.5t-75.5 69t-26.5 103.5q0 57 22 108.5t63 93.5q-42 12 -91 12q-55 0 -102 -15q44 -43 67.5 -93.5t23.5 -105.5q0 -59 -26 -103.5t-73.5 -69
t-109.5 -24.5q-63 0 -112 24.5t-75.5 69t-26.5 103.5q0 104 63 189q-81 25 -169 25q-86 0 -147.5 -21t-93 -58.5t-31.5 -85.5q0 -18 3 -35q10 57 56.5 92.5t112.5 35.5q54 0 96.5 -20.5t66.5 -56.5t24 -81q0 -52 -26 -93.5t-75 -64.5t-115 -23q-90 0 -162.5 32.5
t-113.5 88.5t-41 125q0 88 54 156.5t154.5 107.5t236.5 39q161 0 293 -58q108 58 246 58q131 0 237 -54q89 36 188 36h385zM1277 128q13 17 13 43q0 75 -45 129q-48 -54 -48 -129q0 -26 13 -43t34 -17q20 0 33 17zM837 128q13 17 13 43q0 66 -56 119q-38 -52 -38 -119
q0 -26 13.5 -43t34.5 -17q20 0 33 17zM345 191q-13 -13 -13 -33t13 -33.5t34 -13.5q19 0 32 13.5t13 33.5t-12.5 33t-32.5 13q-21 0 -34 -13z" />
    <glyph glyph-name="tm_Ta" unicode="&#xba4;" horiz-adv-x="821" 
d="M664.5 288q59.5 -32 93 -88t33.5 -127q0 -78 -38 -139.5t-105.5 -96.5t-152.5 -35h-202q-137 0 -166 -45l-97 86q22 43 80.5 65.5t168.5 22.5h216q53 0 88 40t35 102q0 51 -24.5 84.5t-62.5 33.5h-3q-4 -66 -43 -113.5t-100.5 -71.5t-132.5 -24q-109 0 -165.5 48
t-56.5 126q0 49 26 87t77 58v212h564l15 -129h-184v-64h2q75 0 134.5 -32zM373 384h-82v-64h82v64zM331.5 136.5q34.5 16.5 40.5 54.5h-114q-26 0 -40 -9.5t-14 -25.5t14.5 -26t41.5 -10q37 0 71.5 16.5z" />
    <glyph glyph-name="tm_Na" unicode="&#xba8;" horiz-adv-x="846" 
d="M752.5 269.5q53.5 -67.5 53.5 -176.5q0 -84 -32.5 -150t-94.5 -103.5t-147 -37.5h-189q-137 0 -166 -45l-97 86q22 43 80.5 65.5t168.5 22.5h203q54 0 78 42.5t24 113.5q0 49 -17.5 80.5t-45.5 31.5q-27 0 -42.5 -17.5t-15.5 -44.5v-137h-164v384h-105v-384h-164v513h575
l15 -129h-157v-68q42 21 89 21q97 0 150.5 -67.5z" />
    <glyph glyph-name="tm_Nnna" unicode="&#xba9;" horiz-adv-x="1419" 
d="M1409 384h-158v-384h-163v384h-80q-43 0 -79 -10q86 -88 86 -194q0 -59 -26 -104t-73.5 -69.5t-109.5 -24.5q-63 0 -111.5 24.5t-75.5 69.5t-27 104q0 102 70 186q-84 27 -176 27q-86 0 -147.5 -21t-93 -58.5t-31.5 -85.5q0 -18 3 -35q10 57 56.5 92.5t112.5 35.5
q54 0 96.5 -20.5t66.5 -56.5t24 -81q0 -52 -26 -93.5t-75 -64.5t-115 -23q-90 0 -162.5 32.5t-113.5 88.5t-41 125q0 88 54 156.5t154.5 107.5t236.5 39q85 0 164 -17t146 -48q99 47 213 47h386zM837 128q13 17 13 43q0 66 -55 118q-39 -52 -39 -118q0 -26 13.5 -43
t34.5 -17q20 0 33 17zM345 191q-13 -13 -13 -33t13 -33.5t34 -13.5q19 0 32 13.5t13 33.5t-12.5 33t-32.5 13q-21 0 -34 -13z" />
    <glyph glyph-name="tm_Pa" unicode="&#xbaa;" horiz-adv-x="786" 
d="M706 513v-513h-626v513l164 5v-389h298v384h164z" />
    <glyph glyph-name="tm_Ma" unicode="&#xbae;" horiz-adv-x="960" 
d="M791.5 494q61.5 -37 95 -102t33.5 -148q0 -71 -32.5 -126.5t-95 -86.5t-149.5 -31h-563v513l164 5v-389h160v163q0 70 28.5 124t83.5 84.5t133 30.5q81 0 142.5 -37zM746 244q0 67 -24.5 108t-70.5 41t-64.5 -28.5t-18.5 -80.5v-155h75q103 0 103 115z" />
    <glyph glyph-name="tm_Ya" unicode="&#xbaf;" horiz-adv-x="1058" 
d="M978 513v-513h-543v25q-57 -43 -126 -43q-111 0 -175 66.5t-64 181.5v283l164 5v-279q0 -59 22.5 -89t64.5 -30q55 0 84.5 40t29.5 106v247h164v-384h215v384h164z" />
    <glyph glyph-name="tm_Ra" unicode="&#xbb0;" horiz-adv-x="743" 
d="M576 384v-376q0 -43 -3.5 -70.5t-18.5 -49t-46 -30.5l-347 -108l-44 134l244 78q25 8 35.5 17t13 24.5t2.5 51.5v329h-168v-384h-164v513h638l15 -129h-157z" />
    <glyph glyph-name="tm_Rra" unicode="&#xbb1;" horiz-adv-x="982" 
d="M816.5 489.5q61.5 -41.5 93.5 -114.5t32 -167q0 -119 -41.5 -211t-123 -143.5t-197.5 -51.5h-247q-74 0 -112.5 -12t-53.5 -33l-97 86q22 43 81 65.5t169 22.5h260q97 0 142.5 74.5t45.5 202.5q0 185 -96 185q-45 0 -68 -29.5t-23 -79.5v-284h-164v248q0 66 -24 105.5
t-72 39.5q-42 0 -64.5 -30t-22.5 -88v-275h-164v283q0 116 62.5 182t179.5 66q50 0 94 -21.5t77 -61.5q35 38 82.5 60.5t104.5 22.5q85 0 146.5 -41.5z" />
    <glyph glyph-name="tm_La" unicode="&#xbb2;" horiz-adv-x="1171" 
d="M1109 381.5q22 -75.5 22 -130.5q0 -78 -31 -139t-90.5 -95.5t-141.5 -34.5q-77 0 -134 31.5t-87 87t-30 126.5v19q0 42 -25.5 75.5t-70.5 52.5t-102 19q-59 0 -105.5 -20t-73 -55.5t-26.5 -80.5q0 -23 4 -39q11 55 57 89t111 34q54 0 96.5 -20.5t66.5 -56.5t24 -81
q0 -52 -26 -93.5t-75 -64.5t-115 -23q-91 0 -163 33t-113 91t-41 131q0 84 48.5 151t134.5 105t194 38q104 0 187 -37t130 -102t47 -146v-19q0 -49 21.5 -78t65.5 -29q43 0 66 36t23 95q0 52 -23 127.5t-59 134.5l171 14q41 -70 63 -145.5zM345 191q-13 -13 -13 -33
t13 -33.5t34 -13.5q19 0 32 13.5t13 33.5t-12.5 33t-32.5 13q-21 0 -34 -13z" />
    <glyph glyph-name="tm_Lla" unicode="&#xbb3;" horiz-adv-x="1280" 
d="M1270 384h-157v-384h-164v384h-168v-384h-164v219q0 50 -28.5 90t-77 62t-106.5 22q-88 0 -139.5 -43.5t-51.5 -112.5q0 -23 4 -39q11 55 57 89t111 34q54 0 96.5 -20.5t66.5 -56.5t24 -81q0 -52 -26 -93.5t-75 -64.5t-115 -23q-91 0 -163 33t-113 91t-41 131
q0 85 44 152t125 104.5t188 37.5q131 0 220 -70v52h638zM345 191q-13 -13 -13 -33t13 -33.5t34 -13.5q19 0 32 13.5t13 33.5t-12.5 33t-32.5 13q-21 0 -34 -13z" />
    <glyph glyph-name="tm_Llla" unicode="&#xbb4;" horiz-adv-x="960" 
d="M568 0v-26q0 -39 17 -54t50 -15h141l15 -129h-224q-36 -39 -90.5 -58.5t-121.5 -19.5q-76 0 -135 29.5t-91.5 81t-32.5 114.5h164q0 -36 25 -61.5t68 -25.5q40 0 64 10t29 26q-20 10 -31 33.5t-11 54.5v40h-324v513l164 5v-389h160v163q0 70 28.5 124t83.5 84.5t133 30.5
q81 0 142.5 -37t95 -102t33.5 -148q0 -71 -32.5 -126.5t-95 -86.5t-149.5 -31h-75zM568 129h75q103 0 103 115q0 67 -24.5 108t-70.5 41t-64.5 -28.5t-18.5 -80.5v-155z" />
    <glyph glyph-name="tm_Va" unicode="&#xbb5;" horiz-adv-x="1166" 
d="M1086 513v-513h-480v129q14 29 21.5 57t7.5 60q0 42 -26 75.5t-73 52.5t-108 19q-62 0 -110.5 -20t-76 -55.5t-27.5 -80.5q0 -23 4 -39q11 55 57 89t111 34q54 0 96.5 -20.5t66.5 -56.5t24 -81q0 -52 -26 -93.5t-75 -64.5t-115 -23q-91 0 -163 33t-113 91t-41 131
q0 84 49.5 151t137.5 105t199 38t198 -36.5t135 -101.5t48 -147q0 -63 -29 -117h144v384h164zM345 191q-13 -13 -13 -33t13 -33.5t34 -13.5q19 0 32 13.5t13 33.5t-12.5 33t-32.5 13q-21 0 -34 -13z" />
    <glyph glyph-name="tm_Sha" unicode="&#xbb6;" horiz-adv-x="1226" 
d="M1059 482q62 -31 94.5 -86.5t32.5 -126.5q0 -83 -33 -148t-94.5 -102t-143.5 -37q-78 0 -133 30.5t-83.5 84.5t-28.5 124v163h-103v-163q0 -70 -29 -124t-85 -84.5t-135 -30.5t-134.5 30.5t-84.5 84.5t-29 124v292l164 5v-288q0 -51 20.5 -80.5t63.5 -29.5
q44 0 64.5 29.5t20.5 80.5v283h507q87 0 149 -31zM987.5 161q24.5 41 24.5 108q0 115 -102 115h-76v-154q0 -53 18.5 -81.5t64.5 -28.5t70.5 41z" />
    <glyph glyph-name="tm_Ssa" unicode="&#xbb7;" horiz-adv-x="1590" 
d="M1530 0h-271v-243h-164v243h-489v129q14 29 21.5 57t7.5 60q0 42 -26 75.5t-73 52.5t-108 19q-62 0 -110.5 -20t-76 -55.5t-27.5 -80.5q0 -23 4 -39q11 55 57 89t111 34q54 0 96.5 -20.5t66.5 -56.5t24 -81q0 -52 -26 -93.5t-75 -64.5t-115 -23q-91 0 -163 33t-113 91
t-41 131q0 84 49.5 151t137.5 105t199 38t198 -36.5t135 -101.5t48 -147q0 -62 -29 -117h317v34h-6q-76 0 -133 24t-88 67t-31 98q0 51 28 92t77 64t110 23q59 0 106 -22t74 -61t27 -88v-34q61 20 107 58h164v-384zM1095 301v54q0 17 -11.5 27.5t-30.5 10.5t-31 -12t-12 -31
q0 -27 20.5 -38t57.5 -11h7zM1366 129v105q-49 -31 -107 -49v-56h107zM345 191q-13 -13 -13 -33t13 -33.5t34 -13.5q19 0 32 13.5t13 33.5t-12.5 33t-32.5 13q-21 0 -34 -13z" />
    <glyph glyph-name="tm_Sa" unicode="&#xbb8;" horiz-adv-x="1500" 
d="M1438 381.5q22 -75.5 22 -130.5q0 -79 -31 -139.5t-90 -95t-142 -34.5q-76 0 -133 31.5t-87.5 87t-30.5 126.5v47q0 60 -18.5 89t-59.5 29q-45 0 -66 -39t-21 -107v-246h-164v246q0 42 -25.5 75.5t-70.5 52.5t-102 19q-59 0 -105.5 -20t-73 -55.5t-26.5 -80.5
q0 -23 4 -39q11 55 57 89t111 34q54 0 96.5 -20.5t66.5 -56.5t24 -81q0 -52 -26 -93.5t-75 -64.5t-115 -23q-91 0 -163 33t-113 91t-41 131q0 84 48.5 151t134.5 105t194 38q82 0 152 -23t119 -66q32 42 78.5 65t104.5 23q117 0 178 -65.5t61 -182.5v-55q0 -49 21.5 -78
t65.5 -29q43 0 66.5 36t23.5 95q0 52 -23 127.5t-59 134.5l171 14q40 -70 62 -145.5zM345 191q-13 -13 -13 -33t13 -33.5t34 -13.5q19 0 32 13.5t13 33.5t-12.5 33t-32.5 13q-21 0 -34 -13z" />
    <glyph glyph-name="tm_Ha" unicode="&#xbb9;" horiz-adv-x="1816" 
d="M1650.5 489.5q61.5 -41.5 93.5 -114.5t32 -167q0 -119 -41.5 -211t-123 -143.5t-197.5 -51.5h-1111q-137 0 -166 -45l-97 86q22 43 80.5 65.5t168.5 22.5h1125q97 0 142.5 74.5t45.5 202.5q0 185 -96 185q-45 0 -68 -29.5t-23 -79.5v-284h-164v248q0 66 -24 105.5
t-72 39.5q-42 0 -64.5 -30t-22.5 -88v-275h-462v129q14 29 21.5 57t7.5 60q0 42 -26 75.5t-73 52.5t-108 19q-63 0 -111.5 -20t-75.5 -55t-27 -81q0 -23 4 -39q11 55 57 89t111 34q54 0 96.5 -20.5t66.5 -56.5t24 -81q0 -52 -26 -93.5t-75 -64.5t-115 -23q-91 0 -163 33
t-113 91t-41 131q0 84 49.5 151t137.5 105t199 38t198 -36.5t135 -101.5t48 -147q0 -62 -29 -117h126v154q0 116 62.5 182t179.5 66q51 0 94.5 -21.5t76.5 -61.5q34 38 82 60.5t105 22.5q85 0 146.5 -41.5zM345 191q-13 -13 -13 -33t13 -33.5t34 -13.5q19 0 32 13.5t13 33.5
t-12.5 33t-32.5 13q-21 0 -34 -13z" />
    <glyph glyph-name="tm_VowelAa" unicode="&#xbbe;" horiz-adv-x="723" 
d="M556 384v-384h-164v384h-148v-384h-164v513h618l15 -129h-157z" />
    <glyph glyph-name="tm_VowelI" unicode="&#xbbf;" horiz-adv-x="324" 
d="M77.5 759.5q79.5 -37.5 123 -104.5t43.5 -152v-503h-164v503q0 73 -48.5 115t-136.5 42q-50 0 -82.5 -22t-32.5 -57q0 -32 15 -50t40 -18v-108q-66 0 -115 23.5t-76 65t-27 94.5q0 60 34 107.5t97 74.5t146 27q104 0 183.5 -37.5z" />
    <glyph glyph-name="tm_VowelIi" unicode="&#xbc0;" horiz-adv-x="0" 
d="M-3.5 853q57.5 -25 90 -69.5t32.5 -100.5q0 -61 -40.5 -100.5t-103.5 -39.5q-64 0 -105 39.5t-41 100.5q0 36 17 65q-57 -5 -88.5 -35.5t-31.5 -76.5q0 -55 29.5 -89t83.5 -34v-121q-83 0 -145.5 31t-96.5 86.5t-34 126.5q0 70 37.5 125t106.5 86t160 31q72 0 129.5 -25z
M-1.5 656.5q9.5 9.5 9.5 23.5t-9.5 23t-23.5 9t-23.5 -9t-9.5 -23t9.5 -23.5t23.5 -9.5t23.5 9.5z" />
    <glyph glyph-name="tm_VowelU" unicode="&#xbc1;" horiz-adv-x="477" 
d="M353 489.5q50 -23.5 78 -65t28 -94.5q0 -48 -24.5 -86.5t-68 -60.5t-97.5 -22q-55 0 -98.5 21.5t-68.5 59t-25 85.5q0 29 11 57h-324v129h476q63 0 113 -23.5zM297.5 300.5q13.5 13.5 13.5 34.5q0 22 -13.5 35.5t-34.5 13.5q-22 0 -36.5 -13.5t-14.5 -35.5
q0 -21 14.5 -34.5t36.5 -13.5q21 0 34.5 13.5z" />
    <glyph glyph-name="tm_VowelUu" unicode="&#xbc2;" horiz-adv-x="753" 
d="M573 575q76 -37 119 -103.5t43 -149.5q0 -89 -46 -159t-132 -109.5t-201 -39.5h-63v129h63q98 0 152.5 49.5t54.5 129.5q0 70 -45.5 115.5t-116.5 45.5q-12 0 -32 -2q43 -24 66.5 -63.5t23.5 -87.5t-24.5 -86.5t-68 -60.5t-97.5 -22q-55 0 -98.5 21.5t-68.5 59t-25 85.5
q0 30 6 57h-319v129h386q43 47 108 73t143 26q96 0 172 -37zM297.5 300.5q13.5 13.5 13.5 34.5q0 22 -13.5 35.5t-34.5 13.5h-42q-9 -22 -9 -49q0 -21 14.5 -34.5t36.5 -13.5q21 0 34.5 13.5z" />
    <glyph glyph-name="tm_VowelE" unicode="&#xbc6;" horiz-adv-x="879" 
d="M622 633.5q85 -41.5 131 -118.5t46 -179v-336h-164v336q0 95 -55 148t-155 53q-63 0 -111 -28t-74 -77.5t-26 -113.5q0 -44 10 -78q21 41 64 64.5t98 23.5q54 0 96.5 -21.5t66.5 -59t24 -84.5q0 -52 -26 -93.5t-75 -64.5t-115 -23q-91 0 -163 43.5t-113 120t-41 172.5
q0 103 48.5 184t135.5 127t199 46q114 0 199 -41.5zM345 191q-13 -13 -13 -33t13 -33.5t34 -13.5q19 0 32 13.5t13 33.5t-12.5 33t-32.5 13q-21 0 -34 -13z" />
    <glyph glyph-name="tm_VowelEe" unicode="&#xbc7;" horiz-adv-x="701" 
d="M581 295.5q38 -19.5 59 -54.5t21 -78q0 -52 -31.5 -93t-87.5 -64.5t-127 -23.5q-118 0 -202.5 46t-128.5 125t-44 176t44 175.5t128.5 124.5t202.5 46q71 0 127 -23.5t87.5 -64.5t31.5 -93q0 -43 -21 -78t-59 -54.5t-85 -19.5q-45 0 -80.5 19.5t-56 54t-20.5 77.5
q0 26 9 47q-64 -15 -98 -69t-36 -142q2 -88 36 -142.5t98 -69.5q-9 21 -9 47q0 43 20.5 77.5t56 54t80.5 19.5q47 0 85 -19.5zM519 471q9 9 9 23q0 15 -8.5 24.5t-21.5 9.5q-16 0 -25.5 -9t-9.5 -23q0 -15 9.5 -24.5t23.5 -9.5t23 9zM472.5 185.5q-9.5 -9.5 -9.5 -24.5
q0 -14 9.5 -23t25.5 -9q13 0 21.5 9.5t8.5 24.5q0 14 -9 23t-23 9t-23.5 -9.5z" />
    <glyph glyph-name="tm_VowelAi" unicode="&#xbc8;" horiz-adv-x="1327" 
d="M1213 457.5q74 -73.5 74 -195.5q0 -55 -22 -130.5t-63 -145.5l-171 14q36 59 59 134.5t23 127.5q0 131 -114 131q-41 0 -79 -11q95 -90 95 -203q0 -59 -26 -103.5t-73.5 -69t-109.5 -24.5q-63 0 -112 24.5t-75.5 69t-26.5 103.5q0 105 60 190q-82 24 -166 24
q-86 0 -147.5 -21t-93 -58.5t-31.5 -85.5q0 -18 3 -35q10 57 56.5 92.5t112.5 35.5q54 0 96.5 -20.5t66.5 -56.5t24 -81q0 -52 -26 -93.5t-75 -64.5t-115 -23q-90 0 -162.5 32.5t-113.5 88.5t-41 125q0 88 54 156.5t154.5 107.5t236.5 39q158 0 287 -56q100 56 225 56
q142 0 216 -73.5zM837 128q13 17 13 43q0 68 -58 121q-36 -53 -36 -121q0 -26 13.5 -43t34.5 -17q20 0 33 17zM345 191q-13 -13 -13 -33t13 -33.5t34 -13.5q19 0 32 13.5t13 33.5t-12.5 33t-32.5 13q-21 0 -34 -13z" />
    <glyph glyph-name="tm_VowelO" unicode="&#xbca;" horiz-adv-x="2099" 
d="M622 633.5q85 -41.5 131 -118.5t46 -179v-336h-164v336q0 95 -55 148t-155 53q-63 0 -111 -28t-74 -77.5t-26 -113.5q0 -44 10 -78q21 41 64 64.5t98 23.5q54 0 96.5 -21.5t66.5 -59t24 -84.5q0 -52 -26 -93.5t-75 -64.5t-115 -23q-91 0 -163 43.5t-113 120t-41 172.5
q0 103 48.5 184t135.5 127t199 46q114 0 199 -41.5zM345 191q-13 -13 -13 -33t13 -33.5t34 -13.5q19 0 32 13.5t13 33.5t-12.5 33t-32.5 13q-21 0 -34 -13zM1920 384v-384h-164v384h-148v-384h-164v513h618l15 -129h-157zM1128 467q8 8 8 21t-8 21.5t-21 8.5t-21 -8.5
t-8 -21.5t8 -21t21 -8t21 8zM997 494q-8 -8 -8 -21t8 -21t21 -8t21 8t8 21t-8 21t-21 8t-21 -8zM1218 452q8 8 8 21t-8 21t-21 8t-21 -8t-8 -21t8 -21t21 -8t21 8zM920.5 443.5q-8.5 -8.5 -8.5 -21.5t8.5 -21t21.5 -8t21 8t8 21t-8 21.5t-21 8.5t-21.5 -8.5zM1294.5 401
q8.5 8 8.5 21t-8.5 21.5t-21.5 8.5t-21 -8.5t-8 -21.5t8 -21t21 -8t21.5 8zM872.5 364.5q-8.5 -8.5 -8.5 -21.5t8.5 -21t21.5 -8t21 8t8 21t-8 21.5t-21 8.5t-21.5 -8.5zM1342 322q8 8 8 21t-8 21.5t-21 8.5t-21 -8.5t-8 -21.5t8 -21t21 -8t21 8zM858.5 278.5
q-8.5 -8.5 -8.5 -21.5t8.5 -20.5t21.5 -7.5t21 7.5t8 20.5t-8 21.5t-21 8.5t-21.5 -8.5zM1356.5 236.5q8.5 7.5 8.5 20.5t-8.5 21.5t-21.5 8.5t-21 -8.5t-8 -21.5t8 -20.5t21 -7.5t21.5 7.5zM872.5 195q-8.5 -8 -8.5 -21t8.5 -21t21.5 -8t21 8t8 21t-8 21t-21 8t-21.5 -8z
M1342 153q8 8 8 21t-8 21t-21 8t-21 -8t-8 -21t8 -21t21 -8t21 8zM919.5 115q-8.5 -8 -8.5 -21t8.5 -21t21.5 -8t21 8t8 21t-8 21t-21 8t-21.5 -8zM1295.5 73q8.5 8 8.5 21t-8.5 21t-21.5 8t-21 -8t-8 -21t8 -21t21 -8t21.5 8zM997 65.5q-8 -8.5 -8 -21.5t8 -21t21 -8t21 8
t8 21t-8 21.5t-21 8.5t-21 -8.5zM1218 23q8 8 8 21t-8 21.5t-21 8.5t-21 -8.5t-8 -21.5t8 -21t21 -8t21 8zM1128 8q8 8 8 21t-8 21.5t-21 8.5t-21 -8.5t-8 -21.5t8 -21t21 -8t21 8z" />
    <glyph glyph-name="tm_VowelOo" unicode="&#xbcb;" horiz-adv-x="1963" 
d="M581 295.5q38 -19.5 59 -54.5t21 -78q0 -52 -31.5 -93t-87.5 -64.5t-127 -23.5q-118 0 -202.5 46t-128.5 125t-44 176t44 175.5t128.5 124.5t202.5 46q71 0 127 -23.5t87.5 -64.5t31.5 -93q0 -43 -21 -78t-59 -54.5t-85 -19.5q-45 0 -80.5 19.5t-56 54t-20.5 77.5
q0 26 9 47q-64 -15 -98 -69t-36 -142q2 -88 36 -142.5t98 -69.5q-9 21 -9 47q0 43 20.5 77.5t56 54t80.5 19.5q47 0 85 -19.5zM519 471q9 9 9 23q0 15 -8.5 24.5t-21.5 9.5q-16 0 -25.5 -9t-9.5 -23q0 -15 9.5 -24.5t23.5 -9.5t23 9zM472.5 185.5q-9.5 -9.5 -9.5 -24.5
q0 -14 9.5 -23t25.5 -9q13 0 21.5 9.5t8.5 24.5q0 14 -9 23t-23 9t-23.5 -9.5zM1776 384v-384h-164v384h-148v-384h-164v513h618l15 -129h-157zM1000 467q8 8 8 21t-8 21.5t-21 8.5t-21 -8.5t-8 -21.5t8 -21t21 -8t21 8zM869 494q-8 -8 -8 -21t8 -21t21 -8t21 8t8 21t-8 21
t-21 8t-21 -8zM1090 452q8 8 8 21t-8 21t-21 8t-21 -8t-8 -21t8 -21t21 -8t21 8zM792.5 443.5q-8.5 -8.5 -8.5 -21.5t8.5 -21t21.5 -8t21 8t8 21t-8 21.5t-21 8.5t-21.5 -8.5zM1166.5 401q8.5 8 8.5 21t-8.5 21.5t-21.5 8.5t-21 -8.5t-8 -21.5t8 -21t21 -8t21.5 8z
M744.5 364.5q-8.5 -8.5 -8.5 -21.5t8.5 -21t21.5 -8t21 8t8 21t-8 21.5t-21 8.5t-21.5 -8.5zM1214 322q8 8 8 21t-8 21.5t-21 8.5t-21 -8.5t-8 -21.5t8 -21t21 -8t21 8zM730.5 278.5q-8.5 -8.5 -8.5 -21.5t8.5 -20.5t21.5 -7.5t21 7.5t8 20.5t-8 21.5t-21 8.5t-21.5 -8.5z
M1228.5 236.5q8.5 7.5 8.5 20.5t-8.5 21.5t-21.5 8.5t-21 -8.5t-8 -21.5t8 -20.5t21 -7.5t21.5 7.5zM744.5 195q-8.5 -8 -8.5 -21t8.5 -21t21.5 -8t21 8t8 21t-8 21t-21 8t-21.5 -8zM1214 153q8 8 8 21t-8 21t-21 8t-21 -8t-8 -21t8 -21t21 -8t21 8zM791.5 115
q-8.5 -8 -8.5 -21t8.5 -21t21.5 -8t21 8t8 21t-8 21t-21 8t-21.5 -8zM1167.5 73q8.5 8 8.5 21t-8.5 21t-21.5 8t-21 -8t-8 -21t8 -21t21 -8t21.5 8zM869 65.5q-8 -8.5 -8 -21.5t8 -21t21 -8t21 8t8 21t-8 21.5t-21 8.5t-21 -8.5zM1090 23q8 8 8 21t-8 21.5t-21 8.5t-21 -8.5
t-8 -21.5t8 -21t21 -8t21 8zM1000 8q8 8 8 21t-8 21.5t-21 8.5t-21 -8.5t-8 -21.5t8 -21t21 -8t21 8z" />
    <glyph glyph-name="tm_VowelAu" unicode="&#xbcc;" horiz-adv-x="2708" 
d="M626 633.5q85 -41.5 131 -118.5t46 -179v-336h-164v336q0 95 -55 148t-155 53q-63 0 -111 -28t-74 -77.5t-26 -113.5q0 -44 10 -78q21 41 64 64.5t98 23.5q54 0 96.5 -21.5t66.5 -59t24 -84.5q0 -52 -26 -93.5t-75 -64.5t-115 -23q-91 0 -163 43.5t-113 120t-41 172.5
q0 103 48.5 184t135.5 127t199 46q114 0 199 -41.5zM349 191q-13 -13 -13 -33t13 -33.5t34 -13.5q19 0 32 13.5t13 33.5t-12.5 33t-32.5 13q-21 0 -34 -13zM2698 384h-157v-384h-164v384h-168v-384h-164v219q0 50 -28.5 90t-77 62t-106.5 22q-88 0 -139.5 -43.5
t-51.5 -112.5q0 -23 4 -39q11 55 57 89t111 34q54 0 96.5 -20.5t66.5 -56.5t24 -81q0 -52 -26 -93.5t-75 -64.5t-115 -23q-91 0 -163 33t-113 91t-41 131q0 85 44 152t125 104.5t188 37.5q131 0 220 -70v52h638zM1773 191q-13 -13 -13 -33t13 -33.5t34 -13.5q19 0 32 13.5
t13 33.5t-12.5 33t-32.5 13q-21 0 -34 -13zM1161 467q8 8 8 21t-8 21.5t-21 8.5t-21 -8.5t-8 -21.5t8 -21t21 -8t21 8zM1030 494q-8 -8 -8 -21t8 -21t21 -8t21 8t8 21t-8 21t-21 8t-21 -8zM1251 452q8 8 8 21t-8 21t-21 8t-21 -8t-8 -21t8 -21t21 -8t21 8zM953.5 443.5
q-8.5 -8.5 -8.5 -21.5t8.5 -21t21.5 -8t21 8t8 21t-8 21.5t-21 8.5t-21.5 -8.5zM1327.5 401q8.5 8 8.5 21t-8.5 21.5t-21.5 8.5t-21 -8.5t-8 -21.5t8 -21t21 -8t21.5 8zM905.5 364.5q-8.5 -8.5 -8.5 -21.5t8.5 -21t21.5 -8t21 8t8 21t-8 21.5t-21 8.5t-21.5 -8.5zM1375 322
q8 8 8 21t-8 21.5t-21 8.5t-21 -8.5t-8 -21.5t8 -21t21 -8t21 8zM891.5 278.5q-8.5 -8.5 -8.5 -21.5t8.5 -20.5t21.5 -7.5t21 7.5t8 20.5t-8 21.5t-21 8.5t-21.5 -8.5zM1389.5 236.5q8.5 7.5 8.5 20.5t-8.5 21.5t-21.5 8.5t-21 -8.5t-8 -21.5t8 -20.5t21 -7.5t21.5 7.5z
M905.5 195q-8.5 -8 -8.5 -21t8.5 -21t21.5 -8t21 8t8 21t-8 21t-21 8t-21.5 -8zM1375 153q8 8 8 21t-8 21t-21 8t-21 -8t-8 -21t8 -21t21 -8t21 8zM952.5 115q-8.5 -8 -8.5 -21t8.5 -21t21.5 -8t21 8t8 21t-8 21t-21 8t-21.5 -8zM1328.5 73q8.5 8 8.5 21t-8.5 21t-21.5 8
t-21 -8t-8 -21t8 -21t21 -8t21.5 8zM1030 65.5q-8 -8.5 -8 -21.5t8 -21t21 -8t21 8t8 21t-8 21.5t-21 8.5t-21 -8.5zM1251 23q8 8 8 21t-8 21.5t-21 8.5t-21 -8.5t-8 -21.5t8 -21t21 -8t21 8zM1161 8q8 8 8 21t-8 21.5t-21 8.5t-21 -8.5t-8 -21.5t8 -21t21 -8t21 8z" />
    <glyph glyph-name="tm_Virama" unicode="&#xbcd;" horiz-adv-x="0" 
d="M68 640.5q27 26.5 27 66.5q0 41 -27 67.5t-68 26.5t-67 -26.5t-26 -67.5q0 -40 26 -66.5t67 -26.5t68 26.5z" />
    <glyph glyph-name="tm_Om" unicode="&#xbd0;" horiz-adv-x="878" 
d="M837.5 188.5q-25.5 -41.5 -71 -64.5t-102.5 -23q-32 0 -61 9q7 -24 29.5 -35t68.5 -11h101v-120h-91q-9 -48 -45 -85t-92 -57.5t-124 -20.5q-76 0 -136 25.5t-94 72.5t-34 108v31h155v-22q0 -36 29.5 -56.5t77.5 -20.5q44 0 74.5 16t35.5 41q-86 50 -86 175v118h128
q1 -18 12.5 -28.5t33.5 -10.5q20 0 32.5 14.5t12.5 37.5q0 32 -33.5 58t-91 41t-126.5 15q-67 0 -127.5 -15.5t-99.5 -41.5q5 1 16 1q60 0 99.5 -35t39.5 -90q0 -61 -43 -100.5t-110 -39.5q-51 0 -92 22.5t-64.5 63t-23.5 90.5q0 81 53.5 145.5t146 101t205.5 36.5
q116 0 213 -32.5t153.5 -90t56.5 -129.5q0 -52 -25.5 -93.5zM244.5 241.5q-11.5 11.5 -29.5 11.5q-19 0 -31 -11.5t-12 -28.5q0 -18 12 -30t30 -12q17 0 29 12t13 30q0 17 -11.5 28.5zM452.5 45q-4.5 -4 -9.5 -4q-15 0 -15 14q0 17 15 17q5 0 9.5 -5t4.5 -12q0 -6 -4.5 -10z
M421 33v-50h11v20q0 14 8 22.5t22 8.5q16 0 25.5 -10.5t9.5 -27.5q0 -16 -9.5 -26t-26.5 -10h-67v73h27zM457 -17h5q6 0 8.5 4t2.5 9q0 7 -2 11.5t-6 4.5q-8 0 -8 -9v-20z" />
    <glyph glyph-name="tm_AuLengthMark" unicode="&#xbd7;" horiz-adv-x="1280" 
d="M1270 384h-157v-384h-164v384h-168v-384h-164v219q0 50 -28.5 90t-77 62t-106.5 22q-88 0 -139.5 -43.5t-51.5 -112.5q0 -23 4 -39q11 55 57 89t111 34q54 0 96.5 -20.5t66.5 -56.5t24 -81q0 -52 -26 -93.5t-75 -64.5t-115 -23q-91 0 -163 33t-113 91t-41 131
q0 85 44 152t125 104.5t188 37.5q131 0 220 -70v52h638zM345 191q-13 -13 -13 -33t13 -33.5t34 -13.5q19 0 32 13.5t13 33.5t-12.5 33t-32.5 13q-21 0 -34 -13z" />
    <glyph glyph-name="tm_Zero" unicode="&#xbe6;" horiz-adv-x="723" 
d="M526 495.5q73 -35.5 115 -98t42 -140.5q0 -79 -41.5 -141.5t-115 -98t-165.5 -35.5q-91 0 -164 35.5t-115 98t-42 141.5q0 78 41.5 140.5t114.5 98t165 35.5t165 -35.5zM469 159q42 39 42 100q0 58 -42.5 96t-107.5 38t-107 -39t-42 -99q0 -59 42 -97t107 -38
q66 0 108 39z" />
    <glyph glyph-name="tm_One" unicode="&#xbe7;" horiz-adv-x="766" 
d="M649 298q47 -22 72 -61t25 -87t-25 -86t-72.5 -60t-111.5 -22v129q18 0 28 10.5t10 28.5q0 19 -9 30t-26 11h-12q-4 -66 -43 -113.5t-100.5 -71.5t-132.5 -24q-109 0 -165.5 48t-56.5 126q0 49 26 87t77 58v212h564l15 -129h-184v-64h11q63 0 110 -22zM373 384h-82v-64
h82v64zM331.5 136.5q34.5 16.5 40.5 54.5h-114q-26 0 -40 -9.5t-14 -25.5t14.5 -26t41.5 -10q37 0 71.5 16.5z" />
    <glyph glyph-name="tm_Two" unicode="&#xbe8;" horiz-adv-x="782" 
d="M772 129v-129h-705v129h220q72 0 113 37t41 98q0 57 -34.5 93t-93.5 36q-19 0 -28 -1q29 -16 45 -44t16 -64q0 -37 -21 -67.5t-57.5 -47.5t-81.5 -17q-73 0 -119.5 40.5t-46.5 103.5q0 69 37.5 122.5t103.5 83t150 29.5q87 0 156 -34.5t107.5 -95t38.5 -137.5t-43 -135
h202zM216 263.5q11 10.5 11 26.5q0 17 -11 28t-28 11t-27.5 -11t-10.5 -28q0 -16 11 -26.5t28 -10.5q16 0 27 10.5z" />
    <glyph glyph-name="tm_Three" unicode="&#xbe9;" horiz-adv-x="849" 
d="M839 129v-129h-499v129h168q43 0 64.5 13t21.5 36q0 19 -12 30.5t-31 11.5q-20 0 -33.5 -13t-13.5 -29v-11h-164v217h-96v-384h-164v513h566l15 -129h-157v-39q35 12 76 12q53 0 95.5 -23t66.5 -63.5t24 -89.5q0 -29 -9 -52h82z" />
    <glyph glyph-name="tm_Four" unicode="&#xbea;" horiz-adv-x="953" 
d="M923 191h-395q-4 -66 -43 -113.5t-100.5 -71.5t-132.5 -24q-109 0 -165.5 48t-56.5 126q0 49 26 87t77 58v212h564l15 -129h-184v-64h244v193h151v-322zM373 384h-82v-64h82v64zM331.5 136.5q34.5 16.5 40.5 54.5h-114q-26 0 -40 -9.5t-14 -25.5t14.5 -26t41.5 -10
q37 0 71.5 16.5z" />
    <glyph glyph-name="tm_Five" unicode="&#xbeb;" horiz-adv-x="1465" 
d="M1222 0v276q0 114 -52.5 207.5t-163 150t-275.5 56.5q-168 0 -280 -58t-165.5 -158t-53.5 -227q0 -111 39.5 -204.5t130.5 -152t239 -58.5q181 0 266.5 71t85.5 193q0 48 -18.5 75.5t-48.5 27.5q-27 0 -45.5 -17.5t-18.5 -44.5v-137h-163v384h-133v-384h-163v513h602
l15 -129h-158v-71q45 24 96 24q98 0 152.5 -64t54.5 -171q0 -120 -61 -212t-178.5 -144t-282.5 -52q-187 0 -319 77t-198 204t-66 274q0 166 75.5 297t226 206.5t367.5 75.5q212 0 360 -74t222 -199t74 -277v-278h-163z" />
    <glyph glyph-name="tm_Six" unicode="&#xbec;" horiz-adv-x="1156" 
d="M1146 129v-129h-318v129q29 0 42 11.5t13 30.5q0 20 -15.5 33t-39.5 13q-38 0 -59 -23.5t-21 -61.5v-132h-158v150q0 18 -9.5 29.5t-26.5 11.5h-26q-4 -66 -43 -113.5t-100.5 -71.5t-132.5 -24q-109 0 -165.5 48t-56.5 126q0 49 26 87t77 58v212h564l15 -129h-184v-64h11
q78 0 133 -34q31 33 75 51t98 18q62 0 110.5 -22.5t75 -62t26.5 -90.5q0 -27 -9 -51h98zM373 384h-82v-64h82v64zM331.5 136.5q34.5 16.5 40.5 54.5h-114q-26 0 -40 -9.5t-14 -25.5t14.5 -26t41.5 -10q37 0 71.5 16.5z" />
    <glyph glyph-name="tm_Seven" unicode="&#xbed;" horiz-adv-x="866" 
d="M786 0h-164v384h-222q-91 0 -138.5 -40t-47.5 -107q0 -23 4 -39q11 55 57 89t111 34q54 0 96.5 -20.5t66.5 -56.5t24 -81q0 -52 -26 -93.5t-75 -64.5t-115 -23q-91 0 -163 33t-113 91t-41 131q0 80 42.5 142.5t123.5 98t192 35.5h388v-513zM345 191q-13 -13 -13 -33
t13 -33.5t34 -13.5q19 0 32 13.5t13 33.5t-12.5 33t-32.5 13q-21 0 -34 -13z" />
    <glyph glyph-name="tm_Eight" unicode="&#xbee;" horiz-adv-x="1126" 
d="M1046 513v-639h-164v167h-188q-54 -86 -156.5 -135.5t-239.5 -49.5q-86 0 -149 22.5t-96 61.5t-33 89q0 64 44 102t123 38h15q-39 53 -39 120q0 69 35.5 124.5t99 86.5t144.5 31q83 0 153 -40t111 -110t41 -157q0 -31 -4 -55h139v344h164zM575 224q0 79 -38 124t-95 45
q-49 0 -78 -30.5t-29 -78.5q0 -53 30.5 -84t78.5 -31h127q4 23 4 55zM496 41h-289q-16 0 -23 -4t-7 -14q0 -12 30.5 -20.5t90.5 -8.5q130 0 198 47z" />
    <glyph glyph-name="tm_Nine" unicode="&#xbef;" horiz-adv-x="1116" 
d="M982.5 312q54.5 -26 84 -72t29.5 -104q0 -35 -9 -67t-29 -75l-154 6q16 32 25.5 71t9.5 65q0 42 -21.5 67t-63.5 25h-7q33 -47 33 -106q0 -61 -44 -100.5t-111 -39.5t-111 39.5t-44 100.5q0 36 14 69h-56q-4 -66 -43 -113.5t-100.5 -71.5t-132.5 -24q-109 0 -165.5 48
t-56.5 126q0 49 26 87t77 58v212h564l15 -129h-184v-64h145q25 0 50 -6q64 24 132 24q73 0 127.5 -26zM373 384h-82v-64h82v64zM331.5 136.5q34.5 16.5 40.5 54.5h-114q-26 0 -40 -9.5t-14 -25.5t14.5 -26t41.5 -10q37 0 71.5 16.5zM743 101q7 8 7 21q0 35 -29 56
q-21 -24 -21 -56q0 -13 7 -21t18 -8t18 8z" />
    <glyph glyph-name="tm_Ten" unicode="&#xbf0;" horiz-adv-x="944" 
d="M882 381.5q22 -75.5 22 -130.5q0 -79 -31 -139.5t-90 -95t-142 -34.5q-103 0 -169 55q-66 -55 -169 -55q-82 0 -141.5 34.5t-90.5 95.5t-31 139q0 55 22 130.5t63 145.5l171 -14q-36 -59 -59 -134.5t-23 -127.5q0 -59 23 -95t66 -36q44 0 65.5 29t21.5 78v153h164v-153
q0 -49 21.5 -78t65.5 -29q43 0 66 36t23 95q0 52 -23 127.5t-59 134.5l171 14q41 -70 63 -145.5z" />
    <glyph glyph-name="tm_Hundred" unicode="&#xbf1;" horiz-adv-x="1099" 
d="M931 384v-384h-163v384h-169v-384h-164v248q0 65 -29.5 105t-84.5 40q-42 0 -64.5 -30t-22.5 -88v-275h-164v283q0 115 64 181.5t175 66.5q70 0 126 -43v25h639l15 -129h-158z" />
    <glyph glyph-name="tm_Thousand" unicode="&#xbf2;" horiz-adv-x="1148" 
d="M1026 130q47 -25 74.5 -69t27.5 -99q0 -61 -29.5 -109.5t-84.5 -75.5t-127 -27h-150q-106 0 -129 -35l-86 67q43 78 196 78h169q43 0 68 28.5t25 73.5q0 34 -18.5 57t-50.5 26q-6 -50 -36.5 -86t-77.5 -55t-100 -19q-58 0 -99.5 19t-63 50.5t-21.5 70.5q0 57 47 93.5
t132 36.5h74v36h-238q-4 -66 -43 -113.5t-100.5 -71.5t-132.5 -24q-109 0 -165.5 48t-56.5 126q0 49 26 87t77 58v212h564l15 -129h-184v-64h556l15 -129h-187v-36h10q57 0 104 -25zM373 384h-82v-64h82v64zM331.5 136.5q34.5 16.5 40.5 54.5h-114q-34 0 -52.5 -10
t-18.5 -25t19 -25.5t54 -10.5q37 0 71.5 16.5zM764 45h-63q-47 0 -47 -21q0 -11 13.5 -18t34.5 -7q53 0 62 46z" />
    <glyph glyph-name="tm_Naal" unicode="&#xbf3;" horiz-adv-x="914" 
d="M904 129v-129h-298v129q14 29 21.5 57t7.5 60q0 42 -26 75.5t-73 52.5t-108 19q-62 0 -110.5 -20t-76 -55.5t-27.5 -80.5q0 -23 4 -39q11 55 57 89t111 34q54 0 96.5 -20.5t66.5 -56.5t24 -81q0 -52 -26 -93.5t-75 -64.5t-115 -23q-91 0 -163 33t-113 91t-41 131
q0 84 49.5 151t137.5 105t199 38t198 -36.5t135 -101.5t48 -147q0 -62 -29 -117h126zM345 191q-13 -13 -13 -33t13 -33.5t34 -13.5q19 0 32 13.5t13 33.5t-12.5 33t-32.5 13q-21 0 -34 -13z" />
    <glyph glyph-name="tm_Maatham" unicode="&#xbf4;" horiz-adv-x="1361" 
d="M1361 687v-129h-304v129q14 0 23 9.5t9 25.5q0 26 -23 45t-70 19h-4q30 -49 30 -106q0 -61 -44 -100.5t-111 -39.5t-111 39.5t-44 100.5q0 44 20 82q-41 -13 -63 -46.5t-22 -79.5q0 -37 13.5 -65.5t40.5 -43.5q101 -17 160 -94t59 -189q0 -71 -32.5 -126.5t-95 -86.5
t-149.5 -31h-563v513l164 5v-389h160v163q0 72 30 127t87 84q-38 58 -38 133q0 76 36.5 135t103.5 92t156 33q52 0 101 -19q57 19 117 19q74 0 128.5 -23t83.5 -62.5t29 -88.5q0 -24 -3 -35h126zM885 659q7 8 7 21q0 32 -28 57q-22 -25 -22 -57q0 -13 7 -21t18 -8t18 8z
M746 244q0 67 -24.5 108t-70.5 41t-64.5 -28.5t-18.5 -80.5v-155h75q103 0 103 115z" />
    <glyph glyph-name="tm_Varudam" unicode="&#xbf5;" horiz-adv-x="1958" 
d="M1863.5 273q54.5 -64 54.5 -171q0 -118 -77.5 -210.5t-218.5 -145t-324 -52.5h-569q-200 0 -351.5 61.5t-234.5 171.5t-83 252q0 92 40 184.5t106 159.5l169 -10q-64 -61 -103.5 -151t-39.5 -185q0 -103 58 -183t169.5 -125.5t267.5 -45.5h569q140 0 241.5 35.5t155 97.5
t53.5 140q0 48 -18.5 75.5t-48.5 27.5q-27 0 -45.5 -17.5t-18.5 -44.5v-137h-164v384h-114v-384h-453v129q29 58 29 117q0 42 -26 75.5t-73 52.5t-108 19q-62 0 -110.5 -20t-76 -55.5t-27.5 -80.5q0 -23 4 -39q11 55 57 89t111 34q54 0 96.5 -20.5t66.5 -56.5t24 -81
q0 -52 -26 -93.5t-75 -64.5t-115 -23q-90 0 -162.5 33t-113.5 91t-41 131q0 84 49.5 151t137.5 105t199 38t198 -36.5t135 -101.5t48 -147q0 -61 -28 -117h116v384h584l16 -129h-158v-71q45 24 96 24q98 0 152.5 -64zM623.5 191q-13.5 -13 -13.5 -33t13.5 -33.5t34.5 -13.5
q19 0 32 13.5t13 33.5t-12.5 33t-32.5 13q-21 0 -34.5 -13z" />
    <glyph glyph-name="tm_Patru" unicode="&#xbf6;" horiz-adv-x="1121" 
d="M1041 -170h-356q-36 -92 -129.5 -143t-229.5 -51q-74 0 -130 21.5t-86 60.5t-30 88q0 70 48 111.5t140 41.5h274v41h-462v513l164 5v-389h298v384h164v-554h171v554h164v-683zM507 -170h-218q-16 0 -25.5 -6t-9.5 -18q0 -16 19 -24t51 -8q132 0 183 56z" />
    <glyph glyph-name="tm_Varavu" unicode="&#xbf7;" horiz-adv-x="1510" 
d="M1500 129v-129h-304v129q14 0 23 9.5t9 25.5q0 26 -23 45t-70 19h-7q33 -47 33 -106q0 -61 -44 -100.5t-111 -39.5t-111 39.5t-44 100.5q0 36 14 69h-79v-191h-164v384h-222q-91 0 -138.5 -40t-47.5 -107q0 -23 4 -39q11 55 57 89t111 34q54 0 96.5 -20.5t66.5 -56.5
t24 -81q0 -52 -26 -93.5t-75 -64.5t-115 -23q-91 0 -163 33t-113 91t-41 131q0 80 42.5 142.5t123.5 98t192 35.5h530l16 -129h-158v-64h168q25 0 50 -6q64 24 132 24q74 0 128.5 -23t83.5 -62.5t29 -88.5q0 -18 -3 -35h126zM345 191q-13 -13 -13 -33t13 -33.5t34 -13.5
q19 0 32 13.5t13 33.5t-12.5 33t-32.5 13q-21 0 -34 -13zM1024 101q7 8 7 21q0 36 -29 55q-21 -22 -21 -55q0 -13 7 -21t18 -8t18 8z" />
    <glyph glyph-name="tm_Merpadi" unicode="&#xbf8;" horiz-adv-x="2090" 
d="M2010 0h-271v-243h-164v243h-488v125q26 83 26 137q0 131 -114 131q-41 0 -79 -11q95 -90 95 -203q0 -59 -26 -103.5t-73.5 -69t-109.5 -24.5q-63 0 -112 24.5t-75.5 69t-26.5 103.5q0 105 60 190q-82 24 -166 24q-86 0 -147.5 -21t-93 -58.5t-31.5 -85.5q0 -18 3 -35
q10 57 56.5 92.5t112.5 35.5q54 0 96.5 -20.5t66.5 -56.5t24 -81q0 -52 -26 -93.5t-75 -64.5t-115 -23q-90 0 -162.5 32.5t-113.5 88.5t-41 125q0 88 54 156.5t154.5 107.5t236.5 39q158 0 287 -56q100 56 225 56q142 0 216 -73.5t74 -195.5q0 -57 -24 -137h312v38h-5
q-76 0 -133.5 24t-88.5 67t-31 98q0 51 28 92t77 64t110 23q59 0 106.5 -22t74 -61t26.5 -88v-35q62 22 107 59h164v-384zM1575 301v54q0 17 -11.5 27.5t-29.5 10.5q-19 0 -31 -12t-12 -31q0 -27 20 -38t57 -11h7zM837 128q13 17 13 43q0 68 -58 121q-36 -53 -36 -121
q0 -26 13.5 -43t34.5 -17q20 0 33 17zM1846 125v108q-50 -32 -107 -48v-60h107zM345 191q-13 -13 -13 -33t13 -33.5t34 -13.5q19 0 32 13.5t13 33.5t-12.5 33t-32.5 13q-21 0 -34 -13z" />
    <glyph glyph-name="tm_Rupee" unicode="&#xbf9;" horiz-adv-x="1245" 
d="M1150.5 273q54.5 -64 54.5 -171q0 -119 -64 -211.5t-185 -144.5t-286 -52q-191 0 -328.5 74t-209.5 207t-72 305q0 170 84.5 306.5t233.5 214t335 77.5q122 0 211.5 -28t137 -75t47.5 -104q0 -63 -36.5 -100t-107.5 -37q-64 0 -105 39.5t-41 100.5q0 32 14 60
q-48 6 -108 6q-156 0 -267.5 -59.5t-168.5 -164t-57 -238.5q0 -133 49.5 -233.5t147.5 -156.5t239 -56q182 0 273.5 71.5t91.5 192.5q0 48 -18.5 75.5t-48.5 27.5q-27 0 -45.5 -17.5t-18.5 -44.5v-137h-163v384h-133v-384h-163v513h602l15 -129h-158v-71q42 24 96 24
q98 0 152.5 -64zM996 640q12 12 12 31q0 18 -12 30t-31 12t-31 -12t-12 -30q0 -19 12 -31t31 -12t31 12z" />
    <glyph glyph-name="tm_Enn" unicode="&#xbfa;" horiz-adv-x="1126" 
d="M1126 687v-129h-304v129q14 0 23 9.5t9 25.5q0 26 -23 45t-70 19h-4q30 -49 30 -106q0 -61 -44 -100.5t-111 -39.5t-111 39.5t-44 100.5q0 44 20 81q-41 -12 -63 -45.5t-22 -79.5q0 -55 29.5 -89t83.5 -34h130l15 -129h-157v-68q42 21 89 21q97 0 150.5 -67.5
t53.5 -176.5q0 -84 -32.5 -150t-94.5 -103.5t-147 -37.5h-189q-137 0 -166 -45l-97 86q22 43 80.5 65.5t168.5 22.5h203q54 0 78 42.5t24 113.5q0 49 -17.5 80.5t-45.5 31.5q-27 0 -42.5 -17.5t-15.5 -44.5v-137h-164v384h-105v-384h-164v513h200q-32 53 -32 123
q0 76 36.5 135t104 92t156.5 33q51 0 100 -19q57 19 117 19q74 0 129 -23t84 -63t29 -88q0 -13 -4 -35h126zM650 659q7 8 7 21q0 32 -28 57q-22 -25 -22 -57q0 -13 7 -21t18 -8t18 8z" />
    <glyph glyph-name="uni200C" unicode="&#x200c;" horiz-adv-x="0" 
d="M-30 -68h60v1305h-60v-1305z" />
    <glyph glyph-name="uni200D" unicode="&#x200d;" horiz-adv-x="0" 
d="M0 1246l-73 74l-40 -40l74 -74l-74 -74l39 -39l44 43v-1204h60v1205l45 -44l39 39l-74 74l74 74l-40 40z" />
    <glyph glyph-name="endash" unicode="&#x2013;" horiz-adv-x="456" 
d="M416 345h-386l11 -143h385z" />
    <glyph glyph-name="emdash" unicode="&#x2014;" horiz-adv-x="573" 
d="M533 345h-503l11 -143h502z" />
    <glyph glyph-name="quoteleft" unicode="&#x2018;" horiz-adv-x="243" 
d="M187 469.5q27 28.5 27 63.5q0 24 -12 45t-31 33q3 12 19.5 27t32.5 24l-36 80q-67 -25 -112 -80t-45 -114q0 -47 26.5 -77t65.5 -30q38 0 65 28.5z" />
    <glyph glyph-name="quoteright" unicode="&#x2019;" horiz-adv-x="243" 
d="M56 713.5q-27 -28.5 -27 -63.5q0 -24 12 -45t31 -33q-3 -12 -19.5 -27t-32.5 -24l36 -80q67 25 112 80t45 114q0 47 -26.5 77t-65.5 30q-38 0 -65 -28.5z" />
    <glyph glyph-name="quotesinglbase" unicode="&#x201a;" horiz-adv-x="243" 
d="M56 118.5q-27 -28.5 -27 -63.5q0 -24 12 -45t31 -33q-3 -12 -19.5 -27t-32.5 -24l36 -80q67 25 112 80t45 114q0 47 -26.5 77t-65.5 30q-38 0 -65 -28.5z" />
    <glyph glyph-name="quotedblleft" unicode="&#x201c;" horiz-adv-x="453" 
d="M187 469.5q27 28.5 27 63.5q0 24 -12 45t-31 33q3 12 19.5 27t32.5 24l-36 80q-67 -25 -112 -80t-45 -114q0 -47 26.5 -77t65.5 -30q38 0 65 28.5zM397 469.5q27 28.5 27 63.5q0 24 -12 45t-31 33q3 12 19.5 27t32.5 24l-36 80q-67 -25 -112 -80t-45 -114q0 -47 26.5 -77
t65.5 -30q38 0 65 28.5z" />
    <glyph glyph-name="quotedblright" unicode="&#x201d;" horiz-adv-x="453" 
d="M56 713.5q-27 -28.5 -27 -63.5q0 -24 12 -45t31 -33q-3 -12 -19.5 -27t-32.5 -24l36 -80q67 25 112 80t45 114q0 47 -26.5 77t-65.5 30q-38 0 -65 -28.5zM266 713.5q-27 -28.5 -27 -63.5q0 -24 12 -45t31 -33q-3 -12 -19.5 -27t-32.5 -24l36 -80q67 25 112 80t45 114
q0 47 -26.5 77t-65.5 30q-38 0 -65 -28.5z" />
    <glyph glyph-name="quotedblbase" unicode="&#x201e;" horiz-adv-x="453" 
d="M56 118.5q-27 -28.5 -27 -63.5q0 -24 12 -45t31 -33q-3 -12 -19.5 -27t-32.5 -24l36 -80q67 25 112 80t45 114q0 47 -26.5 77t-65.5 30q-38 0 -65 -28.5zM266 118.5q-27 -28.5 -27 -63.5q0 -24 12 -45t31 -33q-3 -12 -19.5 -27t-32.5 -24l36 -80q67 25 112 80t45 114
q0 47 -26.5 77t-65.5 30q-38 0 -65 -28.5z" />
    <glyph glyph-name="dagger" unicode="&#x2020;" horiz-adv-x="506" 
d="M165 780v-155h-135l19 -142h116v-483h169v483h142l-18 142h-113v155h-180z" />
    <glyph glyph-name="daggerdbl" unicode="&#x2021;" horiz-adv-x="519" 
d="M355 1l-5 153h139l-18 143h-118v186h136l-18 142h-118v155h-188v-155h-135l19 -142h119v-186h-138l19 -143h119l-5 -160z" />
    <glyph glyph-name="bullet" unicode="&#x2022;" horiz-adv-x="308" 
d="M215.5 224.5q28.5 16.5 45.5 45t17 61.5t-17 61.5t-46 45.5t-62 17q-51 0 -87 -36.5t-36 -87.5t36 -87t87 -36q34 0 62.5 16.5z" />
    <glyph glyph-name="ellipsis" unicode="&#x2026;" horiz-adv-x="620" 
d="M172 23.5q24 23.5 24 59.5q0 35 -24 59t-59 24t-59 -24t-24 -59q0 -36 24 -59.5t59 -23.5t59 23.5zM369 23.5q24 23.5 24 59.5q0 35 -24 59t-59 24t-59 -24t-24 -59q0 -36 24 -59.5t59 -23.5t59 23.5zM566 23.5q24 23.5 24 59.5q0 35 -24 59t-59 24t-59 -24t-24 -59
q0 -36 24 -59.5t59 -23.5t59 23.5z" />
    <glyph glyph-name="perthousand" unicode="&#x2030;" horiz-adv-x="1365" 
d="M542 706l-298 -706h187l299 706h-188zM68.5 652.5q-48.5 -49.5 -48.5 -133.5q0 -85 46 -133.5t129 -48.5q85 0 136 48.5t51 131.5q0 85 -48 135t-134 50q-83 0 -131.5 -49.5zM234.5 562.5q9.5 -15.5 9.5 -45.5t-11 -44.5t-35 -14.5q-21 0 -30.5 15t-9.5 46q0 59 44 59
q23 0 32.5 -15.5zM640.5 316.5q-48.5 -49.5 -48.5 -133.5q0 -85 46 -133.5t129 -48.5q85 0 136 48.5t51 131.5q0 85 -48 135t-134 50q-83 0 -131.5 -49.5zM1031.5 316.5q-48.5 -49.5 -48.5 -133.5q0 -85 46 -133.5t129 -48.5q85 0 136 48.5t51 131.5q0 85 -48 135t-134 50
q-83 0 -131.5 -49.5zM806.5 226.5q9.5 -15.5 9.5 -45.5t-11 -44.5t-35 -14.5q-21 0 -30.5 15t-9.5 46q0 59 44 59q23 0 32.5 -15.5zM1197.5 226.5q9.5 -15.5 9.5 -45.5t-11 -44.5t-35 -14.5q-21 0 -30.5 15t-9.5 46q0 59 44 59q23 0 32.5 -15.5z" />
    <glyph glyph-name="guilsinglleft" unicode="&#x2039;" horiz-adv-x="270" 
d="M30 219l187 -161l33 136l-66 58l66 57l-33 137l-187 -162v-65z" />
    <glyph glyph-name="guilsinglright" unicode="&#x203a;" horiz-adv-x="270" 
d="M240 285l-187 161l-33 -136l66 -58l-66 -57l33 -137l187 162v65z" />
    <glyph glyph-name="fraction" unicode="&#x2044;" horiz-adv-x="506" 
d="M308 706l-298 -706h187l299 706h-188z" />
    <glyph glyph-name="Euro" unicode="&#x20ac;" horiz-adv-x="656" 
d="M646 37q-39 -23 -94.5 -36.5t-108.5 -13.5q-124 0 -210 57.5t-121 157.5h-100l-12 116h90v19q0 18 1 27h-79l-12 116h116q39 98 125 155.5t198 57.5q52 0 106.5 -15t93.5 -41l-54 -123q-53 18 -81.5 24t-62.5 6q-33 0 -64 -17t-54 -47h183l10 -116h-237q-1 -8 -1 -26
q0 -13 1 -20h227l10 -116h-196q24 -32 58 -49t70 -17q67 0 129 37z" />
    <glyph glyph-name="Turkishlira" unicode="&#x20ba;" horiz-adv-x="624" 
d="M261 0q109 0 186 43.5t117 124.5t40 192l-188 1q0 -102 -44 -156.5t-111 -55.5v193l143 50l-38 112l-105 -37v33l143 50l-38 112l-105 -37v82l-182 -15v-131l-79 -28l9 -121l70 24v-33l-79 -28l9 -120l70 24v-279h182z" />
    <glyph glyph-name="Ruble" unicode="&#x20bd;" horiz-adv-x="666" 
d="M262 208v-42h234l10 -123h-244v-43h-182v43h-70l-10 123h80v51h-70l-10 123h80v340h286q78 0 141.5 -27t101 -81t37.5 -133q0 -78 -40 -130t-105.5 -76.5t-142.5 -24.5h-96zM262 351h100q42 0 69 24.5t27 63.5q0 45 -26 71.5t-72 26.5h-98v-186z" />
    <glyph glyph-name="litre" unicode="&#x2113;" horiz-adv-x="514" 
d="M107 181v-26q0 -90 66 -128t171 -38q34 0 74.5 13.5t59.5 29.5l-52 124q-16 -9 -36 -14t-34 -5q-35 0 -51 10.5t-16 37.5v90q87 59 141 127.5t54 141.5t-51 115.5t-133 42.5q-50 0 -94.5 -21.5t-71.5 -60t-27 -88.5v-182q-82 -34 -97 -38l41 -150zM283 440v87
q0 14 5 23.5t15 9.5q9 0 14.5 -6t5.5 -15q0 -49 -40 -99z" />
    <glyph glyph-name="trademark" unicode="&#x2122;" horiz-adv-x="804" 
d="M347 680h-337v-104h107v-286h125v286h117zM611 419l37 41v-170h126v390h-89l-100 -127l-108 127h-91v-390h125v175l48 -52z" />
    <glyph glyph-name="Ohm" unicode="&#x2126;" horiz-adv-x="726" 
d="M487.5 217.5q-21.5 -57.5 -63.5 -74.5v-143h256l16 143h-63q30 44 46.5 94.5t16.5 99.5q0 104 -41 185t-116.5 126.5t-175.5 45.5t-175.5 -45.5t-116.5 -126.5t-41 -185q0 -49 16.5 -99.5t46.5 -94.5h-63l16 -143h256v143q-43 17 -64 74t-21 121q0 93 39 148.5t107 55.5
t107 -55.5t39 -148.5q0 -63 -21.5 -120.5z" />
    <glyph glyph-name="estimated" unicode="&#x212e;" horiz-adv-x="533" 
d="M513 250q0 70 -26.5 127t-78.5 91t-127 34q-74 0 -133.5 -31.5t-93.5 -90.5t-34 -138q0 -80 37 -137.5t102.5 -86.5t150.5 -29q59 0 115.5 15t86.5 37l-51 123q-64 -33 -133 -33q-45 0 -72.5 17.5t-37.5 48.5h295v53zM231.5 335q19.5 21 44.5 21q31 0 47 -22t16 -47h-126
q-1 27 18.5 48z" />
    <glyph glyph-name="partialdiff" unicode="&#x2202;" horiz-adv-x="590" 
d="M359.5 641.5q103.5 -76.5 157 -178.5t53.5 -209q0 -80 -34 -140t-95 -92.5t-139 -32.5q-80 0 -144 28.5t-101 86t-37 141.5q0 78 35.5 136.5t94 89.5t125.5 31q11 0 17 -1q-84 97 -239 137l61 112q142 -32 245.5 -108.5zM359 163q23 26 23 77q0 52 -10 96q-39 18 -75 18
q-42 0 -65.5 -29t-23.5 -80q0 -50 22 -79t63 -29q43 0 66 26z" />
    <glyph glyph-name="Delta" unicode="&#x2206;" horiz-adv-x="699" 
d="M295 680l-285 -680h679v18l-284 662h-110zM462 143h-228l113 265z" />
    <glyph glyph-name="product" unicode="&#x220f;" horiz-adv-x="762" 
d="M80 0h181v537h239v-537h182v680h-602v-680z" />
    <glyph glyph-name="summation" unicode="&#x2211;" horiz-adv-x="501" 
d="M434 680h-402v-130l148 -206l-150 -214v-130h451l-17 143h-228l115 173v58l-114 163h214z" />
    <glyph glyph-name="minus" unicode="&#x2212;" horiz-adv-x="496" 
d="M456 345h-426l11 -143h425z" />
    <glyph glyph-name="divisionslash" unicode="&#x2215;" horiz-adv-x="506" 
d="M308 706l-298 -706h187l299 706h-188z" />
    <glyph glyph-name="bulletmath" unicode="&#x2219;" horiz-adv-x="308" 
d="M215.5 224.5q28.5 16.5 45.5 45t17 61.5t-17 61.5t-46 45.5t-62 17q-51 0 -87 -36.5t-36 -87.5t36 -87t87 -36q34 0 62.5 16.5z" />
    <glyph glyph-name="radical" unicode="&#x221a;" horiz-adv-x="760" 
d="M566 706l-237 -567l-114 212h-205l190 -351h252l298 706h-184z" />
    <glyph glyph-name="infinity" unicode="&#x221e;" horiz-adv-x="874" 
d="M140.5 463q-56.5 -31 -88.5 -88t-32 -133q0 -71 32 -126t89 -85.5t129 -30.5q46 0 93.5 24t68.5 56q31 -34 76 -57t98 -23q71 0 127.5 32t88.5 89.5t32 130.5q0 72 -30 127t-86.5 85t-133.5 30q-46 0 -93.5 -24t-68.5 -56q-31 34 -76 57t-98 23q-71 0 -127.5 -31z
M327.5 201q-24.5 -34 -51.5 -34q-33 0 -55.5 21.5t-22.5 50.5q0 36 22.5 62t55.5 26q50 0 90 -48q-14 -44 -38.5 -78zM546.5 293q24.5 34 51.5 34q33 0 55.5 -21.5t22.5 -50.5q0 -36 -22.5 -62t-55.5 -26q-50 0 -90 48q14 44 38.5 78z" />
    <glyph glyph-name="integral" unicode="&#x222b;" horiz-adv-x="560" 
d="M388.5 617.5q17.5 17.5 49.5 17.5q14 0 34 -5t36 -14l52 124q-19 16 -59.5 29.5t-74.5 13.5q-64 0 -118 -22t-86.5 -65.5t-32.5 -105.5v-556q0 -30 -17.5 -47.5t-49.5 -17.5q-14 0 -34 5t-36 14l-52 -124q19 -16 59.5 -29.5t74.5 -13.5q64 0 118 22t86.5 65.5t32.5 105.5
v556q0 30 17.5 47.5z" />
    <glyph glyph-name="approxequal" unicode="&#x2248;" horiz-adv-x="565" 
d="M397 439q-12 -16 -30 -16q-29 0 -83 17t-94 17q-79 0 -119.5 -41t-40.5 -119l126 -20q0 16 21.5 32.5t40.5 16.5q42 0 91 -17q48 -17 90 -17q73 0 104.5 40t31.5 120l-126 20q0 -17 -12 -33zM397 233q-12 -16 -30 -16q-29 0 -83 17t-94 17q-160 0 -160 -160l126 -20
q0 16 21.5 32.5t40.5 16.5q42 0 91 -17q48 -17 90 -17q73 0 104.5 41t31.5 119l-126 20q0 -17 -12 -33z" />
    <glyph glyph-name="notequal" unicode="&#x2260;" horiz-adv-x="573" 
d="M319 517l-41 -88h-248l11 -143h174l-31 -71h-154l11 -143h79l-36 -82h167l39 82h253l-10 143h-180l32 71h158l-10 143h-84l39 88h-169z" />
    <glyph glyph-name="lessequal" unicode="&#x2264;" horiz-adv-x="396" 
d="M369 297l-135 66l135 65l-33 137l-299 -162v-81l299 -164zM366 123h-336l11 -123h335z" />
    <glyph glyph-name="greaterequal" unicode="&#x2265;" horiz-adv-x="396" 
d="M359 401l-299 164l-33 -139l135 -66l-135 -65l33 -137l299 162v81zM356 123h-336l11 -123h335z" />
    <glyph glyph-name="lozenge" unicode="&#x25ca;" horiz-adv-x="612" 
d="M341 0l241 274v51l-240 275h-71l-241 -275v-51l242 -274h69zM306 432l115 -135l-115 -134l-114 134z" />
    <glyph glyph-name="uni25CC" unicode="&#x25cc;" horiz-adv-x="605" 
d="M323 467q8 8 8 21t-8 21.5t-21 8.5t-21 -8.5t-8 -21.5t8 -21t21 -8t21 8zM192 494q-8 -8 -8 -21t8 -21t21 -8t21 8t8 21t-8 21t-21 8t-21 -8zM413 452q8 8 8 21t-8 21t-21 8t-21 -8t-8 -21t8 -21t21 -8t21 8zM115.5 443.5q-8.5 -8.5 -8.5 -21.5t8.5 -21t21.5 -8t21 8
t8 21t-8 21.5t-21 8.5t-21.5 -8.5zM489.5 401q8.5 8 8.5 21t-8.5 21.5t-21.5 8.5t-21 -8.5t-8 -21.5t8 -21t21 -8t21.5 8zM67.5 364.5q-8.5 -8.5 -8.5 -21.5t8.5 -21t21.5 -8t21 8t8 21t-8 21.5t-21 8.5t-21.5 -8.5zM537 322q8 8 8 21t-8 21.5t-21 8.5t-21 -8.5t-8 -21.5
t8 -21t21 -8t21 8zM53.5 278.5q-8.5 -8.5 -8.5 -21.5t8.5 -20.5t21.5 -7.5t21 7.5t8 20.5t-8 21.5t-21 8.5t-21.5 -8.5zM551.5 236.5q8.5 7.5 8.5 20.5t-8.5 21.5t-21.5 8.5t-21 -8.5t-8 -21.5t8 -20.5t21 -7.5t21.5 7.5zM67.5 195q-8.5 -8 -8.5 -21t8.5 -21t21.5 -8t21 8
t8 21t-8 21t-21 8t-21.5 -8zM537 153q8 8 8 21t-8 21t-21 8t-21 -8t-8 -21t8 -21t21 -8t21 8zM114.5 115q-8.5 -8 -8.5 -21t8.5 -21t21.5 -8t21 8t8 21t-8 21t-21 8t-21.5 -8zM490.5 73q8.5 8 8.5 21t-8.5 21t-21.5 8t-21 -8t-8 -21t8 -21t21 -8t21.5 8zM192 65.5
q-8 -8.5 -8 -21.5t8 -21t21 -8t21 8t8 21t-8 21.5t-21 8.5t-21 -8.5zM413 23q8 8 8 21t-8 21.5t-21 8.5t-21 -8.5t-8 -21.5t8 -21t21 -8t21 8zM323 8q8 8 8 21t-8 21.5t-21 8.5t-21 -8.5t-8 -21.5t8 -21t21 -8t21 8z" />
    <glyph glyph-name="commaaccent" unicode="&#xf6c3;" horiz-adv-x="0" 
d="M-167 -49.5q-27 -28.5 -27 -63.5q0 -24 12 -45t31 -33q-3 -12 -19.5 -27t-32.5 -24l36 -80q67 25 112 80t45 114q0 47 -26.5 77t-65.5 30q-38 0 -65 -28.5z" />
    <glyph glyph-name="fi" unicode="&#xfb01;" horiz-adv-x="733" 
d="M90 322v-322h182v322h151l-17 143h-134v25q0 30 15.5 47.5t41.5 17.5q36 0 70 -19l52 124q-19 16 -59.5 29.5t-74.5 13.5q-60 0 -112 -22t-83.5 -65.5t-31.5 -105.5v-45h-80v-143h80zM661.5 580q29.5 29 29.5 69q0 41 -29.5 70.5t-70.5 29.5q-40 0 -69 -29.5t-29 -70.5
q0 -40 29 -69t69 -29q41 0 70.5 29zM683 0v485h-182v-485h182z" />
    <glyph glyph-name="fl" unicode="&#xfb02;" horiz-adv-x="753" 
d="M90 322v-322h182v322h151l-17 143h-134v25q0 30 15.5 47.5t41.5 17.5q36 0 70 -19l52 124q-19 16 -59.5 29.5t-74.5 13.5q-60 0 -112 -22t-83.5 -65.5t-31.5 -105.5v-45h-80v-143h80zM693 0v706l-182 -11v-695h182z" />
    <glyph glyph-name="grave.case" horiz-adv-x="266" 
d="M124 733l132 22l-66 177h-180z" />
    <glyph glyph-name="dieresis.case" horiz-adv-x="398" 
d="M153 777q24 24 24 59q0 34 -24 58.5t-60 24.5q-33 0 -58 -24.5t-25 -58.5q0 -35 24.5 -59t58.5 -24q36 0 60 24zM364 777q24 24 24 59q0 34 -24 58.5t-60 24.5q-33 0 -58 -24.5t-25 -58.5q0 -35 24.5 -59t58.5 -24q36 0 60 24z" />
    <glyph glyph-name="macron.case" horiz-adv-x="310" 
d="M10 763h290l-10 143h-280v-143z" />
    <glyph glyph-name="acute.case" horiz-adv-x="266" 
d="M142 733l114 199h-180l-66 -177z" />
    <glyph glyph-name="circumflex.case" horiz-adv-x="475" 
d="M240 801l52 -62l173 20l-174 179h-107l-174 -179l177 -20z" />
    <glyph glyph-name="caron.case" horiz-adv-x="475" 
d="M240 876l-53 62l-177 -20l174 -179h107l174 179l-173 20z" />
    <glyph glyph-name="breve.case" horiz-adv-x="380" 
d="M227.5 887.5q-13.5 -15.5 -37.5 -15.5t-37.5 15.5t-13.5 40.5h-129q0 -86 49 -137t131 -52q82 1 131 52t49 137h-129q0 -25 -13.5 -40.5z" />
    <glyph glyph-name="dotaccent.case" horiz-adv-x="202" 
d="M167 770q25 26 25 66q0 39 -25.5 65.5t-64.5 26.5q-38 0 -65 -27t-27 -65q0 -39 26.5 -65.5t65.5 -26.5q40 0 65 26z" />
    <glyph glyph-name="ring.case" horiz-adv-x="266" 
d="M46.5 942q-36.5 -34 -36.5 -83q0 -50 36 -82.5t87 -32.5q50 0 86.5 32.5t36.5 82.5q0 32 -17 59t-45.5 42.5t-60.5 15.5q-50 0 -86.5 -34zM114 838q-9 9 -9 21t9 20t21 8t20 -8t8 -20t-8 -21t-20 -9t-21 9z" />
    <glyph glyph-name="tilde.case" horiz-adv-x="391" 
d="M252 886q-7 -10 -15 -10q-13 0 -22.5 4t-24.5 12q-14 9 -25.5 13.5t-27.5 4.5q-53 0 -90 -38.5t-37 -121.5h126q0 9 7 19t15 10q14 0 23 -4t23 -12q14 -9 25.5 -13.5t28.5 -4.5q52 0 87.5 38.5t35.5 121.5h-122q0 -9 -7 -19z" />
    <glyph glyph-name="hungarumlaut.case" horiz-adv-x="513" 
d="M142 733l114 199h-180l-66 -177zM389 733l114 199h-180l-66 -177z" />
    <glyph glyph-name="tm_VowelAi.alt" horiz-adv-x="462" 
d="M635 249q0 -76 -31 -137t-86 -95.5t-124 -34.5q-70 0 -118.5 22.5t-73.5 60t-25 84.5q0 41 16.5 71t65.5 84l63 70q34 39 34 79q0 28 -23.5 46.5t-58.5 18.5q-17 0 -26 -1q23 -16 35.5 -40.5t12.5 -55.5q0 -55 -39 -90t-99 -35t-99 40t-39 102q0 58 32 104.5t88.5 73
t127.5 26.5q77 0 132 -24t84 -67t29 -98q0 -32 -21.5 -74t-56.5 -81l-64 -72q-28 -33 -28 -57q0 -21 17 -34.5t43 -13.5q45 0 73.5 36t26.5 92h132zM175.5 406q5.5 5 5.5 13q0 9 -5.5 15t-14.5 6q-8 0 -14 -6t-6 -15q0 -7 6 -12.5t14 -5.5q9 0 14.5 5z" />
    <glyph glyph-name="tm_VowelI.alt1" horiz-adv-x="324" 
d="M95.5 760q74.5 -37 111.5 -103.5t37 -153.5v-503h-164v503q0 77 -37.5 117t-128.5 40q-45 0 -77.5 -13.5t-49 -34.5t-16.5 -45q0 -25 7 -40.5t23 -23.5l-104 -83q-88 51 -89 147q0 61 37 114t106.5 84.5t161.5 31.5q108 0 182.5 -37z" />
    <glyph glyph-name="tm_VowelU.alt1" horiz-adv-x="0" 
d="M-80 -188l-164 -9v249l164 -3v-237z" />
    <glyph glyph-name="tm_VowelUu.alt1" horiz-adv-x="420" 
d="M252 384v-554h-164v554h-332v129h638l16 -129h-158z" />
    <glyph glyph-name="tm_VowelI.alt2" horiz-adv-x="324" 
d="M4 759q113 -38 176.5 -105t63.5 -151v-503h-164v503q0 47 -42 82.5t-116.5 55t-170.5 19.5q-250 0 -250 -81q0 -56 25 -71l-98 -82q-42 24 -65.5 63.5t-24.5 89.5q0 64 48 113.5t141 77t223 27.5q141 0 254 -38z" />
    <glyph glyph-name="tm_VowelU.alt2" horiz-adv-x="479" 
d="M353 489.5q50 -23.5 78 -65t28 -94.5q0 -48 -24.5 -86.5t-68 -60.5t-97.5 -22q-55 0 -98.5 21.5t-68.5 59t-25 85.5q0 29 11 57h-382v129h534q63 0 113 -23.5zM297.5 300.5q13.5 13.5 13.5 34.5q0 22 -13.5 35.5t-34.5 13.5q-22 0 -36.5 -13.5t-14.5 -35.5
q0 -21 14.5 -34.5t36.5 -13.5q21 0 34.5 13.5z" />
    <glyph glyph-name="tm_VowelUu.alt2" horiz-adv-x="755" 
d="M573 575q76 -37 119 -103.5t43 -149.5q0 -89 -46 -159t-132 -109.5t-201 -39.5h-63v129h63q98 0 152.5 49.5t54.5 129.5q0 70 -45.5 115.5t-116.5 45.5q-12 0 -32 -2q43 -24 66.5 -63.5t23.5 -87.5t-24.5 -86.5t-68 -60.5t-97.5 -22q-55 0 -98.5 21.5t-68.5 59t-25 85.5
q0 30 6 57h-383v129h450q43 47 108 73t143 26q96 0 172 -37zM297.5 300.5q13.5 13.5 13.5 34.5q0 22 -13.5 35.5t-34.5 13.5h-42q-9 -22 -9 -49q0 -21 14.5 -34.5t36.5 -13.5q21 0 34.5 13.5z" />
    <glyph glyph-name="tm_VowelI.alt3" horiz-adv-x="308" 
d="M62.5 759.5q87.5 -37.5 134.5 -104.5t47 -152v-503h-164v503q0 73 -57.5 115t-163.5 42q-124 0 -124 -72q0 -35 13 -55t42 -20v-108q-66 0 -115 23.5t-76 65t-27 94.5q0 61 34.5 108t99 74t152.5 27q117 0 204.5 -37.5z" />
    <glyph glyph-name="tm_VowelU.alt3" horiz-adv-x="479" 
d="M353 489.5q50 -23.5 78 -65t28 -94.5q0 -48 -24.5 -86.5t-68 -60.5t-97.5 -22q-55 0 -98.5 21.5t-68.5 59t-25 85.5q0 29 11 57h-320v129h472q63 0 113 -23.5zM297.5 300.5q13.5 13.5 13.5 34.5q0 22 -13.5 35.5t-34.5 13.5q-22 0 -36.5 -13.5t-14.5 -35.5
q0 -21 14.5 -34.5t36.5 -13.5q21 0 34.5 13.5z" />
    <glyph glyph-name="tm_VowelUu.alt3" horiz-adv-x="755" 
d="M573 575q76 -37 119 -103.5t43 -149.5q0 -89 -46 -159t-132 -109.5t-201 -39.5h-63v129h63q98 0 152.5 49.5t54.5 129.5q0 70 -45.5 115.5t-116.5 45.5q-12 0 -32 -2q43 -24 66.5 -63.5t23.5 -87.5t-24.5 -86.5t-68 -60.5t-97.5 -22q-55 0 -98.5 21.5t-68.5 59t-25 85.5
q0 30 6 57h-308v129h375q43 47 108 73t143 26q96 0 172 -37zM297.5 300.5q13.5 13.5 13.5 34.5q0 22 -13.5 35.5t-34.5 13.5h-42q-9 -22 -9 -49q0 -21 14.5 -34.5t36.5 -13.5q21 0 34.5 13.5z" />
    <glyph glyph-name="tm_VowelI.alt4" horiz-adv-x="324" 
d="M50.5 759.5q93.5 -37.5 143.5 -104t50 -152.5v-503h-164v503q0 73 -64 115t-184 42q-93 0 -140 -21t-47 -60q0 -33 13 -49.5t42 -16.5v-108q-100 0 -158.5 47t-59.5 127q0 64 41.5 113.5t120.5 77t187 27.5q126 0 219.5 -37.5z" />
    <glyph glyph-name="tm_KU" horiz-adv-x="1191" 
d="M1019.5 286q61.5 -34 96.5 -94t35 -135q0 -105 -65.5 -187.5t-186 -129t-279.5 -46.5q-177 0 -303.5 61t-191.5 170.5t-65 253.5q0 92 40 184.5t106 159.5l169 -10q-64 -61 -103.5 -151t-39.5 -185q0 -161 94 -253t292 -92q110 0 192 28.5t125.5 79.5t43.5 117
q0 58 -27.5 96t-69.5 38h-13q-4 -66 -42.5 -113.5t-100 -71.5t-132.5 -24q-109 0 -166 48.5t-57 125.5q0 49 26 87t77 58v212h564l16 -129h-185v-64h12q77 0 138.5 -34zM714 384h-82v-64h82v64zM672.5 136.5q34.5 16.5 40.5 54.5h-114q-26 0 -40 -9.5t-14 -25.5t14.5 -26
t41.5 -10q37 0 71.5 16.5z" />
    <glyph glyph-name="tm_CU" horiz-adv-x="858" 
d="M747 191v-191h-158v191h-61q-4 -66 -43 -113.5t-100.5 -71.5t-132.5 -24q-109 0 -165.5 48t-56.5 126q0 49 26 87t77 58v212h564l15 -129h-184v-64h295l15 -129h-91zM373 384h-82v-64h82v64zM331.5 136.5q34.5 16.5 40.5 54.5h-114q-26 0 -40 -9.5t-14 -25.5t14.5 -26
t41.5 -10q37 0 71.5 16.5z" />
    <glyph glyph-name="tm_NyU" horiz-adv-x="1393" 
d="M1313 513v-683h-359q-87 -92 -235.5 -143t-342.5 -51q-138 0 -219 45t-81 125q0 70 48 111.5t140 41.5h596q30 56 30 128q0 50 -17 81t-47 31q-27 0 -42.5 -17.5t-15.5 -44.5v-137h-164v384h-204q-91 0 -138.5 -40t-47.5 -107q0 -23 4 -39q11 55 57 89t111 34
q54 0 96.5 -20.5t66.5 -56.5t24 -81q0 -52 -26 -93.5t-75 -64.5t-115 -23q-91 0 -163 33t-113 91t-41 131q0 80 42.5 142.5t123.5 98t192 35.5h512l16 -129h-158v-68q42 21 89 21q97 0 151 -67.5t54 -176.5q0 -68 -25 -134h112v554h164zM345 191q-13 -13 -13 -33t13 -33.5
t34 -13.5q19 0 32 13.5t13 33.5t-12.5 33t-32.5 13q-21 0 -34 -13zM711 -170h-427q-34 0 -34 -24q0 -32 124 -32q211 0 337 56z" />
    <glyph glyph-name="tm_TtU" horiz-adv-x="948" 
d="M854.5 269.5q53.5 -67.5 53.5 -176.5q0 -115 -46 -205.5t-137 -142t-221 -51.5q-142 0 -241.5 57.5t-151 162.5t-51.5 247q0 94 41 195t105 167l169 -10q-63 -60 -103 -158.5t-40 -195.5q0 -155 67 -241t203 -86q121 0 177.5 68.5t56.5 186.5q0 49 -17.5 80.5t-46.5 31.5
q-27 0 -42.5 -17.5t-15.5 -44.5v-137h-163v513h163v-197q42 21 90 21q97 0 150.5 -67.5z" />
    <glyph glyph-name="tm_NnU" horiz-adv-x="2099" 
d="M2019 -170h-544q-149 -93 -379 -143.5t-536 -50.5q-255 0 -369.5 46.5t-114.5 135.5q0 65 52 103t136 38h1152q137 109 137 283q0 73 -30.5 112t-93.5 39q-24 0 -52 -5q38 -44 58 -97t20 -112t-26 -103.5t-73.5 -69t-109.5 -24.5q-63 0 -112 24.5t-75.5 69t-26.5 103.5
q0 115 71 205q-36 9 -77 9q-55 0 -102 -15q44 -43 67.5 -93.5t23.5 -105.5q0 -59 -26 -103.5t-73.5 -69t-109.5 -24.5q-63 0 -112 24.5t-75.5 69t-26.5 103.5q0 104 63 189q-81 25 -169 25q-86 0 -147.5 -21t-93 -58.5t-31.5 -85.5q0 -18 3 -35q10 57 56.5 92.5t112.5 35.5
q54 0 96.5 -20.5t66.5 -56.5t24 -81q0 -52 -26 -93.5t-75 -64.5t-115 -23q-90 0 -162.5 32.5t-113.5 88.5t-41 125q0 88 54 156.5t154.5 107.5t236.5 39q161 0 293 -58q108 58 246 58q116 0 212 -42q87 42 191 42q144 0 222 -77.5t78 -211.5q0 -158 -102 -283h230v554h164
v-683zM1277 128q13 17 13 43q0 76 -49 134q-45 -59 -45 -134q0 -26 13.5 -43t34.5 -17q20 0 33 17zM837 128q13 17 13 43q0 66 -56 119q-38 -52 -38 -119q0 -26 13.5 -43t34.5 -17q20 0 33 17zM345 191q-13 -13 -13 -33t13 -33.5t34 -13.5q19 0 32 13.5t13 33.5t-12.5 33
t-32.5 13q-21 0 -34 -13zM1127 -170h-842q-35 0 -35 -21q0 -17 71 -26t237 -9q343 0 569 56z" />
    <glyph glyph-name="tm_TU" horiz-adv-x="1132" 
d="M1052 -170h-311q-54 -92 -159 -143t-252 -51q-90 0 -158 21.5t-105 61.5t-37 93q0 68 50 107.5t138 39.5h396q4 29 4 69q0 63 -25 107t-66 54q-4 -66 -42.5 -113t-100 -70.5t-132.5 -23.5q-109 0 -165.5 48t-56.5 126q0 49 26 87t77 58v212h564l15 -129h-184v-65
q76 -5 136 -43.5t93.5 -103.5t33.5 -144q0 -32 -5 -69h102v554h164v-683zM373 384h-82v-64h82v64zM331.5 136.5q34.5 16.5 40.5 54.5h-114q-26 0 -40 -9.5t-14 -25.5t14.5 -26t41.5 -10q37 0 71.5 16.5zM550 -170h-311q-16 0 -25.5 -6t-9.5 -18q0 -32 124 -32q154 0 222 56z
" />
    <glyph glyph-name="tm_NU" horiz-adv-x="1146" 
d="M1066 -170h-325q-54 -92 -150 -143t-229 -51q-86 0 -149.5 21.5t-98 61.5t-34.5 93q0 68 50 107.5t138 39.5h352q14 53 14 128q0 49 -17.5 80.5t-45.5 31.5q-27 0 -42.5 -17.5t-15.5 -44.5v-137h-164v384h-105v-384h-164v513h575l15 -129h-157v-68q39 21 89 21
q97 0 150.5 -67.5t53.5 -176.5q0 -69 -14 -134h111v554h163v-683zM546 -170h-257q-16 0 -25.5 -6t-9.5 -18q0 -32 106 -32q119 0 186 56z" />
    <glyph glyph-name="tm_NnnU" horiz-adv-x="1659" 
d="M1579 -170h-483q-110 -93 -278.5 -143.5t-387.5 -50.5q-112 0 -191.5 22t-121 62.5t-41.5 94.5q0 66 52.5 105t135.5 39h755q94 109 94 283q0 73 -30.5 112t-93.5 39q-38 0 -71 -10q47 -44 72 -95.5t25 -108.5q0 -59 -26 -103.5t-73.5 -69t-109.5 -24.5q-63 0 -112 24.5
t-75.5 69t-26.5 103.5q0 105 60 190q-82 24 -166 24q-86 0 -147.5 -21t-93 -58.5t-31.5 -85.5q0 -18 3 -35q10 57 56.5 92.5t112.5 35.5q54 0 96.5 -20.5t66.5 -56.5t24 -81q0 -52 -26 -93.5t-75 -64.5t-115 -23q-90 0 -162.5 32.5t-113.5 88.5t-41 125q0 88 54 156.5
t154.5 107.5t236.5 39q156 0 286 -55q97 55 216 55q144 0 222 -77.5t78 -211.5q0 -157 -78 -283h206v554h164v-683zM837 128q13 17 13 43q0 34 -15 65t-43 56q-36 -53 -36 -121q0 -26 13.5 -43t34.5 -17q20 0 33 17zM345 191q-13 -13 -13 -33t13 -33.5t34 -13.5
q19 0 32 13.5t13 33.5t-12.5 33t-32.5 13q-21 0 -34 -13zM821 -170h-536q-35 0 -35 -21q0 -35 178 -35q239 0 393 56z" />
    <glyph glyph-name="tm_MU" horiz-adv-x="1322" 
d="M1154.5 494q61.5 -37 94.5 -102t33 -148q0 -71 -32.5 -126.5t-94.5 -86.5t-149 -31h-83q-17 -90 -71 -159.5t-139 -108t-194 -38.5q-140 0 -244 57.5t-159.5 163.5t-55.5 246q0 94 41 195t105 167l169 -10q-63 -60 -103 -158.5t-40 -195.5q0 -152 74.5 -239.5
t210.5 -87.5q93 0 155.5 45.5t84.5 122.5h-314v513l163 5v-389h161v163q0 70 28 124t83 84.5t133 30.5q82 0 143.5 -37zM1109 244q0 67 -25 108t-71 41t-64.5 -28.5t-18.5 -80.5v-155h76q103 0 103 115z" />
    <glyph glyph-name="tm_RU" horiz-adv-x="1245" 
d="M1150.5 273q54.5 -64 54.5 -171q0 -118 -70.5 -210.5t-198 -145t-293.5 -52.5q-177 0 -309 61.5t-203 171.5t-71 252q0 92 40 184.5t106 159.5l169 -10q-64 -61 -103.5 -151t-39.5 -185q0 -159 102.5 -252t306.5 -93q123 0 211.5 33.5t134.5 93t46 137.5q0 48 -18.5 75.5
t-48.5 27.5q-27 0 -45.5 -17.5t-18.5 -44.5v-137h-163v384h-133v-384h-163v513h602l15 -129h-158v-71q45 24 96 24q98 0 152.5 -64z" />
    <glyph glyph-name="tm_RrU" horiz-adv-x="1273" 
d="M1193 -170h-358q-67 -91 -179.5 -142.5t-276.5 -51.5q-90 0 -158 21.5t-105 61.5t-37 93q0 68 50 107.5t138 39.5h466q35 91 35 249q0 185 -96 185q-45 0 -68 -29.5t-23 -79.5v-284h-164v248q0 66 -24 105.5t-72 39.5q-42 0 -64.5 -30t-22.5 -88v-275h-164v283
q0 116 62.5 182t179.5 66q50 0 94 -21.5t77 -61.5q35 38 82.5 60.5t104.5 22.5q85 0 146.5 -41.5t93.5 -114.5t32 -167q0 -139 -39 -249h126v554h164v-683zM629 -170h-341q-16 0 -25.5 -6t-9.5 -18q0 -32 124 -32q163 0 252 56z" />
    <glyph glyph-name="tm_LU" horiz-adv-x="1461" 
d="M1381 -170h-517q-80 -90 -210 -142t-282 -52q-90 0 -158 21.5t-105 61.5t-37 93q0 68 50 107.5t138 39.5h511q10 22 13 34q-79 22 -123 84.5t-44 149.5v19q0 42 -25.5 75.5t-70.5 52.5t-102 19q-59 0 -105.5 -20t-73 -55.5t-26.5 -80.5q0 -23 4 -39q11 55 57 89t111 34
q54 0 96.5 -20.5t66.5 -56.5t24 -81q0 -52 -26 -93.5t-75 -64.5t-115 -23q-91 0 -163 33t-113 91t-41 131q0 84 48.5 151t134.5 105t194 38q104 0 187 -37t130 -102t47 -146v-19q0 -49 21.5 -78t65.5 -29q43 0 66 36t23 95q0 52 -23 127.5t-59 134.5l171 14
q41 -70 63 -145.5t22 -130.5q0 -98 -47.5 -167t-133.5 -92q-2 -11 -4.5 -19t-4.5 -14h276v554h164v-683zM345 191q-13 -13 -13 -33t13 -33.5t34 -13.5q19 0 32 13.5t13 33.5t-12.5 33t-32.5 13q-21 0 -34 -13zM642 -170h-361q-16 0 -25.5 -6t-9.5 -18q0 -32 124 -32
q165 0 272 56z" />
    <glyph glyph-name="tm_LlU" horiz-adv-x="1734" 
d="M1639.5 273q54.5 -64 54.5 -171q0 -118 -77.5 -210.5t-218.5 -145t-325 -52.5h-344q-200 0 -351.5 61.5t-234.5 171.5t-83 252q0 92 40 184.5t106 159.5l169 -10q-64 -61 -103.5 -151t-39.5 -185q0 -103 58 -183t169.5 -125.5t267.5 -45.5h345q140 0 241.5 35.5t155 97.5
t53.5 140q0 48 -18.5 75.5t-48.5 27.5q-21 0 -37 -10.5t-23 -28.5v-160h-164v384h-168v-384h-164v219q0 50 -28.5 90t-77 62t-106.5 22q-88 0 -139.5 -43.5t-51.5 -112.5q0 -23 4 -39q11 55 57 89t111 34q54 0 96.5 -20.5t66.5 -56.5t24 -81q0 -52 -26 -93.5t-75 -64.5
t-115 -23q-91 0 -163 33t-113 91t-41 131q0 85 44 152t125 104.5t188 37.5q131 0 220 -70v52h638l15 -129h-157v-69q42 22 92 22q98 0 152.5 -64zM627 191q-13 -13 -13 -33t13 -33.5t34 -13.5q19 0 32 13.5t13 33.5t-12.5 33t-32.5 13q-21 0 -34 -13z" />
    <glyph glyph-name="tm_LllU" horiz-adv-x="1322" 
d="M930 0v-26q0 -39 17 -54t51 -15h140l16 -129h-225q-47 -37 -130 -59.5t-185 -22.5q-158 0 -284.5 60t-198 166.5t-71.5 240.5q0 94 41 195t105 167l169 -10q-63 -60 -103 -158.5t-40 -195.5q0 -94 49 -168.5t136 -116.5t196 -42q76 0 126 11t70 29q-20 10 -31 33.5
t-11 54.5v40h-324v513l163 5v-389h161v163q0 70 28 124t83 84.5t133 30.5q82 0 143.5 -37t94.5 -102t33 -148q0 -71 -32.5 -126.5t-94.5 -86.5t-149 -31h-76zM930 129h76q103 0 103 115q0 67 -25 108t-71 41t-64.5 -28.5t-18.5 -80.5v-155z" />
    <glyph glyph-name="tm_KUu" horiz-adv-x="1236" 
d="M1226 129v-129h-322q16 32 25.5 71t9.5 65q0 42 -21.5 67t-63.5 25h-7q33 -47 33 -106q0 -61 -44 -100.5t-111 -39.5t-111 39.5t-44 100.5q0 36 14 69h-56q-4 -66 -43 -113.5t-100.5 -71.5t-132.5 -24q-109 0 -165.5 48t-56.5 126q0 49 26 87t77 58v212h564l15 -129h-184
v-64h145q25 0 50 -6q64 24 132 24q73 0 127.5 -26t84 -72t29.5 -104v-7h130zM373 384h-82v-64h82v64zM331.5 136.5q34.5 16.5 40.5 54.5h-114q-26 0 -40 -9.5t-14 -25.5t14.5 -26t41.5 -10q37 0 71.5 16.5zM743 101q7 8 7 21q0 35 -29 56q-21 -24 -21 -56q0 -13 7 -21t18 -8
t18 8z" />
    <glyph glyph-name="tm_NgUu" horiz-adv-x="1292" 
d="M1195 76q43 -26 65 -70t22 -95q0 -88 -57 -157.5t-160 -109t-236 -39.5h-496q-87 0 -148.5 24t-93 65.5t-31.5 93.5q0 42 23 76.5t66 54t101 19.5h517v-129h-517q-15 0 -24 -6.5t-9 -19.5q0 -19 26 -34t81 -15h496q143 0 216.5 44t73.5 127q0 26 -14.5 42.5t-36.5 16.5
q-26 0 -41.5 -17t-15.5 -45v-93h-164v191h-498v129h168q43 0 64.5 13t21.5 36q0 19 -12 30.5t-31 11.5q-20 0 -33.5 -13t-13.5 -29v-11h-164v217h-96v-384h-164v513h566l15 -129h-157v-39q35 12 76 12q53 0 95.5 -23t66.5 -63.5t24 -89.5q0 -28 -9 -52h81v384h164v-432
q40 21 89 21q61 0 104 -26z" />
    <glyph glyph-name="tm_CUu" horiz-adv-x="1343" 
d="M1253.5 117q49.5 -47 49.5 -122q0 -87 -74.5 -155.5t-210.5 -107t-316 -38.5q-204 0 -348.5 61.5t-219 171.5t-74.5 252q0 92 40 184.5t106 159.5l169 -10q-64 -61 -103.5 -151t-39.5 -185q0 -102 52 -179.5t157 -121.5t259 -44q124 0 222 19.5t152.5 55t54.5 79.5
q0 18 -9 29t-23 11t-23 -6t-9 -15v-5h-158v191h-61q-4 -66 -43 -113.5t-100.5 -71.5t-132.5 -24q-109 0 -165.5 48t-56.5 126q0 49 26 87t77 58v212h564l15 -129h-184v-64h295l15 -129h-91v-35q27 8 54 8q85 0 134.5 -47zM691 384h-82v-64h82v64zM649.5 136.5
q34.5 16.5 40.5 54.5h-114q-26 0 -40 -9.5t-14 -25.5t14.5 -26t41.5 -10q37 0 71.5 16.5z" />
    <glyph glyph-name="tm_TtUu" horiz-adv-x="969" 
d="M854.5 269.5q53.5 -67.5 53.5 -176.5q0 -114 -47.5 -204.5t-136.5 -142.5t-210 -52q-144 0 -246.5 68t-155 184t-52.5 260q0 165 56.5 297t163.5 208.5t253 76.5q113 0 203.5 -34.5t141.5 -97.5t51 -144q0 -61 -41 -100.5t-103 -39.5q-63 0 -104.5 38.5t-41.5 98.5
q0 39 17.5 69.5t48.5 48.5q-71 23 -154 23q-108 0 -179.5 -58t-105.5 -158.5t-34 -229.5q0 -104 30 -188t92.5 -134t157.5 -50q108 0 166 70.5t58 184.5q0 49 -17.5 80.5t-46.5 31.5q-27 0 -42.5 -17.5t-15.5 -44.5v-137h-163v513h163v-197q44 21 90 21q97 0 150.5 -67.5z
M816 478q12 12 12 31q0 18 -12 30t-31 12t-31 -12t-12 -30q0 -19 12 -31t31 -12t31 12z" />
    <glyph glyph-name="tm_PUu" horiz-adv-x="995" 
d="M899 76q43 -26 64.5 -69.5t21.5 -95.5q0 -88 -56.5 -157.5t-159.5 -109t-236 -39.5h-200q-87 0 -148.5 24t-93 65.5t-31.5 93.5q0 42 23 76.5t66 54t101 19.5h221v-129h-221q-15 0 -24 -6.5t-9 -19.5q0 -19 26 -34t81 -15h200q143 0 216.5 44t73.5 127q0 26 -14.5 42.5
t-36.5 16.5q-26 0 -41.5 -17t-15.5 -45v-93h-164v191h-462v513l164 5v-389h298v384h164v-432q40 21 89 21q61 0 104 -26z" />
    <glyph glyph-name="tm_MUu" horiz-adv-x="1458" 
d="M1290.5 494q61.5 -37 94.5 -102t33 -148q0 -71 -32.5 -126.5t-94.5 -86.5t-149 -31h-85q-21 -90 -88 -159.5t-167 -108t-219 -38.5q-158 0 -276.5 62.5t-182.5 170.5t-64 242q0 105 42.5 188t112 128.5t146.5 45.5q75 0 121 -41.5t46 -106.5q0 -62 -42 -103t-106 -41
q-43 0 -77 19t-53 52q-26 -62 -26 -131q0 -97 42.5 -176t123.5 -125t191 -46q109 0 192 46t114 122h-309v513l164 5v-389h160v163q0 70 28.5 124t83.5 84.5t133 30.5q82 0 143.5 -37zM406 410.5q-10 10.5 -26 10.5q-17 0 -28 -10.5t-11 -27.5q0 -16 11 -26.5t28 -10.5
q16 0 26 10.5t10 26.5q0 17 -10 27.5zM1244 244q0 67 -24.5 108t-70.5 41t-64.5 -28.5t-18.5 -80.5v-155h76q102 0 102 115z" />
    <glyph glyph-name="tm_YUu" horiz-adv-x="1268" 
d="M1171 76q43 -26 65 -70t22 -95q0 -88 -57 -157.5t-160 -109t-236 -39.5h-492q-87 0 -148.5 24t-93 65.5t-31.5 93.5q0 42 23 76.5t66 54t101 19.5h513v-129h-513q-15 0 -24 -6.5t-9 -19.5q0 -19 26 -34t81 -15h492q143 0 216.5 44t73.5 127q0 26 -14 42.5t-36 16.5
q-27 0 -42.5 -17.5t-15.5 -44.5v-93h-164v191h-379v25q-57 -43 -126 -43q-111 0 -175 66.5t-64 181.5v283l164 5v-279q0 -59 22.5 -89t64.5 -30q55 0 84.5 40t29.5 106v247h164v-384h215v384h164v-432q42 21 89 21q61 0 104 -26z" />
    <glyph glyph-name="tm_RUu" horiz-adv-x="1381" 
d="M1286.5 273q54.5 -64 54.5 -171q0 -119 -76 -211.5t-221 -144.5t-346 -52q-192 0 -336.5 60.5t-223 172.5t-78.5 262q0 98 40 176t111 122t160 44q68 0 112.5 -42t44.5 -106q0 -62 -42 -103t-106 -41q-44 0 -78.5 19.5t-52.5 53.5q-25 -55 -25 -113q0 -115 58 -198
t164.5 -126t249.5 -43q152 0 258.5 33.5t160.5 93t54 137.5q0 48 -18.5 75.5t-48.5 27.5q-27 0 -45.5 -17.5t-18.5 -44.5v-137h-163v384h-133v-384h-164v513h603l15 -129h-158v-71q45 24 96 24q98 0 152.5 -64zM406 410.5q-10 10.5 -26 10.5q-17 0 -28 -10.5t-11 -27.5
q0 -16 11 -26.5t28 -10.5q16 0 26 10.5t10 26.5q0 17 -10 27.5z" />
    <glyph glyph-name="tm_LlUu" horiz-adv-x="1945" 
d="M1850.5 273q54.5 -64 54.5 -171q0 -118 -77.5 -210.5t-218 -145t-324.5 -52.5h-648q-158 0 -290 59t-209.5 163t-77.5 233q0 110 36.5 197t102.5 136t152 49q68 0 112.5 -42t44.5 -106q0 -62 -42 -103t-106 -41q-68 0 -111 45q-15 -60 -15 -135q0 -91 52.5 -165.5
t144 -117.5t204.5 -43h648q140 0 241.5 35.5t155 97.5t53.5 140q0 48 -18.5 75.5t-47.5 27.5q-21 0 -37 -10.5t-23 -28.5v-160h-164v384h-168v-384h-164v219q0 50 -28.5 90t-77 62t-106.5 22q-88 0 -139.5 -43.5t-51.5 -112.5q0 -23 4 -39q11 55 57 89t111 34
q54 0 96.5 -20.5t66.5 -56.5t24 -81q0 -52 -26 -93.5t-75 -64.5t-115 -23q-91 0 -163 33t-113 91t-41 131q0 85 44 152t125 104.5t188 37.5q131 0 220 -70v52h638l15 -129h-157v-68q44 21 91 21q98 0 152.5 -64zM378.5 403.5q-7.5 7.5 -18.5 7.5q-13 0 -21 -7.5t-8 -20.5
q0 -12 8 -19.5t21 -7.5q11 0 18.5 7.5t7.5 19.5q0 13 -7.5 20.5zM839 191q-13 -13 -13 -33t13 -33.5t34 -13.5q19 0 32 13.5t13 33.5t-12.5 33t-32.5 13q-21 0 -34 -13z" />
    <glyph glyph-name="tm_LllUu" horiz-adv-x="1458" 
d="M1066 0v-26q0 -39 17 -54t51 -15h140l15 -129h-224q-53 -36 -158 -59t-225 -23q-178 0 -320 64t-222 176.5t-80 254.5q0 97 39.5 175.5t108.5 122.5t153 44q75 0 121 -41.5t46 -106.5q0 -62 -42 -103t-106 -41q-44 0 -78.5 19.5t-52.5 53.5q-25 -55 -25 -113
q0 -105 59 -188.5t164 -131t236 -47.5q94 0 165 11t97 29q-21 10 -32 33.5t-11 54.5v40h-324v513l164 5v-389h160v163q0 70 28.5 124t83.5 84.5t133 30.5q82 0 143.5 -37t94.5 -102t33 -148q0 -71 -32.5 -126.5t-94.5 -86.5t-149 -31h-76zM406 410.5q-10 10.5 -26 10.5
q-17 0 -28 -10.5t-11 -27.5q0 -16 11 -26.5t28 -10.5q16 0 26 10.5t10 26.5q0 17 -10 27.5zM1066 129h76q102 0 102 115q0 67 -24.5 108t-70.5 41t-64.5 -28.5t-18.5 -80.5v-155z" />
    <glyph glyph-name="tm_VUu" horiz-adv-x="1366" 
d="M1279 76q43 -26 65 -70t22 -95q0 -88 -57 -157.5t-160 -109t-236 -39.5h-600q-87 0 -148.5 24t-93 65.5t-31.5 93.5q0 42 23 76.5t66 54t101 19.5h621v-129h-621q-15 0 -24 -6.5t-9 -19.5q0 -19 26 -34t81 -15h600q143 0 216.5 44t73.5 127q0 26 -14.5 42.5t-36.5 16.5
q-26 0 -41.5 -17t-15.5 -45v-93h-164v191h-316v129q14 29 21.5 57t7.5 60q0 42 -26 75.5t-73 52.5t-108 19q-62 0 -110.5 -20t-76 -55.5t-27.5 -80.5q0 -23 4 -39q11 55 57 89t111 34q54 0 96.5 -20.5t66.5 -56.5t24 -81q0 -52 -26 -93.5t-75 -64.5t-115 -23q-91 0 -163 33
t-113 91t-41 131q0 84 49.5 151t137.5 105t199 38t198 -36.5t135 -101.5t48 -147q0 -63 -29 -117h144v384h164v-432q42 21 89 21q61 0 104 -26zM345 191q-13 -13 -13 -33t13 -33.5t34 -13.5q19 0 32 13.5t13 33.5t-12.5 33t-32.5 13q-21 0 -34 -13z" />
    <glyph glyph-name="tm_KSsa" horiz-adv-x="1848" 
d="M1788 0h-271v-243h-164v243h-449q16 32 25.5 71t9.5 65q0 42 -21.5 67t-63.5 25h-7q33 -47 33 -106q0 -61 -44 -100.5t-111 -39.5t-111 39.5t-44 100.5q0 36 14 69h-56q-4 -66 -43 -113.5t-100.5 -71.5t-132.5 -24q-109 0 -165.5 48t-56.5 126q0 49 26 87t77 58v212h564
l15 -129h-184v-64h145q25 0 50 -6q64 24 132 24q73 0 127.5 -26t84 -72t29.5 -104v-7h257v34h-5q-76 0 -133.5 24t-88.5 67t-31 98q0 51 28 92t77 64t110 23q59 0 106.5 -22t74 -61t26.5 -88v-35q62 22 107 59h164v-384zM1353 301v54q0 17 -11.5 27.5t-29.5 10.5
q-19 0 -31.5 -12t-12.5 -31q0 -27 20.5 -38t57.5 -11h7zM373 384h-82v-64h82v64zM1624 129v104q-51 -31 -107 -48v-56h107zM331.5 136.5q34.5 16.5 40.5 54.5h-114q-26 0 -40 -9.5t-14 -25.5t14.5 -26t41.5 -10q37 0 71.5 16.5zM743 101q7 8 7 21q0 35 -29 56
q-21 -24 -21 -56q0 -13 7 -21t18 -8t18 8z" />
    <glyph glyph-name="tm_TtI" horiz-adv-x="959" 
d="M807 0v-243h-164v243h-563v513l164 5v-389h131q-44 66 -44 151q0 74 29 130.5t85.5 88.5t136.5 32q67 0 118 -27t79 -77t28 -118v-180h126l16 -129h-142zM643 129v174q0 90 -59 90q-40 0 -59.5 -31t-19.5 -84q0 -65 25.5 -107t64.5 -42h48z" />
    <glyph glyph-name="tm_TtIi" horiz-adv-x="955" 
d="M945 0h-865v513l164 5v-389h113q-32 55 -32 123q0 70 37.5 124.5t106.5 85.5t160 31q72 0 129.5 -25t90 -69.5t32.5 -99.5q0 -61 -40.5 -101t-103.5 -40q-64 0 -105 40t-41 101q0 36 17 65q-57 -5 -88 -35.5t-31 -76.5q0 -55 29 -89t83 -34h329zM760.5 272q9.5 9 9.5 23
t-9.5 23.5t-23.5 9.5t-23 -9.5t-9 -23.5t9 -23t23 -9t23.5 9z" />
    <glyph glyph-name="tm_Shree" horiz-adv-x="2024" 
d="M1933.5 273q54.5 -64 54.5 -171q0 -118 -77.5 -210.5t-218 -145t-324.5 -52.5h-645q-200 0 -351.5 61.5t-234.5 171.5t-83 252q0 92 40 184.5t106 159.5l169 -10q-64 -61 -103.5 -151t-39.5 -185q0 -103 58 -183t169.5 -125.5t267.5 -45.5h645q140 0 241.5 35.5t155 97.5
t53.5 140q0 48 -18.5 75.5t-47.5 27.5q-27 0 -45.5 -17.5t-18.5 -44.5v-137h-164v384h-168v-384h-164v248q0 65 -29.5 105t-84.5 40q-40 0 -64 -30.5t-24 -87.5v-275h-571v513l164 5v-389h243v154q0 115 64 181.5t176 66.5q69 0 126 -43v25h251q-32 53 -32 123t37.5 125
t106.5 86t160 31q72 0 129.5 -25t90 -69.5t32.5 -100.5q0 -61 -41 -100.5t-103 -39.5q-64 0 -105 39.5t-41 100.5q0 36 17 65q-57 -5 -88.5 -35.5t-31.5 -76.5q0 -55 29.5 -89t83.5 -34h143l15 -129h-157v-71q42 24 95 24q98 0 152.5 -64zM1844.5 656.5q9.5 9.5 9.5 23.5
t-9.5 23t-23.5 9t-23.5 -9t-9.5 -23t9.5 -23.5t23.5 -9.5t23.5 9.5z" />
    </font>
</defs>
</svg>
