<?xml version="1.0" standalone="no"?>
<!DOCTYPE svg PUBLIC "-//W3C//DTD SVG 1.1//EN" "http://www.w3.org/Graphics/SVG/1.1/DTD/svg11.dtd" >
<svg xmlns="http://www.w3.org/2000/svg" xmlns:xlink="http://www.w3.org/1999/xlink" version="1.1">
<metadata>
Created by FontForge 20170731 at Fri Sep 30 14:44:48 2016
 By Aleksey,,,
Copyright (c) 2016 Design Panoply. All Rights Reserved.
</metadata>
<defs>
<font id="Blocklyn-Condensed" horiz-adv-x="507" >
  <font-face 
    font-family="Blocklyn Condensed"
    font-weight="700"
    font-stretch="condensed"
    units-per-em="1000"
    panose-1="0 0 0 0 0 0 0 0 0 0"
    ascent="800"
    descent="-200"
    x-height="763"
    cap-height="871"
    bbox="49 -315 963.053 1157.57"
    underline-thickness="0"
    underline-position="0"
    unicode-range="U+001D-20AC"
  />
<missing-glyph horiz-adv-x="650" 
 />
    <glyph glyph-name=".notdef" horiz-adv-x="650" 
 />
    <glyph glyph-name=".null" horiz-adv-x="0" 
 />
    <glyph glyph-name="nonmarkingreturn" horiz-adv-x="254" 
 />
    <glyph glyph-name="space" unicode=" " horiz-adv-x="254" 
 />
    <glyph glyph-name="exclam" unicode="!" horiz-adv-x="239" 
d="M238 835q1 -30 1 -61q-1 -13 -1 -26v-91q-2 -157 -4 -315q-1 -32 -3 -64q0 -7 -1 -14q-1 -33 -34 -34q-50 -1 -100 0q-37 1 -38 39v78q0 43 -1 87q-2 176 -4 351q0 10 -1 20q-2 10 -2 20q0 11 4 22q3 10 10.5 16t18.5 6h123q31 -1 32 -34zM202 173q16 -3 23.5 -12.5
t8.5 -25.5q1 -49 -1 -97q-1 -41 -42 -41h-91q-22 0 -32 10.5t-11 31.5v65q0 16 1 33q0 16 6.5 24.5t22.5 11.5q13 3 26 4h63q13 -1 26 -4z" />
    <glyph glyph-name="quotedbl" unicode="&#x22;" horiz-adv-x="387" 
d="M386 727v0v0v-95q0 -22 -10 -32t-32 -10q-29 -1 -58 0q-38 2 -39 39q-1 100 0 200q0 39 40 39q30 1 61 0q38 0 38 -39q1 -35 0 -71v-31zM190 625q-2 -16 -11.5 -25t-25.5 -10q-33 -1 -67 0q-35 1 -35 37q-1 102 0 204q0 19 9 28t28 9q26 1 52 0h4q24 0 35 -10.5t11 -34.5
v-198z" />
    <glyph glyph-name="numbersign" unicode="#" horiz-adv-x="973" 
d="M451 382q-9 0 -11.5 3t0.5 11q12 30 23 61q6 14 11 28q5 11 16 11h69q9 -1 11.5 -4.5t-1.5 -12.5q-8 -23 -18 -46q-7 -19 -14 -39q-6 -13 -19 -12h-67zM265 648h-64q-20 0 -30 -7.5t-17 -25.5q-12 -32 -23 -65q-9 -25 0.5 -39t36.5 -15h108q11 0 13 -3.5t-2 -13.5
q-12 -33 -26 -67q-1 -4 -3 -8q-4 -11 -7 -15.5t-8 -5.5t-17 -1h-15q-44 -1 -89 0q-31 0 -42 -27q-16 -39 -28 -79q-6 -20 3.5 -32.5t30.5 -13.5q10 -1 19 -1h8q9 0 18 1q20 0 40 -1q13 0 15.5 -3.5t-1.5 -14.5q-7 -19 -14 -37q-3 -6 -5 -12l-12 -32q-15 -39 -30 -79
q-2 -6 -3.5 -12t-0.5 -12q1 -14 11 -22t27 -8q34 -1 69 0h25q20 0 31 7.5t18 25.5q17 45 34 89q2 7 5 14q6 17 13 34q8 23 17 46q1 1 1 2q2 5 4.5 9t9.5 5h77q5 0 6.5 -3.5t0.5 -8.5q-1 -2 -1 -3q-3 -8 -6 -17q-8 -21 -16 -41l-16 -42q-4 -9 -7 -18q-10 -24 -18 -48
q-7 -23 2.5 -37t32.5 -14q47 -1 94 0h6q28 1 40 26q3 7 5 13q1 3 2 5l20 54q22 56 44 113q3 10 6 15t8.5 6t16.5 0h21q53 1 106 0q34 0 45 31l26 72q2 7 2 14q0 15 -8 24.5t-23 10.5q-7 1 -15 1h-99q-12 0 -15 3.5t2 15.5q12 34 26 69q1 2 2 5q3 10 6 14.5t8.5 5.5t16.5 1
h102q35 -1 47 31l8 24q9 22 16 45q8 24 -2 37.5t-35 14.5h-79q-13 0 -16 3.5t2 16.5q15 41 31 81q7 18 13 35q2 6 5 12q5 12 9 25q6 21 -3.5 34t-31.5 14h-102q-28 0 -39 -26q-1 -3 -3 -7q0 -2 -1 -4q-8 -22 -17 -44q-23 -61 -46 -121q-3 -10 -9 -14.5t-17 -4.5q-20 1 -40 0
h-18q-4 0 -8 1q-11 1 -8 11l2 6q1 1 1 2q7 19 14 37q18 46 35 91q0 2 1 3q3 7 5 14.5t3 14.5q3 19 -6 29.5t-28 11.5h-106q-17 0 -27 -13q-7 -10 -12 -21l-64 -168q-3 -10 -9.5 -14.5t-17.5 -4.5q-24 1 -47 0h-20z" />
    <glyph glyph-name="dollar" unicode="$" horiz-adv-x="508" 
d="M50 164q-1 -40 13 -76q9 -22 23.5 -40t36.5 -29q22 -10 46 -17q1 -1 2 -1q8 -2 11.5 -4t4.5 -6t1 -13q1 -16 3 -33q4 -21 25 -24q31 -4 61.5 -4t60.5 4q12 2 18 10t8 19q1 10 0 19v8q0 10 1 14.5t5.5 6.5t14.5 3q32 7 57.5 23.5t41.5 45.5q12 21 17 44.5t5 47.5v241
q0 26 -11 41t-35 23l-40 14q-6 2 -13 4q-13 4 -25 8q-67 22 -133 43q-8 3 -13 7t-5 13v114q1 12 6 17t17 5q20 1 41 0q18 1 24 -5.5t5 -23.5q1 -16 0 -31q0 -22 1 -44q1 -32 32 -33q42 -1 85 -1h32q21 1 29 20q3 10 3 20v22q1 47 -1 93q-1 29 -8 57q-7 24 -20 43.5t-34 33.5
q-14 8 -29 14t-31 9q-13 3 -16 7t-3 17v23q-1 16 -10 25t-26 10q-52 1 -104 0q-14 0 -22 -7t-11 -21q-3 -17 -3 -35q0 -8 -3 -12.5t-12 -5.5q-6 -1 -13 -3q-1 -1 -3 -1q-24 -7 -44 -20.5t-34 -34.5q-29 -42 -29 -92q-1 -91 0 -182v-82q0 -20 9.5 -33.5t27.5 -20.5l10 -4h2
q16 -6 32 -11q88 -29 176 -57q7 -2 12 -5.5t5 -12.5v-25q1 -43 0 -87q0 -10 -5 -14.5t-15 -4.5h-46q-16 0 -21.5 5t-5.5 21v71q0 20 -10 30t-30 10q-13 1 -26 0h-30q-23 1 -46 0q-39 -1 -39 -40v-110z" />
    <glyph glyph-name="percent" unicode="%" horiz-adv-x="830" 
d="M180 618q0 -13 7.5 -24.5t20 -19.5t26.5 -9q14 0 26.5 7.5t20 19.5t8.5 26q0 15 -7.5 27.5t-19.5 20.5t-26 9q-15 0 -27.5 -8t-20.5 -21t-8 -28zM234 438q-33 -2 -65.5 10t-59.5 36t-43 58.5t-16 77.5q1 57 27.5 98.5t69 64.5t90.5 23q32 0 64 -12t58.5 -36t42.5 -58.5
t17 -79.5q-1 -43 -16.5 -77t-42 -58.5t-59 -36.5t-67.5 -10zM768 740q-42 -64 -85 -128l-62 -94q-57 -87 -114 -173q-89 -133 -177 -266l-20 -32l-16 -24q-9 -14 -21 -21t-29 -5q-14 1 -28 0h-62q-18 1 -28.5 9t-11.5 21t8 29q3 3 5 7q1 1 1 2q59 89 119 178
q118 179 237 357q8 13 17 25q49 74 97 149q10 15 22.5 22t29.5 6q43 -2 85 0q13 0 23 -4t16 -15q7 -11 4 -22t-10 -21zM646 111q23 1 37.5 17t14.5 39q-1 14 -8.5 26t-19.5 19.5t-26 7.5q-14 -1 -26.5 -8.5t-20 -20t-7.5 -27.5q1 -14 8.5 -26.5t20 -19.5t27.5 -7zM644 351
q53 0 94.5 -25t65.5 -67t24 -93q0 -50 -23 -92t-64 -67t-95 -26q-58 1 -99 26.5t-64 66.5t-23 89q0 50 23 92.5t64.5 68.5t96.5 27z" />
    <glyph glyph-name="ampersand" unicode="&#x26;" horiz-adv-x="577" 
d="M328 197q0 -13 -3.5 -16.5t-17.5 -3.5h-52q-14 0 -19 5t-5 20q-1 12 0 25v38q-1 31 0 63q0 15 5.5 21t20.5 6q25 1 51 0q13 0 16.5 -3.5t3.5 -15.5v-139zM372 -3q42 1 84 0q23 -1 34.5 6t16 19.5t3.5 29.5q-1 72 0 144v84q-1 27 0 55q-1 13 3 16.5t17 3.5q22 1 33 11.5
t12 32.5q2 45 0 89q0 22 -11 32.5t-33 11.5q-9 0 -13.5 1t-6 5.5t-1.5 14.5q0 2 -1 3v4q-2 16 -11.5 25t-25.5 9q-53 1 -106 0q-16 0 -25.5 -9t-11.5 -25v-6q0 -6 -2 -11q-1 -3 -4 -6.5t-6 -3.5q-34 -1 -68 1q-9 1 -13.5 6t-4.5 14q-1 59 0 118q0 10 5 14.5t15 5.5q6 1 13 1
h126q4 0 7 -1q10 0 20 1q16 2 25 11t9 24q1 55 0 109q-1 14 -9 22t-23 10h-212q-23 0 -45 -6q-38 -11 -63.5 -34.5t-37.5 -61.5q-6 -20 -8 -41t-3 -41q-1 -73 0 -147v-3q0 -23 6 -44t22 -39q10 -8 0 -17q-16 -17 -22 -36.5t-6 -41.5v-37q1 -46 1.5 -91t2.5 -91
q2 -40 21 -70.5t55 -50.5q19 -10 40 -15t42 -5h160z" />
    <glyph glyph-name="quotesingle" unicode="'" horiz-adv-x="194" 
d="M194 819v-177q0 -7 -1 -14q-3 -21 -12.5 -29.5t-30.5 -8.5h-52q-15 -1 -26 4.5t-18 19.5q-1 2 -2 3l-2 2v220l2 4q3 3 5 7q10 18 30 18h71q25 -1 32 -25q4 -12 4 -24z" />
    <glyph glyph-name="parenleft" unicode="(" horiz-adv-x="312" 
d="M178 869q-28 1 -39 -25l-6 -14q-1 -2 -1 -3q-39 -104 -60 -212q-11 -57 -15.5 -113.5t-5.5 -114.5q-1 -16 1 -34q1 -6 2 -13l2 -36q3 -42 8 -84q13 -93 41 -182q12 -37 25 -72q3 -10 7 -19q4 -12 12 -20.5t22 -8.5q53 -2 106 0q13 0 20.5 8t7.5 22q1 13 -4 26
q-6 20 -13 39q-7 20 -13 40q-26 81 -38 164t-14 167q-1 41 2.5 81t8.5 81q16 122 57 238q2 4 4 9q5 14 9 28q5 23 -5 36t-31 12q-15 -1 -31 0h-59z" />
    <glyph glyph-name="parenright" unicode=")" horiz-adv-x="313" 
d="M306 394q-1 19 -1 39q-2 42 -6 85q-5 49 -14 97.5t-23 96.5q-16 54 -35 106l-8 24q-10 28 -42 27q-22 -1 -44.5 -1t-44.5 1q-15 1 -24.5 -6.5t-12.5 -19t2 -23.5q13 -34 24 -70q2 -5 3 -10q43 -134 51 -273q3 -54 2 -107.5t-8 -106.5q-7 -49 -16.5 -97.5t-24.5 -95.5
q-7 -24 -16 -48q-8 -24 -16 -49q-5 -20 4.5 -32.5t30.5 -13.5h39q25 1 50 0q32 -1 43 28q4 9 7 18q11 28 20 57q29 91 44.5 184.5t15.5 189.5z" />
    <glyph glyph-name="asterisk" unicode="*" horiz-adv-x="528" 
d="M510 714q10 -16 8 -25t-16 -19q-14 -12 -28 -20l-28 -20q-12 -8 -12 -14t12 -14l12 -8t12 -10q30 -22 10 -52q-16 -26 -36 -52q-18 -26 -44 -8q-36 22 -70 48q-20 18 -42 0q-32 -24 -66 -46q-16 -10 -27 -9t-21 17q-20 26 -38 52q-10 16 -8 26t16 22q10 8 20 14l12 8
q16 12 0 24q-8 4 -16 10l-20 16q-14 10 -30 22l-12 12v12q0 2 2 4q4 2 6 6q6 10 14 20q12 20 28 40q10 14 21 16t25 -8q8 -6 16 -10q6 -6 14 -10q14 -10 16 8l2 42q-4 32 22 52h90q28 -22 24 -56q0 -16 2 -32q2 -8 2 -14q10 -2 17 2t13 8q4 6 10 10q16 8 27 7t21 -15z" />
    <glyph glyph-name="plus" unicode="+" horiz-adv-x="715" 
d="M665 334q24 0 35.5 11t12.5 34q2 46 0 92q-1 22 -12.5 32.5t-33.5 10.5h-169q-13 0 -18.5 1t-6.5 6.5t-1 18.5v170q0 20 -10 32t-28 13q-52 2 -104 0q-18 -1 -27.5 -11t-10.5 -28q-1 -8 0 -15v-156q0 -8 -1 -17q0 -14 -14 -14h-183q-20 0 -31 -9.5t-12 -28.5
q-2 -52 0 -104q1 -18 12 -27.5t29 -10.5h179q13 1 16.5 -2.5t3.5 -15.5q1 -7 1 -14v-54q-1 -55 0 -109q0 -44 40 -46q50 -2 100 0q19 1 29 12.5t11 30.5v174q0 12 1 17t6.5 6.5t17.5 0.5h168z" />
    <glyph glyph-name="comma" unicode="," horiz-adv-x="227" 
d="M227 82v0v0v58q-1 14 -7 21.5t-19 11.5q-2 0 -3 1q-7 2 -14 2q-9 1 -19 1q-34 1 -68 -1q-24 -1 -35 -13t-11 -36q-1 -24 0 -48v-35q0 -14 5 -24.5t17 -18.5q8 -5 9 -8.5t-3 -12.5q-4 -10 -9 -20q-6 -13 -11 -26q-7 -17 1 -28.5t26 -12.5h40q26 -2 40 21q23 37 47 73
q2 3 4 5q10 16 10 36v54z" />
    <glyph glyph-name="hyphen" unicode="-" horiz-adv-x="298" 
d="M175 304h26q29 0 59 1q36 0 37 37q1 50 0 100q-1 38 -38 39h-167q-16 0 -25.5 -8t-13.5 -25q-2 -10 -3 -20v-71l2 -18q4 -19 13 -27t28 -7q29 -1 57 -1h25z" />
    <glyph glyph-name="period" unicode="." horiz-adv-x="227" 
d="M227 136q0 17 -7 26t-23 11q-14 3 -27.5 3.5t-27.5 0.5h-3q-13 0 -26 -0.5t-26 -2.5q-17 -2 -26 -11.5t-10 -27.5q-2 -50 0 -100q2 -17 13 -27t29 -11q46 -1 93 0q41 1 41 41v98z" />
    <glyph glyph-name="slash" unicode="/" horiz-adv-x="579" 
d="M464 869q-15 -1 -30 0q-19 2 -31 -6.5t-18 -25.5q-1 -4 -3 -8q-1 -2 -1 -4q-51 -132 -101 -264q-45 -119 -91 -237q-45 -119 -90 -237q-7 -16 -13 -32q-17 -44 -33 -89q-7 -21 2 -35t33 -17h89q23 0 35 8t20 30l62 162l4 10l246 644l4 12q8 20 15 40q6 22 -3 35t-32 14
h-64z" />
    <glyph glyph-name="zero" unicode="0" horiz-adv-x="509" 
d="M333 201q-1 -15 -6 -20t-20 -4q-28 -1 -56 0q-11 0 -15.5 4.5t-5.5 15.5v464q0 18 2.5 26t10.5 10.5t27 2.5h35q16 0 22 -6t6 -23v-470zM50 372q0 -93 1 -187q-1 -29 4 -57q5 -30 18.5 -54t38.5 -42q22 -16 47.5 -23t52.5 -8q59 -1 118 0q26 0 52 4q39 6 67 27t44 57
q9 22 12.5 44.5t3.5 45.5q1 240 0 481q0 39 -4 78q-6 59 -43 94.5t-97 39.5q-42 2 -85 2t-85 -2q-34 -1 -62 -14.5t-47.5 -38t-27.5 -60.5q-7 -29 -7 -59q-1 -96 -1 -191v-137z" />
    <glyph glyph-name="one" unicode="1" horiz-adv-x="319" 
d="M317 824q1 9 0 18q-4 28 -31 30q-13 1 -25 0q-89 -12 -177 -25q-33 -5 -34 -38q-1 -54 0 -108q0 -15 9.5 -24t24.5 -10q10 -1 19 1q17 3 24 2t8.5 -7t0.5 -16v-611q1 -16 9 -25t24 -10q57 -1 115 0q14 0 23 9.5t10 23.5q1 9 0 18v772z" />
    <glyph glyph-name="two" unicode="2" horiz-adv-x="509" 
d="M464 0q42 1 42 43q1 79 0 158q0 18 -10.5 29t-27.5 12q-53 2 -106 0q-14 0 -23.5 -7.5t-12.5 -21.5q-2 -9 -3 -19q-1 -11 -4 -14t-14 -3q-28 -1 -56 0q-11 0 -14 3.5t-3 15.5v60q-1 18 14 25q24 13 48 27q13 6 25 13q21 11 41 23q55 30 111 59q19 10 27.5 25.5t8.5 37.5
q-1 65 0 131q0 51 -1 102q0 25 -4 49q-7 39 -26.5 66t-48.5 41.5t-63 15.5q-44 3 -87 3t-86 -3q-60 -4 -96.5 -39t-42.5 -96q-2 -27 -2 -54.5t1 -55.5v-39q1 -13 8 -20.5t19 -8.5q60 -1 119 0h4q11 0 18 5.5t10 15.5t3 20v73q0 13 5 18t17 5q24 2 48 0q11 0 15.5 -4.5
t4.5 -15.5q1 -36 1 -71v-58q0 -14 -12 -20q-15 -8 -29 -16q-10 -5 -19 -10q-10 -5 -20 -11q-79 -42 -157 -84q-18 -10 -27 -24t-8 -35q1 -107 0 -215v-95q2 -30 32 -35q7 -1 15 -1h366z" />
    <glyph glyph-name="three" unicode="3" horiz-adv-x="513" 
d="M510 614v25q0 30 -1 60q0 24 -3 48q-11 57 -47.5 89t-92.5 35q-88 5 -177 0q-44 -2 -77 -23.5t-50 -64.5q-10 -28 -11.5 -57t1.5 -58q1 -17 10.5 -25.5t24.5 -9.5q56 -1 112 0q25 1 32 25q3 12 4 25q0 6 3 9.5t9 3.5h69q14 0 14 -14v-50q0 -43 -1 -86q0 -9 -4 -13.5
t-13 -5.5q-8 -1 -16 -1h-111q-18 -1 -28 -10t-11 -25q-1 -54 0 -108q1 -16 10.5 -24.5t25.5 -8.5q28 -1 56 -1h25q6 0 12 1q14 0 27 -1q16 0 22 -6t6 -22v-127q0 -14 -14 -14q-29 1 -58 0h-11q-12 1 -12 13v9q-5 39 -44 41h-96q-21 -1 -32.5 -12t-11.5 -32q0 -19 0.5 -38
t3.5 -37q6 -35 23.5 -61.5t50.5 -43.5q19 -9 39 -13.5t41 -4.5q62 -1 125 0q26 0 51 4q40 7 68 28.5t43 59.5q12 33 13 69q1 58 1 117v74q0 22 -6 41t-22 35q-5 5 -4.5 8.5t5.5 8.5q15 16 21.5 35t5.5 41q-1 32 -1 64q1 14 1 28z" />
    <glyph glyph-name="four" unicode="4" horiz-adv-x="606" 
d="M340 250q6 0 12 -1q9 0 12 -3t3 -12q1 -6 1 -12v-164q0 -13 2 -25q7 -31 38 -32q48 -1 96 0q31 1 37 33q2 12 2 24v167q0 10 1 14.5t5 5.5t13 1q23 1 33.5 12t10.5 34v84q-1 38 -39 42q-12 1 -17 3t-6 7t-1 16v65q0 10 -2 20q-4 17 -12.5 24t-25.5 7h-33q-26 -1 -53 0
q-26 2 -37 -10t-12 -38q-1 -15 0 -30v-49q0 -11 -3.5 -14.5t-13.5 -3.5q-33 -1 -66 0q-9 0 -11 3t2 11q1 2 3 5q0 1 1 2l198 328q4 7 9 14l20 34q2 4 5 9l2 6q5 11 2 21.5t-12 17.5t-20 7q-56 -2 -113 0q-16 0 -27.5 -6.5t-19.5 -20.5q-54 -88 -108 -175l-30 -48
q-23 -38 -46 -75q-38 -61 -75 -122q-6 -9 -10.5 -19t-4.5 -21q1 -23 0 -46q0 -25 1 -50q0 -21 10 -30.5t31 -9.5h248z" />
    <glyph glyph-name="five" unicode="5" 
d="M229 872q-64 0 -128 1q-18 0 -29.5 -10.5t-12.5 -30.5v-348q0 -18 3.5 -29t13 -18t26.5 -12q59 -19 119 -38q42 -13 83 -26q10 -3 14.5 -5.5t6 -8t1.5 -16.5v-135q0 -2 -1 -4q0 -11 -11 -11h-69q-13 0 -13 12v4q0 5 -1 9q-2 14 -8.5 22t-20.5 11q-12 3 -25 4h-72
q-12 -1 -23 -3q-16 -4 -23.5 -12.5t-8.5 -25.5v-3v-29.5t1 -29.5q4 -37 20 -67t49 -50q20 -11 41.5 -16.5t44.5 -5.5q63 -1 127 0q26 0 51 4q38 6 65 26.5t43 55.5q8 17 11 35.5t3 37.5q1 144 0 287q1 20 -7 31t-27 17q-40 13 -81 26q-15 4 -30 9q-10 3 -19 6q-43 14 -86 27
q-7 2 -11.5 5.5t-4.5 11.5v102q0 14 14 14h68q63 1 126 0q21 -1 34.5 10t14.5 36q2 43 0 87q0 13 -4.5 23t-14.5 15.5t-27 5.5q-60 -1 -119 -1h-103z" />
    <glyph glyph-name="six" unicode="6" 
d="M329 203q0 -13 -4.5 -17.5t-17.5 -4.5q-28 -1 -56 0q-12 0 -17 4t-6 16q-1 5 -1 11v130q0 8 1 15q2 7 6.5 11.5t12.5 5.5q32 1 64 0q10 0 14 -5.5t4 -17.5v-148zM51 161q0 -22 4 -43q10 -43 35.5 -71t68.5 -39q28 -6 56 -7q58 -1 116 0q26 0 52 4q45 6 75.5 34t42.5 71
q5 22 5 43q1 124 0 248q0 37 -13.5 68t-43.5 53q-20 15 -43.5 22t-48.5 8h-58q-9 1 -11 4.5t1 12.5l2 4t1 3l6 14q42 99 83 197q2 4 4 9q6 13 11 28q6 23 -4 36.5t-32 12.5q-51 -2 -101 0h-8q-30 0 -42 -28l-16 -38q-67 -159 -133 -319q-4 -11 -6.5 -23.5t-2.5 -24.5
q-1 -51 0 -102v-177z" />
    <glyph glyph-name="seven" unicode="7" horiz-adv-x="552" 
d="M90 873q-18 0 -28 -9t-11 -27q-2 -53 0 -106q1 -17 10.5 -25.5t25.5 -9.5q6 -1 12 -1h194q10 -1 7 -11q-1 -4 -3 -8q0 -2 -1 -3l-12 -32q-15 -41 -31 -81q-32 -83 -63 -166q-38 -98 -75 -195q-7 -18 -14 -35q-22 -57 -43 -115q-6 -19 3 -33t30 -15q55 -1 110 0q16 0 28 8
t18 25q15 41 32 83q8 20 16 41q30 80 61 160q39 100 77 201q17 43 33 85q40 103 79 206q6 18 6 37q0 10 -7 16.5t-17 8.5q-7 1 -15 1h-422z" />
    <glyph glyph-name="eight" unicode="8" horiz-adv-x="509" 
d="M330 263v-18q0 -20 -1 -40q0 -15 -5 -20t-19 -5q-27 0 -54 1q-12 0 -16.5 3.5t-5.5 13.5q-1 66 1 132q0 10 5 14t15 5q28 1 56 0q12 -1 17.5 -6.5t5.5 -17.5q1 -22 1 -43q-1 -10 -1 -19h1zM330 611v-18q0 -20 -1 -40q0 -15 -5.5 -20.5t-20.5 -6.5q-24 -1 -47 0
q-16 1 -22 7t-6 21v106q0 10 1 19q2 7 6.5 11.5t12.5 5.5h4q29 0 58 -1q10 0 14.5 -5.5t4.5 -16.5q1 -22 1 -43q-1 -10 -1 -19h0.5h0.5zM507 617v35q1 20 1 39t-2 38q-5 64 -41.5 101t-98.5 41q-88 6 -175 0q-45 -2 -78 -24.5t-50 -66.5q-13 -33 -13 -69q1 -97 0 -195
q0 -20 5.5 -37t20.5 -31q6 -6 5.5 -11t-5.5 -10q-14 -15 -20 -32.5t-6 -37.5q1 -91 1 -181q0 -5 -1 -11q0 -36 12 -69q9 -25 25 -43.5t39 -30.5q19 -11 40.5 -16t43.5 -5q50 -1 100 0h10q15 0 30 0.5t30 3.5q45 7 75.5 32t43.5 70q7 25 7 51q1 46 1 92q-1 53 0 106
q1 20 -5 38.5t-20 33.5q-5 5 -5 9t5 10q27 29 25 70q-1 35 0 70v30z" />
    <glyph glyph-name="nine" unicode="9" horiz-adv-x="511" 
d="M230 669q0 16 5 21.5t21 5.5q26 1 52 0q12 -1 16.5 -5.5t4.5 -16.5q1 -76 0 -152q0 -11 -4.5 -15.5t-15.5 -5.5q-29 -1 -58 0q-12 0 -16.5 5t-4.5 17v146zM509 576h2q-1 26 -1 51q-1 28 -1.5 56.5t-3.5 56.5q-3 38 -20 66.5t-46 45.5t-68 19q-91 6 -183 0
q-49 -3 -83.5 -30.5t-46.5 -78.5q-7 -28 -7 -57q-1 -98 0 -196q0 -29 3 -58q7 -53 41 -86.5t88 -39.5q25 -2 51 -3q11 0 23 -1q12 0 14 -3.5t-2 -13.5q-12 -29 -25 -58q-4 -11 -9 -23q-11 -24 -21 -49q-25 -60 -50 -119q-10 -24 -0.5 -38.5t34.5 -15.5q55 -1 109 0
q28 0 41 26q2 6 4 11q4 7 7 14q21 49 41 98q43 104 87 207q11 27 17 54.5t6 56.5q-1 37 -1 75v33z" />
    <glyph glyph-name="colon" unicode=":" horiz-adv-x="228" 
d="M227 87v0v0v-52q-1 -17 -10 -27t-26 -11q-51 -1 -102 0q-15 1 -25.5 11t-11.5 27q-3 50 0 101q0 17 9 26t25 12q9 2 19 3h73q12 -1 24 -4q24 -7 25 -32v-54zM55 370q-4 10 -4 20q-1 44 0 88q1 15 9 29q5 9 13.5 12t18.5 3q13 0 26 1q36 0 72 -1q17 0 27 -10t10 -27v-104
q-1 -33 -33 -35h-106q-13 0 -21 6.5t-12 17.5z" />
    <glyph glyph-name="semicolon" unicode=";" horiz-adv-x="228" 
d="M85 347q-14 1 -23 10.5t-10 25.5q-3 52 0 104q1 18 11.5 27t28.5 9q48 1 96 0q20 0 29.5 -10t9.5 -30v-64q1 -19 0 -38q0 -15 -8.5 -24t-23.5 -10q-55 -2 -110 0zM227 139q1 -21 0 -42v-71q1 -18 -9 -33q-3 -4 -5 -7q-24 -37 -48 -73q-13 -21 -38 -20h-39
q-20 1 -27.5 12.5t-0.5 29.5q5 13 11 25q4 10 9 20q4 9 3 13t-10 9q-11 7 -16.5 17t-5.5 23v87q0 22 10 33.5t32 12.5q17 2 34.5 2t34.5 -1h26q4 0 8 -2h3q14 -4 21 -12t7 -23z" />
    <glyph glyph-name="less" unicode="&#x3c;" horiz-adv-x="573" 
d="M454 19q3 2 8 3q4 1 8.5 2.5t7.5 4.5q40 38 78 78q10 12 9.5 25.5t-11.5 25.5q-5 6 -11 12l-2 2l-234 234q-9 9 -12 13.5t0 9.5t12 14q61 61 122 121q55 56 111 112l2 2q6 5 11 11q13 14 12.5 29t-13.5 28q-34 35 -69 69q-13 13 -28.5 13t-29.5 -12q-5 -4 -9 -8
q-2 -3 -4 -5q-153 -153 -307 -306q-14 -14 -27 -28q-3 -2 -5 -4q-7 -7 -13 -14q-10 -12 -10 -26.5t10 -26.5q3 -4 7 -7q1 -2 3 -4q159 -158 317 -317q15 -14 29 -29l4 -4t5 -4q11 -12 29 -14z" />
    <glyph glyph-name="equal" unicode="=" horiz-adv-x="716" 
d="M714 257q-1 -22 -12 -32.5t-33 -10.5q-73 -1 -146 0h-417q-7 -1 -13 0q-38 2 -39 39q-1 50 0 100q0 41 41 40q81 1 161 0h416q20 0 30.5 -10t11.5 -31v-95zM108 439q-32 -1 -45 12t-13 45v75q1 15 5 25.5t14.5 16.5t31.5 6h559q21 0 32.5 -4.5t16 -16.5t4.5 -32v-23
q-1 -24 0 -48q1 -22 -5.5 -34.5t-19.5 -17.5t-30 -5q-125 1 -251 1q-47 -1 -95 -1h-61q-71 0 -143 1z" />
    <glyph glyph-name="greater" unicode="&#x3e;" horiz-adv-x="580" 
d="M161 827q-11 1 -19 -4t-15 -12q-8 -7 -15 -15l-44 -44q-18 -18 -18 -34t18 -34q3 -4 7 -7q1 -2 3 -3q45 -46 91 -91l136 -136l7 -7q7 -7 9.5 -11t-1.5 -9.5t-15 -15.5q-113 -113 -226 -227l-2 -2q-6 -5 -11 -11q-16 -18 -16 -33t16 -31q31 -35 66 -67q14 -13 29.5 -12.5
t30.5 12.5q3 4 7 7l3 3l91 91q124 125 249 249q24 23 23.5 42t-23.5 41q-114 113 -228 227q-55 56 -111 111l-13 13q-12 11 -29 10z" />
    <glyph glyph-name="question" unicode="?" horiz-adv-x="509" 
d="M313 176q24 -4 32.5 -15t7.5 -31q-1 -15 -1 -30v-13v0v0v-16q1 -18 0 -36q0 -17 -9.5 -27t-26.5 -11q-52 -1 -104 0q-15 1 -24 8.5t-13 22.5q-3 13 -3 27q-1 32 0 64q1 15 4 29q5 20 25 25q14 3 29 4h69q7 0 14 -1zM507 609q0 -16 -1 -33q0 -41 1 -81q0 -25 -19 -42
q-25 -25 -51 -49q-31 -31 -63 -60q-12 -11 -17.5 -23.5t-4.5 -28.5q2 -13 0 -27q-1 -15 -10 -24.5t-24 -10.5q-54 -1 -108 0q-15 0 -23 7.5t-12 22.5q-3 11 -3 22v69q0 17 6 31.5t18 26.5q34 32 67 65q25 25 51 50q5 5 8 11t3 14v119q0 13 -5.5 18.5t-18.5 5.5q-19 1 -38 0
h-1q-18 1 -24 -5.5t-6 -23.5q-1 -16 0 -31v-38q0 -22 -9 -31t-30 -9h-104q-20 0 -29 9t-9 29v30q-1 48 0 95q1 31 11.5 59t33.5 50q41 40 97 42q43 2 86 2.5t86 -2.5q62 -4 99 -41.5t42 -100.5q1 -20 1 -40v-40q-1 -18 -1 -37h0.5h0.5z" />
    <glyph glyph-name="at" unicode="@" horiz-adv-x="789" 
d="M439 408q-1 13 0 26q0 14 6.5 19.5t20.5 3.5q19 -2 38 -5l76 -10q3 -1 7 -2t9 -1q7 -1 10 -5t3 -10v-54q0 -12 -3.5 -16t-16.5 -5l-42 -6q-12 -1 -24 -3q-17 -2 -35 -5l-18 -2q-17 -3 -24 3t-7 23v49zM51 352q-1 -46 0 -93v-28q0 -34 1 -68t3 -68q2 -35 16.5 -63.5
t43.5 -49.5q19 -14 40.5 -20t44.5 -6q28 0 56 1q15 1 31 2q84 2 168 5h16q11 -1 22 0q43 2 45 44t0 83q0 19 -9 28.5t-27 13.5q-13 2 -26 2h-219q-17 0 -22 5t-5 22v171q0 143 1 287q-1 18 5 24.5t23 6.5h323q8 0 16 -3q7 -2 9.5 -10t0.5 -18q-2 -7 -6 -8t-9 1h-3
q-17 3 -33 5l-72 12l-16 2q-18 3 -36 5t-37 -1q-25 -4 -46.5 -14.5t-38.5 -29.5q-19 -23 -29 -50t-10 -57q-2 -78 -1 -157v-7q0 -24 5 -48q9 -45 36 -74.5t73 -40.5q20 -4 40 -4t40 3q59 9 118 19l10 2q6 1 11.5 -0.5t8.5 -7.5q7 -11 17 -15t21 -4q48 -1 96 0q18 1 29 11.5
t12 29.5q1 7 1 14q-1 2 -1 5q0 47 1 94q0 150 -1 301q0 42 -3 83q-4 41 -23 71.5t-50.5 48t-73.5 18.5q-219 2 -437 0q-53 -1 -91.5 -30t-50.5 -83q-8 -35 -8 -72q-1 -90 0 -181v-109z" />
    <glyph glyph-name="A" unicode="A" horiz-adv-x="621" 
d="M335 326h-29q-13 0 -11 13q1 9 3 18t3 19q1 5 2 9q12 67 25 134q1 5 3 10q1 3 2 5q1 -2 3 -5q3 -5 5 -10l32 -174q2 -12 -1 -15.5t-16 -3.5q-7 -1 -15 -1h-6v1zM273 871q-24 0 -35 -8.5t-16 -32.5q-22 -99 -43 -198l-4 -18q-30 -140 -60 -279q-21 -100 -43 -200
q-4 -18 -7 -35q-7 -30 -14 -61q-6 -32 26 -40q10 -3 20 -3q45 -1 90 0q23 0 33.5 9t14.5 31l10 54l10 52q1 10 3 14t6.5 5t14.5 1h5q47 1 93 0h13q9 1 14 -0.5t7 -8.5t5 -23q9 -51 20 -100q3 -17 11.5 -24.5t25.5 -9.5h102q9 0 18 3q25 6 25 31q-1 10 -3 21q-7 36 -15 73
l-98 452l-18 84l-14 64q-12 52 -23 105q-3 17 -9 26t-16 12.5t-28 3.5h-121z" />
    <glyph glyph-name="B" unicode="B" horiz-adv-x="511" 
d="M235 672q0 12 3.5 15.5t16.5 3.5q27 1 54 0q11 0 15.5 -4t4.5 -16v-127q0 -11 -4.5 -16t-15.5 -5q-22 -1 -45 -1h-15q-8 0 -11 4.5t-3 12.5v133zM235 325q0 12 3.5 16t15.5 4h54q12 -1 16.5 -5.5t4.5 -16.5v-125q0 -13 -4.5 -17.5t-17.5 -4.5q-27 -1 -54 0q-11 0 -14.5 3
t-3.5 15v131zM50 53q0 -22 5 -34.5t18 -17.5t36 -5h42q87 -1 174 0q28 0 56 5q42 6 75 33q27 22 39.5 51t12.5 62q2 60 2 119q-1 42 0 83q0 22 -6 40.5t-20 34.5q-5 6 -5 11t5 10q14 14 20 31.5t6 36.5v83q0 53 -1 107q0 24 -5 47q-8 38 -29.5 65.5t-58.5 42.5
q-19 7 -38.5 10t-39.5 3h-252q-13 -1 -21.5 -8t-11.5 -21q-3 -13 -3 -26v-763z" />
    <glyph glyph-name="C" unicode="C" horiz-adv-x="514" 
d="M51 434h-1v-120q-1 -84 2 -167q1 -46 22.5 -80.5t65.5 -54.5q21 -9 43 -12.5t44 -3.5q72 -1 143 4q36 2 65 19t47.5 45.5t23.5 64.5q4 30 4 60.5v60.5v25q-1 22 -12 32t-33 10h-90q-24 0 -34.5 -10.5t-10.5 -35.5v-72q0 -13 -5 -18t-18 -5q-19 -1 -38 0h-5q-13 -1 -19 1
t-8 8.5t-2 18.5v467q1 11 5 15.5t15 4.5q25 1 50 0q15 0 20 -5t5 -20v-71q0 -23 10.5 -34t33.5 -11q45 -1 91 0q22 0 33 11.5t12 32.5v34q1 27 0.5 54.5t-4.5 54.5q-8 55 -40 88t-88 42q-19 3 -37.5 3.5t-37.5 0.5h-5q-29 0 -58 -1t-57 -3q-31 -3 -56.5 -17t-44.5 -39
q-15 -21 -22.5 -44.5t-8.5 -49.5v-283z" />
    <glyph glyph-name="D" unicode="D" horiz-adv-x="509" 
d="M234 677q-1 14 14 14h64q9 0 12.5 -4.5t4.5 -12.5v-464q0 -17 -1.5 -24t-9 -9t-23.5 -1h-8q-15 -1 -31 0q-10 0 -15 1t-6 5t-1 14v481zM50 55q0 -12 1 -23q3 -19 12.5 -27t28.5 -9h65q57 -1 114 0q50 0 99 4q47 3 81 29.5t48 69.5q9 32 9 65q1 264 1 527q0 27 -5 54
q-7 43 -31.5 72t-66.5 43q-12 5 -25.5 7.5t-27.5 2.5q-133 2 -266 1q-15 0 -23 -7.5t-12 -22.5q-2 -14 -2 -27v-759z" />
    <glyph glyph-name="E" unicode="E" horiz-adv-x="508" 
d="M50 332q0 -145 -1 -290q0 -22 9.5 -33.5t35.5 -12.5h360q14 0 27 4q22 6 23 28q2 57 0 115q0 15 -9.5 23.5t-25.5 8.5q-7 1 -13 1h-68q-70 -1 -140 0q-14 -1 -17.5 2.5t-3.5 16.5v129q0 13 4 17t17 4h154q41 0 41 41q1 25 0 50v46q1 21 -9.5 30.5t-30.5 12.5q-6 1 -12 0
h-142q-10 0 -14.5 1.5t-6 6.5t-1.5 15v112q0 16 1.5 22.5t8 7.5t21.5 1h208q18 0 28 9t11 26q1 55 0 110q-1 16 -10 24.5t-25 10.5h-389q-13 -2 -22.5 -12t-8.5 -22v-505z" />
    <glyph glyph-name="F" unicode="F" 
d="M50 39q0 -21 8.5 -31.5t28.5 -10.5q27 -2 53.5 -2t52.5 2q16 1 24.5 7t11.5 15t2 20v275q0 10 1 21q1 9 11 10q8 1 17 1h50q46 -1 91 0q22 -1 32 9t11 32v96q0 19 -9 29t-28 13q-7 1 -15 0h-139q-14 0 -18 3.5t-3 18.5q-1 39 -1 79v27q0 12 1 25q0 13 13 13h212q9 0 19 1
q14 3 21.5 12t8.5 23q1 54 0 108q-1 16 -10 25t-24 11h-373q-13 0 -26 -4q-11 -3 -16.5 -10t-6.5 -19v-799z" />
    <glyph glyph-name="G" unicode="G" horiz-adv-x="529" 
d="M51 433h-1v-69q0 -94 1 -187q0 -15 1 -29.5t3 -28.5q9 -46 36.5 -75t72.5 -40q14 -3 28 -5.5t28 -2.5h45q32 -1 63.5 -0.5t63.5 4.5q38 4 67 21.5t48 50.5q11 19 15.5 40t4.5 42v198q1 52 0 104q0 36 -33 37q-91 0 -181 -1q-31 0 -33 -32q-1 -8 -1 -15v-27q0 -32 1 -64
q0 -19 9.5 -28t27.5 -10h8q4 0 9 -1q9 0 12.5 -3.5t3.5 -12.5q1 -51 0 -102q0 -12 -5 -16.5t-17 -4.5q-22 -1 -44 -1q-7 1 -15 1q-16 -1 -24.5 1.5t-11 11t-1.5 25.5v442q0 10 1 20q1 7 5.5 11t11.5 4h82q8 0 12 -4t5 -13q1 -7 1 -15v-68q1 -17 10 -26.5t25 -10.5
q54 -2 108 1q17 0 25.5 10t8.5 27q0 15 1 29v53.5t-2 52.5q-3 55 -33 90.5t-80 46.5q-28 6 -57 7q-60 1 -119 0q-29 0 -58 -4q-39 -6 -68 -26.5t-45 -57.5q-14 -32 -15 -67v-283z" />
    <glyph glyph-name="H" unicode="H" horiz-adv-x="509" 
d="M50 43q0 -23 9 -34.5t30 -12.5q53 -2 106 0q17 1 27 11.5t12 27.5v289q0 14 3.5 17.5t17.5 3.5h39q15 0 21.5 -1.5t8 -8t1.5 -22.5v-272q0 -22 10 -33t31 -12q38 -1 77 0h23q5 0 10 2q2 0 4 1q21 5 26 26q3 11 3 22v773q0 11 -3 22q-3 14 -11 21t-22 8q-56 1 -111 0
q-17 -1 -26.5 -11.5t-10.5 -28.5v-293q0 -9 -3 -12.5t-12 -3.5q-30 -1 -60 0q-10 0 -13 3.5t-3 13.5v277q0 12 -2 25q-6 29 -34 30q-56 1 -111 0q-17 -1 -26.5 -11.5t-10.5 -28.5v-788z" />
    <glyph glyph-name="I" unicode="I" horiz-adv-x="234" 
d="M234 829q0 20 -9.5 30.5t-28.5 11.5q-54 1 -109 0q-14 -1 -22.5 -8t-11.5 -22q-3 -13 -3 -27v-772q1 -24 13 -35t36 -11q44 -1 87 0q11 0 21 3q25 7 27 32v798z" />
    <glyph glyph-name="J" unicode="J" 
d="M506 817q1 8 0 16q-1 18 -10.5 27.5t-27.5 10.5q-52 1 -104 0q-20 -1 -29.5 -11t-9.5 -30v-630q-1 -13 -6.5 -18.5t-18.5 -5.5q-17 -1 -35 -1q-3 1 -7 1q-18 -1 -24.5 5t-6.5 25v27q1 22 0 43q-1 17 -10 26.5t-25 10.5q-54 1 -108 0q-16 -1 -24.5 -10t-9.5 -25
q0 -68 1 -135q0 -16 4 -31q10 -39 33.5 -66t63.5 -38q17 -5 34.5 -8t34.5 -4q74 -1 148 4q48 3 81.5 31t47.5 75q5 17 7 34.5t1 34.5v642z" />
    <glyph glyph-name="K" unicode="K" horiz-adv-x="563" 
d="M50 53q-1 -11 1 -22q1 -12 8 -21t20 -11q63 -9 126 1q2 0 4 1q18 7 21 26q1 8 1 17v197q1 16 6 30q2 6 7 11q2 2 3 4l4 -4q4 -5 6 -10q10 -23 20 -45q41 -96 81 -193q9 -20 23.5 -29.5t35.5 -8.5h86q6 0 12 1q4 1 8 1q20 2 28 17t-1 36q-21 45 -41 91l-14 32l-32 70
q-44 100 -89 200q-5 10 -4.5 19.5t5.5 19.5q64 129 128 259q6 12 12 25l24 50q8 22 -0.5 36.5t-31.5 17.5h-100q-20 1 -34.5 -7.5t-23.5 -27.5q-35 -75 -72 -150q-15 -29 -30 -59l-2 -4q-2 -5 -4 -9q-1 -1 -2 -1.5l-3 -1.5q-1 0 -2 -1q0 1 -1 2q-1 2 -1 4q-1 8 -1 16v202
q0 12 -6 20t-16 12q-12 5 -24 5h-77q-33 2 -46 -12t-13 -45q1 -136 1 -273v-488z" />
    <glyph glyph-name="L" unicode="L" horiz-adv-x="498" 
d="M50 42q0 -23 10.5 -34t33.5 -12h352q11 0 22 2q14 3 21.5 11t7.5 22q1 49 0 99v11q0 10 -4.5 17.5t-12.5 11.5q-13 5 -26 5q-52 1 -104 1q-39 -1 -77 0h-12q-13 -1 -19 0.5t-7 7t-1 18.5v613q1 12 -1 24q-6 31 -36 32q-55 1 -110 0q-17 -1 -26.5 -11.5t-10.5 -26.5v-791z
" />
    <glyph glyph-name="M" unicode="M" horiz-adv-x="685" 
d="M50 56q-1 -9 0 -18q1 -18 9.5 -28.5t25.5 -11.5q19 -1 39 -1t40 1h31q4 0 8 2q21 7 23 29q1 8 1 17v272l2 2v1h2l1.5 -1.5t1.5 -0.5q2 -6 3 -12q19 -86 38 -173q11 -48 21 -97q4 -17 13.5 -27.5t26.5 -12.5q30 -2 60 0q31 3 38 35q2 6 3 11l2 8q7 34 15 69l40 182l4 14
l2 6q1 -4 2 -7q2 -7 2 -14v-254q0 -26 11.5 -38.5t37.5 -12.5q41 -1 83 0q25 1 36.5 12.5t11.5 36.5v787q-2 17 -12 27.5t-27 11.5q-71 1 -142 0q-15 -1 -25.5 -9.5t-14.5 -23.5q-2 -8 -4 -15v-1q-10 -43 -19 -86l-40 -178q-14 -64 -29 -128q-1 -2 -2 -5l-2 -2q0 1 -1 2
q-3 2 -4 4q-3 12 -6 25v3q-11 49 -22 97q-30 135 -60 271q-4 22 -17.5 34.5t-40.5 11.5q-55 -1 -110 0q-32 1 -44.5 -12.5t-12.5 -44.5q1 -136 1 -273v-485z" />
    <glyph glyph-name="N" unicode="N" horiz-adv-x="535" 
d="M50 45q0 -8 1 -16q1 -12 7 -19.5t17 -10.5q18 -3 35 -3q40 -1 80 0q22 1 31.5 11t10.5 32v293q0 7 2 13l2 6q1 -3 3 -5q3 -5 5 -11q54 -149 108 -299q8 -23 19.5 -31.5t35.5 -8.5h75q30 -1 42 12t11 41v783q-1 18 -11 28t-28 11q-53 1 -106 0q-33 -1 -38 -34
q-1 -9 -1 -19v-281q0 -9 -1 -18q0 -1 -1 -2t-2 -1t-1.5 0.5l-1.5 1.5q-2 5 -4 11v1q-17 48 -34 95l-58 164q-9 24 -19 49q-1 3 -2 7q-5 12 -13 18.5t-20 6.5q-55 2 -110 0q-16 -1 -24.5 -10.5t-9.5 -25.5v-789z" />
    <glyph glyph-name="O" unicode="O" 
d="M330 189q0 -7 -4 -11.5t-11 -4.5q-35 -1 -69 0q-14 1 -17 15q-1 10 -1 21v459q0 16 6 21.5t22 5.5q24 1 48 0q16 0 21 -5.5t5 -21.5v-479zM50 366q0 -102 1 -204q-1 -24 4 -48q10 -41 34 -68.5t65 -38.5q16 -5 33 -7.5t34 -3.5q38 0 75.5 0.5t74.5 3.5q48 4 80.5 31
t46.5 72q5 18 7 35t2 35v156q0 182 -1 364q0 27 -4 54q-9 50 -42 81.5t-84 38.5q-22 4 -44 4h-44h-35q-18 0 -37 -1t-37 -3q-47 -7 -78 -33.5t-44 -73.5q-7 -26 -6 -53q-1 -100 -1 -200v-141z" />
    <glyph glyph-name="P" unicode="P" 
d="M231 659q0 16 1.5 22.5t8 8t22.5 1.5h39q13 0 18 -4.5t4 -17.5q1 -48 1 -96v-88q0 -13 -2.5 -19.5t-9.5 -9t-20 -1.5q-19 -1 -38 0q-11 -1 -16 0.5t-6.5 6.5t-1.5 16v181zM50 42q-1 -13 3 -23t14 -16t28 -7q47 -2 94 0q20 0 31.5 10t11.5 34q-2 71 -1 142v74
q0 12 3.5 15.5t14.5 3.5h60q32 1 63 4q36 3 64 20t47 48q12 20 17.5 42.5t5.5 46.5v266q0 14 -1 28q-5 47 -28.5 80.5t-69.5 48.5q-33 11 -69 11q-59 1 -117 1h-116q-32 1 -44 -12t-12 -43q1 -137 1 -275v-499z" />
    <glyph glyph-name="Q" unicode="Q" horiz-adv-x="512" 
d="M234 675q1 7 5 11t11 5h62q8 0 12 -4.5t5 -11.5v-470q0 -18 -5.5 -24t-23.5 -5h-2q-21 -1 -42 0q-13 0 -17.5 4.5t-4.5 17.5v477zM509 487q-1 44 0 89v77t-3 77q-4 37 -20.5 66.5t-45 48t-65.5 22.5q-25 3 -50.5 3.5t-51.5 0.5q-23 0 -46.5 -0.5t-46.5 -3.5
q-42 -6 -72 -29t-46 -64q-12 -35 -12 -71v-531q0 -26 5 -52q9 -46 36.5 -76t73.5 -40q18 -4 37 -5.5t38 -1.5q7 -1 14 -1q9 0 15.5 -3.5t10.5 -12.5l10 -24q5 -10 9 -20q14 -33 51 -32h85q8 0 17 2q19 3 27 16.5t0 33.5q-10 21 -19 41q-3 5 -5 10q-4 9 -5 13t1 7.5t9 10.5
q19 18 29.5 40t14.5 47q5 31 5 62v300z" />
    <glyph glyph-name="R" unicode="R" horiz-adv-x="523" 
d="M234 670q0 10 1 14.5t5.5 5.5t13.5 1q30 1 60 0q13 0 18.5 -4.5t4.5 -17.5q1 -96 0 -191q1 -13 -4 -18t-18 -5q-31 -1 -62 0q-12 -1 -15.5 2.5t-3.5 15.5v197zM50 53q0 -8 1 -17q2 -19 11 -28.5t27 -10.5q54 -3 108 0q19 1 28 11.5t9 29.5v213q0 7 1 14q1 3 3.5 5.5
t5.5 3.5q13 3 20 -1t11 -17q7 -29 15 -57q3 -12 6 -23q6 -22 11 -43q13 -51 27 -102q5 -18 14 -25.5t27 -9.5h92q32 0 43 13.5t2 44.5q-29 113 -59 225q-3 10 -1 16.5t10 12.5q21 15 34 36t18 46q7 34 7 68q2 76 1 152q-1 11 -1 21q0 26 -0.5 51.5t-2.5 50.5
q-5 46 -28.5 78.5t-68.5 47.5q-32 11 -67 11q-93 2 -186 1h-80q-15 -1 -23.5 -8t-11.5 -22q-3 -13 -3 -27v-761z" />
    <glyph glyph-name="S" unicode="S" horiz-adv-x="513" 
d="M282 873q-16 -1 -31 -2q-33 0 -66 -4q-52 -7 -84 -36.5t-42 -77.5q-4 -18 -5.5 -36t-2.5 -36q-1 -37 0 -75v-66q-1 -39 0 -78q1 -21 7 -34.5t17 -21t26 -11.5l66 -22q16 -6 32 -11q20 -7 40 -13q35 -11 69 -23q9 -3 12.5 -5t4.5 -6t1 -12v-104q0 -14 -4.5 -18.5
t-17.5 -4.5q-21 -1 -42 0q-16 -1 -21.5 4.5t-5.5 21.5v73q-1 37 -37 38q-55 1 -109 0q-15 0 -23 -6.5t-12 -21.5q-3 -10 -3 -20q0 -15 1 -29q0 -50 3 -100q3 -49 32 -84.5t77 -47.5q17 -3 34.5 -5t35.5 -3q39 -2 79 0q16 0 33 1t33 3q24 4 45 13t39 26q25 25 35.5 56
t10.5 65q2 91 1 182v61q0 25 -10.5 40.5t-33.5 23.5l-62 20q-14 5 -29 9l-40 14q-43 14 -87 28q-13 4 -13 18v115q0 10 5 15t16 5q24 1 48 0q13 0 17.5 -4.5t4.5 -17.5v-67q0 -12 4 -24q3 -12 11 -18t19 -7q59 -1 117 1q15 0 23.5 9.5t8.5 23.5q0 24 1 47q1 27 0.5 53.5
t-4.5 53.5q-5 34 -22 61t-44 44t-62 21q-33 3 -67 4q-15 1 -29 2z" />
    <glyph glyph-name="T" unicode="T" 
d="M188 42q-1 -8 0 -16q2 -10 7.5 -17t15.5 -10q11 -3 23 -3q44 -1 89 0q25 0 35.5 11t10.5 36v631q0 11 3.5 14t13.5 3h75q24 0 34.5 10.5t10.5 33.5q1 46 0 92q0 23 -10.5 33.5t-33.5 10.5h-366q-25 0 -35.5 -10.5t-10.5 -34.5v-90q0 -24 10.5 -34.5t35.5 -10.5h68
q11 1 16 -0.5t6.5 -8.5t1.5 -23q-1 -107 0 -215v-402z" />
    <glyph glyph-name="U" unicode="U" horiz-adv-x="506" 
d="M506 825q0 21 -9.5 32.5t-28.5 12.5q-50 2 -100 0q-17 -1 -27 -11.5t-12 -27.5v-635q-1 -11 -5.5 -15.5t-15.5 -4.5q-20 -1 -40 0h-6q-18 -1 -24 5.5t-6 25.5q-1 17 -1 35q1 7 1 15q0 70 -1 140q0 213 1 426q0 17 -6 27.5t-15.5 15.5t-20.5 5q-49 1 -98 0
q-19 -1 -29.5 -12t-12.5 -29v-658q0 -27 5 -54q10 -45 37 -74t73 -40q14 -3 27.5 -5.5t27.5 -2.5q38 0 75.5 0.5t74.5 3.5t66 20t48 49q23 41 22 88v668z" />
    <glyph glyph-name="V" unicode="V" horiz-adv-x="600" 
d="M320 -4h15q15 -1 31 0q24 1 35.5 10.5t15.5 33.5q9 36 17 73q5 24 11 48q9 41 18 81q58 259 115 518q2 6 3 12q7 27 10 53q3 22 -7 33.5t-31 12.5q-50 1 -100 0q-33 -2 -41 -34q-3 -11 -5 -21l-2 -12q-10 -53 -21 -105q-14 -70 -27 -139q-5 -26 -10 -51l-20 -100
q-1 -4 -4 -8q-1 -1 -2 -3q-1 2 -2 3q-2 3 -3 7q-2 5 -3 10q-16 82 -32 163q-24 125 -48 249q-4 21 -15.5 30.5t-31.5 10.5q-47 1 -94 0q-25 -1 -35 -14.5t-5 -38.5q2 -10 5 -21q17 -81 35 -162l132 -596q5 -23 17 -33t36 -10q15 -1 30 0h13z" />
    <glyph glyph-name="W" unicode="W" horiz-adv-x="785" 
d="M140 871h-48q-22 -1 -33 -13.5t-9 -35.5q1 -15 3 -30q1 -7 2 -13l4 -38q6 -50 11 -99q3 -33 7 -66q3 -33 7 -66q4 -41 9 -82q3 -31 7 -62q2 -24 5 -47l4 -44q8 -70 16 -141q5 -51 12 -103q3 -27 29 -32q2 -1 4 -1q8 -2 17 -2q43 -1 85 0q25 0 37 9.5t17 33.5
q18 76 36 153l18 76v1l28 120q1 3 4 6q1 2 2 3l2 -2q3 -3 4 -6l10 -46q1 -5 2 -9q11 -46 21 -92l46 -198q4 -20 11 -30.5t19 -14.5t33 -4h13q29 -1 58 0q13 0 25 3q27 5 30 32l8 66q3 30 7 60q3 33 7 66q4 32 7 63q4 33 8 67q3 29 6 57q4 36 8 71q5 41 10 81t9 80
q5 40 10 81q5 49 11 98q2 22 -8.5 35.5t-31.5 14.5q-50 1 -100 0q-18 -1 -28 -10t-12 -27q-4 -30 -7 -61q0 -6 -1 -13q-2 -19 -3 -37t-3 -36l-6 -72q-3 -25 -5 -50l-2 -24l-4 -44q0 -1 -1 -2l-2 -2l-2 -2q0 1 -1 2q-2 1 -3 4q-6 29 -13 58q-9 47 -19 93q-19 93 -39 186
q-7 36 -44 37q-31 1 -62 0q-15 -1 -25 -9t-15 -22q-3 -8 -5 -18q-21 -100 -42 -199q-4 -17 -7 -34q-10 -44 -19 -88q-1 -4 -4 -7l-2 -4q0 2 -1 4q-2 3 -3 7q-4 42 -8 85q-3 41 -6 83q-4 47 -7 95q-3 34 -8 68q-2 19 -12 28.5t-30 10.5h-48z" />
    <glyph glyph-name="X" unicode="X" horiz-adv-x="597" 
d="M102 871q-9 0 -18 -2q-15 -4 -21 -11.5t-5 -22.5q1 -16 8 -32l24 -60q7 -15 13 -30q14 -34 28 -69q36 -88 73 -175q6 -14 6.5 -26t-5.5 -25q-61 -145 -120 -290l-28 -68q-4 -10 -7 -22q-2 -14 4 -24t20 -14q10 -4 20 -4q48 -1 96 0q19 0 32 8.5t20 27.5q26 70 55 140
l12 28q3 7 7 13l4 6l4 -6q4 -7 7 -14q18 -46 37 -93q13 -35 27 -69q9 -24 22 -33t39 -8q40 -1 79 0q7 0 14 1q5 1 9 1q17 1 25 14t3 34q-1 5 -3 10l-2 4q-8 20 -17 41q-29 69 -58 139q-2 6 -5 12q-35 87 -71 173q-3 8 -4 15.5t2 16.5q53 125 105 251q6 13 12 27q4 10 8 21
q14 33 27 66q6 18 -2 31.5t-27 16.5q-5 1 -11 1h-96q-37 1 -50 -35q-13 -34 -27 -68q-4 -12 -9 -23q-16 -41 -33 -83q-1 -2 -3 -4l-2 -2q-1 1 -2 1q-2 1 -3 2t-2 3q-10 24 -19 48q-3 7 -5 14q-6 13 -11 27q-17 43 -34 85q-7 18 -20 27t-32 8h-90z" />
    <glyph glyph-name="Y" unicode="Y" horiz-adv-x="623" 
d="M241 90q0 -26 1 -51q0 -18 8 -27.5t25 -13.5q10 -2 21 -2h68q34 -2 48 12.5t14 47.5q-1 90 -1 179v106q0 20 8 39q18 43 36 87q8 19 15 38q21 49 41 98l80 196q6 13 10 27t-0.5 24t-17.5 16q-11 5 -24 5h-81q-23 1 -36 -3.5t-19.5 -15t-12.5 -27.5q-35 -91 -71 -181
q-6 -14 -11 -28q-2 -5 -6 -10q-2 -2 -3 -5q-2 3 -4 5q-3 5 -6 11l-50 128q-18 46 -35 91q-8 20 -19.5 27.5t-32.5 7.5h-92q-9 0 -18 -3q-15 -4 -21.5 -14t-4.5 -25q2 -10 6 -19q88 -215 177 -429q9 -22 9 -45q-1 -51 -1 -102v-144z" />
    <glyph glyph-name="Z" unicode="Z" horiz-adv-x="555" 
d="M476 -4q13 0 25 2q14 3 21 11.5t8 22.5q2 56 0 112q-1 14 -10 22t-23 9q-6 1 -12 1h-5q-25 0 -50 -1q-56 0 -112 1q-16 -1 -18.5 3t3.5 18q10 27 21 54q5 14 11 27q21 56 43 112l162 420h1q3 8 5 16q3 16 -4.5 28t-23.5 16q-10 1 -20 1h-382q-16 -2 -25.5 -11t-10.5 -25
q-2 -54 0 -108q0 -17 9.5 -25.5t26.5 -10.5h167q12 0 14.5 -3.5t-2.5 -14.5q-11 -30 -23 -60q-7 -17 -13 -33l-14 -36l-170 -438q-2 -5 -3 -9q-11 -26 -19 -51q-12 -38 26 -47q12 -3 24 -3h373z" />
    <glyph glyph-name="bracketleft" unicode="[" horiz-adv-x="382" 
d="M50 -59q3 -30 33 -35q7 -1 14 -1h237q6 0 11 1q17 1 26.5 10.5t9.5 26.5q1 52 0 104q0 15 -6.5 23t-20.5 11q-14 4 -29 4h-79q-9 0 -12 3t-3 12v579q0 12 1 17.5t6.5 6.5t18.5 1h85q21 0 30 9.5t9 30.5q1 47 0 93q0 23 -10 33.5t-33 10.5h-245q-3 0 -7 -1q-34 -3 -36 -37
v-902z" />
    <glyph glyph-name="backslash" unicode="\" horiz-adv-x="571" 
d="M82 869q-16 -2 -25 -12.5t-7 -26.5q1 -10 5 -18q15 -41 31 -81q14 -37 28 -75q22 -56 43 -113q42 -108 83 -217l48 -126q47 -124 94 -247q8 -23 20.5 -31t35.5 -8q40 -1 79 0q13 0 25 4q13 4 19 14.5t3 24.5q-2 12 -7 24q-61 159 -121 318q-91 236 -181 472q-5 14 -11 28
l-14 38q-6 17 -17.5 25t-30.5 7q-15 -1 -30 0h-70z" />
    <glyph glyph-name="bracketright" unicode="]" horiz-adv-x="383" 
d="M382 844q-1 17 -10.5 26.5t-26.5 9.5q-127 1 -254 0q-39 0 -40 -39v-42q1 -28 0 -56q0 -18 11 -28.5t28 -10.5q29 1 59 0h24q16 1 22.5 -0.5t8 -8.5t1.5 -23v-566q0 -14 -3.5 -17.5t-16.5 -3.5h-77q-16 0 -31 -4q-12 -3 -18.5 -11t-7.5 -20q-1 -55 0 -109q1 -15 10 -24
t24 -11q7 -1 13 -1h233q20 0 31.5 4.5t15.5 16t4 31.5v887z" />
    <glyph glyph-name="asciicircum" unicode="^" horiz-adv-x="726" 
d="M708 575q14 -16 14 -28t-14 -26l-48 -48q-20 -18 -42 0l-18 18l-76 76l-82 82l-18 18q-12 12 -26 -2q-2 -4 -6 -6l-10 -10q-26 -26 -50 -52q-54 -52 -106 -104l-22 -20q-20 -18 -40 0l-56 56q-8 10 -8 19t10 21l18 18q32 30 64 62l188 188q8 8 14 16q4 4 6 8h20z" />
    <glyph glyph-name="underscore" unicode="_" horiz-adv-x="761" 
d="M724 -162q15 1 25 9.5t11 24.5q1 55 -1 110q0 13 -9.5 22t-22.5 10q-10 1 -20 1h-601q-10 0 -20 -1q-16 -1 -25 -10t-10 -24q-2 -54 0 -108q1 -16 10.5 -24.5t25.5 -9.5h637z" />
    <glyph glyph-name="grave" unicode="`" horiz-adv-x="349" 
d="M50 809q0 -12 4.5 -21t12.5 -16q32 -35 64 -69l28 -30q19 -21 39 -42q19 -21 39 -41q19 -21 45 -10q13 6 26 14q2 1 5 3q22 12 26.5 28.5t-8.5 38.5q-14 25 -28 49l-30 52q-10 17 -20 35q-21 36 -42 73q-11 17 -24.5 22t-30.5 -3q-41 -22 -81 -47q-4 -3 -8 -5
q-18 -11 -17 -31z" />
    <glyph glyph-name="a" unicode="a" horiz-adv-x="627" 
d="M360 305q13 -1 11 12q-1 2 -1 5l-2 10l-16 68q-1 3 -1 5l-12 50l-2 2l-2 2q-1 0 -2 1q0 -1 -1 -1l-2 -4l-12 -50l-4 -16q-8 -34 -15 -69q-2 -9 0 -12t11 -3h50zM615 51q7 -29 -3 -42t-40 -13q-39 -1 -79 0q-22 0 -33 8.5t-16 30.5q-5 17 -9 34q-7 28 -14 55
q-3 12 -6.5 15t-16.5 2q-63 1 -127 0q-9 1 -13 0t-6 -5.5t-4 -13.5q-6 -22 -11 -45q-6 -22 -11 -44q-5 -20 -16 -28.5t-31 -8.5q-42 -1 -83 0q-10 0 -19 2q-16 4 -22.5 14.5t-2.5 26.5q7 29 14 57q3 14 7 27q43 175 87 350l22 88l42 170q5 20 14.5 28t30.5 8h133
q19 0 29 -7.5t14 -25.5q21 -81 41 -162q12 -49 24 -99q17 -70 35 -140q14 -58 29 -116q20 -83 41 -166z" />
    <glyph glyph-name="b" unicode="b" horiz-adv-x="510" 
d="M336 189q2 42 0 83q-1 10 -6 14.5t-14 4.5q-28 1 -56 0h-25q-13 0 -13 -13v-95q0 -14 14 -15h16q31 0 62 1q21 0 22 20zM222 578v-91q0 -10 2.5 -13t11.5 -2q41 -1 81 0q10 0 14.5 4t4.5 13q2 42 0 85q0 10 -5.5 15t-15.5 5q-39 1 -77 0q-10 0 -13 -3t-3 -13zM482 372
q15 -15 21.5 -33t5.5 -39v-140q0 -22 -4.5 -43t-15.5 -41q-18 -36 -48.5 -54.5t-69.5 -21.5q-30 -2 -60 -2.5t-60 -1.5h-36q-36 -1 -72 0h-45q-25 0 -36.5 12t-11.5 36q1 115 0 230v89v2v5v6v5v2v334q0 7 1 14q2 31 34 36h254q35 0 69 -11q42 -15 66 -44.5t31 -72.5
q2 -14 3 -28t1 -28q1 -38 0 -76v-46q1 -21 -5.5 -38.5t-20.5 -31.5q-5 -5 -5.5 -9.5t4.5 -9.5z" />
    <glyph glyph-name="c" unicode="c" horiz-adv-x="509" 
d="M506 282q0 -17 1 -34v-52.5t-1 -53.5q-5 -63 -42 -100.5t-98 -41.5q-72 -5 -143 -4q-27 1 -53.5 6t-50.5 20q-26 16 -41.5 39t-21.5 52q-6 24 -5 48q-1 83 -1 166v281q0 44 20 82q18 32 45.5 49.5t63.5 23.5q27 4 55 4h11q24 0 48 0.5t48 -1.5q17 0 34 -3t33 -8
q46 -15 70 -48.5t27 -80.5q2 -28 2 -56v-57q-1 -15 -1 -31t-9 -25.5t-26 -10.5q-50 -2 -100 0q-18 1 -27 11.5t-9 30.5q-1 23 -1 46v38q-1 8 -4.5 12.5t-11.5 5.5q-38 1 -75 0q-7 -1 -11 -5.5t-5 -11.5v-373q0 -12 1.5 -18.5t8 -8.5t18.5 -2h52q13 0 18.5 2t7 8t1.5 18v69
q0 9 2 19q3 14 11.5 21.5t23.5 8.5q51 1 102 0q15 -1 24 -10.5t9 -24.5z" />
    <glyph glyph-name="d" unicode="d" horiz-adv-x="509" 
d="M329 556q1 6 0 13q-1 9 -5.5 13.5t-13.5 4.5h-62q-14 0 -14 -14v-379q0 -12 3 -15t15 -3q26 -1 52 0q15 0 20 5t5 19v356zM509 562q1 -191 0 -381q0 -35 -8 -70q-12 -49 -47.5 -78.5t-85.5 -33.5q-46 -3 -91 -3.5t-91 0.5h-91q-24 0 -34.5 11t-10.5 35v689q3 31 34 36h80
q88 1 176 -1q35 0 67 -11q44 -14 67.5 -45t30.5 -76q2 -18 3 -36t1 -36z" />
    <glyph glyph-name="e" unicode="e" horiz-adv-x="510" 
d="M509 132q1 -41 0 -82v-6q0 -26 -11.5 -37t-38.5 -11h-362q-22 0 -33.5 11t-13.5 33v670q0 14 3 27q3 15 11.5 22t23.5 8h385q27 -2 33 -29q3 -8 3 -16v-90q0 -5 -1 -10q-3 -18 -12.5 -26.5t-28.5 -8.5h-219q-14 1 -14 -14v-91q0 -13 13 -14h154q24 0 35 -10.5t11 -34.5
v-90q0 -23 -11 -34t-35 -12h-141q-13 1 -18.5 -0.5t-6.5 -7t-1 -17.5v-69q0 -11 3 -14t14 -3q7 -1 14 0h199q23 0 33.5 -10.5t11.5 -33.5z" />
    <glyph glyph-name="f" unicode="f" horiz-adv-x="510" 
d="M509 728q1 -50 0 -100q0 -35 -34 -40q-9 -1 -18 -1h-209q-6 0 -9.5 -3t-3.5 -9v-111q0 -12 13 -12q8 -1 16 -1h135q10 0 19 -1q13 -3 20.5 -11.5t7.5 -22.5q2 -54 0 -108q-1 -17 -11 -25.5t-26 -8.5h-154q-9 0 -13.5 -1.5t-6 -6t-1.5 -14.5v-207q1 -7 0 -14
q-2 -25 -27 -32q-9 -3 -18 -3h-100q-19 2 -28 11.5t-10 27.5q-1 7 -1 14v662q0 14 3 27q3 14 11.5 20.5t22.5 8.5h383q18 -1 28 -11t11 -28z" />
    <glyph glyph-name="g" unicode="g" 
d="M507 398v-201q0 -23 -1 -45q-2 -25 -8 -49q-14 -47 -47 -73t-80 -30q-38 -3 -76 -3.5t-76 -0.5q-19 1 -38 4t-37 10q-36 14 -58 40t-30 63q-5 23 -5 47q-1 82 -1 164v118q0 81 1 162q0 27 6 53q13 46 44 72t77 34q28 4 56 4q54 1 108 0q38 0 73 -14q37 -15 58 -42t28 -65
q5 -22 5 -44q1 -41 0 -83q0 -17 -10 -26.5t-27 -9.5q-49 -2 -98 0q-36 1 -37 38v23q1 11 0 23q0 14 -5 19t-18 5q-30 1 -60 0q-14 0 -19 -5t-5 -18v-377q1 -10 5 -14t13 -4q36 -1 71 0q9 0 13.5 4.5t4.5 13.5q1 20 0 40v19q0 12 -13 12h-4q-14 1 -26 3q-27 7 -27 33
q-1 54 0 108q1 36 40 36h158q24 0 34.5 -10.5t10.5 -33.5z" />
    <glyph glyph-name="h" unicode="h" 
d="M506 48q1 -7 0 -13q0 -17 -7.5 -25.5t-23.5 -12.5q-9 -1 -19 -1q-40 -1 -81 0q-12 0 -24 3q-24 7 -26 32v244q1 15 -15 15q-9 0 -19 1q-22 0 -43 -1q-10 0 -13 -3.5t-3 -12.5q-1 -6 0 -12v-218q0 -7 -1 -14q-1 -13 -7 -21t-18 -10q-63 -9 -126 0q-16 2 -22.5 11t-7.5 26
v679q0 8 1 16q1 16 10 25.5t25 10.5q55 1 111 -1q17 0 25.5 -10t8.5 -28q1 -74 1 -149v-82q-1 -14 0.5 -20.5t7.5 -7.5t20 -1h38q13 0 19 1.5t7 7.5t1 19v225q0 25 10.5 35.5t34.5 10.5h92q12 0 24 -5q9 -3 14.5 -10t5.5 -18v-686z" />
    <glyph glyph-name="i" unicode="i" horiz-adv-x="235" 
d="M234 44q1 -7 0 -14q-2 -12 -8 -20t-19 -11q-11 -3 -22 -3h-98q-16 2 -24 9.5t-11 23.5q-2 11 -2 22v667q0 6 1 12q2 19 12.5 28t29.5 9h96q24 0 34.5 -11t10.5 -35v-677z" />
    <glyph glyph-name="j" unicode="j" horiz-adv-x="510" 
d="M509 376q1 -88 0 -176q0 -23 -2 -45t-6 -44q-11 -50 -46.5 -79t-86.5 -32q-72 -4 -144 -4q-21 0 -42 3.5t-41 11.5q-37 17 -58.5 45t-27.5 67q-2 15 -3 30.5t-1 31.5v13q-1 36 0 73q0 21 10 31.5t32 10.5h93q22 0 32.5 -10t11.5 -32q1 -21 0 -42v-22q0 -7 1 -15
q1 -15 15 -16q32 -1 63 0q7 1 11 5t5 11q1 9 0 18v501q1 3 0 6q-2 27 11.5 39.5t38.5 10.5q43 -1 87 0q23 1 35 -10.5t12 -36.5q1 -32 0 -65v-279z" />
    <glyph glyph-name="k" unicode="k" horiz-adv-x="560" 
d="M550 48q8 -19 1 -32t-27 -18q-10 -2 -21 -2h-87q-40 -2 -58 35q-43 86 -87 172q-5 9 -9 17q-4 7 -9 12q-3 2 -5 5l-4 -6q-5 -6 -8 -13q-4 -12 -4 -26q-1 -49 0 -98v-43q0 -9 -1 -17q-1 -15 -8 -23.5t-22 -11.5q-10 -3 -20 -3q-40 -1 -79 0q-13 0 -25 4q-25 6 -27 32v687
q0 26 11.5 37t36.5 11h85q26 0 37.5 -11.5t11.5 -36.5v-169q0 -2 2 -4v-2q1 1 3 1q1 1 2 1.5t2 1.5q16 26 31 52q10 18 21 37q28 47 55 94q10 19 25 28t37 8q28 -1 57 0h30q9 0 18 -2q18 -5 24.5 -17t0.5 -29q-7 -17 -16 -32q-2 -4 -4 -7q-6 -10 -12 -21q-66 -117 -133 -234
q-6 -9 -5.5 -17t5.5 -17q64 -125 128 -249q14 -27 28 -55q2 -5 5 -9z" />
    <glyph glyph-name="l" unicode="l" horiz-adv-x="457" 
d="M411 176q25 0 35 -10.5t10 -35.5q1 -45 0 -91q0 -20 -9 -30.5t-29 -12.5h-314q-13 0 -27 3q-12 3 -18 10.5t-8 20.5v446q1 119 -1 238q0 32 13.5 43.5t40.5 9.5q27 -1 54 0h27q27 0 37 -10t10 -37v-509q0 -17 1 -25t6.5 -9.5t18.5 -0.5h12q37 -1 74 0h67z" />
    <glyph glyph-name="m" unicode="m" horiz-adv-x="685" 
d="M685 714v-654q0 -14 -2 -27q-4 -18 -13.5 -27t-27.5 -10q-48 -2 -96 1q-22 1 -32 12t-10 34v220l-2 6q-1 2 -2 3q-1 -1 -2 -3q-2 -2 -3 -5q-5 -20 -10 -41l-4 -18q-6 -23 -11 -45q-15 -63 -30 -125q-4 -19 -15.5 -28.5t-30.5 -10.5q-29 -2 -57 0q-10 1 -19.5 4.5
t-16.5 11.5t-10 23q-17 76 -36 151l-14 60v2l-2 8q-3 6 -6 11q-1 2 -2 5q-1 -3 -1 -6q-2 -5 -2 -11q-1 -80 -1 -160v-46q1 -29 -11 -41t-41 -12q-37 -1 -73 0q-13 0 -25 4q-25 6 -27 32v693q1 20 11.5 30.5t30.5 11.5q66 1 133 0q20 0 31 -9.5t16 -31.5l42 -168
q13 -50 25 -100q10 -39 20 -79v-1q2 -6 4 -11q0 -1 1.5 -1.5t2.5 -1.5q1 0 1.5 0.5l1 1t0.5 1.5q3 7 4 14l38 152q24 96 48 191q5 25 17 34t38 9h40q39 -1 77 0q16 1 27.5 -3.5t18 -16.5t7.5 -33z" />
    <glyph glyph-name="n" unicode="n" horiz-adv-x="538" 
d="M538 710v-654q0 -13 -2 -26q-6 -32 -37 -34q-40 -1 -81 0q-27 2 -39 27q-39 81 -79 161q-22 44 -43 87q-6 12 -11 24q-6 13 -12 25q-2 3 -5 5l-2 2q-1 -1 -2 -3q-2 -3 -2 -6q-1 -7 -1 -14v-57q0 -105 1 -210q0 -9 -2 -17.5t-10 -13.5q-6 -4 -13 -6.5t-14 -3.5
q-47 -1 -94 0q-16 1 -25.5 9.5t-12.5 24.5q-2 11 -2 21v667q0 6 1 12q2 19 12.5 28t29.5 9h75q26 0 39 -23q12 -23 23 -46l42 -84q39 -80 78 -159q3 -6 8 -11q2 -2 4 -5q0 3 1 6q2 7 3 13v273q1 16 9 25.5t24 10.5q51 1 102 0q14 -1 22.5 -8.5t12.5 -21.5q2 -13 2 -27z" />
    <glyph glyph-name="o" unicode="o" horiz-adv-x="510" 
d="M319 173q8 0 12 4.5t5 12.5q1 7 1 15v355q0 19 -6 25.5t-24 5.5q-25 1 -50 0q-17 0 -23.5 -6t-6.5 -23v-354q0 -9 1 -19q1 -7 5.5 -11.5t12.5 -4.5q37 -1 73 0zM509 319q1 -78 0 -156q-1 -34 -11 -65q-15 -45 -47 -69.5t-78 -28.5q-34 -3 -68.5 -3.5t-69.5 -0.5h-13
q-30 1 -60 9q-46 12 -75 46t-33 82q-3 45 -3 91q-1 179 0 358q0 34 7 68q10 47 42 76.5t85 36.5q98 11 195 0q33 -4 59.5 -21t43.5 -43.5t22 -59.5q4 -29 4 -58v-262z" />
    <glyph glyph-name="p" unicode="p" horiz-adv-x="506" 
d="M330 495v72q0 14 -5 19t-19 5q-31 0 -62 -1q-11 0 -14 -3t-3 -14q-1 -80 0 -160q0 -11 3 -14t14 -3q30 0 61 1q14 0 19.5 6t5.5 21v71zM506 605q1 -116 0 -233q-1 -44 -25 -82q-20 -31 -48.5 -46.5t-64.5 -18.5q-39 -3 -78 -4h-34q-4 0 -9 -1h-10q-10 0 -10 -10v-163
q0 -6 -1 -12q-3 -39 -41 -39q-44 -1 -88 0q-11 0 -22 3t-17 10t-7 18q-1 8 -1 17v689q1 12 7 19.5t16 11.5q13 3 27 3h47q96 1 192 -1q36 -1 69 -11q40 -13 62.5 -41t30.5 -67q5 -21 5 -42z" />
    <glyph glyph-name="q" unicode="q" 
d="M334 199v368q0 14 -5 19t-18 5q-31 1 -63 0q-11 0 -16 -5t-5 -17q-1 -6 0 -12v-323q-1 -20 0 -39q0 -12 5 -17t17 -6h59q17 0 22 5t4 22zM506 380q0 -30 1 -61q0 -81 -1 -162q0 -15 -3 -30.5t-7 -30.5q-4 -18 -14 -33t-25 -27q-11 -10 -5 -24q4 -7 7 -14q8 -15 14 -31
t8 -32q1 -10 -4 -16.5t-14 -9.5q-11 -4 -24 -5h-91q-17 0 -29 7.5t-19 22.5q-3 10 -8 19q-5 10 -9 21q-5 12 -12.5 17.5t-20.5 4.5q-43 -3 -85 8q-46 11 -73.5 40t-36.5 76q-5 25 -5 51v422q0 19 2.5 37t8.5 35q14 43 44 67t74 31q14 2 28.5 3t29.5 1q52 1 104 0q20 0 40 -4
t39 -12q29 -13 48.5 -34.5t28.5 -52.5q8 -29 9 -59q1 -82 0 -164v-61z" />
    <glyph glyph-name="r" unicode="r" horiz-adv-x="514" 
d="M332 422q1 24 1 47v22h-1q0 11 1 22q0 26 -1 52q0 15 -5.5 20.5t-19.5 5.5q-32 1 -64 0q-10 0 -13 -3t-3 -13q-1 -11 0 -23v-139q-1 -14 3 -17.5t17 -3.5h56q17 0 23.5 6t5.5 24zM489 298q-1 -1 -1 -2q-5 -9 -10.5 -17t-12.5 -15q-8 -7 -9.5 -15.5t1.5 -17.5
q9 -36 17 -71q3 -11 6 -23l22 -92q5 -21 -3 -34t-30 -14q-51 -3 -103 0q-31 2 -38 35q-15 61 -30 123l-10 38q-3 12 -5 16.5t-7 6t-16 0.5q-17 1 -24 -0.5t-8.5 -8.5t-0.5 -24q0 -20 -1 -41q0 -50 1 -100q0 -18 -6.5 -28t-17 -14t-22.5 -4h-3q-41 -1 -82 0q-24 0 -35 11
t-11 35v687q1 16 10.5 26t26.5 12h78q88 1 176 -1q34 0 67 -11q45 -15 69 -48t28 -79q5 -44 5 -88.5t-1 -88.5q0 -31 -1 -62q1 -24 -3 -47t-16 -44z" />
    <glyph glyph-name="s" unicode="s" horiz-adv-x="513" 
d="M510 229q1 -34 -1 -68q-1 -35 -12 -67q-15 -44 -47 -67t-76 -27q-38 -3 -75.5 -3.5t-74.5 -0.5q-34 1 -67 11q-44 13 -71 46t-31 78q-2 35 -3 71q0 10 -1 20q0 10 2 19q4 16 12.5 23.5t25.5 7.5q51 1 102 0q19 0 28.5 -10t9.5 -29q1 -9 1 -19v-18q0 -14 5 -19t18 -5
q27 -1 54 0q12 0 16.5 4.5t4.5 15.5q1 36 0 73q0 11 -2.5 14.5t-13.5 7.5q-40 12 -79 25l-50 16q-43 14 -85 28q-28 10 -38 25t-10 41q-3 88 0 175q1 36 12 70q13 42 43.5 65.5t73.5 29.5q19 3 39 4t40 1h6q28 0 55.5 -0.5t54.5 -3.5q51 -5 85 -36.5t44 -82.5q5 -24 5.5 -48
t-0.5 -47q0 -13 -1 -26q0 -13 -9 -22t-23 -10q-57 -1 -114 0q-15 1 -23.5 10.5t-9.5 23.5v44q0 13 -5 17.5t-18 4.5q-27 1 -54 0q-12 0 -17 -5t-5 -16q-1 -27 0 -55q0 -8 1 -12t4.5 -6t12.5 -5q54 -18 108 -35l18 -6q10 -3 19 -6q31 -10 63 -20q28 -8 41 -25.5t12 -47.5
q-1 -32 0 -64v-59z" />
    <glyph glyph-name="t" unicode="t" horiz-adv-x="510" 
d="M508 730q3 -52 0 -105q0 -19 -11 -28t-31 -10h-75q-13 0 -16.5 -3t-2.5 -16v-516q0 -22 -5 -34.5t-17 -17t-33 -4.5h-80q-11 0 -22 3q-25 7 -27 33v537q0 12 -3 15t-15 3h-70q-7 0 -13 1q-36 4 -37 40v98q1 40 42 41h375q19 -1 29.5 -10t11.5 -27z" />
    <glyph glyph-name="u" unicode="u" horiz-adv-x="510" 
d="M509 362q1 -100 0 -200q-1 -34 -12 -67q-15 -44 -47.5 -67.5t-77.5 -27.5q-35 -3 -70.5 -3.5t-70.5 -0.5h-8q-31 1 -62 9q-46 12 -74.5 46.5t-32.5 81.5q-3 48 -4 96v477q0 15 4 30q3 14 13 22t24 9q51 1 102 0q19 -1 29.5 -12t11.5 -30v-512q0 -18 2 -26t10 -10t26 -1
h10q15 -1 29 0q10 0 13.5 4.5t4.5 13.5v512q0 15 3 29q4 15 14 23t25 9q48 1 96 0q19 -1 30 -12.5t12 -30.5v-362z" />
    <glyph glyph-name="v" unicode="v" horiz-adv-x="579" 
d="M537 766q20 -2 28.5 -15.5t4.5 -33.5q-20 -83 -40 -165l-28 -118q-31 -129 -62 -257q-15 -62 -29 -123h-1l-4 -18q-5 -20 -15.5 -29.5t-30.5 -10.5q-50 -2 -100 0q-20 1 -31 10.5t-15 29.5q-25 103 -49 206q-14 57 -28 113q-11 50 -23 99q-10 39 -19 79q-17 71 -34 141
q-4 17 -8 35q0 1 -1 2q-1 4 -1 8q-6 46 40 48h89q20 0 31.5 -9.5t15.5 -28.5q18 -78 35 -156q5 -23 10 -47q9 -38 17 -76l12 -58q2 -9 5 -18l2 -4l1 -1q1 0 2 1q2 1 2 3q3 7 4 14l38 168q18 83 37 166q1 8 3 15q4 13 13 21t23 9q53 3 106 0z" />
    <glyph glyph-name="w" unicode="w" horiz-adv-x="803" 
d="M757 767q22 -2 32.5 -15t7.5 -35q-10 -63 -19 -126q-13 -93 -27 -186l-26 -176l-18 -122l-6 -48q-2 -10 -3 -20q-3 -19 -12 -28.5t-27 -13.5h-2q-3 -1 -6 -1h-55v0v0h-45q-25 0 -37 9.5t-17 33.5q-21 90 -41 179q-11 51 -22 101l-8 30q0 1 -1.5 2t-3.5 1l-0.5 -0.5l-1 -1
t-0.5 -1.5q-3 -9 -5 -18q-24 -108 -49 -215q-8 -39 -17 -77q-5 -22 -17 -32.5t-35 -10.5q-50 -1 -100 0q-24 0 -35.5 10t-15.5 33q-6 36 -10 72q-3 17 -5 33q-5 35 -10 69q-9 63 -17 127q-7 46 -13 92l-10 72q-4 31 -9 61l-14 102q-4 30 -6 60q-2 13 3.5 21.5t14.5 13
t19 5.5h96q41 -1 46 -41q5 -36 9 -72q2 -23 5 -45l8 -70q4 -29 7 -58q2 -13 3 -25q1 -16 3 -31q1 -4 3 -7q1 -2 2 -3q1 1 2 3q2 3 4 7q7 30 13 59l8 32l10 44q20 83 39 167q5 22 17 31t35 9h49q23 0 34.5 -9.5t16.5 -31.5q15 -63 30 -125l12 -52l6 -28q11 -48 23 -95
q1 -5 4 -10q1 -2 3 -4q0 2 1 4q2 5 3 10q5 45 11 90q3 30 7 61l12 98q2 11 3 21q0 4 1 8q1 13 3 25q3 18 13 27.5t28 10.5q50 1 99 0z" />
    <glyph glyph-name="x" unicode="x" horiz-adv-x="619" 
d="M609 43q4 -15 -2 -26.5t-20 -16.5q-12 -4 -25 -4h-87q-41 -1 -58 36q-33 69 -67 139l-8 16q-4 6 -8 11q-2 3 -4 5q-2 -2 -4 -5q-5 -5 -8 -11q-6 -14 -13 -27q-32 -64 -62 -129q-9 -19 -23.5 -27.5t-34.5 -7.5h-85q-11 0 -21 2q-36 9 -27 45q1 5 3 10l40 78q22 44 44 87
q13 27 27 54q26 53 53 106q5 9 3 16t-6 15l-114 228q-11 23 -23 45q-2 5 -4 9q-5 10 -10 21q-9 23 0.5 38t34.5 17h104q16 0 27.5 -7t18.5 -22q33 -70 66 -139q5 -8 10 -15q3 -4 5 -7q2 4 4 7q6 8 10 16q5 12 11 23q26 53 50 107q9 20 23.5 29t36.5 8q27 -1 55 0h32
q32 -1 42 -17t-3 -44q-2 -5 -5 -10q-1 -3 -3 -5l-34 -70q-52 -106 -105 -212q-6 -11 -5.5 -20.5t6.5 -19.5q62 -123 123 -245l32 -64q1 -2 2 -3z" />
    <glyph glyph-name="y" unicode="y" horiz-adv-x="627" 
d="M578 767q24 -2 33.5 -16.5t1.5 -37.5q-10 -24 -21 -49q-4 -8 -7 -16q-12 -26 -24 -53q-64 -147 -129 -293q-8 -17 -7 -36v-213q0 -8 -1 -16q-1 -16 -8.5 -26t-22.5 -12q-30 -4 -60.5 -4.5t-59.5 4.5q-16 3 -22.5 12t-7.5 25v227q1 20 -8 38l-178 404q-4 9 -6 19
q-3 13 2.5 23.5t17.5 15.5q13 4 27 4h34q24 -1 49 0q22 1 36.5 -8.5t22.5 -29.5q29 -68 58 -135q13 -28 25 -56q1 -2 1 -4q1 -3 3 -6q1 -1 2 -2.5t2 -2.5t1 0q2 0 4.5 2t3.5 4q8 16 15 34l2 6q10 21 19 42q27 61 53 122q14 34 51 34h98z" />
    <glyph glyph-name="z" unicode="z" horiz-adv-x="565" 
d="M507 767q18 1 31 -5.5t22 -21.5v-2v-4.5v-5v-4v-1.5q-3 -7 -7 -14q-8 -15 -15 -30q-34 -73 -68 -147q-14 -30 -28 -61q-19 -40 -37 -80q-45 -97 -89 -194q-7 -15 -8.5 -21t5 -7.5t22.5 -1.5h152q27 0 38 -12t9 -36v-73q0 -27 -11.5 -38.5t-38.5 -11.5h-381q-14 0 -28 4
q-16 5 -22 16.5t0 27.5q9 25 21 49l2 4q59 127 119 254q18 39 36 77q12 25 23 50q21 43 41 86q1 2 1 3q1 2 2 5q4 9 2.5 12t-11.5 3h-149q-12 0 -23 2q-29 7 -30 35q-1 53 0 105q1 16 10.5 26t26.5 12h383z" />
    <glyph glyph-name="braceleft" unicode="{" horiz-adv-x="344" 
d="M320 986h-37l-6 -2q-4 -2 -9 -3q-9 -3 -17 -6q-9 -2 -17.5 -5t-16.5 -7q-33 -18 -54 -42.5t-31.5 -55.5t-13.5 -67q-3 -33 0.5 -65.5t9.5 -64.5q7 -32 14 -65q6 -26 11 -53q3 -13 0 -18.5t-16 -8.5q-24 -5 -47 -8q-21 -2 -30 -11.5t-9 -29.5q-1 -39 0 -77q0 -20 9 -30
t29 -12q25 -3 49 -9q12 -3 15 -8t0 -17v-3q0 -1 -1 -1q-3 -17 -7 -34q-9 -42 -17 -84q-8 -39 -10.5 -78.5t4.5 -78.5q9 -50 34.5 -84t63 -52.5t84.5 -20.5q19 -1 29 9t10 29q1 39 0 79q0 18 -8.5 28t-26.5 13q-18 4 -24.5 11t-6.5 25q-1 22 0.5 44.5t5.5 44.5q16 73 29 147
q6 28 2 55.5t-20 52.5q-9 12 0 24q26 40 20 87q-5 44 -14 86q-3 15 -6 29q-8 34 -13 67.5t-4 68.5q0 14 2.5 22t9.5 12.5t22 7.5q16 4 24 13t8 26v81q0 19 -14 31l-6 6q-1 1 -3 2z" />
    <glyph glyph-name="bar" unicode="|" horiz-adv-x="231" 
d="M50 395q0 -255 1 -510q0 -3 -1 -5q0 -9 1 -18q5 -31 37 -32q53 -1 106 0q15 0 24.5 8.5t11.5 24.5q1 9 1 17v1040q-2 17 -11.5 26.5t-26.5 9.5q-52 1 -104 0q-17 0 -26.5 -10t-11.5 -26q-1 -8 -1 -16v-509z" />
    <glyph glyph-name="braceright" unicode="}" horiz-adv-x="346" 
d="M112 986h-37q-15 -10 -20.5 -25t-3.5 -33q1 -17 0 -35v-19q0 -24 8 -34t31 -14q14 -3 20 -9t8 -20q3 -18 1.5 -36t-4.5 -36q-9 -51 -20 -101q-4 -23 -9 -46t-6 -46t4 -45t19 -43q3 -5 2.5 -9.5t-3.5 -9.5v-1q-5 -10 -9.5 -19.5t-7.5 -19.5q-7 -24 -5.5 -47.5t6.5 -47.5
q6 -27 11 -54l18 -90q3 -19 4.5 -37.5t-2.5 -37.5q-2 -12 -7.5 -18.5t-18.5 -8.5q-2 -1 -3 -1q-3 0 -5 -1q-17 -4 -24.5 -13t-7.5 -27v-79q2 -38 40 -38q16 0 33 4q35 6 64.5 23.5t51.5 47.5q17 24 25.5 51.5t10.5 56.5q3 34 0 67.5t-10 67.5q-6 29 -12 59q-6 29 -12 59
q-3 12 -0.5 17t15.5 8q24 6 49 9q19 2 28.5 11.5t9.5 28.5q1 39 0 79q0 19 -9.5 29t-27.5 12q-24 3 -47 8q-15 3 -18 8t0 19q5 22 9 44q10 49 20 99q6 33 7 66.5t-5 67.5q-23 126 -148 154q-5 1 -9 4q-2 1 -4 1z" />
    <glyph glyph-name="asciitilde" unicode="~" horiz-adv-x="964" 
d="M275 558q-9 -1 -19 -2q-21 -1 -41 -5q-33 -6 -60.5 -21t-49.5 -41q-29 -34 -41 -74t-13 -84q-1 -18 9.5 -28t29.5 -10h28q25 1 49 -1q20 0 31 11.5t12 29.5q0 9 2 18t5 18q1 2 1 4q2 8 7.5 14t13.5 7q3 1 5 1q10 2 20.5 3.5t19.5 0.5q42 -4 82.5 -14t80.5 -22l48 -14
q65 -20 131 -38q43 -11 86 -16t87 1q56 9 92.5 39.5t54.5 75t17 95.5q0 13 -8 22.5t-21 10.5q-48 2 -96 0q-12 -1 -20.5 -8.5t-10.5 -20.5q-2 -16 -5 -31q-4 -13 -11.5 -19.5t-21.5 -7.5h-22.5t-22.5 2q-56 10 -112 25q-44 12 -89 26q-39 12 -78 23q-42 12 -84.5 20
t-85.5 10z" />
    <glyph glyph-name="uni00A0" unicode="&#xa0;" horiz-adv-x="254" 
 />
    <glyph glyph-name="exclamdown" unicode="&#xa1;" horiz-adv-x="238" 
d="M238 52v-8q0 -26 -10.5 -36.5t-35.5 -10.5h-106q-17 2 -26 10.5t-10 25.5q0 41 2 82q0 19 1 38v156h1v19q0 36 1 71q1 99 2 197q1 22 11 32.5t33 10.5q44 1 87 0q22 0 32 -10.5t10 -31.5q2 -117 4 -233v-103q0 -53 1 -105q0 -36 2 -71q0 -16 1 -33zM94 693q-30 1 -37 30
q-3 10 -3 21v77q0 11 4 22q7 25 33 26h104q15 0 23.5 -7t11.5 -22q3 -12 4 -24v-71q-1 -11 -3 -22q-8 -29 -37 -30q-50 -1 -100 0z" />
    <glyph glyph-name="sterling" unicode="&#xa3;" horiz-adv-x="562" 
d="M516 -3q44 0 44 43q1 47 0 94q0 17 -8.5 27t-25.5 13q-12 3 -24 3h-202q-14 0 -14 14v79q0 14 14 14h54q50 0 100 1q13 0 25 2q1 1 2 1q18 3 23 21q5 13 5 26q1 39 0 79q0 11 -3 22q-5 21 -25 25q-12 3 -25 3h-158q-11 1 -12 12v19q-1 75 0 150q0 3 -1 7q0 10 1 20
t5 14.5t14 5.5q28 1 55 0h3q8 0 12.5 -4.5t6.5 -12.5q1 -9 1 -18v-67q0 -21 9.5 -30t30.5 -9h93q24 0 34 10t10 34q1 54 0 109q0 24 -5 47q-12 54 -48.5 84t-86.5 33q-88 4 -175 0q-49 -2 -84.5 -29t-49.5 -75q-6 -22 -8 -44.5t-2 -45.5v-189q0 -9 -1 -12.5t-4 -5.5t-11 -3
q-19 -5 -27 -15t-8 -30q-1 -43 0 -87q0 -22 8 -32t29 -15q8 -2 11 -6t3 -11v-10q-1 -34 0 -69q1 -22 -20 -29q-32 -13 -31 -47t0 -67q-1 -25 12 -37.5t37 -11.5q73 1 147 0h270z" />
    <glyph glyph-name="degree" unicode="&#xb0;" horiz-adv-x="361" 
d="M156 720q0 20 14.5 35t34.5 16q21 -1 35.5 -15.5t14.5 -35.5q0 -13 -7.5 -25t-18.5 -19t-24 -6q-13 0 -24 7.5t-18 18.5t-7 24zM204 567q40 -3 75.5 16.5t58.5 55.5t23 81q-1 43 -21.5 78.5t-56 56.5t-78.5 22q-40 0 -75 -20.5t-57.5 -56t-22.5 -81.5q1 -43 22.5 -78.5
t56.5 -55.5t75 -18z" />
    <glyph glyph-name="questiondown" unicode="&#xbf;" horiz-adv-x="509" 
d="M506 277v-25q1 -50 0 -100q-2 -33 -13 -63q-15 -38 -44 -59.5t-68 -28.5q-26 -4 -52 -4q-59 -1 -119 0q-39 1 -74 16q-30 14 -49.5 36.5t-27.5 54.5q-4 15 -6 31t-3 32q-1 33 0 66v134q-1 30 21 50q27 26 53 52l64 60q18 17 16 41q-1 14 0 29q1 18 10.5 28t27.5 11
q52 3 104 1q18 -1 28 -12t10 -29q1 -46 1 -92q-1 -12 -6 -22.5t-14 -19.5q-26 -27 -53 -53l-66 -66q-15 -14 -15 -35q1 -34 1 -68q-1 -16 -1 -32v-2q0 -6 1 -13q1 -9 5.5 -13.5t15.5 -4.5q25 -1 50 0q11 0 16 4.5t6 16.5v81q1 16 10 25.5t24 9.5q56 2 113 0q17 0 25.5 -9.5
t8.5 -27.5zM245 693q-40 0 -41 41v94q1 21 11 31t32 10h98q18 -1 28.5 -10t10.5 -27q2 -51 0 -102q-1 -18 -11.5 -27.5t-29.5 -9.5q-49 -1 -98 0z" />
    <glyph glyph-name="Agrave" unicode="&#xc0;" horiz-adv-x="621" 
d="M355 326q13 0 15.5 3.5t0.5 16.5q-13 70 -26 141q-4 21 -9 42q0 2 -2 4q-1 0 -1 1l-2 -2q-2 -1 -2 -3q-11 -54 -21 -108q-7 -39 -13 -78q-2 -11 0.5 -14t13.5 -3q8 -1 16 -1q4 1 7 1v-1h20q1 0 3 1zM614 50q2 -12 2 -24q-1 -12 -8 -19.5t-18 -7.5q-63 -1 -125 0
q-13 0 -20 8t-10 19q-6 31 -12 61q-2 11 -4 21l-2 10q-3 16 -6 33q-1 7 -5.5 10.5t-11.5 3.5h-121q-10 0 -13.5 -4t-5.5 -16q-4 -23 -9 -46l-12 -64q-3 -21 -13 -29t-31 -8h-102q-45 1 -36 46q20 89 39 179q37 169 73 339q18 82 36 165q10 49 21 99q1 8 4 16q8 28 38 28h137
q22 0 32 -8t14 -30q28 -130 56 -261q2 -6 3 -13l28 -128zM321 943q-10 9 -19 19q-49 52 -97 105q-14 15 -11.5 29t19.5 25q23 14 46 27l2 2q18 9 31 6t24 -21q12 -20 23 -40l8 -14q4 -8 9 -16q18 -31 36 -63q4 -7 7 -15q1 -4 3 -8q-1 -9 -5 -16.5t-11 -11.5q-14 -9 -28 -16
q-21 -10 -37 8z" />
    <glyph glyph-name="Aacute" unicode="&#xc1;" horiz-adv-x="618" 
d="M354 325q13 0 16 3.5t1 15.5q-17 90 -33 180q-1 6 -3 12q-1 2 -3 3q0 1 -1 2q0 -1 -1 -2q-2 -2 -3 -4q-2 -6 -2 -12h-1q-6 -35 -12 -69l-10 -54q-2 -10 -3 -19q-4 -19 -7 -38q-2 -10 1 -14t14 -4h47zM614 36q2 -17 -6.5 -27t-25.5 -10q-19 -1 -38 -1h-68q-20 0 -29.5 8
t-13.5 28q-8 39 -16 79q-2 10 -4 21q-2 15 -5 21.5t-9.5 8t-21.5 1.5h-102q-10 0 -14 -1t-6 -5.5t-3 -13.5q-6 -29 -12 -59q-4 -24 -8 -47q-2 -9 -5 -18q-4 -10 -11.5 -16t-18.5 -6h-1q-58 -1 -115 0q-16 0 -24 9t-7 25l6 34t7 34q1 4 2 7q52 245 105 489q19 85 37 170
q3 12 5 24q5 23 10 45q4 17 13.5 25.5t27.5 8.5q24 1 49 0h22v0v0h56q18 0 28.5 -3.5t16 -13t9.5 -26.5q17 -79 34 -159q4 -16 7 -32q28 -132 57 -263q35 -164 70 -327q1 -1 1 -2q1 -4 1 -8zM311 949q-15 10 -18 22t7 28q38 68 78 135q19 34 54 14q23 -13 47 -27
q8 -5 13 -11.5t6 -15.5q0 -10 -4 -17t-10 -13q-35 -37 -69 -75q-19 -19 -37 -39q-13 -16 -24 -17.5t-28 8.5q-8 4 -15 8z" />
    <glyph glyph-name="Acircumflex" unicode="&#xc2;" horiz-adv-x="627" 
d="M363 326q11 1 9 13q-1 8 -3 17q-1 8 -2 15q-15 80 -29 159q-1 3 -2 5q-1 1 -1 2q-1 0 -2 -1q-2 -2 -3 -5q-2 -5 -3 -12q-8 -42 -16 -85q-1 -6 -2 -11q-7 -39 -14 -79q-2 -10 0.5 -14t13.5 -4q8 -1 17 0h37zM616 43q5 -20 -5 -32.5t-30 -12.5q-34 1 -68 0h-38
q-19 0 -28.5 8t-12.5 27l-12 60q-2 15 -5 30q-1 3 -2 7q-1 9 -3 17q-2 11 -5.5 14.5t-13.5 3.5h-121q-15 0 -17 -15q-6 -37 -13 -74q-2 -7 -3 -13q-1 -5 -2 -9q-2 -14 -5 -28q-5 -15 -13 -21.5t-24 -6.5h-110q-41 1 -34 42q6 30 13 59q2 10 4 21q12 57 25 114
q52 241 104 483q12 57 25 113q2 12 7 22t13.5 14t18.5 4h138q21 1 31 -7t15 -30q21 -94 41 -189q1 -6 3 -12q32 -147 63 -295q27 -123 54 -247l2 -10q4 -19 8 -37zM203 951l-5 5q-7 6 -13 13q-5 8 -9 18l-4 8l4 10q4 9 10 16q60 61 121 121q22 22 48 4q8 -5 15 -12l104 -104
q6 -6 11 -13q16 -23 -1 -46q-10 -13 -23 -24q-13 -12 -27.5 -12t-28.5 12l-35 35q-7 8 -15 15q-2 2 -3 4q-4 4 -9 8q-6 6 -9.5 6t-10.5 -7q-16 -15 -31 -31q-13 -13 -27 -26q-16 -16 -31 -16t-31 16z" />
    <glyph glyph-name="Atilde" unicode="&#xc3;" horiz-adv-x="624" 
d="M352 325q15 0 18.5 4t0.5 18q-14 76 -28 151q-3 17 -6 33q-1 1 -2 1.5t-2 1.5q-1 0 -1.5 -0.5l-1 -1t-0.5 -1.5l-4 -14q-8 -46 -17 -91q-1 -7 -2 -13q-6 -35 -13 -71q-1 -9 1.5 -12.5t11.5 -3.5q8 -1 17 0h8v0v-0.5v-0.5h20zM615 44q5 -23 -4 -34t-32 -12h-102
q-21 0 -30 7.5t-13 27.5q-6 29 -11 57q-4 18 -7 35q-1 7 -2 12q-3 14 -5 20t-8.5 7t-20.5 1h-102q-13 0 -17 -3.5t-6 -15.5q-6 -30 -11 -59l-10 -50q-2 -10 -5 -20q-4 -8 -11 -13t-17 -6h-33q-44 0 -88 1q-16 0 -24 10t-6 28q3 16 7 31l2 12q17 76 33 152l60 276
q21 96 41 191l28 128q1 10 5 18q9 25 34 25h140q21 0 31 -7.5t14 -28.5l24 -110q5 -22 9 -44q14 -62 27 -124q52 -238 103 -476q4 -18 7 -36zM157 920q-14 1 -23.5 10t-10.5 23q-1 32 10 59t39 45q15 10 31.5 14t33.5 3q26 0 51.5 -6t50.5 -13q36 -11 72 -21q12 -3 16.5 -1
t10.5 14q6 9 13.5 14t18.5 6h38q17 -1 26.5 -11.5t9.5 -28.5q-2 -41 -20.5 -66.5t-47 -35t-60.5 -4.5q-20 4 -40.5 9t-40.5 10q-19 6 -38 11q-11 2 -22 5l-24 6q-7 2 -11.5 -0.5t-6.5 -10.5q-5 -18 -15 -25t-30 -7h-6q-12 0 -25 1z" />
    <glyph glyph-name="Adieresis" unicode="&#xc4;" horiz-adv-x="619" 
d="M338 326q9 -1 19 0q9 0 12 3.5t2 13.5q-2 15 -5 30q-2 6 -3 13q-2 14 -5 28q-10 55 -20 111q-1 3 -4 6l-2 4l-2 -4q-2 -3 -3 -7q-15 -79 -29 -159q-2 -8 -3 -15q-1 -6 -2 -11q-2 -14 12 -13h33zM612 54q3 -10 3 -21q0 -18 -7.5 -26t-25.5 -9h-100q-18 0 -27.5 3t-14.5 12
t-8 27q-10 47 -19 95q-2 15 -4.5 21t-9 7.5t-20.5 1.5h-95q-13 0 -19 -1t-8.5 -6.5t-4.5 -17.5q-7 -38 -13 -75q-2 -8 -3 -15q-1 -2 -1 -4v-4q-4 -19 -9 -28.5t-15.5 -12.5t-28.5 -3h-96q-21 0 -30 10t-5 31q6 37 15 74q2 8 4 17q49 231 99 462q12 54 23 108q4 16 7 33
q12 51 23 103q4 18 13.5 26t28.5 8h135q21 0 31 -7.5t14 -28.5q33 -152 66 -305q51 -237 102 -475zM247 929q-23 0 -38.5 10t-23 25.5t-5.5 30.5q-2 17 5 33t22.5 26t38.5 11q31 -1 49 -19.5t18 -48.5t-18 -48.5t-48 -19.5zM419 928q-17 0 -33 9.5t-25.5 25.5t-9.5 33
q1 18 9 33.5t23.5 25.5t37.5 10q21 -1 36 -10.5t22.5 -25t6.5 -33.5q-1 -29 -19.5 -48t-47.5 -20z" />
    <glyph glyph-name="Aring" unicode="&#xc5;" horiz-adv-x="623" 
d="M356 326q12 0 15 3t0 15q-2 14 -5 28q-1 8 -3 15q-3 17 -6 33q-9 53 -19 106q-1 3 -3 6q-1 1 -1 2l-3 -3q-2 -3 -3 -6q-3 -12 -5 -24q-1 -6 -2 -13q-5 -24 -9 -48q-9 -46 -17 -93q-3 -14 0 -18t18 -4h26q9 0 17 1zM613 56q0 -3 1 -6q2 -8 3 -15.5t-2 -15.5
q-4 -9 -10 -14.5t-16 -5.5q-62 -1 -123 0q-26 0 -32 30t-11 60l-6 28l-2 14q-3 10 -5 21q-2 13 -15 13h-123q-9 0 -12.5 -3.5t-5.5 -15.5q-7 -36 -13 -71q-3 -14 -5 -27q-1 -2 -1 -4v-4q-5 -27 -16 -35t-35 -7q-30 1 -60 0h-35q-24 0 -32.5 9.5t-5.5 32.5q4 27 10 52l4 16
q30 141 61 282t61 282q11 50 21 99l14 64q4 19 14 27t29 8h138q18 0 27.5 -8t13.5 -26q24 -109 47 -217q18 -83 36 -165l24 -112zM334 1051q-13 0 -23.5 -10.5t-11.5 -23.5q0 -14 10 -24t25 -10q14 0 23.5 9.5t9.5 22.5q0 15 -9.5 25t-23.5 11zM334 912q-34 0 -57 15.5
t-35.5 39t-12.5 47.5q0 31 14.5 55.5t38.5 38.5t50 13q26 1 50.5 -11t40 -36t15.5 -58q-1 -31 -14.5 -54.5t-36.5 -36.5t-53 -13z" />
    <glyph glyph-name="AE" unicode="&#xc6;" horiz-adv-x="875" 
d="M357 326q11 0 13.5 3.5t0.5 14.5q-11 66 -23 132q-5 27 -11 53q0 2 -2 4l-1 1q0 -1 -1 -2q-2 -1 -3 -3q-3 -7 -4 -14l-20 -106q-6 -32 -11 -63q-2 -13 1 -16.5t16 -3.5q7 -1 14 -1q3 1 6 1q4 0 8 -1q9 0 17 1zM820 175q20 1 31 -3.5t15.5 -16t4.5 -31.5q1 -40 0 -79
q0 -13 -4 -25q-3 -10 -10.5 -15.5t-18.5 -6.5h-363q-19 0 -28.5 8.5t-13.5 27.5q-6 36 -13 72q-1 6 -2 11l-6 32q-2 16 -18 16h-121q-10 0 -13 -3t-5 -13l-20 -108v-2q-1 -2 -1 -5q-1 -5 -2 -9q-4 -14 -12 -20t-22 -6q-59 -1 -118 0q-16 0 -24 10.5t-5 27.5q4 23 9 46
q2 8 3 15l104 480q13 62 27 125t27 127q2 6 3.5 11.5t3.5 10.5q7 10 17 14.5t22 3.5h569q13 -1 22 -7t10 -19q3 -62 0 -125q-1 -13 -10 -20t-23 -8q-6 -1 -13 -1h-332q-14 0 -11 -13q7 -28 12 -56q1 -2 1 -3q8 -39 17 -77q2 -11 5 -14t14 -2q29 -1 59 0h70q54 0 109 -1
q32 0 41 -25q2 -8 2 -16v-35q-1 -30 0 -61q0 -20 -11 -31.5t-31 -11.5q-65 1 -130 1h-70q-10 -1 -12 -3.5t0 -12.5q9 -45 18 -89q2 -10 4 -19q2 -6 3 -13q2 -9 4 -17q3 -16 19 -15h83q67 0 134 -1z" />
    <glyph glyph-name="Ccedilla" unicode="&#xc7;" horiz-adv-x="511" 
d="M509 279q0 -15 1 -30v-49.5t-1 -49.5q-2 -26 -9 -50t-21.5 -43.5t-38.5 -34.5q-15 -9 -31.5 -14.5t-33.5 -8.5h-3q-7 -1 -12.5 -3.5t-8.5 -11.5q-3 -10 1 -17t12 -12q27 -23 40.5 -52.5t13.5 -64.5q1 -48 -21 -78.5t-62 -47.5q-12 -5 -24 -8.5t-25 -6.5q-12 -3 -24 -7
q-5 -1 -9 -3l-4 -2h-17q-20 8 -27.5 23.5t-5.5 36.5q1 8 1 17v14q2 31 33 37l8 2q17 3 34 8q13 5 15 12.5t-7 17.5q-5 5 -11 9t-13 7l-14 4l-10 2q-17 6 -24.5 19t-4.5 30q3 14 6 27q4 14 7 27q2 12 -0.5 15.5t-14.5 4.5q-3 1 -7 1q-14 1 -28 4q-47 11 -77 42.5t-37 79.5
q-4 27 -4 54q-1 32 -1 64q0 227 1 454q0 35 10 69q13 43 42 67.5t72 32.5q23 4 46 4q65 1 131 0q23 0 45 -6t42 -18q28 -17 44.5 -43t21.5 -58q4 -26 4 -52q1 -51 0 -102q0 -20 -9 -29.5t-30 -9.5h-102q-17 0 -25 6.5t-11 23.5q-2 12 -2 24q-1 15 -1 30q1 17 0 35
q0 10 -3.5 15t-13.5 6q-31 2 -61 0q-7 -1 -11.5 -5.5t-4.5 -12.5q-1 -9 -1 -17v-445q0 -17 2.5 -24.5t10 -10t23.5 -1.5q4 0 8 -1q14 0 29 1q13 0 17.5 4.5t4.5 17.5q1 15 0 30q0 17 1 35q0 14 4 28q2 12 9.5 18.5t19.5 6.5q56 2 112 0q16 0 25 -10t9 -27z" />
    <glyph glyph-name="Egrave" unicode="&#xc8;" horiz-adv-x="506" 
d="M455 175q21 1 31.5 -3.5t15 -15.5t4.5 -31v-87q-1 -21 -10 -30.5t-30 -9.5h-376q-22 0 -31 9.5t-9 31.5v795q1 17 10 26.5t25 9.5q193 1 385 0q17 0 26 -9.5t9 -26.5q1 -53 0 -106q0 -17 -9.5 -26.5t-26.5 -10.5q-6 -1 -12 -1h-210q-13 0 -16 -3.5t-4 -15.5v-123
q0 -11 1.5 -16t6.5 -6.5t16 -0.5h146q7 0 15 -1q14 -2 22.5 -10.5t8.5 -22.5q2 -56 0 -113q0 -16 -10.5 -24.5t-28.5 -8.5h-146q-15 0 -21.5 -1.5t-8 -8t-1.5 -21.5v-115q0 -11 1.5 -16t6.5 -6.5t16 -0.5q54 -1 108 0q48 0 96 -1zM299 943l-112 120q-15 17 -12.5 33t22.5 28
l10 6q18 11 36 20q18 10 30.5 6.5t21.5 -21.5q39 -65 76 -131q5 -8 8 -16q1 -4 3 -7q-1 -4 -2 -6q-1 -6 -2 -10q-4 -8 -15 -16.5t-23 -13t-21 -2.5q-11 2 -20 10z" />
    <glyph glyph-name="Eacute" unicode="&#xc9;" horiz-adv-x="506" 
d="M505 138q2 -52 0 -104q0 -16 -10 -26t-28 -10h-381q-19 0 -27.5 9t-8.5 29v799q1 17 9.5 25.5t25.5 9.5h381q38 0 39 -38q1 -12 1 -23v-73q-1 -24 -12 -35t-35 -11h-208q-11 0 -16 -1t-6.5 -6t-1.5 -16v-121q0 -14 4 -18t18 -3q49 -1 98 0h48q7 0 14 -1q16 -2 24.5 -11
t9.5 -25q1 -54 0 -108q-1 -17 -11 -26t-27 -9h-158q-13 0 -16.5 -3.5t-2.5 -16.5q-1 -65 -1 -129q0 -13 4 -17t17 -3q70 -1 139 0h62q9 0 18 -1q18 -1 28 -10t10 -27zM275 932q-16 3 -29.5 10t-23.5 20q-6 8 -5 17t6 18q11 20 22 39q5 8 9 15l14 24q17 30 34 59
q11 19 23.5 22.5t31.5 -7.5q25 -13 49 -28q15 -10 17.5 -23.5t-8.5 -27.5q-13 -16 -27 -31q-5 -5 -9 -10q-17 -18 -35 -37l-44 -48q-5 -6 -11 -9.5t-14 -2.5z" />
    <glyph glyph-name="Ecircumflex" unicode="&#xca;" horiz-adv-x="506" 
d="M474 175q15 -1 23 -9t8 -23q2 -56 0 -112q0 -15 -8.5 -23.5t-24.5 -9.5h-389q-28 2 -32 30q-1 7 -1 15v781q0 7 1 14q1 13 9.5 22t22.5 10h391q14 -2 22.5 -10t8.5 -23q2 -55 1 -110q-1 -17 -10 -26t-26 -10q-6 -1 -12 -1h-198q-6 1 -12 0q-12 0 -15 -2.5t-3 -13.5v-132
q0 -11 3 -14.5t16 -2.5q48 -1 97 0h51q7 0 14 -1q17 -3 25 -13t8 -23q-1 -32 -1 -63v-42q0 -38 -38 -38h-156q-13 0 -16 -3.5t-3 -16.5v-127q0 -10 1.5 -15t6 -6.5t15.5 -0.5q61 -1 121 0h75q13 0 25 -1zM169 937q-17 8 -29.5 20t-18.5 29q-4 11 0 21t12 18l54 54
q12 11 23 22q6 6 11 12q14 13 27 26q16 15 30.5 15t29.5 -15q58 -57 115 -115q15 -15 15 -29t-16 -30q-2 -3 -4 -5q-8 -9 -17 -15q-7 -5 -16 -9q-3 -1 -7 -3q-9 1 -15 4.5t-12 9.5l-58 58q-7 7 -10.5 9t-7 0t-9.5 -8l-31 -31l-25 -25q-7 -7 -15 -11t-18 -3h-2q-4 0 -6 1z
" />
    <glyph glyph-name="Edieresis" unicode="&#xcb;" horiz-adv-x="508" 
d="M506 126q-1 -28 -1 -56q1 -16 0 -31q1 -23 -8 -32t-31 -9h-373q-23 0 -33 10t-10 33v785q0 24 10.5 34t33.5 10h371q22 0 31.5 -9t8.5 -31q1 -49 1 -97q0 -22 -10 -32t-32 -10q-47 -1 -95 -1h-65q-28 1 -57 0q-11 0 -14 -2.5t-3 -13.5v-132q0 -11 3 -14.5t15 -2.5
q48 -1 96 0h43q5 -1 11 0q24 1 36 -11t12 -37q1 -43 0 -86q0 -8 -2 -16q-4 -16 -12.5 -23t-25.5 -7h-154q-11 0 -15.5 -1t-5.5 -5.5t-1 -14.5v-127q0 -14 3.5 -18t17.5 -3h34q85 -1 171 0q27 1 39 -9.5t11 -40.5zM193 928q-18 0 -33.5 9.5t-25 24.5t-10.5 33q0 29 18.5 48.5
t49.5 21.5q18 1 33 -8.5t24.5 -25t9.5 -34.5q0 -18 -9 -33.5t-24 -25t-33 -10.5zM366 929q-23 1 -38 11t-22.5 25.5t-6.5 32.5q1 19 9.5 34.5t23.5 24.5t34 8q31 -2 49 -21t19 -49q0 -18 -10 -33t-25.5 -24.5t-32.5 -8.5z" />
    <glyph glyph-name="Igrave" unicode="&#xcc;" horiz-adv-x="293" 
d="M289 830v-778q0 -15 -3 -29q-6 -23 -30 -24q-61 -1 -121 0q-12 0 -20 8t-10 21q-1 8 0 16v783q-1 20 10 32t33 12q31 -2 61 -1h37q20 0 30.5 -9.5t12.5 -30.5zM186 935q-6 3 -10 7q-56 59 -111 119q-7 7 -12 17q-5 12 -2.5 22.5t13.5 17.5q30 19 61 35q27 14 44 -15
q22 -37 44 -75q7 -13 14 -25q2 -3 3 -5q10 -17 20 -35q3 -7 5 -13q0 -2 1 -3q-1 -15 -13 -28t-28.5 -19t-28.5 0z" />
    <glyph glyph-name="Iacute" unicode="&#xcd;" horiz-adv-x="321" 
d="M295 1121q18 -11 20 -25.5t-12 -29.5q-25 -27 -49 -53l-64 -70q-5 -5 -11 -8t-17 -3q-12 2 -24.5 8.5t-22.5 18.5q-8 9 -7 20t7 21q20 34 40 69q12 20 23 41q3 4 5 9q5 9 11 18q20 32 53 13q2 -2 4 -3q23 -12 44 -26zM232 47q0 -9 -1 -18q-1 -14 -9 -22t-22 -8
q-59 -1 -118 0q-15 0 -23 8.5t-9 23.5v801q1 19 9.5 28.5t27.5 9.5q53 1 106 0q36 -1 38 -37q1 -7 1 -14v-772z" />
    <glyph glyph-name="Icircumflex" unicode="&#xce;" horiz-adv-x="375" 
d="M300 45q1 -9 0 -18q-2 -13 -10 -20.5t-21 -7.5q-59 -1 -118 0q-14 0 -22 8t-9 22q-1 8 -1 17v786q1 38 37 38q54 1 108 0q17 0 26 -9.5t10 -25.5q1 -6 0 -12v-778zM356 1022q7 -7 11 -17q3 -4 5 -8q-2 -5 -3 -9q-3 -8 -7 -14q-14 -16 -30 -31q-10 -8 -24 -7.5t-24 9.5
q-29 31 -61 60q-9 9 -13.5 8.5t-13.5 -9.5l-9 -9q-21 -20 -41 -41q-18 -19 -36.5 -18.5t-33.5 18.5l-8 8l-9 9q-18 23 -1 46q2 3 4 5q17 16 33 32q43 44 87 87q28 27 56 -1q60 -58 118 -118z" />
    <glyph glyph-name="Idieresis" unicode="&#xcf;" horiz-adv-x="360" 
d="M292 1066q19 -1 34 -10.5t24 -25.5t9 -35q-1 -18 -10 -33.5t-24 -24.5t-33 -8q-23 1 -38.5 11.5t-23 26t-6.5 31.5q1 18 10.5 33.5t24.5 24.5t33 10zM296 47q1 -8 0 -16q-3 -17 -13 -25t-24 -8q-55 2 -110 0q-15 0 -24.5 9.5t-11.5 23.5q-1 8 -1 16v5q0 383 1 766
q0 14 3 28q6 23 30 24q59 1 117 0q13 -1 22 -9.5t11 -22.5q1 -8 0 -16v-775zM185 997q0 -19 -9 -34.5t-23.5 -24.5t-33.5 -9q-33 2 -51 21t-18 47q0 19 9.5 34t24.5 24.5t34 9.5q21 0 36.5 -10.5t23.5 -26t7 -31.5z" />
    <glyph glyph-name="Ntilde" unicode="&#xd1;" horiz-adv-x="535" 
d="M535 48q0 -6 -1 -13q-2 -36 -38 -37h-100q-17 0 -26.5 6.5t-15.5 23.5q-30 84 -60 167q0 3 -1 6q-24 65 -47 131q-1 1 -1 3l-4 8q-2 3 -4 5q-2 1 -3 2q0 -1 -1 -2q-1 -3 -1 -5q-1 -8 -1 -15q1 -2 1 -4v-273q0 -13 -2 -27q-5 -25 -31 -25q-58 -1 -116 0q-16 0 -24 8.5
t-9 24.5v805q1 15 9 23.5t22 9.5q58 1 115 0q13 -1 20.5 -9t11.5 -20l10 -30l22 -58q39 -111 79 -222q0 -1 1 -3q1 -4 3 -8q1 -2 2 -3l2 -2q0 1 1 2q2 2 2 5q1 7 1 15v282q0 14 3 27q3 11 11 17.5t19 6.5q59 1 117 0q12 0 20 -7t11 -19q3 -13 3 -26v-770zM118 920
q-17 1 -27.5 11t-10.5 27q1 29 12 55t34.5 42.5t61.5 18.5q20 1 39 -2t39 -9q31 -8 63 -17l32 -10q7 -1 15 -3q6 -1 10.5 1.5t7.5 8.5q6 13 17 19t25 5h29q18 -2 27.5 -12t9.5 -27q0 -30 -12.5 -54t-38.5 -39t-68 -16q-6 1 -13 3q-21 3 -48 10q-34 8 -68 18l-28 8l-10 2
q-10 2 -14.5 2t-7 -4t-6.5 -14q-9 -23 -33 -24q-18 -1 -37 0z" />
    <glyph glyph-name="Ograve" unicode="&#xd2;" horiz-adv-x="509" 
d="M302 944l-32 34q-39 42 -77 83q-7 6 -11 13.5t-3 17.5q-2 17 13 26q2 2 5 4q26 16 52 30q16 8 27.5 4t21.5 -20q18 -30 35 -60q7 -13 15 -26q4 -7 9 -15q9 -17 19 -34q11 -18 7.5 -31t-22.5 -24l-2 -2q-7 -4 -14 -7q-24 -13 -43 7zM251 172q32 -1 63 0q9 1 13.5 5.5
t5.5 14.5q1 6 0 12v370q1 48 0 96q0 14 -5 19t-18 5q-15 1 -30 1h-12q-18 0 -26 -2t-9.5 -10t-1.5 -26v-464q1 -10 5.5 -15t14.5 -6zM509 689v-529q0 -28 -7.5 -53.5t-23.5 -48.5q-20 -29 -49 -43t-63 -16q-86 -3 -173 0q-38 2 -68 19.5t-48.5 47.5t-22.5 68q-3 43 -4 85
v467q0 21 2.5 42t9.5 42q13 41 41.5 64.5t70.5 31.5q13 2 26 3t26 1q62 1 124 0q41 0 79 -18q33 -17 51 -43.5t25 -61.5q2 -15 3 -29.5t1 -28.5z" />
    <glyph glyph-name="Oacute" unicode="&#xd3;" horiz-adv-x="510" 
d="M333 192v470q0 8 -1 17q-1 7 -5 11t-11 4q-35 1 -69 0q-7 0 -11 -4.5t-5 -11.5q-1 -8 -1 -16v-458q0 -6 1 -13q1 -8 5 -13t13 -6q33 -1 66 1q9 0 13 5t5 14zM509 631q1 -223 0 -447q0 -39 -9 -76q-8 -34 -27 -57.5t-46 -36.5t-59 -14q-44 -3 -88 -3.5t-88 3.5
q-58 4 -93 36t-45 91q-3 25 -3 50q-1 99 0 198v60q0 36 -1 72q0 98 1 196q0 33 9 64q12 42 41 66t71 33q25 4 50 4q64 1 129 0q24 0 46.5 -6t42.5 -18q31 -20 46.5 -48.5t18.5 -64.5q5 -51 4 -102zM285 932q-13 3 -25.5 9.5t-22.5 18.5q-6 9 -5.5 18.5t5.5 19.5q21 36 41 72
q20 33 39 66q10 17 22 20.5t29 -5.5q26 -14 50 -29q18 -12 20 -26t-12 -30q-24 -26 -49 -53q-10 -11 -21 -23q-6 -7 -13 -14q-15 -16 -29 -32q-5 -6 -12 -9t-17 -3z" />
    <glyph glyph-name="Ocircumflex" unicode="&#xd4;" 
d="M231 197q0 -15 5 -20t19 -5q26 -1 52 0q14 0 19.5 6t6.5 19v462q0 11 -2 21q-1 6 -5 10t-11 4q-34 1 -69 0q-7 0 -11 -4.5t-4 -11.5v-481zM507 707q-1 -102 -1 -204v-345q1 -28 -6.5 -53.5t-24.5 -48.5q-20 -28 -48.5 -41.5t-62.5 -15.5q-86 -3 -172 0q-36 2 -64.5 17.5
t-47.5 42t-25 61.5q-5 25 -5 50v530q0 20 3 39.5t10 38.5q12 32 34.5 53t54.5 30q31 8 64 9q39 1 79 0h48q34 0 67 -11q66 -23 88 -90q9 -30 9 -62zM148 952l-2 2q-8 7 -15 16q-19 23 -2 47q3 4 6 7q16 16 31 32q42 42 85 84q30 29 60 -1q57 -57 113 -114q16 -15 16 -30
t-15 -31q-3 -2 -5 -5q-7 -7 -15 -14q-7 -5 -16 -8q-3 -2 -7 -4q-10 1 -17 5t-13 10l-58 58q-6 6 -9.5 8t-7 0t-9.5 -8q-12 -12 -24 -25q-15 -15 -31 -30q-17 -16 -32.5 -16t-32.5 17z" />
    <glyph glyph-name="Otilde" unicode="&#xd5;" 
d="M275 171q12 1 20 0q16 -1 24.5 1.5t12 15t2.5 41.5q-1 71 0 142v283q0 12 -2 25q-3 15 -19 15q-32 1 -64 0q-8 0 -12.5 -3.5t-5.5 -10.5v-5q-2 -12 -3 -24v-440q0 -8 1 -16q1 -13 7 -18t18 -5q11 -1 21 -1zM507 704v-541q0 -34 -10 -65q-12 -38 -37.5 -61t-63.5 -33
q-21 -5 -43 -5q-75 -2 -150 0q-33 0 -61.5 11.5t-51.5 36.5q-19 21 -28 46t-10 53q-2 30 -1 61v496q0 20 3 39t10 37q24 61 86 81q31 10 65 10h54q36 1 73 0q28 -1 55 -7q44 -11 69.5 -39t35.5 -70q5 -25 5 -50zM118 919q-26 0 -36.5 10.5t-9.5 35.5q0 32 14 56.5t38 38.5
t57 14q26 0 51.5 -5.5t50.5 -12.5l26 -8l50 -14q12 -3 16.5 -1t10.5 14q5 9 13 14t19 6h39q15 -1 25 -11t10 -28q0 -37 -17.5 -63t-46.5 -38t-65 -6q-40 9 -79 19q-20 6 -40 11q-15 3 -29 6l-18 4q-6 2 -10 0t-6 -9q-6 -19 -15.5 -26t-28.5 -7h-19z" />
    <glyph glyph-name="Odieresis" unicode="&#xd6;" horiz-adv-x="510" 
d="M195 929q-32 1 -50 20.5t-18 48.5q0 18 9.5 34t25.5 25t33 8q32 -3 48.5 -21t19.5 -47q-3 -31 -20.5 -49.5t-47.5 -18.5zM309 172q13 0 18 5.5t6 18.5v479q-1 10 -6 14.5t-16 4.5q-23 1 -46 1h-6q-18 0 -23.5 -5.5t-5.5 -24.5v-470q1 -12 6 -17.5t17 -5.5q28 -1 56 0z
M505 735q5 -42 4 -85q1 -235 0 -470q0 -22 -2.5 -43.5t-10.5 -42.5q-17 -45 -50 -68.5t-80 -26.5q-86 -5 -172 0q-58 4 -93.5 36.5t-46.5 91.5q-3 25 -3 50q-1 94 0 188v68q0 36 -1 72q0 99 1 198q0 33 9 64q13 41 41.5 65.5t70.5 33.5q25 4 50 4q64 1 129 0q24 0 46 -6
t43 -18q31 -19 46.5 -47.5t18.5 -63.5zM369 929q-18 -1 -33.5 8.5t-25 25.5t-9.5 35q0 18 9.5 33t24.5 24.5t34 10.5q18 0 33 -9.5t24 -25t9 -34.5q1 -16 -6 -31t-22 -25.5t-38 -11.5z" />
    <glyph glyph-name="multiply" unicode="&#xd7;" horiz-adv-x="624" 
d="M613 601q-1 1 -2 3q-3 7 -8 16q-4 6 -10 11l-4 4q-5 5 -11 10q-22 23 -45 46q-16 15 -31 15t-31 -15q-2 -3 -5 -6q-2 -1 -3 -3l-52 -52q-31 -31 -62 -61q-8 -9 -12 -11.5t-8.5 0.5t-13.5 11q-4 5 -8 9q-16 15 -31 30q-40 41 -80 81q-17 17 -33 17t-33 -17
q-32 -31 -62 -62q-18 -18 -18 -33t18 -33l70 -70l46 -46l3 -3q4 -4 7 -8q7 -6 6.5 -10t-6.5 -10q-3 -4 -6 -7l-4 -4l-18 -18q-50 -49 -99 -98q-17 -17 -17 -32.5t17 -32.5l22 -22q17 -16 33 -34q23 -24 42 -22.5t39 22.5q44 46 89 90q14 14 29 28q7 9 11 9t12 -8l12 -12
l41 -41q37 -38 75 -75q29 -29 59 -1q35 34 69 69q13 14 13 29t-12 29q-4 5 -9 10l-2 2q-25 25 -51 50q-28 29 -57 58l-4 4q-9 8 -12 12.5t0 9t12 13.5l4 4l113 113q8 7 13 16.5t5 25.5z" />
    <glyph glyph-name="Oslash" unicode="&#xd8;" horiz-adv-x="572" 
d="M311 200q-5 -14 -5.5 -20t5.5 -7.5t20 -1.5q16 0 22 6.5t6 22.5v100q-1 3 -3 6q0 1 -1 2l-2 -2l-4 -6q-1 -1 -1 -3q0 -1 -1 -2l-14 -38q-11 -29 -22 -57zM270 576q0 1 1 3q16 41 31 82l2 4q5 15 6.5 21t-4.5 7.5t-20 0.5h-8q-12 0 -16.5 -4.5t-4.5 -16.5q-1 -18 -1 -37
v-15q0 -27 1 -54q0 -2 2 -4q1 -1 1 -2q1 0 2 1q2 1 3 3q3 5 5 11zM558 847q-11 -29 -22 -57l-4 -10q-6 -15 -3 -31q5 -29 5 -58q1 -260 0 -520q0 -35 -10 -69q-12 -44 -45.5 -71t-88.5 -32q-23 -2 -47 -1q-11 1 -22 1v-1h-70q-9 1 -14.5 -2.5t-8.5 -11.5q-5 -15 -16 -21
t-26 -6h-25q-36 -1 -73 0q-23 0 -32.5 13.5t-2.5 36.5q11 33 24 65q2 6 5 13q5 12 2 26q-5 19 -7 38.5t-1 39.5v504q0 21 3 41.5t10 39.5q12 34 35.5 56t58.5 31q15 4 31 6t32 3q57 1 114 0h3q9 0 15 3t10 13q6 14 17.5 20t26.5 6h89q12 0 22 -4t16 -11.5t5 -18.5
q-1 -16 -6 -31z" />
    <glyph glyph-name="Ugrave" unicode="&#xd9;" horiz-adv-x="509" 
d="M509 178q0 -34 -8 -66q-12 -52 -48.5 -81t-86.5 -32q-86 -5 -172 0q-37 3 -66.5 18t-48.5 43.5t-25 70.5q-4 26 -4 52v634q0 6 1 13q1 19 12 29.5t30 10.5q47 1 95 0q41 0 46 -41q1 -9 0 -17v-601q0 -18 1.5 -25t9 -9t24.5 -1q5 0 10 -1q15 0 30 1q11 0 15.5 5t4.5 16
q1 6 0 13v603q0 22 5 34.5t17.5 17.5t34.5 5h74q12 1 22.5 -3t17.5 -14t9 -28v-647zM160 1061q-7 7 -11 17q-6 12 -3.5 22.5t13.5 17.5q30 19 61 35q25 13 42 -11q9 -14 17 -29q3 -5 5 -9q4 -6 7 -12l52 -90q4 -9 7 -17q1 -4 3 -7l-2 -6q-1 -6 -4 -9q-19 -25 -50 -31
q-8 -1 -14.5 2t-11.5 8q-55 59 -111 119z" />
    <glyph glyph-name="Uacute" unicode="&#xda;" 
d="M279 932q-16 3 -29.5 10t-22.5 21q-6 9 -4.5 18.5t6.5 18.5q27 47 54 93l8 14q9 15 17 30q10 16 22 19.5t29 -5.5q27 -14 52 -30q15 -10 17.5 -24t-9.5 -28q-13 -16 -27 -31l-9 -9q-19 -21 -39 -43l-40 -42q-5 -6 -11 -9t-14 -3zM506 834q1 -8 1 -16v-647q0 -30 -6 -58
q-12 -50 -48 -80.5t-88 -33.5q-43 -2 -85.5 -2t-85.5 2q-63 5 -100 42t-42 101q-2 21 -1 41v648q1 17 11 27.5t27 11.5q52 1 104 0q17 -1 27 -11t12 -27q1 -9 0 -18v-601q0 -18 2 -26t10 -10t26 -1q4 0 9 -1q14 0 28 1q12 0 16.5 5t5.5 16q1 9 1 18v617q1 17 10.5 27
t26.5 11q51 1 102 0q15 -1 25 -11t12 -25z" />
    <glyph glyph-name="Ucircumflex" unicode="&#xdb;" horiz-adv-x="508" 
d="M147 950q-10 10 -19 21q-11 14 -10 26t13 24l52 52l22 22l13 13l32 32q28 28 56 0q58 -56 116 -114q6 -6 10.5 -13t3.5 -15q0 -14 -9 -28t-22.5 -24t-25.5 -11q-10 0 -17.5 3.5t-13.5 10.5q-29 29 -58 57q-8 9 -12 9t-13 -9l-26 -26q-15 -15 -30 -29q-15 -16 -30 -16
t-32 15zM506 830q1 -5 0 -9v-662q0 -21 -4 -42t-14 -40q-20 -38 -51.5 -57t-72.5 -21q-43 -2 -85 -2t-84 2q-65 5 -102.5 43t-41.5 105q-1 28 -1 55t1 55v575q1 17 10.5 27t26.5 11q53 1 106 0q15 -1 25 -10.5t12 -25.5q2 -11 1 -22v-598q0 -19 2 -27t10.5 -10t26.5 -1
q5 0 10 -1q14 0 28 1q9 0 13.5 4t6.5 13q1 12 1 24v613q1 18 11 28.5t28 11.5q49 1 98 0q17 -1 27.5 -12t11.5 -28z" />
    <glyph glyph-name="Udieresis" unicode="&#xdc;" horiz-adv-x="506" 
d="M506 154q0 -43 -19 -80q-20 -36 -50.5 -54.5t-70.5 -20.5q-43 -2 -86 -2t-86 2q-57 4 -93.5 36t-46.5 91q-4 24 -4 48v658q2 15 12 26t26 12q53 1 106 0q30 -1 37 -31q3 -17 3 -35v-593q0 -17 1.5 -24.5t9 -9.5t24.5 -1q4 0 8 -1q13 0 25 1q16 0 21.5 5.5t5.5 21.5v625
q1 19 12 30.5t30 11.5q46 1 92 0q43 0 43 -44v-672zM192 929q-22 1 -37 11t-22.5 25t-7.5 31q0 19 9.5 35t25 25.5t33.5 8.5q19 0 34 -9.5t24 -25t9 -34.5q-1 -18 -10.5 -34t-24.5 -25t-33 -8zM367 928q-29 1 -47.5 19.5t-20.5 47.5q-1 17 6.5 32.5t23 26t37.5 11.5
q18 1 33 -8.5t25 -25.5t10 -34t-9.5 -33.5t-24.5 -25t-33 -10.5z" />
    <glyph glyph-name="germandbls" unicode="&#xdf;" horiz-adv-x="664" 
d="M661 215v83l-2 4q-2 4 -3 9q-1 7 -2 15q-1 7 -3 14q-11 55 -41 95.5t-82 63.5l-8 4q-10 5 -10.5 8.5t7.5 11.5q45 48 54 113q7 58 -15.5 102.5t-72.5 72.5q-27 15 -55.5 24.5t-58.5 14.5q-73 14 -148 18q-74 5 -148 0q-17 -1 -20.5 -5t-2.5 -15v-784q0 -9 1 -12.5t5 -4.5
t13 -1h139q11 -1 16 0t6 6t0 16v599q0 12 3 14.5t14 1.5q39 -4 78 -11q26 -4 51 -11q11 -3 11.5 -7t-7.5 -12q-6 -5 -11 -11q-9 -8 -18 -17q-33 -33 -43 -73.5t-1 -85.5q6 -34 26.5 -57t51.5 -37q22 -9 45 -16q26 -8 36.5 -21t12.5 -40v-14q0 -7 1 -13q1 -16 -6 -27t-20 -17
q-11 -7 -23 -12t-25 -8q-21 -6 -43 -9.5t-44 -6.5q-23 -4 -35.5 -17.5t-12.5 -35.5q-1 -38 0 -75q0 -19 10.5 -31.5t28.5 -18.5q8 -2 15.5 -2t15.5 1q6 1 12 1q49 2 95 13.5t89 34.5q48 26 78.5 64.5t40.5 92.5q1 4 3 7z" />
    <glyph glyph-name="agrave" unicode="&#xe0;" horiz-adv-x="626" 
d="M353 304q12 0 15 3.5t0 15.5q-7 32 -14 63l-2 8q-7 31 -15 62q0 2 -2 4l-2 2q-1 -1 -1 -2q-2 -1 -3 -3q-1 -3 -2 -7v-1q-2 -7 -4 -15q-10 -45 -21 -90q-3 -14 -5 -29q-2 -10 8 -11h25v0v0v0h23zM617 37q2 -17 -6 -27.5t-26 -11.5q-2 -1 -4 -1h-65q-18 0 -35 1
q-15 0 -23.5 6.5t-12.5 20.5q-9 34 -17 67q-4 14 -7 28q-3 11 -5.5 16t-7.5 6t-17 1h-118q-14 1 -18.5 -2.5t-7.5 -17.5q-6 -22 -11 -44t-11 -45q-5 -21 -15 -29t-31 -8h-86q-28 0 -37.5 12.5t-2.5 39.5q17 71 35 142q12 49 25 98q33 136 67 272q20 82 41 164q1 7 4 14
q4 14 12 20t22 7h142q20 0 29.5 -7.5t14.5 -27.5q46 -184 91 -369q20 -79 40 -159q9 -37 19 -74l18 -74q0 -1 1 -3q2 -8 3 -15zM179 949l-1 1q-4 4 -7 9q-9 14 -6.5 26.5t16.5 21.5q26 16 53 30q16 9 28.5 6t22.5 -19l40 -70q7 -13 15 -26q2 -3 4 -7q11 -18 21 -36
q18 -32 -14 -51q-11 -7 -24 -12l-12 -6q-5 2 -9 4q-5 2 -9 4.5t-8 5.5q-43 46 -85 92q-12 13 -25 27z" />
    <glyph glyph-name="aacute" unicode="&#xe1;" horiz-adv-x="630" 
d="M349 304q11 0 16 1t5.5 6t-2.5 16q-2 7 -3 14l-4 18q-1 5 -2 9l-20 84q-1 2 -2 3l-2 2q-2 1 -3 2q0 -1 -1 -2q-2 -2 -2 -5q-7 -27 -13 -54l-4 -16q-7 -28 -13 -57q-3 -13 0 -17t17 -4h33zM614 51q8 -30 -3.5 -42.5t-37.5 -11.5q-27 1 -53 1q-15 -1 -30 -1q-21 0 -31 7.5
t-15 27.5q-7 28 -15 56q-4 17 -9 35q-3 14 -7 17.5t-18 2.5h-123q-13 0 -17.5 -3.5t-7.5 -16.5q-11 -45 -22 -89q-4 -19 -14.5 -28t-30.5 -9q-26 1 -53 1q-19 -1 -38 0q-48 0 -36 46q59 241 119 481q25 103 51 205q5 21 15 28.5t30 7.5h129q16 0 25.5 -3t14.5 -11.5t9 -24.5
q23 -89 45 -178l8 -34q6 -24 12 -47q27 -108 53 -215q9 -35 17 -69q16 -67 33 -133zM347 819q-11 3 -24 10t-23 20q-6 9 -4.5 18.5t7.5 18.5q10 19 22 38l6 12q24 41 47 81q5 8 11 15q17 19 39 8q29 -16 58 -33q15 -10 17 -24t-9 -28q-8 -9 -17 -18q-4 -5 -9 -9
q-10 -12 -21 -23q-34 -36 -67 -73q-6 -7 -13 -10.5t-20 -2.5z" />
    <glyph glyph-name="acircumflex" unicode="&#xe2;" horiz-adv-x="619" 
d="M354 304q12 0 15 4t0 15q-7 32 -14 63q-4 14 -7 28q-2 6 -3 13q-3 15 -7 29l-2 4q0 1 -1 2q-1 -1 -1 -2q-3 -2 -4 -4l-4 -14l-16 -68q-2 -10 -4 -21l-6 -24t-3 -17t5 -6.5t17 -1.5h35zM613 56q0 -1 1 -2q3 -11 4 -22q1 -14 -7 -23.5t-22 -10.5q-56 -1 -112 0
q-13 0 -20.5 7.5t-10.5 18.5q-6 21 -11 42q-3 10 -5 21q-2 7 -4 15q-4 13 -7 27t-18 14h-133q-10 0 -13.5 -3t-6.5 -14l-14 -58q-4 -14 -7 -29q-1 -2 -1 -4l-4 -14q-3 -10 -10.5 -16.5t-18.5 -6.5q-57 -1 -114 0q-14 1 -21.5 10t-6.5 23q1 10 4 20v2q27 107 53 215l26 104
q22 88 43 176q22 88 44 175v2q2 5 3 10q5 18 14 24.5t27 6.5h137q19 0 29 -7.5t14 -25.5q20 -79 39 -157q5 -18 9 -37q60 -241 120 -483zM205 835q-12 11 -21 23q-5 7 -8 15q-1 4 -3 8q2 4 3 9q2 4 3.5 8t4.5 7q62 64 125 126q11 10 23.5 10t23.5 -9l4 -4h1l26 -26l84 -82
q6 -6 12 -14q11 -14 10.5 -26.5t-12.5 -25.5q-9 -11 -20 -21q-29 -24 -56 2q-19 18 -37 36l-18 18q-8 8 -12 11t-8 0.5t-12 -10.5l-21 -21l-32 -32q-30 -30 -60 -2z" />
    <glyph glyph-name="atilde" unicode="&#xe3;" horiz-adv-x="623" 
d="M159 806q-35 3 -36 38q-2 31 11.5 57.5t42.5 43t75 16.5q19 -1 44 -7.5t52 -14.5q33 -11 66 -19q11 -2 14.5 0t8.5 13q9 20 31 20h7q16 1 33 0q16 -1 26 -11t11 -26q1 -35 -17.5 -63t-50.5 -40q-31 -12 -63 -5q-37 8 -73 17l-24 6l-24 6q-21 6 -43 11q-9 3 -12 1t-6 -13
q-6 -16 -15.5 -23t-26.5 -7h-31zM360 304q9 1 9 10q0 6 -2 12q-13 58 -27 117q-1 6 -4 12q0 1 -2 3q-1 0 -1 1l-2 -2q-2 -1 -3 -3q-2 -5 -3 -10q-11 -45 -21 -89q-4 -18 -8 -37q-1 -6 1.5 -9.5t9.5 -4.5h53zM609 66q1 -1 1 -2q4 -16 6 -32q1 -15 -6.5 -23.5t-22.5 -10.5
q-5 -1 -10 -1h-26q-34 0 -68 1q-17 -1 -26 5.5t-13 23.5q-7 24 -13 48l-8 34q-2 6 -3 10q-3 12 -5.5 17t-8 6t-18.5 1h-116q-10 0 -15 -1t-7 -5.5t-4 -14.5q-4 -14 -7 -28q-8 -31 -15 -61q-5 -21 -15 -28.5t-31 -7.5q-45 0 -91 1t-36 45l56 226q19 78 39 156q21 87 43 174
q15 63 31 127q1 2 1 5q1 1 1 3q5 18 14.5 25t27.5 7h133q23 0 33 -7.5t15 -30.5q15 -60 30 -121l12 -46l26 -106q48 -195 96 -389z" />
    <glyph glyph-name="adieresis" unicode="&#xe4;" horiz-adv-x="626" 
d="M248 815q-19 0 -34 9t-25 24.5t-10 33.5q0 19 9 35t24.5 25.5t34.5 9.5q18 0 33 -9.5t24.5 -25t9.5 -33.5q0 -27 -17.5 -46.5t-48.5 -22.5zM355 304q11 0 13.5 3.5t-0.5 14.5q-8 39 -18 78q-3 14 -6 29l-2 6q-2 11 -5 22q0 2 -2 4l-1 1l-1 -1q-2 -1 -3 -3q-2 -5 -3 -10
l-24 -102q-2 -7 -3 -13q-2 -8 -3 -16q-3 -13 10 -13h25v0v0v0h23zM617 37q2 -17 -6 -27.5t-26 -11.5q-19 -1 -37 0h-17v-0.5v-0.5h-15q-16 0 -33 1q-17 0 -25.5 6.5t-13.5 22.5q-8 31 -16 63q-3 15 -7 30q-3 11 -5.5 16t-7.5 6t-17 1h-118q-10 0 -15 -1t-7 -5.5t-4 -14.5
q-1 -2 -1 -3q-11 -45 -23 -90q-4 -17 -13 -24t-27 -7q-45 -1 -91 -1q-27 1 -36.5 13t-2.5 38q24 99 49 199q5 22 11 45q43 172 86 345q11 43 21 86q1 1 1 2l2 10q5 17 14 24t27 7h139q18 0 27 -6.5t13 -24.5q16 -58 30 -116q1 -6 3 -11q53 -213 105 -425l32 -128q0 -2 1 -3
q2 -8 3 -15zM421 815q-19 0 -34 9t-24 24t-9 34q0 20 9 35.5t24 25t34 9.5q18 0 33 -9.5t24.5 -25t9.5 -34.5q0 -18 -9.5 -33.5t-24.5 -25t-33 -9.5z" />
    <glyph glyph-name="aring" unicode="&#xe5;" horiz-adv-x="621" 
d="M332 938q-13 -1 -23.5 -11.5t-10.5 -24.5q0 -13 10.5 -22.5t25.5 -10.5q14 1 24 11t10 24q-1 14 -11.5 24t-24.5 10zM334 798q-31 1 -55 15t-37.5 38t-13.5 53q1 29 15.5 53t38 38t52.5 13q26 1 49.5 -12t38.5 -37t16 -56q0 -23 -11.5 -47t-34.5 -40.5t-58 -17.5z
M356 304q10 0 12.5 3.5t0.5 13.5q-12 50 -23 101l-6 26l-2 6l-4 4q-1 0 -2 1l-1 -1l-2 -4q-2 -5 -4 -11q-10 -46 -21 -92q-2 -9 -4 -17q0 -2 -1 -3l-2 -14q-2 -11 9 -12q10 -1 19 -1h31zM611 60q1 0 1 -1q4 -14 5 -28q0 -14 -7.5 -23t-22.5 -10q-56 -1 -112 0q-13 1 -20 8.5
t-10 18.5q-7 26 -13 51l-4 14t-4 15q-2 11 -5 21q-3 11 -6.5 14t-15.5 3h-122q-11 0 -16.5 -1t-7.5 -5.5t-5 -15.5q-5 -22 -11 -45q-5 -19 -9 -37q0 -1 -1 -2q-2 -8 -5 -16q-8 -23 -31 -23h-8q-50 -1 -100 0q-17 1 -25 11t-6 27q1 7 3 14q0 2 1 4q22 89 44 177l82 330
q9 37 19 75l24 96q4 19 13.5 26.5t28.5 7.5h133q23 0 32.5 -7.5t14.5 -30.5q26 -101 51 -202q58 -233 115 -466z" />
    <glyph glyph-name="ae" unicode="&#xe6;" horiz-adv-x="782" 
d="M359 304q13 -1 11 13l-2 12q-14 58 -27 117q-1 5 -3 9l-3 3t-2 1l-1 -1q-1 -2 -2 -3l-4 -12q-5 -24 -11 -47l-10 -46q-1 -6 -3 -11q-2 -10 -4 -19q-2 -8 0.5 -11.5t10.5 -4.5h50zM751 174q11 -3 17.5 -9.5t7.5 -17.5q1 -60 0 -119q-1 -13 -8.5 -20.5t-20.5 -9.5
q-6 -1 -13 -1h-75q-84 1 -168 0q-22 0 -32.5 8t-15.5 30q-6 22 -11 45l-12 44q-3 13 -7 16t-16 3h-125q-13 0 -17.5 -3t-6.5 -16q-8 -29 -15 -58q-3 -15 -7 -29q-1 -6 -3 -12q-5 -14 -13.5 -20.5t-23.5 -6.5q-20 -1 -40 0q-29 0 -58 -1q-20 0 -30.5 12.5t-5.5 33.5
q28 110 55 219l22 88q45 185 91 370q5 20 10.5 30t16.5 13t33 3h464q15 -1 23 -9t9 -23q1 -56 0 -112q0 -17 -9 -25t-27 -8h-230q-14 0 -20 -1t-6 -7t4 -19l2 -8q3 -14 7 -29t7 -29q1 -1 1 -2q3 -14 5.5 -20t8 -7t17.5 -1h138q22 0 32.5 -10t10.5 -31q1 -36 0 -71v-21
q0 -7 -2 -14q-3 -16 -11.5 -23t-24.5 -7h-94q-15 0 -20.5 -1.5t-5.5 -7.5t4 -20q2 -11 5 -22q6 -22 11 -45q3 -12 7 -15.5t18 -2.5h130q9 0 17 -1z" />
    <glyph glyph-name="ccedilla" unicode="&#xe7;" horiz-adv-x="508" 
d="M506 281q0 -17 1 -35v-53t-1 -54q-4 -53 -34 -89t-84 -48q-10 -2 -19 -3l-18 -2q-9 -2 -10.5 -6.5t5.5 -10.5q12 -11 22 -23.5t16 -27.5q19 -46 4 -92q-10 -31 -38 -48q-44 -29 -97 -33q-43 -2 -44 41q-1 16 2 33q2 16 10.5 24t24.5 11q3 1 7 2q10 1 19 4q10 4 10.5 10
t-7.5 13q-7 4 -15 7l-8 2l-6 2q-18 5 -24 14t-5 27q1 12 4 23v4q3 11 3 16t-4.5 6.5t-15.5 2.5q-13 1 -25 3t-24 6q-42 12 -67 40.5t-33 70.5q-5 25 -5 50v428q0 25 4.5 48t15.5 45q20 37 52.5 55.5t73.5 20.5q82 4 164 0q41 -2 73 -19t53 -54q19 -33 20 -71q1 -69 0 -137
q0 -19 -8.5 -27.5t-26.5 -9.5h-98q-18 1 -26.5 9.5t-8.5 27.5q-1 20 -1 40v31q0 9 -1 18q-2 8 -6.5 12t-12.5 4h-14q-29 1 -59 0q-8 0 -12 -4t-4 -13q-1 -6 -1 -13v-356q0 -7 1 -14q1 -9 5 -13.5t12 -4.5q37 -1 74 0q14 1 16 14q2 10 2 21v30q0 22 1 45q0 35 34 35
q50 1 100 0q34 0 34 -35z" />
    <glyph glyph-name="egrave" unicode="&#xe8;" horiz-adv-x="506" 
d="M470 175q17 -1 26 -9t9 -24q2 -55 0 -110q-1 -16 -10 -24.5t-25 -9.5q-6 -1 -13 -1h-362q-7 0 -14 1q-28 3 -30 31q-1 8 -1 15v675q0 8 1 15q2 28 30 32h389q16 -1 25 -9.5t10 -24.5q2 -55 0 -110q0 -17 -9.5 -25t-27.5 -8h-206q-15 0 -21.5 -1.5t-8 -7.5t-0.5 -21v-62
q-1 -15 0.5 -21.5t8 -8t20.5 -1.5h146q17 0 26 -8.5t10 -25.5q1 -12 1 -24v-78q-1 -21 -11 -31t-32 -10h-156q-13 -1 -13 -14v-87q0 -13 13 -13h225zM162 948q-1 1 -1 2l-6 6q-10 14 -8 27t16 23q27 17 56 32q16 8 27 5t20 -18q17 -28 33 -56q6 -11 13 -21l8 -14
q13 -22 25 -44q4 -8 6 -17q2 -4 3 -8q-1 -19 -16 -28q-2 -2 -5 -3q-4 -3 -9 -6q-20 -11 -31.5 -9t-26.5 18q-37 40 -74 79z" />
    <glyph glyph-name="eacute" unicode="&#xe9;" horiz-adv-x="506" 
d="M468 175q21 -1 29.5 -9.5t8.5 -29.5v-100q0 -20 -9.5 -29.5t-30.5 -8.5q-186 -1 -372 0q-23 -1 -33.5 10t-10.5 35v685q2 37 40 38h381q17 -1 25.5 -9.5t8.5 -25.5q1 -54 1 -109q-1 -17 -9.5 -25t-26.5 -8h-220q-9 -1 -12.5 -4t-3.5 -11v-92q0 -9 3.5 -12t13.5 -4h75
q41 -1 81 1q19 0 28.5 -10.5t10.5 -26.5q2 -52 0 -104q-1 -18 -11 -27.5t-28 -9.5h-152q-14 0 -17.5 -3.5t-3.5 -16.5v-75q0 -13 3.5 -16.5t16.5 -2.5q46 -1 93 0h121zM276 819q-12 3 -24.5 9t-22.5 18q-11 14 -3 31q4 11 10 21l72 124q10 17 22.5 20.5t29.5 -5.5
q25 -14 50 -29q18 -11 20 -25.5t-13 -29.5q-32 -36 -65 -71q-24 -26 -47 -51q-5 -6 -12 -9t-17 -3z" />
    <glyph glyph-name="ecircumflex" unicode="&#xea;" 
d="M467 175q17 1 27 -8.5t11 -28.5q1 -14 1 -28v-64q0 -27 -10.5 -38t-37.5 -11h-362q-8 0 -15 1q-28 3 -30 31q-1 8 -1 15v675q0 8 1 16q2 27 30 31h387q17 -1 26.5 -9.5t10.5 -24.5q2 -54 0 -109q-1 -18 -10.5 -26t-28.5 -8h-213q-14 0 -18 -4t-3 -18q-1 -40 0 -79
q-1 -14 3 -18t18 -4h155q34 -1 35 -34q1 -53 0 -107q-1 -35 -39 -36h-140q-16 0 -23 -1.5t-8.5 -8t-0.5 -21.5v-24q-1 -20 0 -39q0 -13 3.5 -17t17.5 -3h186q14 -1 28 0zM154 837q-11 11 -21 23q-17 24 4 45q61 63 123 124q26 24 52 0q61 -60 121 -122q4 -3 6 -7.5t4 -8.5
q1 -4 3 -8q-2 -4 -2 -8q-2 -9 -6 -14q-8 -9 -16.5 -18t-18.5 -16t-22.5 -5t-23.5 12l-36 36l-15 15l-3 3l-6 6q-8 8 -12 8t-11 -8q-15 -14 -29 -29l-27 -27q-17 -16 -32 -16.5t-32 15.5z" />
    <glyph glyph-name="edieresis" unicode="&#xeb;" horiz-adv-x="508" 
d="M257 589q-10 0 -15 -1.5t-6.5 -6t-1.5 -15.5v-73q0 -13 1.5 -18.5t7 -7t18.5 -1.5h154q22 -2 28 -24q3 -14 4 -28v-73q-1 -10 -3 -19q-3 -18 -12 -25.5t-27 -7.5h-142q-14 0 -20 -1.5t-7.5 -7.5t-1.5 -20v-17q0 -26 1 -52q-1 -10 2.5 -13t12.5 -3q10 -1 19 0h193
q8 0 15 -1q13 -1 20.5 -8.5t7.5 -19.5q1 -60 0 -119q0 -12 -7.5 -19.5t-19.5 -9.5q-8 -1 -17 -1h-365q-8 0 -16 1q-12 2 -20 10.5t-9 20.5q-1 7 -1 14v676q0 7 1 13q1 14 9.5 23t21.5 11h379q22 2 34 -8.5t11 -35.5q-1 -31 0 -62v-40q-3 -30 -33 -31h-216zM193 815
q-21 1 -37 11t-24 25.5t-7 32.5q0 18 9 33.5t24 25t34 9.5q18 0 33 -9t24.5 -24.5t9.5 -34.5t-8.5 -34.5t-23.5 -25t-34 -9.5zM366 816q-29 0 -48 17.5t-20 48.5q0 30 18 48.5t50 21.5q29 -3 47.5 -20t19.5 -48q0 -29 -18 -48t-49 -20z" />
    <glyph glyph-name="igrave" unicode="&#xec;" horiz-adv-x="264" 
d="M258 731v-695q-3 -38 -40 -38q-51 -1 -102 0q-22 0 -31.5 10t-10.5 32v689q3 36 39 37q53 1 106 0q35 -1 39 -35zM162 845q-13 16 -27.5 31.5t-29.5 30.5q-14 14 -28 29l-3 3q-10 10 -17 21q-18 27 8 45q28 19 59 34q28 15 45 -12q15 -25 29 -51l10 -16l2 -4l40 -70
l6 -14q2 -4 3 -8q-1 -3 -3 -7l-8 -14q-3 -3 -6 -5.5t-6 -3.5q-14 -9 -25.5 -13t-22.5 1t-26 23z" />
    <glyph glyph-name="iacute" unicode="&#xed;" horiz-adv-x="317" 
d="M301 1005q7 -5 11 -11.5t5 -16.5q-2 -3 -3 -7q-3 -8 -8 -14q-30 -34 -61 -67q-9 -10 -18 -19q-6 -7 -12 -13q-13 -13 -24 -27q-7 -8 -16 -11t-18 1q-11 4 -21 10.5t-19 13.5q-8 6 -8.5 14t2.5 17q4 11 10 21l60 104l12 20q0 1 1 2q2 3 4 7q8 11 18.5 14t23.5 -3
q25 -14 50 -29q6 -3 11 -6zM190 766q23 0 32.5 -9.5t8.5 -32.5q1 -342 0 -685q1 -23 -8.5 -32.5t-32.5 -9.5q-50 0 -100 1q-21 -1 -30.5 8.5t-9.5 31.5v346v32v79v94v79v34v17q0 19 4 29t14 14t29 4h93z" />
    <glyph glyph-name="icircumflex" unicode="&#xee;" horiz-adv-x="375" 
d="M298 29q-1 -14 -9 -22t-22 -9q-16 -1 -32 -1h-25q-28 0 -55 1q-36 0 -38 37q-1 7 0 14v666q-1 9 0 18q2 16 10.5 24t23.5 9q57 1 113 0q34 -1 34 -38v-699zM353 910q15 -15 15 -28.5t-16 -29.5q-8 -9 -16 -17q-29 -27 -57 0l-32 32l-25 25q-6 7 -9.5 9t-7 0t-9.5 -8
q-14 -13 -27 -27q-12 -12 -24 -23q0 -1 -1 -2q-7 -7 -14 -12q-9 -5 -19 -7q-13 0 -27 9t-24 23t-10 28q-1 8 2.5 15t9.5 13q13 14 27 27q45 46 91 91q14 14 28 13.5t28 -14.5q59 -58 117 -117z" />
    <glyph glyph-name="idieresis" unicode="&#xef;" horiz-adv-x="360" 
d="M296 52q1 -17 -3 -30t-16 -19.5t-36 -5.5q-27 1 -53 1q-13 -1 -26 -1q-29 0 -40 10.5t-10 39.5v682q1 18 10.5 27t26.5 10q55 1 110 0q16 -1 25 -9.5t11 -24.5q1 -7 1 -15v-665zM292 952q18 0 33 -9.5t24 -25t9 -34.5q0 -18 -9 -34t-24 -25t-34 -9q-22 1 -37 11.5
t-23 26.5t-8 32q1 18 10.5 33t25 24.5t33.5 9.5zM184 882q0 -18 -9.5 -33.5t-24.5 -25t-33 -8.5q-23 2 -38.5 12.5t-22.5 26t-7 31.5q1 18 10.5 33t24.5 24.5t32 9.5q22 -1 37.5 -11.5t23.5 -26t7 -32.5z" />
    <glyph glyph-name="ntilde" unicode="&#xf1;" horiz-adv-x="535" 
d="M121 806q-20 1 -31 14t-9 33q1 14 5 27q10 40 40.5 60.5t84.5 20.5q5 -1 13 -3q23 -4 54 -11q28 -7 55 -16q15 -4 29 -8q9 -2 19 -4q4 0 7 1.5t5 6.5q7 16 18.5 22t28.5 4h13q8 1 16 0q31 -4 33 -35q2 -33 -12.5 -60t-43.5 -41.5t-72 -9.5q-23 4 -46 10t-46 13
q-13 4 -26 7q-14 4 -27 7q-10 2 -20 5q-6 1 -10 -1t-7 -9q-5 -14 -11 -21t-15 -9.5t-24 -2.5h-21zM535 35q-1 -17 -10 -27t-26 -10q-30 -1 -61 -1q-12 1 -24 1q-13 0 -21 6t-13 16l-34 68q-9 18 -19 37q-29 58 -58 117q-9 20 -18 39q-7 15 -14 29q-3 6 -7 13l-1 0.5t-1.5 1
l-0.5 0.5q-1 -1 -2.5 -2t-1.5 -2q-1 -10 -1 -19v-250q0 -2 1 -5q0 -7 -1 -14q-3 -35 -38 -35q-48 -1 -95 0q-20 0 -29.5 9t-9.5 29v687q0 24 9.5 33.5t33.5 9.5h68q18 1 29.5 -6.5t18.5 -22.5q40 -83 80 -164q11 -21 21 -42q16 -32 31 -64q4 -6 7 -12q0 -1 1 -3q1 -3 4 -6
q2 -2 4 -3q1 -1 2 -1l1 1q2 2 2 4q1 10 1 19v250q-1 10 1 21q2 13 10.5 20.5t21.5 8.5q52 1 104 0q16 -1 25 -10.5t10 -24.5v-696z" />
    <glyph glyph-name="ograve" unicode="&#xf2;" horiz-adv-x="510" 
d="M179 935q-2 3 -4 5q-8 8 -15 17q-10 15 -7.5 28t17.5 22q25 16 52 30q16 9 28 6t21 -18q42 -71 83 -142q8 -14 4.5 -26t-16.5 -21q-26 -18 -37 -17q-10 0 -17 3.5t-13 9.5q-29 32 -59 63q-18 20 -37 40zM337 208v250q1 52 0 104q0 17 -6 23.5t-23 7.5q-26 1 -52 0
q-16 -1 -22 -7.5t-7 -22.5v-360q0 -19 6 -25.5t24 -6.5q22 -1 44 0q15 0 23 2.5t11 10.5t2 24zM506 630q4 -42 4 -85q0 -183 -1 -366q0 -20 -2.5 -40t-8.5 -40q-12 -37 -37 -60.5t-62 -33.5q-27 -7 -54 -7q-47 -1 -93 -1h-40q-43 0 -82 20q-32 16 -50 42.5t-24 61.5
q-5 26 -5 52v270q-1 78 0 156q1 34 11 67q12 39 39 62t66 32q21 6 43 6h9q33 0 65.5 0.5t64.5 -1.5q34 -1 65 -12q43 -16 65 -47.5t27 -75.5z" />
    <glyph glyph-name="oacute" unicode="&#xf3;" 
d="M333 201v360q1 18 -5.5 24.5t-24.5 7.5q-26 1 -52 0q-15 -1 -20 -7t-5 -21v-366q-1 -15 4.5 -21t22.5 -7q25 -2 51 0q18 0 24 6.5t5 23.5zM506 169q0 -17 -2 -33.5t-7 -32.5q-12 -41 -39.5 -66t-69.5 -34q-22 -5 -45 -5q-66 -2 -133 0q-28 1 -55 8q-42 12 -66.5 39.5
t-34.5 69.5q-5 24 -4 49q-1 80 -1 160v282q0 47 23 87q20 35 51.5 52.5t70.5 19.5q41 2 83 2t83 -2q64 -5 101 -42t44 -102q1 -13 1 -26v-426zM264 817q-19 4 -33 12t-24 21q-5 8 -4 16t6 16q19 35 39 71l2 2l38 66q11 19 24 22t32 -7l2 -2q22 -12 44 -25q18 -11 20 -26
t-11 -30q-57 -62 -115 -123q-3 -3 -6.5 -5.5t-7.5 -4.5q-3 -1 -6 -3z" />
    <glyph glyph-name="ocircumflex" unicode="&#xf4;" horiz-adv-x="506" 
d="M333 193q1 6 1 12v5q0 85 -1 170q0 27 1 55q0 64 -1 128q1 16 -5 22.5t-21 6.5q-28 2 -56 0q-15 0 -20.5 -6.5t-6.5 -20.5q-1 -4 -1 -9v-347q0 -9 2 -18q1 -8 5 -12.5t12 -5.5h15q30 -1 60 0q9 1 12.5 5.5t3.5 14.5zM506 593q0 -216 -1 -431q0 -32 -10 -63
q-12 -39 -39 -63t-67 -33q-23 -5 -47 -5q-64 -2 -129 0q-29 1 -57 8q-36 9 -59.5 31.5t-34.5 51.5t-12 58v466q0 24 6.5 45.5t18.5 41.5q14 22 33.5 36t43.5 21q27 7 55 9q61 1 122 0h20q41 0 78 -19q32 -17 50 -43.5t24 -61.5q5 -24 5 -49zM149 837q-1 1 -3 2q-8 8 -15 17
q-5 8 -9 16q-1 4 -3 8q1 9 5 16.5t10 13.5l50 50q34 34 68 67q27 28 54 1l46 -46q10 -9 19 -19q8 -8 17 -16l38 -38q26 -27 1 -55q-9 -12 -21 -21q-28 -24 -55 2q-19 18 -37 36l-18 18q-8 8 -12 11t-8 0.5t-12 -10.5q-11 -11 -21 -22q-16 -15 -32 -31q-31 -31 -62 0z" />
    <glyph glyph-name="otilde" unicode="&#xf5;" 
d="M106 806q-18 1 -28 11t-10 28q0 32 12.5 58.5t35.5 42.5t54 15q32 0 55.5 -4.5t44.5 -11.5l44 -12q19 -5 38 -11q7 -2 14 -3q11 -2 15 9q5 14 16 20t27 5h27q19 -1 29 -11.5t9 -29.5q-2 -45 -28 -73.5t-75 -32.5q-23 0 -45 4.5t-44 10.5q-21 6 -41 12q-22 6 -43 12
q-5 1 -9 2q-5 0 -10 1q-7 3 -11 0t-6 -10q-4 -17 -13.5 -24t-26.5 -8h-31zM227 199q-1 -15 4 -21t21 -7q27 -2 54 0q17 0 22.5 6.5t5.5 24.5v361q0 16 -5 22t-21 7q-26 2 -52 1q-17 0 -23.5 -6.5t-5.5 -23.5q-1 -182 0 -364zM506 159q1 -24 -4.5 -46.5t-17.5 -43.5
q-21 -34 -52 -51t-69 -19q-42 -2 -84.5 -2.5t-84.5 2.5q-64 5 -101 43t-42 104q-1 12 -1 25v422q0 17 2 34t7 34q12 41 39.5 66t68.5 34q22 4 44 5h135q26 0 50.5 -6t46.5 -21q31 -21 45.5 -50.5t16.5 -65.5q2 -31 1 -62v-402z" />
    <glyph glyph-name="odieresis" unicode="&#xf6;" horiz-adv-x="509" 
d="M335 201v364q0 15 -5 21t-20 6q-29 2 -58 0q-14 -1 -19.5 -7t-4.5 -20q-1 -183 0 -366q-1 -15 4 -20.5t19 -6.5q29 -3 59 -1q15 1 20 7t5 23zM507 311q1 -80 0 -159q0 -33 -11.5 -62t-35.5 -52q-21 -19 -45.5 -28.5t-51.5 -10.5q-42 -2 -84 -2.5t-84 2.5
q-67 5 -103.5 44.5t-38.5 105.5q-2 54 -2.5 108t0.5 108v124v62.5t1 63.5q2 41 19 74.5t54 55.5q36 20 76 20q79 2 158 0q28 -1 53 -10t46 -28q24 -22 35.5 -49.5t13.5 -59.5v-307zM196 815q-18 -1 -34 8.5t-25.5 25.5t-9.5 35q1 18 9.5 33.5t23.5 25t37 9.5q20 -1 35 -10.5
t22.5 -25t6.5 -34.5q2 -15 -5.5 -30t-22.5 -25t-37 -12zM370 815q-18 -1 -33.5 8.5t-25 25t-10.5 33.5q0 19 9 34.5t24.5 25.5t34.5 10q17 0 32.5 -9.5t25 -25t9.5 -33.5q0 -27 -17 -46.5t-49 -22.5z" />
    <glyph glyph-name="divide" unicode="&#xf7;" horiz-adv-x="711" 
d="M469 235v-102q-1 -36 -38 -37h-100q-17 1 -27 10t-11 26q-2 52 0 104q1 16 10.5 25.5t25.5 10.5q53 2 106 0q16 0 24.5 -10t9.5 -27zM710 482q1 -57 0 -114q-1 -14 -9.5 -22.5t-22.5 -10.5q-8 -1 -16 -1h-561q-6 0 -12 1q-16 1 -26 9.5t-11 24.5q-3 55 -1 110
q1 17 11 25.5t26 9.5h589q14 -1 23 -9.5t10 -22.5zM331 579q-17 1 -27 10t-11 26q-2 52 0 104q1 17 11 26.5t27 9.5q50 2 100 0q37 -1 38 -39v-100q-1 -36 -36 -36q-51 -1 -102 -1z" />
    <glyph glyph-name="oslash" unicode="&#xf8;" horiz-adv-x="529" 
d="M341 197q1 14 0 27v12v0v0v46q0 1 -1 2l-2 2q0 1 -1 2l-1 -1l-3 -3l-24 -62q-2 -5 -3 -10q-6 -13 -10 -28q-1 -2 0 -6t3 -5q9 -5 18.5 -2.5t16 9.5t7.5 17zM273 576q4 10 1 13.5t-14 3.5q-14 -1 -21 -7t-8 -21q-1 -13 0 -25v-12v0v0v-39q0 -1 0.5 -2t1.5 -2l1 -1
q1 0 2.5 1t2.5 2q5 11 9 22v1l6 14q10 26 19 52zM515 764q-8 -25 -19 -50q-9 -20 1 -40q16 -34 16 -72v-442q0 -38 -15 -73q-18 -43 -52 -64.5t-80 -24.5q-37 -2 -75 -1h-54q-14 1 -18 -13t-12 -21.5t-19 -10.5t-24 -4h-64q-11 1 -21 3q-18 5 -25 16.5t-1 30.5q9 28 21 55
q3 8 3 16.5t-4 16.5q-8 17 -12 35.5t-4 37.5q1 224 0 447q0 29 8 56q27 83 112 99q15 3 30.5 4t30.5 1l28 2v-2h63q9 0 15 3.5t8 11.5q5 18 17.5 25.5t29.5 8.5q29 1 58 0h19q6 0 11 -1q20 -5 27.5 -17.5t0.5 -32.5z" />
    <glyph glyph-name="ugrave" unicode="&#xf9;" horiz-adv-x="509" 
d="M148 941q-11 12 -19 27q-5 10 -2.5 19t10.5 14q26 17 52 31q10 5 20 11q1 1 4 1h2q21 -2 31 -20q21 -36 42 -73q9 -16 19 -32l6 -10q7 -12 13 -24q10 -17 6 -29.5t-21 -22.5h-1q0 -1 -1 -1q-17 -10 -27.5 -12.5t-20 3.5t-22.5 21q-26 28 -52 55q-20 21 -39 42zM506 736
q3 -13 3 -26v-536q0 -21 -3 -42.5t-11 -42.5q-13 -33 -36.5 -53.5t-56.5 -29.5q-28 -7 -57 -8q-49 -1 -98 -1h-34q-41 0 -78 17q-35 17 -54.5 45t-25.5 65q-3 15 -3.5 30.5t-0.5 31.5q-1 93 -1 185v342q0 7 1 14q2 17 12.5 27.5t26.5 11.5q52 1 104 0q17 -1 27.5 -11.5
t12.5 -27.5q1 -8 0 -16v-500q0 -17 2 -24.5t10 -10t25 -1.5h8q13 -1 25 0q15 0 20 5t5 20v511q0 9 1 17q2 16 12.5 26.5t25.5 11.5q51 1 102 0q14 -1 23.5 -8.5t12.5 -21.5z" />
    <glyph glyph-name="uacute" unicode="&#xfa;" horiz-adv-x="510" 
d="M509 179q0 -21 -2.5 -41.5t-9.5 -40.5q-11 -34 -34 -56.5t-57 -33.5q-23 -8 -47 -9q-81 -1 -162 0q-21 1 -40 7t-37 17q-48 29 -61 83q-8 33 -8 66q-1 209 -1 419v121q0 8 1 16q2 17 12.5 27.5t28.5 11.5q51 1 102 0q30 -1 37 -30q3 -15 3 -31v-500q0 -13 2 -19.5
t8.5 -8.5t19.5 -2h3q19 -1 38 0q13 0 18.5 5.5t5.5 18.5q1 7 0 14v499q0 8 1 16q2 17 12.5 27t27.5 11q49 1 98 0q28 -1 37 -28q4 -15 4 -31v-528zM248 833q-17 10 -20.5 22.5t5.5 30.5l32 56q6 10 13 21q4 8 9 16q11 21 24 42q11 19 23.5 22.5t31.5 -7.5q25 -14 50 -29
q8 -5 13 -12.5t5 -20.5q-1 -2 -2 -5q-2 -3 -4 -7t-5 -8q-26 -29 -53 -57q-12 -13 -23 -25q-8 -8 -15 -16q-11 -13 -23 -25q-9 -10 -19 -12t-22 4q-11 4 -20 10z" />
    <glyph glyph-name="ucircumflex" unicode="&#xfb;" 
d="M506 368q1 -101 0 -202q0 -31 -8 -61q-11 -42 -39 -67.5t-70 -34.5q-24 -5 -48 -5q-63 -2 -127 0q-32 1 -63 10q-34 10 -57 33t-34 57q-10 30 -10 63v566q1 18 11 28t28 11q51 1 103 0q19 -1 28.5 -11.5t10.5 -28.5q1 -8 1 -16v-496q0 -18 2 -26.5t10.5 -11t26.5 -1.5h9
q14 -1 28 0q11 1 15.5 5.5t5.5 15.5v516q0 9 1 19q1 15 10.5 24.5t24.5 9.5q53 2 106 0q15 0 24 -10t11 -25q1 -8 0 -17v-345zM154 831q-13 12 -25 25q-22 25 0 51l18 18q4 4 9 8q15 16 31 32l58 58q9 9 20 15q12 5 22.5 1.5t19.5 -12.5l36 -36l36 -36q6 -6 13 -12
q17 -17 32 -34q4 -4 7 -9t5 -9q1 -3 3 -5q-1 -15 -12.5 -30t-26.5 -24.5t-27 -9.5q-9 1 -15.5 5.5t-12.5 10.5l-38 38l-8 8q-2 1 -3 3q-4 3 -7 7q-7 6 -11 6t-10 -6q-15 -14 -29 -29l-18 -18l-2 -2q-8 -8 -17 -15q-12 -9 -24.5 -8.5t-23.5 9.5z" />
    <glyph glyph-name="udieresis" unicode="&#xfc;" 
d="M507 721q-1 -103 -1 -207v-355q0 -25 -5.5 -48.5t-18.5 -44.5q-21 -32 -50.5 -48.5t-66.5 -18.5q-43 -2 -86 -2.5t-86 2.5q-65 6 -101 44.5t-41 101.5q-1 14 -1 27v535q0 24 5 36.5t17.5 17.5t36.5 5h24q27 -1 53 0q21 1 33.5 -12t12.5 -34q-1 -182 -1 -364q1 -68 1 -136
q0 -3 -1 -6q0 -8 1 -17q1 -11 6.5 -16t16.5 -6q27 -1 54 0q10 1 14.5 5.5t5.5 15.5v527q2 42 43 43h36q27 -1 54 0q20 1 32.5 -12t12.5 -33zM366 816q-28 -1 -47.5 16.5t-20.5 49.5q-1 29 17.5 48.5t50.5 21.5q17 0 31.5 -7.5t24.5 -23t11 -37.5q-2 -30 -19 -48.5t-48 -19.5
zM193 815q-22 1 -37 11t-23 25t-8 33q0 15 7.5 30.5t23 26t36.5 11.5q18 0 33.5 -9.5t24.5 -25t10 -33.5q0 -18 -9.5 -34t-24.5 -25.5t-33 -9.5z" />
    <glyph glyph-name="OE" unicode="&#x152;" horiz-adv-x="756" 
d="M333 661q0 7 -1 14q-1 10 -6 14.5t-14 4.5q-32 1 -65 0q-8 0 -12 -4t-5 -13v-480q0 -15 5 -20t19 -5q26 -1 52 0q14 0 20 6t6 19q1 5 1 11v453zM717 175q21 0 30 -9t9 -30v-100q0 -20 -9 -29t-30 -9h-104q-206 0 -412 1q-42 0 -75 18t-55 55q-11 19 -16 40.5t-5 43.5v558
q0 24 6.5 47t19.5 44q16 25 40 40t53 20q26 5 52 5h500q17 -1 25.5 -9t8.5 -26q1 -24 0 -48q0 -30 1 -60q0 -12 -7.5 -22.5t-23.5 -13.5q-9 -1 -17 -1h-175q-6 1 -12 0q-9 0 -12 -3t-3 -12q-1 -10 0 -20v-109q-1 -14 3 -18t19 -3q38 -1 77 0h39q5 0 11 -1q19 0 29.5 -9
t11.5 -28q2 -53 0 -106q-1 -19 -11.5 -27.5t-30.5 -8.5h-131q-11 -1 -14 -3.5t-3 -12.5q-1 -69 0 -138q0 -9 4 -12t15 -3q36 -1 72 0h58q31 0 62 -1z" />
    <glyph glyph-name="oe" unicode="&#x153;" horiz-adv-x="760" 
d="M250 172q31 -3 63 0q13 0 18.5 6t5.5 20v363q0 18 -6.5 24.5t-24.5 7.5h-39q-18 0 -26.5 -3t-11 -11t-2.5 -25v-357q0 -13 5 -18.5t18 -6.5zM720 175q17 0 27 -8.5t12 -28.5v-98q0 -22 -10.5 -32.5t-33.5 -9.5q-250 -1 -501 0q-41 -1 -79 16q-37 18 -56.5 47.5
t-23.5 68.5q-4 38 -4 77q-1 191 0 383q0 22 3 43.5t11 41.5q13 32 36 52t55 30q31 10 64 9h503q16 -1 25.5 -10t9.5 -24q3 -54 0 -109q0 -18 -9 -26t-28 -8h-183q-14 0 -20 -1.5t-7.5 -7.5t-1.5 -20v-73q0 -14 3.5 -17.5t17.5 -3.5h131q34 -1 35 -34q1 -20 1 -40v-60
q0 -23 -10.5 -33t-33.5 -10h-112q-16 0 -22.5 -1.5t-8 -8t-1.5 -22.5v-63q0 -12 3.5 -16t16.5 -3h154q19 -1 37 0z" />
    <glyph glyph-name="endash" unicode="&#x2013;" horiz-adv-x="538" 
d="M455 304q22 0 44 1q15 0 24 7t13 22q2 8 2 16q1 42 0 84q0 9 -3 18q-7 26 -34 29h-414q-12 -2 -21 -9t-12 -19t-3 -24q-1 -36 0 -71q0 -14 4 -29q6 -22 30 -24q7 -1 15 -1h355z" />
    <glyph glyph-name="emdash" unicode="&#x2014;" horiz-adv-x="764" 
d="M713 304q8 0 15 1q23 2 30 24q3 9 4 18v18q1 37 0 74q-2 22 -13 32t-33 10h-621q-20 0 -31 -8.5t-13 -28.5q-1 -18 -1 -37t1 -38q1 -15 1 -30q0 -5 1 -9q7 -23 32 -25q7 -1 15 -1h613z" />
    <glyph glyph-name="quoteleft" unicode="&#x2018;" horiz-adv-x="228" 
d="M186 588q41 1 41 42v93q1 14 -4 24.5t-18 15.5q-6 3 -7 6.5t2 8.5l4 10l2 6q2 5 5 11q7 14 11 29q5 15 -2 24.5t-23 10.5h-48q-11 0 -19 -4.5t-14 -13.5q-10 -16 -20 -31q-17 -24 -32 -49q-5 -8 -8.5 -17.5t-3.5 -19.5q-3 -53 -1 -106q1 -19 12.5 -29t31.5 -11h91z" />
    <glyph glyph-name="quoteright" unicode="&#x2019;" horiz-adv-x="229" 
d="M226 828q0 21 -10 31t-31 10h-91q-23 0 -33.5 -10.5t-10.5 -33.5v-88q0 -13 4.5 -24t17.5 -17q8 -3 8.5 -8.5t-3.5 -11.5l-20 -46q-6 -17 1.5 -28.5t25.5 -12.5q10 -1 20 -1q11 1 22 0q24 -1 36 19l28 42q12 19 25 38q12 18 11 39v102z" />
    <glyph glyph-name="quotedblleft" unicode="&#x201c;" horiz-adv-x="455" 
d="M451 727q1 -50 0 -100q0 -18 -10 -28t-28 -10q-50 -2 -100 0q-18 0 -27.5 10t-10.5 28v70q1 16 0 32q-1 25 13 45q7 10 14 21q18 27 36 55q7 10 15.5 15t21.5 4h43q19 -1 26 -12t0 -28q-5 -14 -12 -28q-4 -8 -7 -15q-5 -11 -4 -15t11 -10q19 -12 19 -34zM206 762
q12 -5 17 -14.5t5 -22.5q-1 -24 -1 -48q1 -24 0 -48q0 -40 -41 -40q-47 -1 -94 0q-40 1 -41 41v52v0v0v10q1 10 0 20q-2 21 4 39.5t18 35.5q22 31 42 63l1 1q6 10 13.5 14.5t18.5 3.5h46q18 -1 25.5 -10.5t2.5 -26.5q-4 -12 -10 -24q-2 -5 -5 -11v-1q-3 -7 -7 -14
q-3 -6 -2.5 -11t8.5 -9z" />
    <glyph glyph-name="quotedblright" unicode="&#x201d;" horiz-adv-x="455" 
d="M227 831v-54v0v0v-50q0 -22 -12 -40q-5 -8 -11 -17q-18 -26 -35 -54q-9 -15 -21 -22.5t-30 -5.5q-9 1 -18 1q-6 -1 -11 -1q-23 1 -31 13.5t2 34.5q0 1 1 2q8 20 18 40q3 6 2 10.5t-8 7.5q-13 6 -18 16.5t-5 24.5v91q1 21 11 31t31 10h95q38 -1 40 -38zM451 820
q1 -16 0 -32v-53q1 -27 -14 -51q-26 -37 -51 -76q-13 -21 -38 -20q-11 1 -22 0q-10 0 -20 1q-30 1 -27 30q2 11 6 20q5 14 12 27q1 4 3 7q3 7 4 11t-2 6.5t-9 6.5q-18 12 -18 34v103q1 33 34 35h106q12 0 20 -6.5t12 -17.5q4 -12 4 -25z" />
    <glyph glyph-name="ellipsis" unicode="&#x2026;" horiz-adv-x="673" 
d="M672 71q1 -18 0 -36q0 -17 -9.5 -27t-26.5 -11q-51 -1 -102 0q-15 1 -25.5 11t-11.5 27q-2 52 0 104q0 14 8 22.5t22 11.5q13 3 27 4h64q13 -1 25 -3q15 -4 22 -12.5t7 -24.5q1 -19 0 -37v-29zM420 173q29 -6 30 -36q2 -50 0 -100q0 -19 -11 -29t-30 -11q-47 -1 -94 0
q-40 1 -40 42q-1 16 0 32v16q0 7 -1 14q0 18 1 36q0 16 7 24.5t24 12.5q11 2 23 3h66q12 -1 25 -4zM227 86v0v0v-50q-1 -18 -10.5 -28t-27.5 -11q-50 -1 -99 0q-19 1 -29 11.5t-10 28.5q-1 50 0 100q0 15 8 25t24 11q38 2 77 2h30q2 0 4 -1h2q15 -4 22.5 -12.5t7.5 -23.5
q1 -18 1 -36v-16z" />
    <glyph glyph-name="Euro" unicode="&#x20ac;" horiz-adv-x="593" 
d="M443 693h32q37 -1 74 0q38 1 40 38q1 45 0 90q-1 17 -10.5 27t-26.5 12q-26 3 -52 4q-75 3 -150 5h-6q-39 1 -77 0q-63 -4 -101 -54q-17 -23 -25 -48t-8 -53v-86q0 -7 -1 -10.5t-4.5 -5t-10.5 -2.5q-11 -3 -19.5 -8.5t-10.5 -17.5q-5 -23 -9 -46.5t-7 -47.5
q-1 -16 8.5 -25t26.5 -11h5q6 1 12 -1q2 -1 4.5 -3t4.5 -4q5 -13 -0.5 -22t-19.5 -9q-24 0 -36 -11t-15 -34v-2q0 -1 -1 -2q-1 -10 -3 -19q-3 -22 -7 -45q-1 -11 3 -21.5t13 -16.5t24 -5q12 0 25 -1q11 0 14.5 -3.5t3.5 -14.5v-59q0 -5 1 -11q0 -14 1 -27.5t3 -27.5
q5 -27 18.5 -50t36.5 -40q20 -14 42 -20.5t46 -7.5q25 0 49 2q14 1 28 1q68 3 137 5h19q15 0 31 1q44 2 44 46q1 41 0 82q0 17 -8.5 27t-25.5 13q-12 3 -24 3h-200q-11 0 -15.5 4.5t-5.5 15.5v38q0 10 1.5 15.5t6.5 7t16 1.5h79q15 0 24.5 6.5t12.5 19.5q10 46 14 93
q1 17 -7.5 26t-26.5 10q-9 1 -19 1h-83q-4 1 -8.5 2.5t-6.5 4.5q-7 12 -1.5 21.5t19.5 10.5h48q39 0 77 1q14 0 23.5 6.5t11.5 19.5q10 46 14 94q1 15 -7.5 24t-23.5 11h-141q-11 0 -15.5 1.5t-6 6t-1.5 15.5v29q0 18 6 24.5t25 5.5q36 1 72 1h30z" />
  </font>
</defs>
</svg>
